osu file format v14

[General]
AudioFilename: audio.mp3
AudioLeadIn: 0
PreviewTime: 83429
Countdown: 0
SampleSet: Soft
StackLeniency: 0.7
Mode: 2
LetterboxInBreaks: 0
WidescreenStoryboard: 1

[Editor]
Bookmarks: 26958
DistanceSpacing: 1
BeatDivisor: 4
GridSize: 4
TimelineZoom: 2.4

[Metadata]
Title:Yakumo >>JOINT STRUGGLE
TitleUnicode:Yakumo >>JOINT STRUGGLE
Artist:Kucchi vs. Akki
ArtistUnicode:くっちー vs. あっきー
Creator:Kukkai
Version:Overdose
Source:THE BMS OF FIGHTERS 2009 - revolutionary battles -
Tags:bigh bighzonda th07 th7 stage ran chen 藍 橙 versus Necrofantasia 上海アリス弦樂団 Yukari 八雲紫 東方妖々夢 ~ Perfect Cherry Blossom. BOF2009 Touhou 東方project Youyoumu SUKIMA TOUR 少女幻葬 Shoujo Gensou Necro-Fantasy ネクロファンタジア Necro Phantasia ティアオイエツォン Diao ye zong Withered Leaf ZUN Team Shanghai Alice Video Game Instrumental
BeatmapID:3800043
BeatmapSetID:1717009

[Difficulty]
HPDrainRate:6
CircleSize:4
OverallDifficulty:9.4
ApproachRate:9.4
SliderMultiplier:2
SliderTickRate:2

[Events]
//Background and Video events
0,0,"bggggggggg.jpg",0,0
//Break Periods
//Storyboard Layer 0 (Background)
//Storyboard Layer 1 (Fail)
//Storyboard Layer 2 (Pass)
//Storyboard Layer 3 (Foreground)
//Storyboard Layer 4 (Overlay)
//Storyboard Sound Samples

[TimingPoints]
1290,320.855614973262,4,2,1,50,1,0
6423,-100,4,2,1,60,0,0
16691,-90.9090909090909,4,2,1,60,0,0
26958,-90.9090909090909,4,2,1,50,0,0
78295,-90.9090909090909,4,2,1,55,0,0
83429,-90.9090909090909,4,2,1,35,0,0
84712,-90.9090909090909,4,2,1,60,0,1
103963,-90.9090909090909,4,2,1,60,0,0
105568,-90.9090909090909,4,2,1,60,0,1
125781,-90.9090909090909,4,2,1,60,0,0

[Colours]
Combo1 : 150,101,180
Combo2 : 208,39,45
Combo3 : 211,186,118
Combo4 : 87,164,131

[HitObjects]
272,348,1290,6,0,L|272:224,1,100,0|0,1:2|0:2,0:0:0:0:
412,244,1610,2,0,L|492:244,2,50,0|0|0,1:2|0:2|0:2,0:0:0:0:
272,248,1931,2,0,L|348:248,1,50,0|0,1:2|0:2,0:0:0:0:
180,252,2172,2,0,L|180:164,1,50,0|0,0:2|1:2,0:0:0:0:
320,204,2412,1,0,0:2:0:0:
180,200,2573,6,0,L|116:200,2,50,0|0|0,1:2|0:2|0:2,0:0:0:0:
320,204,2894,2,0,L|320:144,1,50,0|0,1:2|0:2,0:0:0:0:
268,152,3054,1,0,0:2:0:0:
408,152,3215,2,0,L|476:152,1,50,0|0,1:2|0:2,0:0:0:0:
320,152,3455,2,0,L|320:80,1,50,0|0,0:2|1:2,0:0:0:0:
180,104,3696,1,0,0:2:0:0:
320,100,3856,6,0,L|384:100,2,50,0|0|0,1:2|0:2|0:2,0:0:0:0:
180,104,4177,2,0,L|116:104,2,50,0|0|0,1:2|0:2|0:2,0:0:0:0:
320,100,4498,2,0,L|320:32,1,50,0|0,1:2|0:2,0:0:0:0:
268,44,4658,2,0,L|184:44,2,50,0|0|0,0:2|0:2|1:2,0:0:0:0:
408,44,4979,1,0,0:2:0:0:
268,44,5140,5,0,0:2:0:0:
408,44,5300,1,0,0:2:0:0:
144,264,5461,2,0,L|12:264,1,100,4|0,1:2|0:2,0:0:0:0:
96,264,5701,1,0,0:2:0:0:
256,268,5781,6,0,L|256:192,1,50,4|0,1:2|0:2,0:0:0:0:
196,212,5942,2,0,L|196:136,1,50,0|0,0:2|0:2,0:0:0:0:
344,148,6102,2,0,L|344:96,1,50,4|0,1:2|0:2,0:0:0:0:
292,96,6263,2,0,L|212:96,1,50,0|0,0:2|0:2,0:0:0:0:
400,44,6423,6,0,L|512:44,2,100,4|0|8,1:1|0:2|1:2,0:0:0:0:
172,364,6904,2,0,L|172:240,1,100,2|0,0:2|1:2,0:0:0:0:
324,268,7225,2,0,L|324:168,1,100,2|8,0:2|1:2,0:0:0:0:
100,180,7546,6,0,L|-16:180,1,100,2|0,0:2|1:2,0:0:0:0:
152,180,7867,2,0,L|32:180,1,100,2|8,0:2|1:2,0:0:0:0:
280,248,8188,2,0,L|408:248,1,100,2|8,0:2|1:2,0:0:0:0:
228,248,8509,2,0,L|344:248,1,100,0|8,0:2|1:2,0:0:0:0:
88,224,8830,1,2,1:2:0:0:
328,248,8990,5,2,1:2:0:0:
228,248,9150,1,0,0:2:0:0:
128,248,9310,1,8,1:2:0:0:
356,208,9471,2,0,L|356:96,1,100,2|0,0:2|1:2,0:0:0:0:
204,108,9792,2,0,L|308:108,1,100,2|8,0:2|1:2,0:0:0:0:
76,232,10113,1,2,0:2:0:0:
196,232,10273,5,0,1:2:0:0:
76,232,10434,1,0,0:2:0:0:
316,236,10594,2,0,P|328:176|232:140,1,150,12|0,1:2|0:2,0:0:0:0:
88,136,10915,2,0,L|16:136,2,50,12|0|0,1:2|1:2|1:2,0:0:0:0:
312,88,11236,1,12,1:2:0:0:
88,136,11396,1,0,1:2:0:0:
336,264,11557,6,0,L|440:264,2,100,4|0|8,1:1|0:2|1:2,0:0:0:0:
112,344,12038,2,0,L|224:344,1,100,2|0,0:2|1:2,0:0:0:0:
60,344,12359,2,0,L|60:228,1,100,2|8,0:2|1:2,0:0:0:0:
296,240,12680,6,0,L|296:124,1,100,2|0,0:2|1:2,0:0:0:0:
144,144,13001,2,0,L|144:40,1,100,2|8,0:2|1:2,0:0:0:0:
368,44,13322,2,0,L|488:44,1,100,2|8,0:2|1:2,0:0:0:0:
320,44,13642,2,0,L|452:44,1,100,0|8,0:2|1:2,0:0:0:0:
180,136,13963,1,2,1:2:0:0:
400,72,14124,6,0,L|512:72,2,100,2|0|8,1:2|0:2|1:2,0:0:0:0:
144,336,14605,2,0,L|32:336,1,100,2|0,0:2|1:2,0:0:0:0:
196,336,14926,2,0,L|68:336,1,100,2|8,0:2|1:2,0:0:0:0:
336,196,15247,1,2,0:2:0:0:
216,196,15407,5,0,1:2:0:0:
336,196,15568,1,0,0:2:0:0:
88,224,15728,2,0,P|88:160|188:128,1,150,12|0,1:2|0:0,0:0:0:0:
352,116,16049,2,0,L|408:116,2,50,12|0|0,1:2|1:2|1:2,0:0:0:0:
132,72,16370,1,12,1:2:0:0:
352,116,16530,1,0,1:2:0:0:
132,72,16691,6,0,L|16:72,2,110.000003356934,4|0|8,1:1|0:2|1:2,0:0:0:0:
352,226,17172,2,0,L|352:106,1,110.000003356934,2|0,0:2|1:2,0:0:0:0:
132,228,17493,2,0,L|132:104,1,110.000003356934,2|8,0:2|1:2,0:0:0:0:
352,224,17814,6,0,L|476:224,1,110.000003356934,2|0,0:2|1:2,0:0:0:0:
240,192,18134,2,0,L|380:192,1,110.000003356934,2|8,0:2|1:2,0:0:0:0:
124,136,18455,2,0,L|4:136,1,110.000003356934,2|8,0:2|1:2,0:0:0:0:
236,76,18776,2,0,L|88:76,1,110.000003356934,0|8,0:2|1:2,0:0:0:0:
356,76,19097,1,2,1:2:0:0:
126,76,19257,5,2,1:2:0:0:
236,76,19417,1,0,0:2:0:0:
346,76,19577,1,8,1:2:0:0:
120,348,19739,2,0,L|120:232,1,110.000003356934,2|0,0:2|1:2,0:0:0:0:
344,240,20060,2,0,L|472:240,1,110.000003356934,2|8,0:2|1:2,0:0:0:0:
216,236,20380,6,0,L|216:112,1,110.000003356934,2|0,0:2|1:2,0:0:0:0:
348,132,20701,1,0,0:2:0:0:
124,136,20862,2,0,L|0:136,1,110.000003356934,12|0,1:2|0:2,0:0:0:0:
244,72,21183,2,0,L|312:72,2,55.0000016784668,12|0|0,1:2|1:2|1:2,0:0:0:0:
16,136,21503,1,12,1:2:0:0:
248,72,21664,1,0,1:2:0:0:
16,136,21824,6,0,L|148:136,2,110.000003356934,4|0|8,1:1|0:2|1:2,0:0:0:0:
252,320,22306,2,0,L|132:320,1,110.000003356934,2|0,0:2|1:2,0:0:0:0:
368,264,22626,2,0,L|488:264,1,110.000003356934,2|8,0:2|1:2,0:0:0:0:
252,216,22947,6,0,L|252:88,1,110.000003356934,2|0,0:2|1:2,0:0:0:0:
480,264,23268,2,0,L|480:144,1,110.000003356934,2|8,0:2|1:2,0:0:0:0:
256,216,23589,2,0,L|140:216,1,110.000003356934,2|8,0:2|1:2,0:0:0:0:
368,220,23910,2,0,L|368:88,1,110.000003356934,0|8,0:2|1:2,0:0:0:0:
140,152,24231,1,2,1:2:0:0:
368,220,24391,6,0,L|504:220,2,110.000003356934,2|0|8,1:2|0:2|1:2,0:0:0:0:
140,152,24872,2,0,L|20:152,1,110.000003356934,2|0,0:2|1:2,0:0:0:0:
260,136,25193,2,0,L|124:136,1,110.000003356934,2|8,0:2|1:2,0:0:0:0:
380,300,25514,1,2,0:2:0:0:
156,152,25675,6,0,L|36:152,3,110.000003356934,0|0|8|0,1:2|0:2|1:2|0:0,0:0:0:0:
280,344,26316,6,0,L|352:344,1,55.0000016784668,8|0,1:2|1:2,0:0:0:0:
168,284,26477,2,0,L|104:284,1,55.0000016784668,0|0,1:2|0:2,0:0:0:0:
276,232,26637,2,0,L|340:232,1,55.0000016784668,8|0,1:2|0:2,0:0:0:0:
492,188,26798,2,0,L|420:188,1,55.0000016784668,0|0,1:2|0:2,0:0:0:0:
272,172,26958,6,0,L|144:172,1,110.000003356934,4|0,1:1|0:2,0:0:0:0:
384,112,27279,1,10,1:2:0:0:
164,172,27439,2,0,L|96:172,2,55.0000016784668,0|0|2,0:2|0:2|1:2,0:0:0:0:
296,172,27760,1,0,0:2:0:0:
48,288,27921,2,0,L|48:168,1,110.000003356934,10|0,1:2|0:2,0:0:0:0:
284,124,28241,5,2,1:2:0:0:
152,124,28402,1,0,0:2:0:0:
388,64,28562,2,0,L|452:64,2,55.0000016784668,14|2|2,1:2|0:2|0:2,0:0:0:0:
160,72,28883,1,14,1:2:0:0:
160,72,29204,2,0,L|160:152,2,55.0000016784668,2|0|0,0:2|0:2|0:2,0:0:0:0:
388,264,29525,6,0,L|508:264,1,110.000003356934,6|0,1:1|0:2,0:0:0:0:
248,200,29846,1,10,1:2:0:0:
380,200,30006,1,0,0:2:0:0:
144,168,30167,2,0,L|76:168,1,55.0000016784668,2|0,1:2|0:2,0:0:0:0:
260,112,30327,1,14,1:2:0:0:
32,64,30648,1,14,1:2:0:0:
260,52,30969,1,2,1:2:0:0:
32,64,31129,6,0,L|32:184,1,110.000003356934,14|0,1:2|0:2,0:0:0:0:
288,176,31450,2,0,L|384:176,1,55.0000016784668,14|2,1:2|1:2,0:0:0:0:
120,140,31691,2,0,L|120:64,1,55.0000016784668,2|14,1:2|1:2,0:0:0:0:
256,84,31931,1,2,1:2:0:0:
24,220,32092,6,0,L|156:220,2,110.000003356934,4|0|10,1:1|0:2|1:2,0:0:0:0:
260,296,32573,2,0,L|336:296,1,55.0000016784668,6|2,0:2|0:2,0:0:0:0:
144,256,32733,2,0,L|144:144,1,110.000003356934,2|0,1:2|0:2,0:0:0:0:
288,144,33054,1,10,1:2:0:0:
56,68,33215,6,0,L|0:68,2,55.0000016784668,0|0|2,0:2|0:2|1:2,0:0:0:0:
288,196,33535,2,0,L|428:196,1,110.000003356934,12|10,0:2|1:2,0:0:0:0:
160,148,33856,2,0,L|288:148,1,110.000003356934,4|10,0:2|1:2,0:0:0:0:
40,248,34177,2,0,L|40:120,1,110.000003356934,4|10,0:2|1:2,0:0:0:0:
272,136,34498,1,4,0:2:0:0:
36,80,34658,5,6,1:1:0:0:
91,80,34738,1,2,0:2:0:0:
146,80,34818,1,2,0:2:0:0:
376,76,34979,2,0,L|500:76,1,110.000003356934,10|0,1:2|0:2,0:0:0:0:
260,284,35300,2,0,L|196:284,2,55.0000016784668,2|2|2,1:2|0:2|0:2,0:0:0:0:
316,284,35541,2,0,L|316:204,1,55.0000016784668,2|2,0:2|1:2,0:0:0:0:
96,188,35781,1,6,1:2:0:0:
240,140,35942,5,0,1:2:0:0:
12,100,36102,1,12,1:2:0:0:
240,140,36263,2,0,L|240:24,1,110.000003356934,12|0,1:2|0:2,0:0:0:0:
12,100,36584,2,0,L|88:100,1,55.0000016784668,12|0,1:2|1:2,0:0:0:0:
308,308,36824,2,0,L|308:236,1,55.0000016784668,0|14,1:2|1:2,0:0:0:0:
168,248,37065,1,2,1:2:0:0:
408,104,37225,6,0,L|292:104,2,110.000003356934,4|0|10,1:1|0:2|1:2,0:0:0:0:
180,172,37707,2,0,L|180:84,1,55.0000016784668,0|0,0:2|0:2,0:0:0:0:
344,248,37867,2,0,L|208:248,1,110.000003356934,2|0,1:2|0:2,0:0:0:0:
460,212,38188,2,0,L|460:80,1,110.000003356934,10|0,1:2|0:2,0:0:0:0:
220,96,38509,5,2,1:2:0:0:
352,96,38669,1,0,0:2:0:0:
120,48,38830,2,0,L|56:48,2,55.0000016784668,14|2|2,1:2|0:2|0:2,0:0:0:0:
352,96,39150,1,14,1:2:0:0:
352,96,39471,1,2,0:2:0:0:
352,96,39552,1,0,0:2:0:0:
352,96,39632,1,0,0:2:0:0:
128,304,39792,5,4,1:1:0:0:
260,304,39952,1,0,0:2:0:0:
24,260,40113,2,0,L|24:144,1,110.000003356934,10|0,1:2|0:2,0:0:0:0:
256,148,40434,2,0,L|324:148,1,55.0000016784668,2|0,1:2|0:2,0:0:0:0:
152,100,40594,1,14,1:2:0:0:
372,100,40915,1,14,1:2:0:0:
152,100,41236,1,2,1:2:0:0:
372,100,41396,6,0,L|372:220,1,110.000003356934,6|0,1:2|0:2,0:0:0:0:
144,332,41717,2,0,L|72:332,1,55.0000016784668,14|2,1:2|1:2,0:0:0:0:
320,268,41958,2,0,L|232:268,1,55.0000016784668,2|14,1:2|1:2,0:0:0:0:
132,268,42199,1,2,1:2:0:0:
376,208,42359,6,0,L|256:208,2,110.000003356934,4|0|10,1:1|0:2|1:2,0:0:0:0:
156,160,42840,2,0,L|224:160,1,55.0000016784668,6|2,0:2|0:2,0:0:0:0:
372,96,43001,1,2,1:2:0:0:
240,92,43161,2,0,L|240:224,1,110.000003356934,0|10,0:2|1:2,0:0:0:0:
464,208,43482,2,0,L|464:124,1,55.0000016784668,2|2,0:2|0:2,0:0:0:0:
408,152,43642,1,2,1:2:0:0:
156,364,43803,6,0,L|16:360,1,110.000003356934,12|10,0:2|1:2,0:0:0:0:
280,292,44124,2,0,L|152:292,1,110.000003356934,4|10,0:2|1:2,0:0:0:0:
400,288,44445,2,0,L|400:164,1,110.000003356934,4|10,0:2|1:2,0:0:0:0:
176,292,44765,1,4,0:2:0:0:
404,288,44926,6,0,L|464:288,2,55.0000016784668,6|2|2,1:1|0:2|0:2,0:0:0:0:
176,224,45247,1,10,1:2:0:0:
308,224,45407,1,0,0:2:0:0:
76,176,45568,2,0,L|76:104,1,55.0000016784668,2|2,1:2|0:2,0:0:0:0:
131,121,45728,1,2,0:2:0:0:
76,121,45808,1,2,0:2:0:0:
21,121,45888,1,2,1:2:0:0:
272,340,46049,1,2,1:2:0:0:
140,340,46209,5,0,1:2:0:0:
376,268,46370,1,8,1:2:0:0:
140,340,46530,2,0,L|140:216,1,110.000003356934,8|0,1:2|0:2,0:0:0:0:
376,200,46851,2,0,L|432:200,1,55.0000016784668,8|0,1:2|1:2,0:0:0:0:
264,152,47011,2,0,L|188:152,1,55.0000016784668,0|0,0:2|1:2,0:0:0:0:
372,80,47172,2,0,L|296:80,1,55.0000016784668,8|0,1:2|0:2,0:0:0:0:
152,80,47332,2,0,L|84:80,1,55.0000016784668,0|0,1:2|0:2,0:0:0:0:
264,348,47493,6,0,L|384:348,1,110.000003356934,6|0,0:1|0:2,0:0:0:0:
148,280,47814,2,0,L|148:196,1,55.0000016784668,10|0,1:2|0:2,0:0:0:0:
204,224,47974,1,0,0:2:0:0:
336,224,48134,1,2,1:2:0:0:
392,224,48215,2,0,L|392:144,1,55.0000016784668,0|0,0:2|0:2,0:0:0:0:
160,116,48455,2,0,L|284:116,1,110.000003356934,10|2,1:2|0:2,0:0:0:0:
40,344,48776,6,0,L|40:228,1,110.000003356934,2|2,1:2|0:2,0:0:0:0:
288,232,49097,1,10,1:2:0:0:
60,160,49418,1,8,1:2:0:0:
288,232,49739,2,0,P|328:188|264:116,1,165.000005035401,8|0,1:2|0:2,0:0:0:0:
104,112,50060,5,2,1:2:0:0:
48,112,50140,1,0,0:2:0:0:
48,112,50220,1,0,0:2:0:0:
104,112,50300,1,0,0:2:0:0:
268,320,50380,1,10,1:2:0:0:
268,264,50461,1,0,0:2:0:0:
212,264,50541,1,0,0:2:0:0:
212,208,50621,1,0,0:2:0:0:
376,172,50701,6,0,L|296:172,1,55.0000016784668,2|0,1:2|0:2,0:0:0:0:
156,168,50862,2,0,L|92:168,1,55.0000016784668,2|0,0:2|0:2,0:0:0:0:
264,112,51022,2,0,L|336:112,1,55.0000016784668,10|0,1:2|0:2,0:0:0:0:
264,112,51183,2,0,L|176:112,1,55.0000016784668,2|0,0:2|0:2,0:0:0:0:
372,352,51343,6,0,L|372:272,1,55.0000016784668,2|0,1:2|0:2,0:0:0:0:
308,296,51503,2,0,L|308:216,1,55.0000016784668,0|0,0:2|0:2,0:0:0:0:
484,200,51664,2,0,L|400:200,1,55.0000016784668,10|0,1:2|0:2,0:0:0:0:
264,208,51824,2,0,L|264:128,1,55.0000016784668,0|0,0:2|0:2,0:0:0:0:
428,140,51985,5,10,1:2:0:0:
204,324,52306,2,0,P|148:296|208:240,1,165.000005035401,8|0,1:2|0:2,0:0:0:0:
384,232,52626,5,6,1:1:0:0:
440,232,52707,1,0,0:2:0:0:
496,232,52787,1,0,0:2:0:0:
440,232,52867,1,0,0:2:0:0:
272,176,52947,1,10,1:2:0:0:
328,176,53027,1,0,0:2:0:0:
384,176,53108,1,0,0:2:0:0:
328,176,53188,1,0,0:2:0:0:
160,144,53268,6,0,L|160:64,1,55.0000016784668,2|0,1:2|0:2,0:0:0:0:
216,88,53429,2,0,L|312:88,1,55.0000016784668,0|0,0:2|0:2,0:0:0:0:
120,268,53589,2,0,L|8:268,1,110.000003356934,10|2,1:2|0:2,0:0:0:0:
248,268,53910,6,0,L|248:192,1,55.0000016784668,2|0,1:2|0:2,0:0:0:0:
192,212,54070,2,0,L|108:212,1,55.0000016784668,2|0,0:2|0:2,0:0:0:0:
308,160,54231,2,0,L|384:160,1,55.0000016784668,10|0,1:2|0:2,0:0:0:0:
196,96,54391,2,0,L|128:96,1,55.0000016784668,2|0,0:2|0:2,0:0:0:0:
288,40,54552,6,0,L|356:40,1,55.0000016784668,10|0,1:2|0:2,0:0:0:0:
492,112,54712,2,0,L|416:112,1,55.0000016784668,2|0,0:2|0:2,0:0:0:0:
252,344,54872,2,0,L|184:344,1,55.0000016784668,10|0,1:2|0:2,0:0:0:0:
142,344,55033,2,0,L|222:344,1,55.0000016784668,2|0,0:2|0:2,0:0:0:0:
364,296,55193,6,0,L|364:176,1,110.000003356934,4|0,1:2|0:2,0:0:0:0:
200,176,55434,2,0,L|200:56,1,110.000003356934,4|0,1:2|0:2,0:0:0:0:
364,180,55675,2,0,L|364:56,1,110.000003356934,4|0,1:2|0:2,0:0:0:0:
200,180,55915,2,0,L|200:52,1,110.000003356934,4|0,1:2|0:2,0:0:0:0:
364,296,56156,5,4,1:2:0:0:
472,296,56316,1,4,1:2:0:0:
364,296,56477,1,4,1:2:0:0:
192,228,56557,6,0,L|324:228,1,110.000003356934,4|0,1:2|0:2,0:0:0:0:
468,168,56798,2,0,L|348:168,1,110.000003356934,4|0,1:2|0:2,0:0:0:0:
192,176,57038,2,0,L|324:176,1,110.000003356934,4|0,1:2|0:2,0:0:0:0:
472,104,57279,1,4,1:2:0:0:
216,72,57439,1,4,1:2:0:0:
348,72,57600,1,4,1:2:0:0:
104,348,57760,6,0,L|104:236,1,110.000003356934,6|0,1:1|0:2,0:0:0:0:
340,272,58081,2,0,L|408:272,2,55.0000016784668,10|0|0,1:2|0:2|0:2,0:0:0:0:
204,272,58402,1,2,1:2:0:0:
259,272,58482,1,0,0:2:0:0:
314,272,58562,1,0,0:2:0:0:
72,220,58723,2,0,L|72:100,1,110.000003356934,10|2,1:2|0:2,0:0:0:0:
304,136,59044,6,0,L|164:136,1,110.000003356934,2|2,1:2|0:2,0:0:0:0:
424,80,59364,2,0,L|492:80,2,55.0000016784668,10|2|2,1:2|0:2|0:2,0:0:0:0:
180,368,59685,2,0,L|180:280,1,55.0000016784668,10|0,1:2|0:2,0:0:0:0:
236,316,59846,2,0,L|324:316,1,55.0000016784668,0|0,0:2|0:2,0:0:0:0:
128,240,60006,2,0,L|60:240,1,55.0000016784668,10|0,1:2|0:2,0:0:0:0:
240,172,60167,2,0,L|324:172,1,55.0000016784668,0|0,0:2|0:2,0:0:0:0:
128,112,60327,5,2,1:2:0:0:
72,112,60407,1,0,0:2:0:0:
16,112,60487,1,2,0:2:0:0:
72,112,60568,1,0,0:2:0:0:
236,352,60648,2,0,L|236:276,1,55.0000016784668,8|0,1:2|0:2,0:0:0:0:
168,272,60808,2,0,L|168:192,1,55.0000016784668,2|0,0:2|0:2,0:0:0:0:
336,212,60969,6,0,L|400:212,1,55.0000016784668,2|0,1:2|0:2,0:0:0:0:
224,144,61129,2,0,L|144:144,1,55.0000016784668,2|0,0:2|0:2,0:0:0:0:
336,144,61290,2,0,L|336:80,1,55.0000016784668,10|0,1:2|0:2,0:0:0:0:
280,88,61450,2,0,L|208:88,1,55.0000016784668,2|0,0:2|0:2,0:0:0:0:
388,40,61610,5,6,1:2:0:0:
444,40,61691,1,0,0:2:0:0:
500,40,61771,1,2,0:2:0:0:
444,40,61851,1,0,0:2:0:0:
276,296,61931,2,0,L|188:296,1,55.0000016784668,14|0,1:2|0:2,0:0:0:0:
392,228,62092,2,0,L|456:228,1,55.0000016784668,2|0,0:2|0:2,0:0:0:0:
280,232,62252,6,0,L|200:232,1,55.0000016784668,14|0,1:2|0:2,0:0:0:0:
56,172,62412,2,0,L|120:172,1,55.0000016784668,2|0,0:2|0:2,0:0:0:0:
280,164,62573,1,10,1:2:0:0:
314,154,62626,1,0,0:2:0:0:
336,125,62679,1,0,0:2:0:0:
334,90,62733,1,0,0:2:0:0:
311,62,62786,1,0,0:2:0:0:
275,56,62840,1,0,0:2:0:0:
128,60,62894,5,4,1:1:0:0:
72,60,62974,1,0,0:2:0:0:
16,60,63054,1,0,0:2:0:0:
72,60,63134,1,0,0:2:0:0:
240,360,63215,1,10,1:2:0:0:
296,360,63295,1,0,0:2:0:0:
240,360,63375,1,0,0:2:0:0:
184,360,63455,1,0,0:2:0:0:
348,312,63535,5,2,1:2:0:0:
348,256,63616,1,0,0:2:0:0:
292,256,63696,1,0,0:2:0:0:
236,256,63776,1,0,0:2:0:0:
404,200,63856,2,0,L|520:200,1,110.000003356934,10|2,1:2|0:2,0:0:0:0:
260,164,64177,6,0,L|260:48,1,110.000003356934,2|2,1:2|0:2,0:0:0:0:
316,56,64418,1,0,0:2:0:0:
480,60,64498,2,0,L|416:60,1,55.0000016784668,10|0,1:2|0:2,0:0:0:0:
256,276,64658,2,0,L|176:276,1,55.0000016784668,2|0,0:2|0:2,0:0:0:0:
32,232,64819,6,0,L|124:232,1,55.0000016784668,10|0,1:2|0:2,0:0:0:0:
252,224,64979,2,0,L|252:144,1,55.0000016784668,2|0,0:2|0:2,0:0:0:0:
84,152,65140,2,0,L|24:152,1,55.0000016784668,10|0,1:2|0:2,0:0:0:0:
29,152,65300,2,0,L|113:152,1,55.0000016784668,2|0,0:2|0:2,0:0:0:0:
264,364,65461,6,0,L|264:248,1,110.000003356934,4|0,1:2|0:2,0:0:0:0:
92,252,65701,2,0,L|92:128,1,110.000003356934,4|0,1:2|0:2,0:0:0:0:
264,256,65942,2,0,L|264:140,1,110.000003356934,4|0,1:2|0:2,0:0:0:0:
432,176,66183,2,0,L|432:56,1,110.000003356934,4|0,1:2|0:2,0:0:0:0:
264,256,66423,5,4,1:2:0:0:
152,256,66584,1,4,1:2:0:0:
264,256,66744,1,4,1:2:0:0:
432,196,66824,6,0,L|308:196,1,110.000003356934,4|0,1:2|0:2,0:0:0:0:
152,128,67065,2,0,L|276:128,1,110.000003356934,4|0,1:2|0:2,0:0:0:0:
432,196,67306,2,0,L|308:196,1,110.000003356934,4|0,1:2|0:2,0:0:0:0:
152,128,67546,1,4,1:2:0:0:
380,88,67707,1,4,1:2:0:0:
248,56,67867,1,4,1:2:0:0:
492,280,68027,6,0,L|492:128,1,110.000003356934,6|0,1:1|0:2,0:0:0:0:
436,172,68268,1,2,0:2:0:0:
280,128,68348,1,8,1:2:0:0:
420,128,68509,2,0,L|348:128,1,55.0000016784668,2|0,0:2|0:0,0:0:0:0:
168,232,68669,2,0,L|328:232,1,110.000003356934,2|0,1:2|0:2,0:0:0:0:
332,232,68910,1,2,0:2:0:0:
278,232,68990,1,8,1:2:0:0:
48,228,69150,6,0,L|48:112,1,110.000003356934,2|0,0:2|1:2,0:0:0:0:
104,116,69391,1,2,0:2:0:0:
272,60,69471,1,2,0:2:0:0:
160,60,69632,1,10,1:2:0:0:
272,60,69792,1,2,0:2:0:0:
36,208,69953,2,0,L|156:208,1,110.000003356934,10|0,1:2|0:2,0:0:0:0:
200,208,70193,2,0,L|84:208,1,110.000003356934,2|0,0:2|0:0,0:0:0:0:
36,212,70434,1,2,0:2:0:0:
284,356,70594,6,0,P|300:300|264:244,1,110.000003356934,2|0,1:2|0:2,0:0:0:0:
128,260,70835,2,0,L|276:260,1,110.000003356934,2|0,0:2|0:0,0:0:0:0:
400,260,71076,1,2,0:2:0:0:
156,172,71236,2,0,L|288:172,1,110.000003356934,2|0,1:2|0:2,0:0:0:0:
320,172,71477,2,0,L|192:172,1,110.000003356934,2|0,0:2|0:0,0:0:0:0:
156,176,71717,1,2,0:2:0:0:
396,348,71878,6,0,P|408:288|376:240,1,110.000003356934,0|2,1:2|0:2,0:0:0:0:
332,248,72118,1,2,0:2:0:0:
168,248,72199,1,10,1:2:0:0:
296,196,72359,1,2,0:2:0:0:
64,196,72519,2,0,P|52:136|80:88,1,110.000003356934,10|0,1:2|0:2,0:0:0:0:
128,92,72760,1,2,0:2:0:0:
288,52,72840,1,8,1:2:0:0:
160,36,73001,1,2,0:2:0:0:
416,304,73161,6,0,L|488:304,1,55.0000016784668,4|2,1:1|0:2,0:0:0:0:
328,304,73402,2,0,L|328:232,1,55.0000016784668,2|10,0:2|1:2,0:0:0:0:
184,248,73642,2,0,L|96:248,1,55.0000016784668,2|2,0:2|0:2,0:0:0:0:
292,148,73803,2,0,L|452:68,2,165.000005035401,2|2|2,1:2|0:2|0:2,0:0:0:0:
64,272,74445,6,0,L|64:204,1,55.0000016784668,4|2,1:1|0:2,0:0:0:0:
208,212,74686,2,0,L|140:212,1,55.0000016784668,2|10,0:2|1:2,0:0:0:0:
296,212,74926,2,0,L|384:212,1,55.0000016784668,2|2,0:2|0:2,0:0:0:0:
192,84,75087,2,0,L|40:4,2,165.000005035401,2|2|2,1:2|0:2|0:2,0:0:0:0:
432,168,75728,6,0,L|296:168,2,110.000003356934,4|2|10,1:1|0:2|1:2,0:0:0:0:
176,112,76209,1,2,0:2:0:0:
404,168,76370,2,0,L|268:168,2,110.000003356934,4|2|10,1:1|0:2|1:2,0:0:0:0:
148,112,76851,1,2,0:2:0:0:
376,168,77011,6,0,L|240:168,2,110.000003356934,4|2|10,1:1|0:2|1:2,0:0:0:0:
120,112,77492,1,2,0:2:0:0:
344,168,77653,2,0,L|208:168,2,110.000003356934,4|2|10,1:1|0:2|1:2,0:0:0:0:
88,112,78134,1,2,0:2:0:0:
344,112,78295,6,0,L|464:112,1,110.000003356934,4|2,1:1|1:2,0:0:0:0:
400,112,78535,1,2,0:2:0:0:
228,292,78616,2,0,L|380:292,1,110.000003356934,4|2,1:1|1:2,0:0:0:0:
392,292,78856,1,2,0:2:0:0:
208,220,78937,6,0,L|80:220,1,110.000003356934,4|2,1:1|1:2,0:0:0:0:
152,216,79177,1,2,0:2:0:0:
316,152,79257,2,0,L|172:152,1,110.000003356934,4|2,1:1|1:2,0:0:0:0:
152,152,79498,1,2,0:2:0:0:
336,352,79578,6,0,P|360:292|320:252,1,110.000003356934,4|2,1:1|1:2,0:0:0:0:
280,260,79819,1,2,0:2:0:0:
112,212,79899,2,0,L|256:212,1,110.000003356934,4|2,1:1|1:2,0:0:0:0:
276,212,80140,1,2,0:2:0:0:
112,152,80220,6,0,L|-4:152,1,110.000003356934,4|2,1:1|1:2,0:0:0:0:
56,152,80461,1,2,0:2:0:0:
224,80,80541,2,0,L|80:80,1,110.000003356934,4|0,1:1|0:0,0:0:0:0:
60,84,80781,1,2,0:2:0:0:
228,368,80862,6,0,L|228:296,1,55.0000016784668,4|0,1:2|1:2,0:0:0:0:
172,316,81022,2,0,L|80:316,1,55.0000016784668,4|0,1:2|1:2,0:0:0:0:
288,304,81183,2,0,L|216:304,1,55.0000016784668,4|0,1:2|1:2,0:0:0:0:
180,304,81343,2,0,L|180:232,1,55.0000016784668,4|0,1:2|1:2,0:0:0:0:
344,224,81503,6,0,L|344:144,1,55.0000016784668,4|0,1:2|1:2,0:0:0:0:
288,172,81664,2,0,L|232:172,1,55.0000016784668,4|0,1:2|1:2,0:0:0:0:
396,160,81824,2,0,L|328:160,1,55.0000016784668,4|0,1:2|1:2,0:0:0:0:
284,160,81985,2,0,L|284:72,1,55.0000016784668,4|0,1:2|1:2,0:0:0:0:
448,248,82145,6,0,L|540:248,1,55.0000016784668,4|0,1:2|1:2,0:0:0:0:
332,248,82306,2,0,L|268:248,1,55.0000016784668,4|0,1:2|1:2,0:0:0:0:
420,216,82466,2,0,L|496:216,1,55.0000016784668,4|0,1:2|1:2,0:0:0:0:
300,212,82626,2,0,L|220:212,1,55.0000016784668,4|0,1:2|1:2,0:0:0:0:
412,168,82787,6,0,L|472:168,1,55.0000016784668,4|0,1:2|1:2,0:0:0:0:
300,112,82947,2,0,L|224:112,1,55.0000016784668,4|0,1:2|1:2,0:0:0:0:
76,40,83108,2,0,L|144:40,1,55.0000016784668,4|0,1:2|1:2,0:0:0:0:
304,48,83268,2,0,L|396:48,1,55.0000016784668,4|0,1:2|1:2,0:0:0:0:
188,316,83429,6,0,L|88:240,2,110.000003356934,8|0|8,1:2|0:2|0:2,0:0:0:0:
332,312,83910,2,0,L|400:312,1,55.0000016784668,0|0,0:2|0:2,0:0:0:0:
332,312,84070,1,8,0:2:0:0:
188,316,84230,1,0,0:2:0:0:
332,264,84391,1,8,0:2:0:0:
188,268,84551,1,0,0:2:0:0:
428,204,84712,6,0,P|448:148|400:104,1,110.000003356934,6|0,1:1|0:2,0:0:0:0:
364,112,84953,1,0,0:2:0:0:
200,112,85033,2,0,L|36:112,1,110.000003356934,10|0,1:2|0:2,0:0:0:0:
144,112,85273,1,0,0:2:0:0:
312,40,85354,2,0,L|312:104,1,55.0000016784668,2|0,1:2|0:2,0:0:0:0:
256,96,85514,1,0,0:2:0:0:
144,96,85675,1,10,1:2:0:0:
376,252,85835,6,0,L|252:252,1,110.000003356934,2|0,0:2|1:2,0:0:0:0:
500,256,86156,1,2,0:2:0:0:
248,216,86316,2,0,L|128:216,1,110.000003356934,10|2,1:2|0:2,0:0:0:0:
192,216,86557,1,2,0:2:0:0:
360,212,86637,2,0,P|384:156|340:112,1,110.000003356934,2|2,1:2|0:2,0:0:0:0:
300,120,86878,1,2,0:2:0:0:
140,124,86958,2,0,L|68:124,2,55.0000016784668,10|2|2,1:2|0:2|0:2,0:0:0:0:
380,100,87279,6,0,L|500:100,1,110.000003356934,2|0,1:2|0:2,0:0:0:0:
436,100,87519,1,0,0:2:0:0:
272,280,87600,2,0,L|156:280,1,110.000003356934,10|0,1:2|0:2,0:0:0:0:
216,280,87840,1,0,0:2:0:0:
384,288,87921,2,0,P|408:232|344:196,1,110.000003356934,2|0,1:2|0:2,0:0:0:0:
324,200,88161,1,0,0:2:0:0:
160,200,88241,1,10,1:2:0:0:
396,200,88402,6,0,L|396:72,1,110.000003356934,2|0,0:2|1:2,0:0:0:0:
160,80,88723,1,6,1:2:0:0:
448,36,89044,1,6,1:2:0:0:
160,80,89364,1,6,1:2:0:0:
448,36,89685,1,6,1:2:0:0:
208,308,89846,6,0,L|64:308,1,110.000003356934,6|0,1:2|0:2,0:0:0:0:
44,308,90086,1,0,0:2:0:0:
224,256,90167,2,0,P|248:200|192:160,1,110.000003356934,10|0,1:2|0:2,0:0:0:0:
168,164,90407,1,0,0:2:0:0:
16,96,90487,2,0,L|148:96,1,110.000003356934,2|0,1:2|0:2,0:0:0:0:
72,96,90728,2,0,L|-8:96,1,55.0000016784668,2|8,0:2|1:2,0:0:0:0:
276,216,90969,6,0,P|296:156|240:112,1,110.000003356934,2|0,0:2|1:2,0:0:0:0:
216,124,91209,1,2,0:2:0:0:
160,124,91289,1,2,0:2:0:0:
400,56,91450,2,0,L|280:56,1,110.000003356934,10|2,1:2|0:2,0:0:0:0:
236,56,91691,1,2,0:2:0:0:
408,320,91771,6,0,P|428:264|384:224,1,110.000003356934,2|2,1:2|0:2,0:0:0:0:
344,228,92011,1,2,0:2:0:0:
184,228,92092,1,10,1:2:0:0:
328,160,92252,1,2,0:2:0:0:
96,168,92412,6,0,P|84:104|112:64,1,110.000003356934,0|0,1:2|0:2,0:0:0:0:
160,68,92653,1,0,0:2:0:0:
328,360,92733,2,0,P|352:308|300:268,1,110.000003356934,10|0,1:2|0:2,0:0:0:0:
268,272,92974,1,0,0:2:0:0:
104,272,93054,2,0,L|20:272,1,55.0000016784668,2|2,1:2|0:2,0:0:0:0:
48,220,93215,2,0,L|132:220,1,55.0000016784668,2|2,0:2|0:2,0:0:0:0:
268,220,93375,1,10,1:2:0:0:
44,152,93535,6,0,L|44:28,1,110.000003356934,2|0,0:2|1:2,0:0:0:0:
156,44,93856,1,0,0:2:0:0:
384,356,94017,2,0,L|504:356,1,110.000003356934,12|0,1:2|0:2,0:0:0:0:
256,292,94338,2,0,L|388:292,1,110.000003356934,12|0,1:2|0:2,0:0:0:0:
136,220,94658,2,0,L|264:220,1,110.000003356934,12|0,1:2|0:2,0:0:0:0:
12,216,94979,6,0,L|12:96,1,110.000003356934,6|0,1:1|0:2,0:0:0:0:
68,108,95220,1,0,0:2:0:0:
240,48,95300,2,0,L|92:48,1,110.000003356934,10|0,1:2|0:2,0:0:0:0:
184,44,95541,1,0,0:2:0:0:
352,44,95621,2,0,L|424:44,2,55.0000016784668,2|0|0,1:2|0:2|0:2,0:0:0:0:
232,104,95942,1,10,1:2:0:0:
464,368,96102,6,0,L|464:240,1,110.000003356934,2|0,0:2|1:2,0:0:0:0:
232,172,96423,1,2,0:2:0:0:
460,192,96584,2,0,L|336:192,1,110.000003356934,10|2,1:2|0:2,0:0:0:0:
296,192,96824,1,2,0:2:0:0:
128,188,96904,2,0,P|104:128|148:84,1,110.000003356934,2|2,1:2|0:2,0:0:0:0:
180,96,97145,1,2,0:2:0:0:
352,92,97225,2,0,L|428:92,2,55.0000016784668,10|2|2,1:2|0:2|0:2,0:0:0:0:
116,296,97546,6,0,L|240:296,1,110.000003356934,2|0,1:2|0:2,0:0:0:0:
280,296,97787,1,0,0:2:0:0:
108,232,97867,2,0,P|84:176|120:136,1,110.000003356934,10|0,1:2|0:2,0:0:0:0:
164,140,98108,1,0,0:2:0:0:
332,136,98188,2,0,P|356:72|304:40,1,110.000003356934,2|0,1:2|0:2,0:0:0:0:
276,48,98429,1,0,0:2:0:0:
104,52,98509,1,10,1:2:0:0:
336,360,98669,6,0,L|220:360,1,110.000003356934,2|0,0:2|1:2,0:0:0:0:
452,288,98990,1,6,1:2:0:0:
168,208,99311,1,6,1:2:0:0:
452,288,99632,1,6,1:2:0:0:
168,208,99953,1,6,1:2:0:0:
392,200,100113,6,0,L|504:200,1,110.000003356934,6|0,1:2|1:2,0:0:0:0:
448,200,100354,1,0,0:2:0:0:
280,132,100434,2,0,L|412:132,1,110.000003356934,10|0,1:2|1:2,0:0:0:0:
336,132,100675,1,0,0:2:0:0:
168,128,100755,2,0,P|144:68|180:32,1,110.000003356934,2|0,1:2|1:2,0:0:0:0:
224,36,100995,1,2,0:2:0:0:
388,272,101076,1,8,1:2:0:0:
256,232,101236,1,2,1:2:0:0:
492,232,101396,6,0,L|492:164,1,55.0000016784668,4|2,1:2|0:2,0:0:0:0:
436,180,101557,1,2,1:2:0:0:
196,192,101717,2,0,L|56:192,1,110.000003356934,10|2,1:2|1:2,0:0:0:0:
140,192,101958,1,2,0:2:0:0:
304,112,102038,2,0,L|180:112,1,110.000003356934,2|2,1:2|1:2,0:0:0:0:
248,112,102279,1,2,0:2:0:0:
416,112,102359,2,0,L|416:0,1,110.000003356934,10|2,1:2|1:2,0:0:0:0:
168,360,102680,6,0,L|96:360,2,55.0000016784668,4|0|0,1:2|1:2|1:2,0:0:0:0:
224,360,102921,2,0,L|296:360,2,55.0000016784668,0|0|0,1:2|1:2|1:2,0:0:0:0:
168,360,103161,2,0,L|92:360,1,55.0000016784668,0|0,1:2|1:2,0:0:0:0:
280,288,103322,6,0,L|356:288,1,55.0000016784668,4|0,1:2|1:2,0:0:0:0:
172,228,103482,2,0,L|104:228,1,55.0000016784668,0|0,1:2|1:2,0:0:0:0:
316,228,103642,2,0,L|392:228,1,55.0000016784668,0|0,1:2|1:2,0:0:0:0:
208,184,103803,2,0,L|140:184,1,55.0000016784668,0|0,1:2|0:0,0:0:0:0:
344,168,103963,6,0,L|344:88,1,55.0000016784668,4|4,1:2|1:2,0:0:0:0:
104,108,104204,2,0,L|32:108,1,55.0000016784668,4|4,1:2|1:2,0:0:0:0:
308,56,104445,2,0,L|376:56,1,55.0000016784668,4|4,1:2|1:2,0:0:0:0:
256,192,104685,12,4,105247,1:2:0:0:
256,248,105568,6,0,L|108:248,1,110.000003356934,6|0,1:1|0:2,0:0:0:0:
200,248,105808,1,0,0:2:0:0:
368,164,105888,2,0,L|456:164,2,55.0000016784668,2|0|0,1:2|0:2|0:2,0:0:0:0:
224,168,106209,1,10,1:2:0:0:
468,272,106370,6,0,L|468:156,1,110.000003356934,2|0,0:2|1:2,0:0:0:0:
224,120,106691,1,2,0:2:0:0:
464,128,106851,2,0,L|332:128,1,110.000003356934,10|2,1:2|0:2,0:0:0:0:
300,128,107092,1,2,0:2:0:0:
132,132,107172,2,0,P|104:68|144:40,1,110.000003356934,2|2,1:2|0:2,0:0:0:0:
180,44,107412,1,2,0:2:0:0:
344,40,107493,1,10,1:2:0:0:
400,40,107573,1,2,0:2:0:0:
400,40,107653,1,2,0:2:0:0:
156,348,107814,6,0,P|136:280|168:236,1,110.000003356934,2|0,1:2|0:2,0:0:0:0:
208,252,108054,1,0,0:2:0:0:
368,188,108134,2,0,L|232:188,1,110.000003356934,10|0,1:2|0:2,0:0:0:0:
204,188,108375,1,0,0:2:0:0:
376,120,108455,2,0,P|396:64|356:24,1,110.000003356934,2|0,1:2|0:2,0:0:0:0:
312,28,108696,1,0,0:2:0:0:
144,32,108776,1,10,1:2:0:0:
388,348,108937,2,0,L|388:220,1,110.000003356934,2|0,0:2|1:2,0:0:0:0:
144,240,109257,6,0,L|16:240,1,110.000003356934,6|2,1:2|0:2,0:0:0:0:
280,176,109578,2,0,L|400:176,1,110.000003356934,6|2,1:2|0:2,0:0:0:0:
144,136,109899,2,0,L|0:136,1,110.000003356934,6|2,1:2|0:2,0:0:0:0:
280,104,110220,1,6,1:2:0:0:
32,136,110380,6,0,P|20:64|60:32,1,110.000003356934,6|0,1:2|0:2,0:0:0:0:
96,40,110621,1,0,0:2:0:0:
264,272,110701,2,0,L|384:272,1,110.000003356934,10|0,1:2|0:2,0:0:0:0:
320,272,110942,1,0,0:2:0:0:
152,276,111022,2,0,P|136:208|192:164,1,110.000003356934,2|0,1:2|0:2,0:0:0:0:
212,180,111263,1,2,0:2:0:0:
268,180,111343,1,8,1:2:0:0:
32,112,111503,6,0,L|180:112,1,110.000003356934,2|0,0:2|1:2,0:0:0:0:
88,112,111744,1,2,0:2:0:0:
32,112,111824,1,2,0:2:0:0:
284,348,111985,2,0,P|312:296|264:240,1,110.000003356934,10|2,1:2|0:2,0:0:0:0:
236,252,112225,1,2,0:2:0:0:
72,260,112306,2,0,P|52:200|84:168,1,110.000003356934,2|2,1:2|0:2,0:0:0:0:
136,172,112546,1,2,0:2:0:0:
304,172,112626,1,10,1:2:0:0:
160,112,112787,1,2,0:2:0:0:
408,112,112947,6,0,P|428:48|392:16,1,110.000003356934,2|0,1:2|0:2,0:0:0:0:
348,20,113188,1,0,0:2:0:0:
180,308,113268,2,0,L|304:308,1,110.000003356934,10|0,1:2|0:2,0:0:0:0:
344,308,113509,1,0,0:2:0:0:
168,256,113589,2,0,P|152:200|188:152,1,110.000003356934,2|2,1:2|0:2,0:0:0:0:
232,160,113830,1,2,0:2:0:0:
396,160,113910,1,10,1:2:0:0:
152,168,114070,6,0,L|152:36,1,110.000003356934,2|0,0:2|1:2,0:0:0:0:
296,56,114391,1,0,0:2:0:0:
44,344,114552,2,0,L|44:224,1,110.000003356934,4|0,1:2|0:2,0:0:0:0:
288,228,114872,2,0,L|156:228,1,110.000003356934,4|0,1:2|0:2,0:0:0:0:
420,152,115193,1,4,1:2:0:0:
180,228,115354,1,0,1:2:0:0:
420,152,115514,6,0,P|436:88|404:56,1,110.000003356934,6|0,1:1|1:2,0:0:0:0:
356,60,115755,1,0,0:2:0:0:
188,360,115835,2,0,P|152:296|184:256,1,110.000003356934,10|0,1:2|1:2,0:0:0:0:
220,268,116076,1,0,0:2:0:0:
384,204,116156,1,2,1:2:0:0:
252,204,116316,1,0,1:2:0:0:
472,160,116477,1,10,1:2:0:0:
240,144,116637,6,0,L|240:32,1,110.000003356934,2|0,1:2|1:2,0:0:0:0:
472,28,116958,1,2,1:2:0:0:
240,144,117118,2,0,L|392:144,1,110.000003356934,10|2,1:2|1:2,0:0:0:0:
296,144,117359,1,2,0:2:0:0:
128,144,117439,2,0,P|112:80|140:40,1,110.000003356934,2|2,1:2|1:2,0:0:0:0:
188,48,117680,1,2,0:2:0:0:
356,48,117760,2,0,L|420:48,2,55.0000016784668,10|2|2,1:2|0:2|1:2,0:0:0:0:
104,272,118081,6,0,P|76:204|108:168,1,110.000003356934,2|0,1:2|1:2,0:0:0:0:
152,176,118322,1,0,0:2:0:0:
332,180,118402,2,0,P|348:116|312:72,1,110.000003356934,10|0,1:2|1:2,0:0:0:0:
268,80,118642,1,0,0:2:0:0:
100,96,118723,1,2,1:2:0:0:
232,92,118883,1,0,1:2:0:0:
12,60,119044,1,10,1:2:0:0:
244,92,119204,6,0,L|104:92,1,110.000003356934,2|0,1:2|1:2,0:0:0:0:
384,252,119525,2,0,L|504:252,1,110.000003356934,6|2,1:2|1:2,0:0:0:0:
252,172,119846,2,0,L|376:172,1,110.000003356934,6|2,1:2|1:2,0:0:0:0:
124,128,120167,2,0,L|264:128,1,110.000003356934,6|2,1:2|1:2,0:0:0:0:
8,88,120487,1,6,1:2:0:0:
276,316,120648,5,6,1:2:0:0:
276,260,120728,1,0,1:2:0:0:
220,260,120808,1,0,1:2:0:0:
164,260,120888,1,0,1:2:0:0:
328,204,120969,1,10,1:2:0:0:
384,204,121049,1,0,1:2:0:0:
384,204,121129,1,0,1:2:0:0:
328,204,121209,1,0,1:2:0:0:
164,136,121289,6,0,L|100:136,2,55.0000016784668,2|0|0,1:2|1:2|1:2,0:0:0:0:
332,132,121530,1,2,1:2:0:0:
277,132,121610,1,8,1:2:0:0:
222,132,121690,1,0,1:2:0:0:
392,88,121771,2,0,L|392:28,1,55.0000016784668,2|0,1:2|1:2,0:0:0:0:
224,352,121931,6,0,L|152:352,1,55.0000016784668,4|2,1:2|1:2,0:0:0:0:
224,352,122092,2,0,L|308:352,1,55.0000016784668,2|0,1:2|1:2,0:0:0:0:
112,288,122252,2,0,L|112:208,1,55.0000016784668,10|0,1:2|1:2,0:0:0:0:
272,232,122412,2,0,L|344:232,1,55.0000016784668,2|2,1:2|1:2,0:0:0:0:
488,232,122573,6,0,L|488:172,1,55.0000016784668,6|0,1:2|1:2,0:0:0:0:
324,168,122733,2,0,L|248:168,1,55.0000016784668,2|2,1:2|1:2,0:0:0:0:
104,168,122894,2,0,L|104:96,1,55.0000016784668,14|0,1:2|1:2,0:0:0:0:
272,104,123054,2,0,L|344:104,1,55.0000016784668,2|0,1:2|1:2,0:0:0:0:
160,356,123215,6,0,L|160:288,1,55.0000016784668,4|0,1:1|1:2,0:0:0:0:
216,300,123375,2,0,L|304:300,1,55.0000016784668,0|0,1:2|1:2,0:0:0:0:
104,244,123535,2,0,L|44:244,1,55.0000016784668,0|0,1:2|1:2,0:0:0:0:
49,244,123696,2,0,L|116:244,1,55.0000016784668,0|0,1:2|1:2,0:0:0:0:
272,240,123856,6,0,L|272:168,1,55.0000016784668,0|0,1:2|1:2,0:0:0:0:
216,188,124017,2,0,L|136:188,1,55.0000016784668,0|0,1:2|1:2,0:0:0:0:
328,152,124177,2,0,L|328:80,1,55.0000016784668,0|0,1:2|1:2,0:0:0:0:
272,100,124338,2,0,L|272:24,1,55.0000016784668,0|0,1:2|1:2,0:0:0:0:
440,44,124498,6,0,L|504:44,1,55.0000016784668,0|0,1:2|1:2,0:0:0:0:
304,44,124658,2,0,L|228:44,1,55.0000016784668,0|0,1:2|1:2,0:0:0:0:
80,44,124819,2,0,L|156:44,1,55.0000016784668,0|0,1:2|1:2,0:0:0:0:
308,116,124979,2,0,L|376:116,1,55.0000016784668,0|0,1:2|1:2,0:0:0:0:
196,280,125140,6,0,L|112:280,1,55.0000016784668,0|0,1:2|1:2,0:0:0:0:
308,280,125300,2,0,L|364:280,1,55.0000016784668,0|0,1:2|1:2,0:0:0:0:
172,228,125461,2,0,L|112:228,1,55.0000016784668,0|0,1:2|1:2,0:0:0:0:
264,228,125621,1,0,1:2:0:0:
412,224,125701,1,0,1:2:0:0:
