osu file format v14

[General]
AudioFilename: audio.mp3
AudioLeadIn: 0
PreviewTime: 83429
Countdown: 0
SampleSet: Soft
StackLeniency: 0.7
Mode: 2
LetterboxInBreaks: 0
WidescreenStoryboard: 1

[Editor]
Bookmarks: 26958
DistanceSpacing: 1
BeatDivisor: 4
GridSize: 4
TimelineZoom: 2.4

[Metadata]
Title:Yakumo >>JOINT STRUGGLE
TitleUnicode:Yakumo >>JOINT STRUGGLE
Artist:Kucchi vs. Akki
ArtistUnicode:くっちー vs. あっきー
Creator:Kukkai
Version:Deluge
Source:THE BMS OF FIGHTERS 2009 - revolutionary battles -
Tags:bigh bighzonda th07 th7 stage ran chen 藍 橙 versus Necrofantasia 上海アリス弦樂団 Yukari 八雲紫 東方妖々夢 ~ Perfect Cherry Blossom. BOF2009 Touhou 東方project Youyoumu SUKIMA TOUR 少女幻葬 Shoujo Gensou Necro-Fantasy ネクロファンタジア Necro Phantasia ティアオイエツォン Diao ye zong Withered Leaf ZUN Team Shanghai Alice Video Game Instrumental
BeatmapID:3811152
BeatmapSetID:1717009

[Difficulty]
HPDrainRate:6
CircleSize:4.3
OverallDifficulty:9.6
ApproachRate:9.6
SliderMultiplier:2
SliderTickRate:2

[Events]
//Background and Video events
0,0,"bggggggggg.jpg",0,0
//Break Periods
//Storyboard Layer 0 (Background)
//Storyboard Layer 1 (Fail)
//Storyboard Layer 2 (Pass)
//Storyboard Layer 3 (Foreground)
//Storyboard Layer 4 (Overlay)
//Storyboard Sound Samples

[TimingPoints]
1290,320.855614973262,4,2,1,50,1,0
6423,-90.9090909090909,4,2,1,60,0,0
16691,-83.3333333333333,4,2,1,60,0,0
26958,-90.9090909090909,4,2,1,50,0,0
78295,-90.9090909090909,4,2,1,55,0,0
83429,-90.9090909090909,4,2,1,35,0,0
84712,-83.3333333333333,4,2,1,60,0,1
103963,-83.3333333333333,4,2,1,60,0,0
105568,-83.3333333333333,4,2,1,60,0,1
125781,-83.3333333333333,4,2,1,60,0,0

[Colours]
Combo1 : 150,101,180
Combo2 : 208,39,45
Combo3 : 211,186,118
Combo4 : 87,164,131

[HitObjects]
152,356,1290,6,0,L|152:232,1,100,0|0,1:2|0:2,0:0:0:0:
300,256,1610,2,0,L|176:256,1,100,0|0,1:2|0:2,0:0:0:0:
352,256,1931,2,0,L|352:180,1,50,0|0,1:2|0:2,0:0:0:0:
200,204,2172,2,0,L|140:204,1,50,0|0,0:2|1:2,0:0:0:0:
300,200,2412,1,0,0:2:0:0:
148,204,2573,6,0,L|72:204,2,50,0|0|0,1:2|0:2|0:2,0:0:0:0:
300,200,2894,2,0,L|356:200,2,50,0|0|0,1:2|0:2|0:2,0:0:0:0:
148,200,3215,2,0,L|148:128,1,50,0|0,1:2|0:2,0:0:0:0:
296,140,3455,2,0,L|352:140,1,50,0|0,0:2|1:2,0:0:0:0:
196,140,3696,1,0,0:2:0:0:
344,144,3856,6,0,L|424:144,2,50,0|0|0,1:2|0:2|0:2,0:0:0:0:
196,140,4177,2,0,L|128:140,2,50,0|0|0,1:2|0:2|0:2,0:0:0:0:
348,148,4498,5,0,1:2:0:0:
391,125,4578,1,0,0:2:0:0:
407,79,4658,1,0,0:2:0:0:
389,34,4738,1,0,0:2:0:0:
344,14,4818,1,0,1:2:0:0:
196,16,4979,1,0,0:2:0:0:
348,16,5140,2,0,L|348:128,1,100,0|0,0:2|0:2,0:0:0:0:
116,340,5461,6,0,L|260:340,1,100,4|0,1:2|0:2,0:0:0:0:
264,340,5701,1,0,0:2:0:0:
112,256,5781,1,4,1:2:0:0:
60,256,5862,1,0,0:2:0:0:
112,256,5942,1,0,0:2:0:0:
60,256,6022,1,0,0:2:0:0:
236,212,6102,1,4,1:2:0:0:
236,160,6183,1,0,0:2:0:0:
176,160,6263,1,0,0:2:0:0:
176,112,6343,1,0,0:2:0:0:
360,32,6423,6,0,L|492:32,2,110.000003356934,4|0|8,1:1|0:2|1:2,0:0:0:0:
132,308,6904,2,0,L|12:308,1,110.000003356934,2|0,0:2|1:2,0:0:0:0:
252,232,7225,2,0,L|136:232,1,110.000003356934,2|8,0:2|1:2,0:0:0:0:
368,176,7546,6,0,L|488:176,1,110.000003356934,2|0,0:2|1:2,0:0:0:0:
252,116,7867,2,0,L|368:116,1,110.000003356934,2|8,0:2|1:2,0:0:0:0:
128,48,8188,2,0,L|244:48,2,110.000003356934,2|8|0,0:2|1:2|0:2,0:0:0:0:
344,48,8669,1,8,1:2:0:0:
124,48,8830,1,2,1:2:0:0:
344,48,8990,6,0,L|344:160,1,110.000003356934,2|0,1:2|0:2,0:0:0:0:
232,160,9311,1,8,1:2:0:0:
472,304,9471,2,0,L|340:304,1,110.000003356934,2|0,0:2|1:2,0:0:0:0:
120,304,9792,2,0,L|8:304,1,110.000003356934,2|8,0:2|1:2,0:0:0:0:
288,216,10113,5,2,0:2:0:0:
156,216,10273,1,0,1:2:0:0:
288,156,10434,1,0,0:2:0:0:
40,224,10594,2,0,L|40:104,1,110.000003356934,12|0,1:2|0:1,0:0:0:0:
300,104,10915,2,0,L|364:104,2,55.0000016784668,12|0|0,1:2|1:2|1:2,0:0:0:0:
64,112,11236,1,12,1:2:0:0:
300,108,11396,1,0,1:2:0:0:
64,60,11557,6,0,L|184:60,2,110.000003356934,4|0|8,1:1|0:2|1:2,0:0:0:0:
316,256,12038,2,0,L|448:256,1,110.000003356934,2|0,0:2|1:2,0:0:0:0:
192,192,12359,2,0,L|312:192,1,110.000003356934,2|8,0:2|1:2,0:0:0:0:
60,176,12680,6,0,L|60:56,1,110.000003356934,2|0,0:2|1:2,0:0:0:0:
304,360,13001,2,0,L|304:236,1,110.000003356934,2|8,0:2|1:2,0:0:0:0:
56,176,13322,2,0,L|200:176,2,110.000003356934,2|8|0,0:2|1:2|0:2,0:0:0:0:
296,124,13803,1,8,1:2:0:0:
56,176,13963,1,2,1:2:0:0:
296,124,14124,5,2,1:2:0:0:
186,124,14284,1,0,0:2:0:0:
76,124,14444,1,8,1:2:0:0:
320,348,14605,2,0,L|460:348,1,110.000003356934,2|0,0:2|1:2,0:0:0:0:
192,256,14926,2,0,L|56:256,1,110.000003356934,2|8,0:2|1:2,0:0:0:0:
324,140,15247,1,2,0:2:0:0:
204,140,15407,5,0,1:2:0:0:
324,140,15568,1,0,0:2:0:0:
96,80,15728,2,0,L|96:204,1,110.000003356934,12|0,1:2|0:2,0:0:0:0:
352,280,16049,1,12,1:2:0:0:
208,280,16129,1,0,1:2:0:0:
64,280,16209,2,0,L|64:196,1,55.0000016784668,0|0,1:2|0:2,0:0:0:0:
216,160,16370,2,0,L|272:160,1,55.0000016784668,12|0,1:2|0:2,0:0:0:0:
108,88,16530,2,0,L|184:88,1,55.0000016784668,0|0,1:2|0:2,0:0:0:0:
348,328,16691,6,0,L|264:328,1,59.9999981689454,4|0,1:1|0:2,0:0:0:0:
228,328,16851,2,0,L|308:328,1,59.9999981689454,0|0,0:2|0:2,0:0:0:0:
228,328,17011,2,0,L|156:328,1,59.9999981689454,8|0,1:2|0:2,0:0:0:0:
324,240,17172,6,0,L|388:240,1,59.9999981689454,2|0,0:2|0:2,0:0:0:0:
324,240,17332,2,0,L|324:152,1,59.9999981689454,0|0,1:2|0:2,0:0:0:0:
384,180,17493,2,0,L|384:100,1,59.9999981689454,2|0,0:2|0:2,0:0:0:0:
324,120,17653,2,0,L|256:120,1,59.9999981689454,8|0,1:2|0:2,0:0:0:0:
424,300,17814,6,0,L|312:300,1,59.9999981689454,2|0,0:2|0:2,0:0:0:0:
304,300,17974,2,0,L|400:300,1,59.9999981689454,0|0,1:2|0:2,0:0:0:0:
304,300,18134,2,0,L|216:300,1,59.9999981689454,2|0,0:2|0:2,0:0:0:0:
304,300,18295,2,0,L|392:300,1,59.9999981689454,8|0,1:2|0:2,0:0:0:0:
180,256,18455,6,0,L|180:172,1,59.9999981689454,2|0,0:2|0:2,0:0:0:0:
240,192,18616,2,0,L|324:192,1,59.9999981689454,8|0,1:2|0:2,0:0:0:0:
240,192,18776,1,0,0:2:0:0:
300,192,18856,2,0,L|364:192,2,59.9999981689454,0|8|0,0:2|1:2|0:2,0:0:0:0:
124,192,19097,2,0,L|48:192,1,59.9999981689454,2|0,1:2|0:2,0:0:0:0:
248,140,19257,6,0,L|248:56,1,59.9999981689454,2|0,1:2|0:2,0:0:0:0:
188,84,19418,2,0,L|280:84,1,59.9999981689454,0|0,0:2|0:2,0:0:0:0:
188,84,19578,2,0,L|96:84,1,59.9999981689454,8|0,1:2|0:2,0:0:0:0:
300,312,19739,6,0,L|224:312,1,59.9999981689454,2|0,0:2|0:2,0:0:0:0:
300,312,19899,2,0,L|384:312,1,59.9999981689454,0|0,1:2|0:2,0:0:0:0:
300,312,20060,2,0,L|300:228,1,59.9999981689454,2|0,0:2|0:2,0:0:0:0:
360,252,20220,2,0,L|360:184,1,59.9999981689454,8|0,1:2|0:2,0:0:0:0:
184,168,20380,6,0,L|184:92,1,59.9999981689454,2|0,0:2|0:2,0:0:0:0:
244,108,20541,2,0,L|140:108,1,59.9999981689454,0|0,1:2|0:2,0:0:0:0:
244,108,20701,2,0,L|336:108,1,59.9999981689454,0|0,0:2|0:2,0:0:0:0:
136,360,20862,6,0,L|136:292,1,59.9999981689454,12|0,1:2|0:2,0:0:0:0:
196,300,21022,2,0,L|292:300,1,59.9999981689454,0|0,0:2|0:2,0:0:0:0:
92,228,21183,1,12,1:2:0:0:
248,232,21263,1,0,1:2:0:0:
404,184,21343,2,0,L|324:184,1,59.9999981689454,0|0,1:2|0:2,0:0:0:0:
180,176,21503,2,0,L|116:176,1,59.9999981689454,12|0,1:2|0:2,0:0:0:0:
284,108,21664,2,0,L|380:108,1,59.9999981689454,0|0,1:2|0:2,0:0:0:0:
160,336,21824,6,0,L|72:336,1,59.9999981689454,4|0,1:1|0:2,0:0:0:0:
160,336,21985,2,0,L|160:256,1,59.9999981689454,0|0,0:2|0:2,0:0:0:0:
100,276,22145,2,0,L|100:196,1,59.9999981689454,8|0,1:2|0:2,0:0:0:0:
280,196,22306,6,0,L|352:196,2,59.9999981689454,2|0|0,0:2|0:2|1:2,0:0:0:0:
220,196,22546,1,0,0:2:0:0:
280,196,22626,2,0,L|208:196,1,59.9999981689454,2|0,0:2|0:2,0:0:0:0:
160,200,22787,2,0,L|248:200,1,59.9999981689454,8|0,1:2|0:2,0:0:0:0:
48,124,22947,6,0,L|116:124,1,59.9999981689454,2|0,0:2|0:2,0:0:0:0:
168,124,23108,2,0,L|168:56,1,59.9999981689454,0|0,1:2|0:2,0:0:0:0:
108,60,23268,2,0,L|176:60,1,59.9999981689454,2|0,0:2|0:2,0:0:0:0:
108,60,23429,2,0,L|20:60,1,59.9999981689454,8|0,1:2|0:2,0:0:0:0:
232,344,23589,6,0,L|304:344,1,59.9999981689454,2|0,0:2|0:2,0:0:0:0:
232,348,23749,2,0,L|232:264,1,59.9999981689454,8|0,1:2|0:2,0:0:0:0:
292,288,23910,2,0,L|224:288,1,59.9999981689454,0|0,0:2|0:2,0:0:0:0:
292,288,24070,2,0,L|364:288,1,59.9999981689454,8|0,1:2|0:2,0:0:0:0:
176,224,24231,2,0,L|104:224,1,59.9999981689454,2|0,1:2|0:2,0:0:0:0:
296,184,24391,6,0,L|296:104,1,59.9999981689454,2|0,1:2|0:2,0:0:0:0:
236,124,24552,1,0,0:2:0:0:
296,124,24632,2,0,L|376:124,2,59.9999981689454,0|8|0,0:2|1:2|0:2,0:0:0:0:
120,320,24872,6,0,L|224:320,1,59.9999981689454,2|0,0:2|0:2,0:0:0:0:
240,320,25033,2,0,L|240:228,1,59.9999981689454,0|0,1:2|0:2,0:0:0:0:
180,264,25193,2,0,L|180:184,1,59.9999981689454,2|0,0:2|0:2,0:0:0:0:
240,196,25354,2,0,L|148:196,1,59.9999981689454,8|0,1:2|0:2,0:0:0:0:
352,152,25514,2,0,L|424:152,1,59.9999981689454,2|0,0:2|0:2,0:0:0:0:
256,360,25675,6,0,L|124:360,1,119.999996337891,0|0,1:2|0:2,0:0:0:0:
296,264,25995,2,0,L|296:136,1,119.999996337891,8|0,1:2|0:2,0:0:0:0:
24,124,26316,1,8,1:2:0:0:
176,128,26396,1,0,1:2:0:0:
332,136,26477,2,0,L|332:56,1,59.9999981689454,0|0,1:2|0:2,0:0:0:0:
164,72,26637,2,0,L|80:72,1,59.9999981689454,8|0,1:2|0:2,0:0:0:0:
276,240,26798,2,0,L|360:240,1,59.9999981689454,0|0,1:2|0:2,0:0:0:0:
156,188,26958,6,0,L|300:188,1,110.000003356934,4|0,1:1|0:2,0:0:0:0:
28,196,27279,2,0,L|28:52,1,110.000003356934,10|0,1:2|0:2,0:0:0:0:
84,84,27519,1,0,0:2:0:0:
260,320,27600,2,0,L|116:320,1,110.000003356934,2|0,1:2|0:2,0:0:0:0:
380,248,27921,2,0,L|236:248,1,110.000003356934,10|0,1:2|0:2,0:0:0:0:
496,200,28241,6,0,L|496:88,1,110.000003356934,2|0,1:2|0:2,0:0:0:0:
248,76,28562,1,14,1:2:0:0:
304,76,28642,1,2,0:2:0:0:
360,76,28722,1,2,0:2:0:0:
120,80,28883,1,14,1:2:0:0:
288,212,29204,2,0,L|352:212,2,55.0000016784668,2|0|0,0:2|0:2|0:2,0:0:0:0:
52,348,29525,6,0,L|52:220,1,110.000003356934,6|0,1:1|0:2,0:0:0:0:
292,272,29846,2,0,L|156:272,1,110.000003356934,10|0,1:2|0:2,0:0:0:0:
416,208,30167,2,0,L|344:208,1,55.0000016784668,2|0,1:2|0:2,0:0:0:0:
176,216,30327,5,14,1:2:0:0:
420,128,30648,1,14,1:2:0:0:
176,216,30969,1,2,1:2:0:0:
420,128,31129,6,0,L|420:276,1,110.000003356934,14|0,1:2|0:2,0:0:0:0:
192,336,31450,1,14,1:2:0:0:
348,336,31530,2,0,L|428:336,2,55.0000016784668,2|0|2,1:2|0:2|1:2,0:0:0:0:
192,248,31771,1,14,1:2:0:0:
336,248,31931,1,2,1:2:0:0:
92,192,32092,6,0,L|92:72,1,110.000003356934,4|0,1:1|0:2,0:0:0:0:
328,132,32412,1,10,1:2:0:0:
208,132,32573,1,6,0:2:0:0:
148,132,32653,1,2,0:2:0:0:
208,132,32733,1,2,1:2:0:0:
88,132,32894,1,0,0:2:0:0:
360,244,33054,1,10,1:2:0:0:
240,244,33214,1,0,0:2:0:0:
300,244,33295,1,0,0:2:0:0:
360,244,33375,1,2,1:2:0:0:
124,320,33535,6,0,L|4:320,1,110.000003356934,12|10,0:2|1:2,0:0:0:0:
272,196,33856,2,0,L|420:196,1,110.000003356934,4|10,0:2|1:2,0:0:0:0:
120,200,34177,2,0,L|-12:200,1,110.000003356934,4|10,0:2|1:2,0:0:0:0:
248,200,34498,1,4,0:2:0:0:
10,200,34658,6,0,L|74:200,2,55.0000016784668,6|2|2,1:1|0:2|0:2,0:0:0:0:
260,256,34979,1,10,1:2:0:0:
140,256,35139,1,0,0:2:0:0:
388,172,35300,2,0,L|452:172,1,55.0000016784668,2|2,1:2|0:2,0:0:0:0:
388,172,35461,2,0,L|328:172,2,55.0000016784668,2|2|2,0:2|0:2|1:2,0:0:0:0:
152,352,35781,6,0,L|40:352,1,110.000003356934,6|0,1:2|1:2,0:0:0:0:
288,252,36102,1,12,1:2:0:0:
42,352,36263,2,0,L|44:212,1,110.000003356934,12|0,1:2|0:2,0:0:0:0:
288,184,36584,1,12,1:2:0:0:
136,136,36664,2,0,L|72:136,2,55.0000016784668,0|2|0,1:2|0:2|1:2,0:0:0:0:
288,136,36904,1,14,1:2:0:0:
144,80,37065,1,2,1:2:0:0:
408,360,37225,6,0,L|408:236,1,110.000003356934,4|0,1:1|0:2,0:0:0:0:
152,240,37546,2,0,L|280:240,1,110.000003356934,10|0,1:2|0:2,0:0:0:0:
316,240,37787,1,0,0:2:0:0:
144,184,37867,2,0,L|12:184,1,110.000003356934,2|0,1:2|0:2,0:0:0:0:
284,112,38188,2,0,L|404:112,1,110.000003356934,10|0,1:2|0:2,0:0:0:0:
152,328,38509,2,0,L|280:328,1,110.000003356934,2|0,1:2|0:2,0:0:0:0:
16,236,38830,6,0,L|92:236,2,55.0000016784668,14|2|2,1:2|0:2|0:2,0:0:0:0:
276,188,39150,1,14,1:2:0:0:
112,192,39471,2,0,L|48:192,2,55.0000016784668,2|0|0,0:2|0:2|0:2,0:0:0:0:
360,276,39792,6,0,L|484:276,1,110.000003356934,4|0,1:1|0:2,0:0:0:0:
232,216,40113,2,0,L|360:216,1,110.000003356934,10|0,1:2|0:2,0:0:0:0:
112,176,40434,2,0,L|112:104,1,55.0000016784668,2|0,1:2|0:2,0:0:0:0:
296,120,40594,1,14,1:2:0:0:
88,68,40915,1,14,1:2:0:0:
296,120,41236,1,2,1:2:0:0:
72,68,41396,6,0,L|72:204,1,110.000003356934,6|0,1:2|0:2,0:0:0:0:
316,280,41717,1,14,1:2:0:0:
172,284,41798,2,0,L|88:284,1,55.0000016784668,2|0,1:2|0:2,0:0:0:0:
117,284,41958,1,2,1:2:0:0:
288,212,42038,1,14,1:2:0:0:
160,140,42199,1,2,1:2:0:0:
400,148,42359,6,0,L|512:148,1,110.000003356934,4|0,1:1|0:2,0:0:0:0:
236,308,42680,1,10,1:2:0:0:
368,308,42840,1,6,0:2:0:0:
308,308,42921,1,2,0:2:0:0:
368,308,43001,1,2,1:2:0:0:
488,308,43161,1,0,0:2:0:0:
240,192,43322,1,10,1:2:0:0:
372,192,43482,1,2,0:2:0:0:
432,192,43562,1,2,0:2:0:0:
372,192,43642,1,2,1:2:0:0:
128,356,43803,6,0,L|8:356,1,110.000003356934,12|10,0:2|1:2,0:0:0:0:
256,272,44124,2,0,L|120:272,1,110.000003356934,4|10,0:2|1:2,0:0:0:0:
384,200,44445,2,0,L|504:200,1,110.000003356934,4|10,0:2|1:2,0:0:0:0:
260,144,44765,1,4,0:2:0:0:
496,200,44926,6,0,L|496:132,2,55.0000016784668,6|2|2,1:1|0:2|0:2,0:0:0:0:
256,324,45247,1,10,1:2:0:0:
376,324,45407,1,0,0:2:0:0:
132,268,45568,2,0,L|132:204,1,55.0000016784668,2|2,1:2|0:2,0:0:0:0:
188,212,45728,2,0,L|248:212,2,55.0000016784668,2|2|2,0:2|0:2|1:2,0:0:0:0:
428,208,46049,6,0,L|428:84,1,110.000003356934,2|0,1:2|1:2,0:0:0:0:
192,216,46370,1,8,1:2:0:0:
428,208,46530,2,0,L|304:208,1,110.000003356934,8|0,1:2|0:2,0:0:0:0:
72,160,46851,1,8,1:2:0:0:
208,160,46931,2,0,L|272:160,2,55.0000016784668,0|0|0,1:2|0:2|1:2,0:0:0:0:
72,96,47172,2,0,L|136:96,1,55.0000016784668,8|0,1:2|0:2,0:0:0:0:
304,96,47332,2,0,L|380:96,1,55.0000016784668,0|0,1:2|0:2,0:0:0:0:
180,348,47493,6,0,L|48:348,1,110.000003356934,6|0,0:1|0:2,0:0:0:0:
324,284,47814,2,0,L|324:216,1,55.0000016784668,10|0,1:2|0:2,0:0:0:0:
268,232,47974,1,0,0:2:0:0:
124,240,48134,2,0,L|124:160,1,55.0000016784668,2|0,1:2|0:2,0:0:0:0:
180,184,48295,1,0,0:2:0:0:
432,184,48455,2,0,L|432:56,1,110.000003356934,10|2,1:2|0:2,0:0:0:0:
200,60,48776,6,0,L|328:60,1,110.000003356934,2|2,1:2|0:2,0:0:0:0:
68,352,49097,1,10,1:2:0:0:
300,280,49418,1,8,1:2:0:0:
68,352,49739,2,0,P|20:312|80:244,1,165.000005035401,8|0,1:2|0:2,0:0:0:0:
240,244,50060,5,2,1:2:0:0:
300,244,50140,1,0,0:2:0:0:
240,244,50220,1,0,0:2:0:0:
180,244,50300,1,0,0:2:0:0:
352,200,50380,2,0,L|352:128,1,55.0000016784668,10|0,1:2|0:2,0:0:0:0:
292,148,50541,1,0,0:2:0:0:
232,148,50621,1,0,0:2:0:0:
412,92,50701,5,2,1:2:0:0:
352,92,50781,1,0,0:2:0:0:
176,88,50862,1,2,0:2:0:0:
116,88,50942,1,0,0:2:0:0:
288,356,51022,2,0,L|288:284,1,55.0000016784668,10|0,1:2|0:2,0:0:0:0:
228,300,51183,2,0,L|228:228,1,55.0000016784668,2|0,0:2|0:2,0:0:0:0:
404,184,51343,5,2,1:2:0:0:
344,184,51423,1,0,0:2:0:0:
404,184,51503,1,0,0:2:0:0:
464,184,51583,1,0,0:2:0:0:
280,144,51664,1,10,1:2:0:0:
220,144,51744,1,0,0:2:0:0:
56,104,51824,1,0,0:2:0:0:
116,104,51904,1,0,0:2:0:0:
280,292,51985,5,10,1:2:0:0:
72,300,52306,2,0,P|24:268|96:208,1,165.000005035401,8|0,1:2|0:2,0:0:0:0:
252,204,52626,6,0,L|252:136,1,55.0000016784668,6|0,1:1|0:2,0:0:0:0:
192,152,52787,1,0,0:2:0:0:
132,152,52867,1,0,0:2:0:0:
320,104,52947,1,10,1:2:0:0:
260,104,53027,1,0,0:2:0:0:
200,104,53107,1,0,0:2:0:0:
140,104,53187,1,0,0:2:0:0:
332,316,53268,5,2,1:2:0:0:
392,316,53348,1,0,0:2:0:0:
332,316,53429,1,0,0:2:0:0:
272,316,53509,1,0,0:2:0:0:
452,284,53589,2,0,L|452:156,1,110.000003356934,10|2,1:2|0:2,0:0:0:0:
136,184,53910,5,2,1:2:0:0:
84,184,53990,1,0,0:2:0:0:
220,136,54070,1,2,0:2:0:0:
276,136,54150,1,0,0:2:0:0:
416,72,54231,1,10,1:2:0:0:
356,72,54311,1,0,0:2:0:0:
192,80,54391,1,2,0:2:0:0:
132,80,54471,1,0,0:2:0:0:
304,272,54552,5,10,1:2:0:0:
364,272,54632,1,0,0:2:0:0:
188,232,54712,2,0,L|188:152,1,55.0000016784668,2|0,0:2|0:2,0:0:0:0:
360,160,54872,1,10,1:2:0:0:
300,160,54952,1,0,0:2:0:0:
240,160,55033,2,0,L|240:88,1,55.0000016784668,2|0,0:2|0:2,0:0:0:0:
416,360,55193,6,0,P|432:296|392:256,1,110.000003356934,4|0,1:2|0:2,0:0:0:0:
232,268,55434,2,0,P|208:204|252:172,1,110.000003356934,4|0,1:2|0:2,0:0:0:0:
412,176,55675,2,0,P|436:120|384:88,1,110.000003356934,4|0,1:2|0:2,0:0:0:0:
232,268,55915,2,0,P|200:212|240:188,1,110.000003356934,4|0,1:2|0:2,0:0:0:0:
412,176,56156,1,4,1:2:0:0:
176,116,56316,1,4,1:2:0:0:
412,176,56477,1,4,1:2:0:0:
176,116,56557,6,0,L|24:116,1,110.000003356934,4|0,1:2|0:2,0:0:0:0:
248,116,56798,2,0,L|392:116,1,110.000003356934,4|0,1:2|0:2,0:0:0:0:
176,116,57038,2,0,L|48:116,1,110.000003356934,4|0,1:2|0:2,0:0:0:0:
248,116,57279,1,4,1:2:0:0:
8,56,57439,1,4,1:2:0:0:
248,116,57600,1,4,1:2:0:0:
8,56,57760,6,0,L|8:176,1,110.000003356934,6|0,1:1|0:2,0:0:0:0:
260,312,58081,1,10,1:2:0:0:
205,312,58161,1,0,0:2:0:0:
150,312,58241,1,0,0:2:0:0:
296,232,58402,2,0,L|364:232,2,55.0000016784668,2|0|0,1:2|0:2|0:2,0:0:0:0:
48,160,58723,2,0,L|164:160,1,110.000003356934,10|2,1:2|0:2,0:0:0:0:
412,84,59044,6,0,L|272:84,1,110.000003356934,2|2,1:2|0:2,0:0:0:0:
52,100,59364,2,0,L|52:40,2,55.0000016784668,10|2|2,1:2|0:2|0:2,0:0:0:0:
296,256,59685,2,0,L|152:256,1,110.000003356934,10|0,1:2|0:2,0:0:0:0:
240,256,59926,1,0,0:2:0:0:
72,200,60006,1,10,1:2:0:0:
132,200,60086,1,0,0:2:0:0:
296,192,60167,2,0,L|296:112,1,55.0000016784668,0|0,0:2|0:2,0:0:0:0:
128,132,60327,5,2,1:2:0:0:
68,132,60407,1,0,0:2:0:0:
8,132,60487,1,2,0:2:0:0:
68,132,60567,1,0,0:2:0:0:
248,356,60648,2,0,L|248:280,1,55.0000016784668,8|0,1:2|0:2,0:0:0:0:
188,300,60808,1,2,0:2:0:0:
128,300,60888,1,0,0:2:0:0:
316,236,60969,5,2,1:2:0:0:
256,236,61049,1,0,0:2:0:0:
88,240,61129,1,2,0:2:0:0:
28,240,61209,1,0,0:2:0:0:
212,176,61290,1,10,1:2:0:0:
272,176,61370,1,0,0:2:0:0:
212,176,61450,1,2,0:2:0:0:
152,176,61530,1,0,0:2:0:0:
320,120,61610,5,6,1:2:0:0:
380,120,61690,1,0,0:2:0:0:
212,72,61771,1,2,0:2:0:0:
152,72,61851,1,0,0:2:0:0:
324,24,61931,1,14,1:2:0:0:
264,24,62011,1,0,0:2:0:0:
92,28,62092,1,2,0:2:0:0:
32,28,62172,1,0,0:2:0:0:
208,280,62252,5,14,1:2:0:0:
268,280,62332,1,0,0:2:0:0:
444,220,62412,1,2,0:2:0:0:
384,220,62492,1,0,0:2:0:0:
208,224,62573,1,10,1:2:0:0:
172,217,62626,1,0,0:2:0:0:
149,190,62679,1,0,0:2:0:0:
149,154,62733,1,0,0:2:0:0:
172,126,62786,1,0,0:2:0:0:
207,120,62840,1,0,0:2:0:0:
352,116,62894,5,4,1:1:0:0:
412,116,62974,1,0,0:2:0:0:
472,116,63054,1,0,0:2:0:0:
412,116,63134,1,0,0:2:0:0:
240,352,63215,1,10,1:2:0:0:
300,352,63295,1,0,0:2:0:0:
360,352,63375,1,0,0:2:0:0:
300,352,63455,1,0,0:2:0:0:
128,320,63535,5,2,1:2:0:0:
128,260,63616,1,0,0:2:0:0:
188,260,63696,1,0,0:2:0:0:
248,260,63776,1,0,0:2:0:0:
76,232,63856,2,0,L|76:104,1,110.000003356934,10|2,1:2|0:2,0:0:0:0:
304,112,64177,5,2,1:2:0:0:
364,112,64257,1,0,0:2:0:0:
192,192,64338,1,2,0:2:0:0:
132,192,64418,1,0,0:2:0:0:
296,192,64498,1,10,1:2:0:0:
296,136,64578,1,0,0:2:0:0:
132,132,64658,1,2,0:2:0:0:
72,132,64739,1,0,0:2:0:0:
232,68,64819,5,10,1:2:0:0:
292,68,64899,1,0,0:2:0:0:
460,32,64979,1,2,0:2:0:0:
400,32,65060,1,0,0:2:0:0:
232,296,65140,1,10,1:2:0:0:
172,296,65220,1,0,0:2:0:0:
232,296,65300,1,2,0:2:0:0:
292,296,65380,1,0,0:2:0:0:
120,252,65461,6,0,P|88:200|140:176,1,110.000003356934,4|0,1:2|0:2,0:0:0:0:
288,168,65701,2,0,P|320:116|264:96,1,110.000003356934,4|0,1:2|0:2,0:0:0:0:
120,252,65942,2,0,P|88:200|140:176,1,110.000003356934,4|0,1:2|0:2,0:0:0:0:
288,168,66182,2,0,P|320:116|264:96,1,110.000003356934,4|0,1:2|0:2,0:0:0:0:
116,100,66423,1,4,1:2:0:0:
344,56,66584,1,4,1:2:0:0:
116,100,66744,1,4,1:2:0:0:
344,56,66824,6,0,L|204:56,1,110.000003356934,4|0,1:2|0:2,0:0:0:0:
60,36,67065,2,0,L|180:36,1,110.000003356934,4|0,1:2|0:2,0:0:0:0:
344,56,67306,2,0,L|216:56,1,110.000003356934,4|0,1:2|0:2,0:0:0:0:
60,36,67546,1,4,1:2:0:0:
296,164,67707,1,4,1:2:0:0:
60,36,67867,1,4,1:2:0:0:
296,164,68027,5,6,1:1:0:0:
406,164,68187,1,0,0:2:0:0:
240,116,68268,2,0,L|168:116,1,55.0000016784668,2|8,0:2|1:2,0:0:0:0:
296,116,68509,1,2,0:2:0:0:
44,332,68669,1,2,1:2:0:0:
154,332,68829,1,0,0:2:0:0:
324,264,68910,2,0,L|264:264,1,55.0000016784668,2|8,0:2|1:2,0:0:0:0:
40,252,69150,5,2,0:2:0:0:
150,252,69310,1,0,1:2:0:0:
324,188,69391,2,0,L|400:188,1,55.0000016784668,2|2,0:2|0:2,0:0:0:0:
152,104,69632,1,10,1:2:0:0:
262,104,69792,1,2,0:2:0:0:
40,252,69953,2,0,P|12:200|64:156,1,110.000003356934,10|0,1:2|0:2,0:0:0:0:
200,160,70193,2,0,L|284:160,1,55.0000016784668,2|8,0:2|1:2,0:0:0:0:
144,160,70434,1,2,0:2:0:0:
380,84,70594,5,2,1:2:0:0:
270,84,70754,1,0,0:2:0:0:
100,40,70835,2,0,L|184:40,1,55.0000016784668,2|8,0:2|1:2,0:0:0:0:
380,40,71076,1,2,0:2:0:0:
152,288,71236,1,2,1:2:0:0:
262,288,71396,1,0,0:2:0:0:
428,244,71477,2,0,L|356:244,1,55.0000016784668,2|8,0:2|1:2,0:0:0:0:
144,232,71717,6,0,L|16:232,1,110.000003356934,2|0,0:2|1:2,0:0:0:0:
272,168,72038,2,0,L|272:96,1,55.0000016784668,2|2,0:2|0:2,0:0:0:0:
212,112,72199,2,0,L|92:112,1,110.000003356934,10|2,1:2|0:2,0:0:0:0:
336,320,72519,1,10,1:2:0:0:
446,320,72679,1,0,0:2:0:0:
272,256,72760,2,0,L|200:256,1,55.0000016784668,2|8,0:2|1:2,0:0:0:0:
340,256,73001,1,2,0:2:0:0:
88,176,73161,6,0,L|24:176,1,55.0000016784668,4|2,1:1|0:2,0:0:0:0:
264,128,73402,2,0,L|176:128,1,55.0000016784668,2|10,0:2|1:2,0:0:0:0:
432,124,73642,2,0,L|432:44,1,55.0000016784668,2|2,0:2|0:2,0:0:0:0:
168,68,73803,2,0,L|340:68,2,165.000005035401,2|2|2,1:2|0:2|0:2,0:0:0:0:
396,224,74445,6,0,L|456:225,1,55.0000016784668,4|2,1:1|0:2,0:0:0:0:
208,172,74686,2,0,L|280:172,1,55.0000016784668,2|10,0:2|1:2,0:0:0:0:
32,180,74926,2,0,L|32:100,1,55.0000016784668,2|2,0:2|0:2,0:0:0:0:
268,132,75087,2,0,L|96:132,2,165.000005035401,2|2|2,1:2|0:2|0:2,0:0:0:0:
28,56,75728,5,4,1:1:0:0:
300,356,75888,2,0,L|168:356,2,110.000003356934,2|10|2,0:2|1:2|0:2,0:0:0:0:
56,56,76370,1,4,1:1:0:0:
328,356,76530,2,0,L|196:356,2,110.000003356934,2|10|2,0:2|1:2|0:2,0:0:0:0:
88,56,77011,5,4,1:1:0:0:
360,356,77171,2,0,L|228:356,2,110.000003356934,2|10|2,0:2|1:2|0:2,0:0:0:0:
120,56,77653,1,4,1:1:0:0:
392,356,77813,2,0,L|260:356,2,110.000003356934,2|10|2,0:2|1:2|0:2,0:0:0:0:
152,272,78295,6,0,L|284:272,1,110.000003356934,4|2,1:1|1:2,0:0:0:0:
316,272,78535,1,2,0:2:0:0:
144,204,78616,2,0,L|20:204,1,110.000003356934,4|2,1:1|1:2,0:0:0:0:
88,204,78856,1,2,0:2:0:0:
264,136,78937,6,0,L|116:136,1,110.000003356934,4|2,1:1|1:2,0:0:0:0:
100,136,79177,1,2,0:2:0:0:
276,88,79257,2,0,L|420:88,1,110.000003356934,4|2,1:1|1:2,0:0:0:0:
332,88,79498,1,2,0:2:0:0:
168,304,79578,6,0,L|320:304,1,110.000003356934,4|2,1:1|1:2,0:0:0:0:
332,304,79819,1,2,0:2:0:0:
164,236,79899,2,0,L|32:236,1,110.000003356934,4|2,1:1|1:2,0:0:0:0:
108,236,80140,1,2,0:2:0:0:
280,168,80220,6,0,L|132:168,1,110.000003356934,4|2,1:1|1:2,0:0:0:0:
116,168,80461,1,2,0:2:0:0:
296,112,80541,2,0,L|160:112,1,110.000003356934,4|0,1:1|0:0,0:0:0:0:
132,112,80781,1,2,0:2:0:0:
308,356,80862,6,0,L|392:356,1,55.0000016784668,4|0,1:2|1:2,0:0:0:0:
200,296,81022,2,0,L|132:296,1,55.0000016784668,4|0,1:2|1:2,0:0:0:0:
336,304,81183,2,0,L|396:304,1,55.0000016784668,4|0,1:2|1:2,0:0:0:0:
232,256,81343,2,0,L|156:256,1,55.0000016784668,4|0,1:2|1:2,0:0:0:0:
360,256,81503,6,0,L|432:256,1,55.0000016784668,4|0,1:2|1:2,0:0:0:0:
208,212,81664,2,0,L|140:212,1,55.0000016784668,4|0,1:2|1:2,0:0:0:0:
332,208,81824,2,0,L|416:208,1,55.0000016784668,4|0,1:2|1:2,0:0:0:0:
176,168,81985,2,0,L|96:168,1,55.0000016784668,4|0,1:2|1:2,0:0:0:0:
288,168,82145,6,0,L|380:168,1,55.0000016784668,4|0,1:2|1:2,0:0:0:0:
152,120,82306,2,0,L|68:120,1,55.0000016784668,4|0,1:2|1:2,0:0:0:0:
264,116,82466,2,0,L|352:116,1,55.0000016784668,4|0,1:2|1:2,0:0:0:0:
120,72,82626,2,0,L|32:72,1,55.0000016784668,4|0,1:2|1:2,0:0:0:0:
252,64,82787,6,0,L|324:64,1,55.0000016784668,4|0,1:2|1:2,0:0:0:0:
488,268,82947,2,0,L|384:268,1,55.0000016784668,4|0,1:2|1:2,0:0:0:0:
252,232,83108,1,4,1:2:0:0:
96,200,83188,1,0,1:2:0:0:
252,192,83268,1,4,1:2:0:0:
408,192,83348,1,0,1:2:0:0:
248,148,83429,6,0,L|136:148,2,110.000003356934,8|0|8,1:2|0:2|0:2,0:0:0:0:
384,312,83910,2,0,L|444:312,2,55.0000016784668,0|0|8,0:2|0:2|0:2,0:0:0:0:
252,312,84231,1,0,0:2:0:0:
384,312,84391,2,0,L|384:192,1,110.000003356934,8|0,0:2|0:2,0:0:0:0:
140,188,84712,6,0,L|4:188,1,119.999996337891,6|0,1:1|0:2,0:0:0:0:
80,188,84953,1,0,0:2:0:0:
264,124,85033,2,0,L|144:124,1,119.999996337891,10|0,1:2|0:2,0:0:0:0:
84,124,85273,1,0,0:2:0:0:
268,272,85354,2,0,L|336:272,2,59.9999981689454,2|0|0,1:2|0:2|0:2,0:0:0:0:
24,268,85675,1,10,1:2:0:0:
268,272,85835,6,0,L|268:140,1,119.999996337891,2|0,0:2|1:2,0:0:0:0:
24,268,86156,1,2,0:2:0:0:
268,276,86316,2,0,L|136:276,1,119.999996337891,10|2,1:2|0:2,0:0:0:0:
208,276,86557,1,2,0:2:0:0:
388,276,86637,2,0,P|412:216|372:176,1,119.999996337891,2|2,1:2|0:2,0:0:0:0:
320,180,86878,1,2,0:2:0:0:
136,184,86958,2,0,L|136:108,1,59.9999981689454,10|2,1:2|0:2,0:0:0:0:
196,124,87118,2,0,L|276:124,1,59.9999981689454,2|2,0:2|0:2,0:0:0:0:
72,348,87279,6,0,P|52:284|96:236,1,119.999996337891,2|0,1:2|0:2,0:0:0:0:
140,244,87519,1,0,0:2:0:0:
320,240,87600,2,0,L|440:240,1,119.999996337891,10|0,1:2|0:2,0:0:0:0:
380,240,87840,1,0,0:2:0:0:
196,168,87921,2,0,L|368:168,1,119.999996337891,2|0,1:2|0:2,0:0:0:0:
256,168,88161,1,0,0:2:0:0:
76,168,88241,1,10,1:2:0:0:
312,168,88402,2,0,L|184:168,1,119.999996337891,2|0,0:2|1:2,0:0:0:0:
448,108,88723,5,6,1:2:0:0:
68,68,89044,1,6,1:2:0:0:
448,108,89364,1,6,1:2:0:0:
68,68,89685,1,6,1:2:0:0:
332,312,89846,6,0,L|464:312,1,119.999996337891,6|0,1:2|0:2,0:0:0:0:
392,312,90086,1,0,0:2:0:0:
208,304,90167,2,0,P|180:240|232:208,1,119.999996337891,10|0,1:2|0:2,0:0:0:0:
268,208,90407,1,0,0:2:0:0:
444,140,90487,2,0,L|296:140,1,119.999996337891,2|0,1:2|0:2,0:0:0:0:
384,140,90728,1,2,0:2:0:0:
444,140,90808,1,8,1:2:0:0:
176,84,90969,6,0,P|144:148|192:200,1,119.999996337891,2|0,0:2|1:2,0:0:0:0:
224,184,91209,1,2,0:2:0:0:
164,185,91289,1,2,0:2:0:0:
440,240,91450,2,0,L|268:240,1,119.999996337891,10|2,1:2|0:2,0:0:0:0:
260,240,91691,1,2,0:2:0:0:
440,184,91771,2,0,P|476:128|416:92,1,119.999996337891,2|2,1:2|0:2,0:0:0:0:
388,96,92011,1,2,0:2:0:0:
208,96,92092,2,0,L|344:96,1,119.999996337891,10|2,1:2|0:2,0:0:0:0:
72,224,92412,5,0,1:2:0:0:
12,224,92493,1,0,0:2:0:0:
12,164,92573,1,0,0:2:0:0:
72,160,92653,1,0,0:2:0:0:
256,248,92733,2,0,L|256:168,1,59.9999981689454,10|0,1:2|0:2,0:0:0:0:
196,192,92894,2,0,L|196:120,1,59.9999981689454,0|0,0:2|0:2,0:0:0:0:
380,96,93054,2,0,L|276:96,1,59.9999981689454,2|2,1:2|0:2,0:0:0:0:
136,100,93215,2,0,L|60:100,1,59.9999981689454,2|2,0:2|0:2,0:0:0:0:
264,284,93375,1,10,1:2:0:0:
20,188,93535,6,0,L|140:188,2,119.999996337891,2|0|0,0:2|1:2|0:2,0:0:0:0:
280,188,94017,2,0,L|408:188,1,119.999996337891,12|0,1:2|0:2,0:0:0:0:
128,140,94338,2,0,L|52:140,1,59.9999981689454,12|0,1:2|0:2,0:0:0:0:
8,140,94498,2,0,L|112:140,1,59.9999981689454,0|0,0:2|0:2,0:0:0:0:
244,284,94658,2,0,L|320:284,1,59.9999981689454,12|0,1:2|0:2,0:0:0:0:
244,284,94819,2,0,L|168:284,1,59.9999981689454,0|0,0:2|0:0,0:0:0:0:
364,212,94979,6,0,L|224:212,1,119.999996337891,6|0,1:1|0:2,0:0:0:0:
184,212,95220,1,0,0:2:0:0:
372,160,95300,2,0,P|404:104|356:72,1,119.999996337891,10|0,1:2|0:2,0:0:0:0:
308,76,95541,1,0,0:2:0:0:
128,340,95621,2,0,L|52:340,2,59.9999981689454,2|0|0,1:2|0:2|0:2,0:0:0:0:
372,340,95942,1,10,1:2:0:0:
128,344,96102,6,0,L|128:204,1,119.999996337891,2|0,0:2|1:2,0:0:0:0:
372,268,96423,1,2,0:2:0:0:
128,164,96584,2,0,L|280:164,1,119.999996337891,10|2,1:2|0:2,0:0:0:0:
308,164,96824,1,2,0:2:0:0:
120,104,96904,2,0,L|-24:104,1,119.999996337891,2|2,1:2|0:2,0:0:0:0:
60,104,97145,1,2,0:2:0:0:
240,96,97225,2,0,L|312:96,1,59.9999981689454,10|2,1:2|0:2,0:0:0:0:
240,96,97386,2,0,L|156:96,1,59.9999981689454,2|2,0:2|0:2,0:0:0:0:
360,256,97546,6,0,L|500:256,1,119.999996337891,2|0,1:2|0:2,0:0:0:0:
420,256,97787,1,0,0:2:0:0:
236,204,97867,2,0,L|400:204,1,119.999996337891,10|0,1:2|0:2,0:0:0:0:
416,204,98108,1,0,0:2:0:0:
232,160,98188,2,0,P|204:104|244:68,1,119.999996337891,2|0,1:2|0:2,0:0:0:0:
300,68,98429,1,0,0:2:0:0:
488,68,98509,1,10,1:2:0:0:
236,340,98669,2,0,L|368:340,1,119.999996337891,2|0,0:2|1:2,0:0:0:0:
92,284,98990,5,6,1:2:0:0:
476,188,99311,1,6,1:2:0:0:
92,284,99632,1,6,1:2:0:0:
476,188,99953,1,6,1:2:0:0:
92,284,100113,6,0,L|236:284,1,119.999996337891,6|0,1:2|1:2,0:0:0:0:
272,288,100354,1,0,0:2:0:0:
88,228,100434,2,0,P|56:160|104:128,1,119.999996337891,10|0,1:2|1:2,0:0:0:0:
140,136,100675,1,0,0:2:0:0:
324,84,100755,2,0,L|180:84,1,119.999996337891,2|0,1:2|1:2,0:0:0:0:
264,84,100995,1,2,0:2:0:0:
324,84,101076,1,8,1:2:0:0:
68,84,101236,1,2,1:2:0:0:
328,264,101396,6,0,L|392:264,2,59.9999981689454,4|2|2,1:2|0:2|1:2,0:0:0:0:
84,208,101717,2,0,P|52:148|104:120,1,119.999996337891,10|2,1:2|1:2,0:0:0:0:
144,208,101958,1,2,0:2:0:0:
324,128,102038,2,0,L|192:128,1,119.999996337891,2|2,1:2|1:2,0:0:0:0:
144,128,102279,1,2,0:2:0:0:
332,72,102359,2,0,L|168:72,1,119.999996337891,10|2,1:2|1:2,0:0:0:0:
472,360,102680,6,0,L|376:360,1,59.9999981689454,4|0,1:2|1:2,0:0:0:0:
352,360,102840,2,0,L|416:360,1,59.9999981689454,0|0,1:2|1:2,0:0:0:0:
472,360,103001,2,0,L|400:360,1,59.9999981689454,0|0,1:2|1:2,0:0:0:0:
352,360,103161,2,0,L|268:360,1,59.9999981689454,0|0,1:2|1:2,0:0:0:0:
472,280,103322,6,0,L|400:280,1,59.9999981689454,4|0,1:2|1:2,0:0:0:0:
228,276,103482,2,0,L|156:280,1,59.9999981689454,0|0,1:2|1:2,0:0:0:0:
344,216,103642,2,0,L|420:216,1,59.9999981689454,0|0,1:2|1:2,0:0:0:0:
224,164,103803,2,0,L|148:164,1,59.9999981689454,0|0,1:2|0:0,0:0:0:0:
348,92,103963,5,4,1:2:0:0:
176,320,104044,2,4,P|148:264|192:216,1,119.999996337891,4|4,1:2|1:2,1:2:0:0:
348,216,104284,2,4,P|376:160|332:112,1,119.999996337891,4|4,1:2|1:2,1:2:0:0:
176,224,104525,1,4,1:2:0:0:
256,192,104685,12,4,105247,1:2:0:0:
452,332,105568,6,0,L|452:200,1,119.999996337891,6|0,1:1|0:2,0:0:0:0:
392,212,105808,1,0,0:2:0:0:
212,212,105888,2,0,L|124:212,2,59.9999981689454,2|0|0,1:2|0:2|0:2,0:0:0:0:
456,136,106209,1,10,1:2:0:0:
212,212,106370,6,0,L|336:212,1,119.999996337891,2|0,0:2|1:2,0:0:0:0:
80,136,106691,1,2,0:2:0:0:
332,212,106851,2,0,L|192:212,1,119.999996337891,10|2,1:2|0:2,0:0:0:0:
152,212,107092,1,2,0:2:0:0:
340,144,107172,6,0,L|480:144,1,119.999996337891,2|2,1:2|0:2,0:0:0:0:
400,144,107412,1,2,0:2:0:0:
216,140,107493,2,0,L|216:68,1,59.9999981689454,10|2,1:2|0:2,0:0:0:0:
276,76,107653,2,0,L|276:0,1,59.9999981689454,2|0,0:2|0:0,0:0:0:0:
96,324,107814,6,0,L|256:324,1,119.999996337891,2|0,1:2|0:2,0:0:0:0:
276,324,108054,1,0,0:2:0:0:
104,260,108134,2,0,P|32:224|28:176,1,119.999996337891,10|0,1:2|0:2,0:0:0:0:
84,192,108375,1,0,0:2:0:0:
264,148,108455,6,0,L|116:148,1,119.999996337891,2|0,1:2|0:2,0:0:0:0:
204,148,108696,1,0,0:2:0:0:
384,104,108776,1,10,1:2:0:0:
136,348,108937,2,0,L|136:224,1,119.999996337891,2|0,0:2|1:2,0:0:0:0:
384,276,109257,6,0,L|512:276,1,119.999996337891,6|2,1:2|0:2,0:0:0:0:
204,224,109578,2,0,L|72:224,1,119.999996337891,6|2,1:2|0:2,0:0:0:0:
384,276,109899,2,0,L|504:276,1,119.999996337891,6|2,1:2|0:2,0:0:0:0:
208,224,110220,1,6,1:2:0:0:
456,224,110380,6,0,P|484:160|440:120,1,119.999996337891,6|0,1:2|0:2,0:0:0:0:
396,128,110621,1,0,0:2:0:0:
216,128,110701,2,0,L|76:128,1,119.999996337891,10|0,1:2|0:2,0:0:0:0:
156,128,110942,1,0,0:2:0:0:
360,280,111022,2,0,L|224:280,1,119.999996337891,2|0,1:2|0:2,0:0:0:0:
180,280,111263,1,2,0:2:0:0:
240,280,111343,1,8,1:2:0:0:
0,200,111503,6,0,L|160:200,1,119.999996337891,2|0,0:2|1:2,0:0:0:0:
60,200,111744,1,2,0:2:0:0:
0,200,111824,1,2,0:2:0:0:
260,136,111985,2,0,L|120:136,1,119.999996337891,10|2,1:2|0:2,0:0:0:0:
200,136,112225,1,2,0:2:0:0:
384,296,112306,2,0,L|256:296,1,119.999996337891,2|2,1:2|0:2,0:0:0:0:
324,296,112546,1,2,0:2:0:0:
140,288,112626,2,0,L|276:288,1,119.999996337891,10|2,1:2|0:2,0:0:0:0:
16,256,112947,6,0,P|16:188|84:164,1,119.999996337891,2|0,1:2|0:2,0:0:0:0:
116,164,113188,1,0,0:2:0:0:
300,164,113268,2,0,L|468:164,1,119.999996337891,10|0,1:2|0:2,0:0:0:0:
360,164,113509,1,0,0:2:0:0:
176,348,113589,2,0,L|256:348,1,59.9999981689454,2|2,1:2|0:2,0:0:0:0:
416,292,113749,2,0,L|344:292,1,59.9999981689454,2|2,0:2|0:2,0:0:0:0:
176,288,113910,1,10,1:2:0:0:
416,224,114070,6,0,L|280:224,2,119.999996337891,2|0|0,0:2|1:2|0:2,0:0:0:0:
152,168,114552,2,0,L|4:168,1,119.999996337891,4|0,1:2|0:2,0:0:0:0:
284,104,114872,2,0,L|156:104,1,119.999996337891,4|0,1:2|0:2,0:0:0:0:
420,36,115193,1,4,1:2:0:0:
160,104,115354,1,0,1:2:0:0:
420,36,115514,6,0,L|284:36,1,119.999996337891,6|0,1:1|1:2,0:0:0:0:
240,36,115755,1,0,0:2:0:0:
420,320,115835,2,0,P|448:264|384:224,1,119.999996337891,10|0,1:2|1:2,0:0:0:0:
356,228,116076,1,0,0:2:0:0:
180,184,116156,2,0,L|320:184,1,119.999996337891,2|0,1:2|1:2,0:0:0:0:
48,120,116477,1,10,1:2:0:0:
300,120,116637,6,0,L|160:120,1,119.999996337891,2|0,1:2|1:2,0:0:0:0:
420,68,116958,1,2,1:2:0:0:
184,120,117118,2,0,P|156:56|220:24,1,119.999996337891,10|2,1:2|1:2,0:0:0:0:
244,24,117359,1,2,0:2:0:0:
420,308,117439,2,0,L|288:308,1,119.999996337891,2|2,1:2|1:2,0:0:0:0:
360,308,117680,1,2,0:2:0:0:
180,256,117760,1,10,1:2:0:0:
120,256,117840,1,2,0:2:0:0:
180,256,117921,1,2,1:2:0:0:
456,188,118081,6,0,P|480:128|432:84,1,119.999996337891,2|0,1:2|1:2,0:0:0:0:
388,92,118322,1,0,0:2:0:0:
208,88,118402,2,0,L|360:88,1,119.999996337891,10|0,1:2|1:2,0:0:0:0:
268,88,118642,1,0,0:2:0:0:
80,360,118723,2,0,P|52:296|100:264,1,119.999996337891,2|0,1:2|1:2,0:0:0:0:
140,268,118963,1,0,0:2:0:0:
320,264,119044,1,10,1:2:0:0:
64,208,119204,2,0,L|184:208,1,119.999996337891,2|0,1:2|1:2,0:0:0:0:
440,200,119525,6,0,L|440:80,1,119.999996337891,6|2,1:2|1:2,0:0:0:0:
196,68,119846,2,0,L|320:68,1,119.999996337891,6|2,1:2|1:2,0:0:0:0:
64,64,120167,2,0,L|64:212,1,119.999996337891,6|2,1:2|1:2,0:0:0:0:
328,192,120487,1,6,1:2:0:0:
80,192,120648,5,6,1:2:0:0:
20,192,120728,1,0,1:2:0:0:
20,132,120808,1,0,1:2:0:0:
80,132,120888,1,0,1:2:0:0:
264,132,120969,1,10,1:2:0:0:
324,132,121049,1,0,1:2:0:0:
264,132,121129,1,0,1:2:0:0:
204,132,121209,1,0,1:2:0:0:
392,80,121289,6,0,L|468:80,2,59.9999981689454,2|0|0,1:2|1:2|1:2,0:0:0:0:
212,288,121530,1,2,1:2:0:0:
272,288,121610,1,8,1:2:0:0:
332,288,121690,1,0,1:2:0:0:
148,232,121771,2,0,L|76:232,1,59.9999981689454,2|0,1:2|1:2,0:0:0:0:
268,224,121931,6,0,L|268:144,1,59.9999981689454,4|2,1:2|1:2,0:0:0:0:
208,164,122092,2,0,L|208:72,1,59.9999981689454,2|0,1:2|1:2,0:0:0:0:
384,56,122252,2,0,L|304:56,1,59.9999981689454,10|0,1:2|1:2,0:0:0:0:
384,56,122412,2,0,L|476:56,1,59.9999981689454,2|2,1:2|1:2,0:0:0:0:
256,344,122573,6,0,L|256:256,1,59.9999981689454,6|0,1:2|1:2,0:0:0:0:
316,280,122733,2,0,L|416:280,1,59.9999981689454,2|2,1:2|1:2,0:0:0:0:
200,220,122894,2,0,L|112:220,1,59.9999981689454,14|0,1:2|1:2,0:0:0:0:
320,176,123054,2,0,L|392:176,1,59.9999981689454,2|0,1:2|1:2,0:0:0:0:
200,128,123215,6,0,L|284:128,1,59.9999981689454,4|0,1:1|1:2,0:0:0:0:
80,128,123375,2,0,L|80:36,1,59.9999981689454,0|0,1:2|1:2,0:0:0:0:
256,64,123535,2,0,L|360:64,1,59.9999981689454,0|0,1:2|1:2,0:0:0:0:
132,28,123696,2,0,L|220:28,1,59.9999981689454,0|0,1:2|1:2,0:0:0:0:
376,28,123856,6,0,L|468:28,1,59.9999981689454,0|0,1:2|1:2,0:0:0:0:
252,224,124017,2,0,L|180:224,1,59.9999981689454,0|0,1:2|1:2,0:0:0:0:
16,152,124177,2,0,L|108:152,1,59.9999981689454,0|0,1:2|1:2,0:0:0:0:
256,148,124338,2,0,L|176:148,1,59.9999981689454,0|0,1:2|1:2,0:0:0:0:
372,144,124498,6,0,L|432:144,1,59.9999981689454,0|0,1:2|1:2,0:0:0:0:
252,352,124658,2,0,L|252:252,1,59.9999981689454,0|0,1:2|1:2,0:0:0:0:
440,244,124819,2,0,L|360:244,1,59.9999981689454,0|0,1:2|1:2,0:0:0:0:
196,240,124979,2,0,L|116:240,1,59.9999981689454,0|0,1:2|1:2,0:0:0:0:
320,184,125140,6,0,L|384:184,1,59.9999981689454,0|0,1:2|1:2,0:0:0:0:
200,124,125300,2,0,L|280:124,1,59.9999981689454,0|0,1:2|1:2,0:0:0:0:
444,128,125461,2,0,L|516:128,1,59.9999981689454,0|0,1:2|1:2,0:0:0:0:
352,64,125621,1,0,1:2:0:0:
200,60,125701,1,0,1:2:0:0:
