osu file format v14

[General]
AudioFilename: audio.mp3
AudioLeadIn: 0
PreviewTime: 83408
Countdown: 1
SampleSet: Normal
StackLeniency: 0.7
Mode: 0
LetterboxInBreaks: 0
WidescreenStoryboard: 1

[Editor]
DistanceSpacing: 1.5
BeatDivisor: 4
GridSize: 32
TimelineZoom: 5.999997

[Metadata]
Title:Yakumo >>JOINT STRUGGLE
TitleUnicode:Yakumo >>JOINT STRUGGLE
Artist:Kucchi vs Akki
ArtistUnicode:くっちー vs あっきー
Creator:Muya
Version:SUKIMA
Source:BMS
Tags:BOF2009 おとなのらくがきちょう 東方妖々夢 ~ Perfect Cherry Blossom. Touhou Youyoumu SUKIMA TOUR 少女幻葬 Shoujo Gensou Necro-Fantasy ネクロファンタジア Necro Phantasia ティアオイエツォン Diao ye zong Withered Leaf
BeatmapID:1460113
BeatmapSetID:688877

[Difficulty]
HPDrainRate:8
CircleSize:5
OverallDifficulty:9
ApproachRate:9
SliderMultiplier:1.8
SliderTickRate:1

[Events]
//Background and Video events
0,0,"bg.png",0,0
Video,0,"Yakumo JOINT STRUGGLE.avi"
//Break Periods
//Storyboard Layer 0 (Background)
//Storyboard Layer 1 (Fail)
//Storyboard Layer 2 (Pass)
//Storyboard Layer 3 (Foreground)
//Storyboard Sound Samples

[TimingPoints]
1290,320.855614973262,4,1,1,60,1,0
28482,-100,4,1,2,60,0,0
29445,-100,4,1,1,60,0,0
30327,-100,4,1,2,60,0,0
31049,-100,4,1,1,60,0,0
32493,-100,4,1,2,60,0,0
34578,-100,4,1,1,60,0,0
35701,-100,4,1,2,60,0,0
37145,-100,4,1,1,60,0,0
38749,-100,4,1,2,60,0,0
39712,-100,4,1,1,60,0,0
40594,-100,4,1,2,60,0,0
41316,-100,4,1,1,60,0,0
42760,-100,4,1,2,60,0,0
44846,-100,4,1,1,60,0,0
55193,-100,4,1,2,60,0,0
57680,-100,4,1,1,60,0,0
61610,-100,4,1,2,60,0,0
62894,-100,4,1,1,60,0,0
65461,-100,4,1,2,60,0,0
67947,-100,4,1,1,60,0,0
80862,-100,4,1,2,40,0,0
82787,-100,4,1,2,60,0,0
83429,-100,4,1,2,40,0,0
84712,-100,4,1,1,60,0,0
103963,-100,4,1,2,60,0,0
105407,-100,4,1,1,60,0,0

[Colours]
Combo1 : 255,253,170
Combo2 : 255,170,255
Combo3 : 170,255,255
Combo4 : 185,255,170

[HitObjects]
16,32,1290,5,0,0:0:0:0:
80,64,1450,1,0,0:0:0:0:
144,32,1610,1,0,0:0:0:0:
160,32,1691,1,0,0:0:0:0:
176,32,1771,1,0,0:0:0:0:
240,64,1930,1,0,0:0:0:0:
256,64,2011,1,0,0:0:0:0:
320,32,2171,1,0,0:0:0:0:
336,32,2252,1,0,0:0:0:0:
400,64,2412,1,0,0:0:0:0:
496,176,2573,5,0,0:0:0:0:
480,176,2653,1,0,0:0:0:0:
464,176,2733,1,0,0:0:0:0:
400,208,2894,1,0,0:0:0:0:
384,208,2974,1,0,0:0:0:0:
368,208,3054,1,0,0:0:0:0:
304,176,3215,1,0,0:0:0:0:
288,176,3295,1,0,0:0:0:0:
224,208,3456,1,0,0:0:0:0:
208,208,3536,1,0,0:0:0:0:
144,176,3696,1,0,0:0:0:0:
16,256,3856,5,0,0:0:0:0:
32,256,3937,1,0,0:0:0:0:
48,256,4017,1,0,0:0:0:0:
112,288,4177,1,0,0:0:0:0:
128,288,4258,1,0,0:0:0:0:
144,288,4338,1,0,0:0:0:0:
208,320,4498,1,0,0:0:0:0:
224,320,4579,1,0,0:0:0:0:
240,320,4658,1,0,0:0:0:0:
256,320,4739,1,0,0:0:0:0:
272,320,4819,1,0,0:0:0:0:
336,288,4979,1,0,0:0:0:0:
488,352,5140,5,0,0:0:0:0:
444,272,5300,1,0,0:0:0:0:
488,192,5461,1,4,0:0:0:0:
304,64,5780,1,4,0:0:0:0:
300,80,5862,1,0,0:0:0:0:
236,56,5942,1,0,0:0:0:0:
232,72,6022,1,0,0:0:0:0:
168,48,6102,1,4,0:0:0:0:
164,64,6183,1,0,0:0:0:0:
100,40,6263,1,0,0:0:0:0:
96,56,6343,1,0,0:0:0:0:
32,32,6423,5,4,0:0:0:0:
0,116,6584,1,0,0:0:0:0:
84,148,6744,1,0,0:0:0:0:
52,232,6904,2,0,L|60:324,1,90
128,380,7225,1,0,0:0:0:0:
144,292,7386,1,0,0:0:0:0:
212,348,7546,6,0,L|304:340,1,90
388,372,7867,1,0,0:0:0:0:
460,316,8027,1,0,0:0:0:0:
376,284,8188,2,0,L|368:192,1,90
296,248,8509,1,0,0:0:0:0:
212,216,8669,1,0,0:0:0:0:
284,160,8830,6,0,L|276:68,1,90
348,12,9150,1,0,0:0:0:0:
360,100,9311,1,0,0:0:0:0:
431,41,9471,2,0,L|439:133,1,90
508,192,9792,1,0,0:0:0:0:
438,253,9953,2,0,L|431:343,1,90
348,372,10273,5,0,0:0:0:0:
281,313,10434,1,0,0:0:0:0:
364,284,10594,1,4,0:0:0:0:
60,120,10915,1,4,0:0:0:0:
76,124,10995,1,0,0:0:0:0:
92,128,11076,1,0,0:0:0:0:
156,192,11236,1,4,0:0:0:0:
236,152,11396,1,0,0:0:0:0:
364,52,11557,5,4,0:0:0:0:
440,100,11717,1,0,0:0:0:0:
404,184,11878,1,0,0:0:0:0:
480,232,12038,2,0,L|472:324,1,90
388,356,12359,1,0,0:0:0:0:
312,308,12519,1,0,0:0:0:0:
336,220,12680,6,0,L|328:124,1,90
256,76,13001,1,0,0:0:0:0:
180,124,13161,1,0,0:0:0:0:
204,212,13322,2,0,L|196:308,1,90
124,356,13642,1,0,0:0:0:0:
48,308,13802,1,0,0:0:0:0:
72,220,13963,6,0,L|64:124,1,90
0,64,14284,1,0,0:0:0:0:
80,24,14445,1,0,0:0:0:0:
144,88,14605,2,0,L|232:104,1,90
296,168,14926,1,0,0:0:0:0:
376,128,15086,2,0,L|464:144,1,90
412,220,15407,5,0,0:0:0:0:
460,296,15568,1,0,0:0:0:0:
508,372,15728,1,4,0:0:0:0:
276,264,16049,1,4,0:0:0:0:
260,260,16129,1,0,0:0:0:0:
200,288,16209,1,0,0:0:0:0:
184,284,16289,1,0,0:0:0:0:
128,320,16370,1,4,0:0:0:0:
112,316,16450,1,0,0:0:0:0:
52,344,16530,1,0,0:0:0:0:
36,340,16610,1,0,0:0:0:0:
20,336,16691,6,0,L|20:272,1,45,4|0,0:0|0:0,0:0:0:0:
52,272,16851,1,0,0:0:0:0:
84,253,16931,2,0,L|84:189,1,45
60,180,17092,1,0,0:0:0:0:
44,148,17172,1,0,0:0:0:0:
44,112,17252,1,0,0:0:0:0:
60,80,17332,1,0,0:0:0:0:
84,52,17412,2,0,L|128:52,1,45
152,80,17573,1,0,0:0:0:0:
176,108,17653,2,0,L|220:108,1,45
245,80,17814,1,0,0:0:0:0:
269,52,17894,1,0,0:0:0:0:
293,24,17974,6,0,L|337:24,1,45
361,52,18135,1,0,0:0:0:0:
385,80,18215,2,0,L|429:80,1,45
454,108,18375,1,0,0:0:0:0:
470,140,18455,1,0,0:0:0:0:
470,176,18535,1,0,0:0:0:0:
454,208,18615,1,0,0:0:0:0:
430,236,18695,2,0,L|430:295,1,45
406,309,18856,1,0,0:0:0:0:
382,337,18936,2,0,L|382:396,1,45
345,369,19097,1,0,0:0:0:0:
313,353,19177,1,0,0:0:0:0:
281,337,19257,6,0,L|281:278,1,45
257,264,19418,1,0,0:0:0:0:
233,236,19498,2,0,L|233:172,1,45
257,163,19659,1,0,0:0:0:0:
273,131,19739,1,0,0:0:0:0:
273,95,19819,1,0,0:0:0:0:
257,63,19899,1,0,0:0:0:0:
233,35,19979,2,0,L|189:35,1,45
164,63,20140,1,0,0:0:0:0:
140,91,20220,2,0,L|96:91,1,45
71,119,20380,1,0,0:0:0:0:
47,147,20460,1,0,0:0:0:0:
23,175,20541,6,0,L|23:247,1,45
47,248,20700,1,0,0:0:0:0:
71,276,20781,2,0,L|71:348,1,45,0|4,0:0|0:0,0:0:0:0:
99,345,20942,1,0,0:0:0:0:
131,361,21022,1,0,0:0:0:0:
167,361,21102,1,0,0:0:0:0:
199,345,21182,1,4,0:0:0:0:
227,321,21263,2,0,L|271:321,1,45
300,345,21423,1,0,0:0:0:0:
328,369,21504,2,0,L|372:369,1,45,4|0,0:0|0:0,0:0:0:0:
401,345,21663,1,0,0:0:0:0:
429,321,21743,1,0,0:0:0:0:
460,300,21824,6,0,L|460:255,1,45,4|0,0:0|0:0,0:0:0:0:
432,231,21985,1,0,0:0:0:0:
404,207,22066,2,0,L|404:162,1,45
428,140,22226,1,0,0:0:0:0:
444,108,22306,1,0,0:0:0:0:
444,72,22386,1,0,0:0:0:0:
428,40,22466,1,0,0:0:0:0:
404,12,22546,2,0,L|360:12,1,45
335,40,22707,1,0,0:0:0:0:
311,68,22787,2,0,L|267:68,1,45
242,96,22947,1,0,0:0:0:0:
218,124,23027,1,0,0:0:0:0:
194,152,23107,6,0,L|150:152,1,45
125,124,23268,1,0,0:0:0:0:
101,96,23348,2,0,L|57:96,1,45
32,118,23509,1,0,0:0:0:0:
16,150,23589,1,0,0:0:0:0:
16,186,23669,1,0,0:0:0:0:
32,218,23749,1,0,0:0:0:0:
56,246,23829,2,0,L|100:246,1,45
125,274,23990,1,0,0:0:0:0:
149,302,24070,2,0,L|193:302,1,45
218,274,24231,1,0,0:0:0:0:
242,246,24311,1,0,0:0:0:0:
266,218,24391,6,0,L|266:138,1,45
290,145,24552,1,0,0:0:0:0:
314,117,24632,2,0,L|314:37,1,45
336,48,24793,1,0,0:0:0:0:
368,32,24873,1,0,0:0:0:0:
404,32,24953,1,0,0:0:0:0:
436,48,25033,1,0,0:0:0:0:
464,72,25113,2,0,L|464:116,1,45
488,145,25273,1,0,0:0:0:0:
512,173,25353,2,0,L|512:253,1,45
488,246,25514,1,0,0:0:0:0:
464,274,25594,1,0,0:0:0:0:
440,302,25675,6,0,B|336:302|336:302|296:350|296:350|192:350,1,270
104,372,26316,1,0,0:0:0:0:
60,360,26396,1,0,0:0:0:0:
32,324,26477,1,0,0:0:0:0:
28,280,26557,1,0,0:0:0:0:
48,240,26637,1,0,0:0:0:0:
88,220,26717,1,0,0:0:0:0:
108,180,26797,1,0,0:0:0:0:
104,136,26877,1,0,0:0:0:0:
76,100,26958,5,4,0:0:0:0:
124,24,27118,1,0,0:0:0:0:
211,47,27279,1,0,0:0:0:0:
172,204,27439,1,0,0:0:0:0:
168,220,27519,1,0,0:0:0:0:
164,236,27600,1,0,0:0:0:0:
212,312,27760,1,0,0:0:0:0:
299,289,27921,1,0,0:0:0:0:
304,199,28081,1,0,0:0:0:0:
424,88,28241,5,0,0:0:0:0:
376,244,28402,1,0,0:0:0:0:
264,128,28562,1,4,0:0:0:0:
268,112,28642,1,0,0:0:0:0:
275,99,28723,1,0,0:0:0:0:
275,99,28883,1,4,0:0:0:0:
508,268,29204,1,0,0:0:0:0:
504,284,29284,1,0,0:0:0:0:
500,300,29365,1,0,0:0:0:0:
356,308,29525,5,4,0:0:0:0:
328,148,29685,1,0,0:0:0:0:
300,236,29846,1,0,0:0:0:0:
272,76,30006,1,0,0:0:0:0:
147,180,30167,1,0,0:0:0:0:
151,196,30247,1,0,0:0:0:0:
161,218,30327,1,4,0:0:0:0:
161,218,30648,1,4,0:0:0:0:
161,218,30969,5,0,0:0:0:0:
77,250,31129,1,4,0:0:0:0:
17,182,31290,1,0,0:0:0:0:
124,60,31450,1,4,0:0:0:0:
140,64,31530,1,0,0:0:0:0:
156,68,31610,1,0,0:0:0:0:
172,72,31691,1,0,0:0:0:0:
188,76,31771,1,4,0:0:0:0:
256,136,31931,1,0,0:0:0:0:
376,52,32092,5,4,0:0:0:0:
464,28,32253,1,0,0:0:0:0:
512,104,32413,1,0,0:0:0:0:
352,128,32573,1,4,0:0:0:0:
348,144,32653,1,0,0:0:0:0:
344,160,32733,1,0,0:0:0:0:
392,236,32893,1,0,0:0:0:0:
480,212,33054,1,0,0:0:0:0:
448,52,33215,1,0,0:0:0:0:
432,56,33295,1,0,0:0:0:0:
416,60,33375,5,0,0:0:0:0:
444,328,33535,1,4,0:0:0:0:
304,272,33696,1,0,0:0:0:0:
332,24,33856,1,4,0:0:0:0:
188,104,34017,1,0,0:0:0:0:
208,336,34177,1,4,0:0:0:0:
56,260,34338,1,0,0:0:0:0:
100,48,34498,1,4,0:0:0:0:
164,196,34658,5,4,0:0:0:0:
160,212,34739,1,0,0:0:0:0:
156,228,34819,1,0,0:0:0:0:
204,304,34979,1,0,0:0:0:0:
291,281,35140,1,0,0:0:0:0:
296,191,35300,1,0,0:0:0:0:
292,175,35380,1,0,0:0:0:0:
288,159,35461,1,0,0:0:0:0:
284,143,35541,1,0,0:0:0:0:
280,127,35621,1,0,0:0:0:0:
328,51,35781,1,4,0:0:0:0:
415,74,35942,5,0,0:0:0:0:
476,228,36102,1,4,0:0:0:0:
476,228,36263,1,4,0:0:0:0:
192,384,36584,1,4,0:0:0:0:
188,368,36664,1,0,0:0:0:0:
204,280,36824,1,0,0:0:0:0:
200,264,36904,1,4,0:0:0:0:
216,176,37064,1,0,0:0:0:0:
332,60,37225,5,4,0:0:0:0:
420,88,37386,1,0,0:0:0:0:
473,12,37547,1,0,0:0:0:0:
512,160,37706,1,0,0:0:0:0:
508,176,37786,1,0,0:0:0:0:
504,192,37867,1,0,0:0:0:0:
416,164,38028,1,0,0:0:0:0:
363,240,38188,1,0,0:0:0:0:
418,313,38349,1,0,0:0:0:0:
266,369,38509,5,0,0:0:0:0:
142,265,38669,1,0,0:0:0:0:
294,209,38830,1,4,0:0:0:0:
298,225,38910,1,0,0:0:0:0:
305,244,38990,1,0,0:0:0:0:
305,244,39150,1,4,0:0:0:0:
68,20,39471,1,0,0:0:0:0:
64,36,39551,1,0,0:0:0:0:
60,52,39632,1,0,0:0:0:0:
32,140,39792,5,4,0:0:0:0:
60,300,39952,1,0,0:0:0:0:
88,212,40113,1,0,0:0:0:0:
116,372,40273,1,0,0:0:0:0:
240,267,40434,1,0,0:0:0:0:
236,251,40514,1,0,0:0:0:0:
238,241,40595,1,4,0:0:0:0:
238,241,40915,1,4,0:0:0:0:
238,241,41236,5,0,0:0:0:0:
176,176,41396,1,4,0:0:0:0:
212,92,41557,1,0,0:0:0:0:
364,152,41717,1,4,0:0:0:0:
368,168,41797,1,0,0:0:0:0:
372,184,41877,1,0,0:0:0:0:
376,200,41958,1,0,0:0:0:0:
380,216,42038,1,4,0:0:0:0:
464,252,42198,1,0,0:0:0:0:
512,96,42359,5,4,0:0:0:0:
448,32,42519,1,0,0:0:0:0:
360,56,42680,1,0,0:0:0:0:
264,188,42840,1,4,0:0:0:0:
260,204,42921,1,0,0:0:0:0:
256,220,43001,1,0,0:0:0:0:
168,244,43162,1,0,0:0:0:0:
104,180,43322,1,0,0:0:0:0:
24,40,43482,1,0,0:0:0:0:
20,56,43563,1,0,0:0:0:0:
16,72,43643,5,0,0:0:0:0:
304,36,43803,1,4,0:0:0:0:
292,180,43963,1,0,0:0:0:0:
40,152,44124,1,4,0:0:0:0:
224,228,44284,1,0,0:0:0:0:
456,196,44444,1,4,0:0:0:0:
452,340,44604,1,0,0:0:0:0:
236,316,44765,1,4,0:0:0:0:
96,360,44926,5,4,0:0:0:0:
92,344,45006,1,0,0:0:0:0:
88,328,45086,1,0,0:0:0:0:
132,248,45247,1,0,0:0:0:0:
52,208,45407,1,0,0:0:0:0:
96,128,45568,1,0,0:0:0:0:
92,112,45648,1,0,0:0:0:0:
88,96,45728,1,0,0:0:0:0:
84,80,45808,1,0,0:0:0:0:
80,64,45888,1,0,0:0:0:0:
0,24,46048,1,0,0:0:0:0:
4,116,46209,5,0,0:0:0:0:
132,12,46370,1,0,0:0:0:0:
132,12,46530,1,0,0:0:0:0:
456,48,46851,1,0,0:0:0:0:
492,76,46931,1,0,0:0:0:0:
504,120,47011,1,0,0:0:0:0:
488,164,47092,1,0,0:0:0:0:
448,184,47172,1,0,0:0:0:0:
428,224,47252,1,0,0:0:0:0:
432,268,47332,1,0,0:0:0:0:
460,304,47412,1,0,0:0:0:0:
504,316,47493,5,4,0:0:0:0:
432,372,47653,1,0,0:0:0:0:
360,316,47814,1,0,0:0:0:0:
344,312,47894,1,0,0:0:0:0:
328,308,47974,1,0,0:0:0:0:
256,364,48135,1,0,0:0:0:0:
240,368,48215,1,0,0:0:0:0:
224,372,48295,1,0,0:0:0:0:
152,316,48455,1,0,0:0:0:0:
80,372,48616,1,0,0:0:0:0:
0,232,48777,5,0,0:0:0:0:
44,156,48937,1,0,0:0:0:0:
12,72,49097,1,0,0:0:0:0:
256,0,49418,1,0,0:0:0:0:
500,72,49739,1,2,0:0:0:0:
472,312,50060,5,0,0:0:0:0:
456,316,50140,1,0,0:0:0:0:
440,320,50220,1,0,0:0:0:0:
424,324,50300,1,0,0:0:0:0:
400,352,50380,1,0,0:0:0:0:
384,348,50460,1,0,0:0:0:0:
368,344,50540,1,0,0:0:0:0:
352,340,50621,1,0,0:0:0:0:
328,312,50701,1,0,0:0:0:0:
292,304,50781,1,0,0:0:0:0:
256,312,50862,1,0,0:0:0:0:
228,336,50942,1,0,0:0:0:0:
212,368,51022,1,0,0:0:0:0:
196,372,51102,1,0,0:0:0:0:
180,376,51183,1,0,0:0:0:0:
164,380,51263,1,0,0:0:0:0:
148,384,51343,5,0,0:0:0:0:
112,356,51423,1,0,0:0:0:0:
100,312,51503,1,0,0:0:0:0:
120,272,51584,1,0,0:0:0:0:
160,252,51664,1,0,0:0:0:0:
204,252,51744,1,0,0:0:0:0:
244,232,51824,1,0,0:0:0:0:
264,192,51904,1,0,0:0:0:0:
256,148,51985,1,0,0:0:0:0:
0,32,52306,1,2,0:0:0:0:
92,344,52626,5,4,0:0:0:0:
128,356,52706,1,0,0:0:0:0:
164,348,52786,1,0,0:0:0:0:
188,320,52867,1,0,0:0:0:0:
196,284,52947,1,0,0:0:0:0:
220,256,53028,1,0,0:0:0:0:
256,248,53108,1,0,0:0:0:0:
292,260,53188,1,0,0:0:0:0:
316,288,53268,1,0,0:0:0:0:
352,300,53348,1,0,0:0:0:0:
388,292,53428,1,0,0:0:0:0:
412,264,53509,1,0,0:0:0:0:
416,220,53589,1,0,0:0:0:0:
448,136,53749,1,0,0:0:0:0:
288,32,53910,6,0,L|244:24,1,45
176,36,54070,1,0,0:0:0:0:
148,60,54150,1,0,0:0:0:0:
140,96,54231,1,0,0:0:0:0:
152,128,54311,1,0,0:0:0:0:
184,148,54391,1,0,0:0:0:0:
220,152,54471,1,0,0:0:0:0:
256,144,54552,2,0,L|300:136,1,45
368,148,54712,1,0,0:0:0:0:
396,172,54792,1,0,0:0:0:0:
404,208,54873,1,0,0:0:0:0:
392,240,54953,1,0,0:0:0:0:
360,260,55033,1,0,0:0:0:0:
324,264,55113,1,0,0:0:0:0:
288,256,55193,5,4,0:0:0:0:
412,46,55434,1,4,0:0:0:0:
434,289,55675,1,4,0:0:0:0:
274,106,55915,1,4,0:0:0:0:
512,160,56156,1,4,0:0:0:0:
352,184,56316,1,4,0:0:0:0:
304,28,56477,5,8,0:0:0:0:
288,24,56557,1,4,0:0:0:0:
0,176,56798,1,4,0:0:0:0:
276,348,57038,1,4,0:0:0:0:
96,76,57279,1,4,0:0:0:0:
72,344,57439,1,4,0:0:0:0:
256,148,57600,1,4,0:0:0:0:
8,48,57760,5,4,0:0:0:0:
96,76,57921,1,0,0:0:0:0:
28,136,58081,1,0,0:0:0:0:
32,152,58161,1,0,0:0:0:0:
36,168,58241,1,0,0:0:0:0:
124,196,58402,1,0,0:0:0:0:
128,212,58482,1,0,0:0:0:0:
132,228,58562,1,0,0:0:0:0:
64,288,58723,1,0,0:0:0:0:
152,316,58883,1,0,0:0:0:0:
220,256,59044,5,0,0:0:0:0:
308,284,59204,1,0,0:0:0:0:
240,344,59364,1,0,0:0:0:0:
244,360,59445,1,0,0:0:0:0:
248,376,59525,1,0,0:0:0:0:
404,336,59685,1,0,0:0:0:0:
408,320,59765,1,0,0:0:0:0:
412,304,59846,1,0,0:0:0:0:
416,288,59926,1,0,0:0:0:0:
420,272,60006,1,0,0:0:0:0:
444,244,60086,1,0,0:0:0:0:
452,208,60167,1,0,0:0:0:0:
444,172,60247,1,0,0:0:0:0:
420,144,60327,5,0,0:0:0:0:
416,128,60407,1,0,0:0:0:0:
412,112,60487,1,0,0:0:0:0:
408,96,60568,1,0,0:0:0:0:
404,80,60648,1,0,0:0:0:0:
372,64,60728,1,0,0:0:0:0:
336,68,60808,1,0,0:0:0:0:
308,92,60888,1,0,0:0:0:0:
300,128,60969,1,0,0:0:0:0:
268,160,61049,1,0,0:0:0:0:
224,168,61129,1,0,0:0:0:0:
184,148,61209,1,0,0:0:0:0:
164,108,61289,1,0,0:0:0:0:
160,92,61369,1,0,0:0:0:0:
156,76,61449,1,0,0:0:0:0:
152,60,61530,1,0,0:0:0:0:
148,44,61610,5,4,0:0:0:0:
116,12,61691,1,0,0:0:0:0:
72,4,61771,1,0,0:0:0:0:
32,24,61851,1,0,0:0:0:0:
12,64,61931,1,4,0:0:0:0:
20,108,62011,1,0,0:0:0:0:
56,144,62092,1,0,0:0:0:0:
100,152,62172,1,0,0:0:0:0:
144,144,62252,1,4,0:0:0:0:
188,152,62332,1,0,0:0:0:0:
224,188,62413,1,0,0:0:0:0:
232,232,62493,1,0,0:0:0:0:
212,272,62573,2,0,L|240:288,2,30
204,280,62733,2,0,L|176:264,2,30
196,288,62894,5,4,0:0:0:0:
168,312,62974,1,0,0:0:0:0:
132,316,63054,1,0,0:0:0:0:
100,300,63134,1,0,0:0:0:0:
80,268,63215,1,0,0:0:0:0:
80,232,63295,1,0,0:0:0:0:
96,200,63375,1,0,0:0:0:0:
128,184,63455,1,0,0:0:0:0:
164,188,63535,1,0,0:0:0:0:
200,180,63616,1,0,0:0:0:0:
228,156,63696,1,0,0:0:0:0:
236,120,63776,1,0,0:0:0:0:
228,84,63856,1,0,0:0:0:0:
160,24,64017,1,0,0:0:0:0:
16,92,64177,6,0,L|12:140,1,45
0,172,64338,1,0,0:0:0:0:
8,208,64418,1,0,0:0:0:0:
36,232,64498,1,0,0:0:0:0:
72,240,64578,1,0,0:0:0:0:
108,232,64658,1,0,0:0:0:0:
132,204,64739,1,0,0:0:0:0:
136,168,64819,2,0,L|132:120,1,45
120,88,64980,1,0,0:0:0:0:
128,52,65060,1,0,0:0:0:0:
156,28,65140,1,0,0:0:0:0:
192,20,65220,1,0,0:0:0:0:
228,28,65300,1,0,0:0:0:0:
252,56,65381,1,0,0:0:0:0:
256,92,65461,5,6,0:0:0:0:
88,268,65701,1,6,0:0:0:0:
16,36,65942,1,6,0:0:0:0:
248,108,66183,1,6,0:0:0:0:
78,253,66423,1,6,0:0:0:0:
104,92,66584,1,6,0:0:0:0:
228,196,66744,5,10,0:0:0:0:
224,212,66824,1,6,0:0:0:0:
512,364,67065,1,6,0:0:0:0:
496,40,67306,1,6,0:0:0:0:
268,268,67546,1,6,0:0:0:0:
508,144,67707,1,6,0:0:0:0:
272,16,67867,1,6,0:0:0:0:
96,52,68027,5,6,0:0:0:0:
100,68,68107,1,0,0:0:0:0:
168,128,68268,1,0,0:0:0:0:
164,144,68348,1,0,0:0:0:0:
96,204,68509,1,0,0:0:0:0:
100,220,68589,1,0,0:0:0:0:
104,236,68669,1,0,0:0:0:0:
172,296,68830,1,0,0:0:0:0:
168,312,68910,1,0,0:0:0:0:
164,328,68990,1,0,0:0:0:0:
236,384,69150,1,0,0:0:0:0:
308,328,69311,5,0,0:0:0:0:
304,312,69391,1,0,0:0:0:0:
300,296,69471,1,0,0:0:0:0:
296,280,69552,1,0,0:0:0:0:
292,264,69632,1,0,0:0:0:0:
220,208,69792,1,0,0:0:0:0:
292,152,69953,1,0,0:0:0:0:
220,96,70113,1,0,0:0:0:0:
224,80,70193,1,0,0:0:0:0:
228,64,70273,1,0,0:0:0:0:
300,8,70434,1,0,0:0:0:0:
368,64,70594,5,0,0:0:0:0:
384,68,70675,1,0,0:0:0:0:
400,72,70755,1,0,0:0:0:0:
416,76,70835,1,0,0:0:0:0:
432,80,70915,1,0,0:0:0:0:
500,140,71076,1,0,0:0:0:0:
416,168,71236,1,0,0:0:0:0:
400,256,71397,1,0,0:0:0:0:
484,228,71557,1,0,0:0:0:0:
468,316,71718,1,0,0:0:0:0:
384,344,71878,5,0,0:0:0:0:
316,284,72038,1,0,0:0:0:0:
300,288,72118,1,0,0:0:0:0:
284,292,72199,1,0,0:0:0:0:
268,380,72359,1,0,0:0:0:0:
216,228,72519,1,0,0:0:0:0:
200,316,72679,1,0,0:0:0:0:
184,320,72760,1,0,0:0:0:0:
168,324,72840,1,0,0:0:0:0:
100,264,73000,1,0,0:0:0:0:
16,64,73161,5,4,0:0:0:0:
48,48,73241,2,0,L|92:52,1,45
124,72,73402,2,0,L|168:76,1,45
200,56,73562,1,0,0:0:0:0:
236,60,73642,1,0,0:0:0:0:
272,52,73723,1,0,0:0:0:0:
304,36,73803,1,0,0:0:0:0:
388,68,73963,1,0,0:0:0:0:
384,84,74044,1,0,0:0:0:0:
380,100,74124,1,0,0:0:0:0:
464,132,74284,1,0,0:0:0:0:
500,344,74445,5,4,0:0:0:0:
472,320,74525,2,0,L|428:316,1,45
396,332,74685,2,0,L|352:328,1,45
324,304,74846,1,0,0:0:0:0:
292,320,74926,1,0,0:0:0:0:
256,324,75006,1,0,0:0:0:0:
220,316,75086,1,0,0:0:0:0:
144,268,75247,1,0,0:0:0:0:
128,272,75327,1,0,0:0:0:0:
112,276,75407,1,0,0:0:0:0:
60,352,75568,1,0,0:0:0:0:
8,192,75728,5,4,0:0:0:0:
4,176,75808,1,0,0:0:0:0:
0,160,75888,1,0,0:0:0:0:
52,84,76049,1,0,0:0:0:0:
88,240,76209,1,0,0:0:0:0:
140,164,76370,1,4,0:0:0:0:
136,148,76450,1,0,0:0:0:0:
132,132,76530,1,0,0:0:0:0:
184,56,76691,1,0,0:0:0:0:
220,212,76851,1,0,0:0:0:0:
272,136,77012,5,4,0:0:0:0:
268,120,77092,1,0,0:0:0:0:
264,104,77172,1,0,0:0:0:0:
316,28,77333,1,0,0:0:0:0:
352,184,77493,1,0,0:0:0:0:
404,108,77654,1,4,0:0:0:0:
400,92,77734,1,0,0:0:0:0:
396,76,77814,1,0,0:0:0:0:
448,0,77975,1,0,0:0:0:0:
484,156,78135,1,0,0:0:0:0:
468,304,78295,6,0,L|424:304,1,45,4|0,0:0|0:0,0:0:0:0:
392,324,78455,1,0,0:0:0:0:
392,360,78535,1,0,0:0:0:0:
360,380,78616,2,0,L|316:380,1,45,4|0,0:0|0:0,0:0:0:0:
284,360,78776,1,0,0:0:0:0:
284,324,78856,1,0,0:0:0:0:
252,304,78937,2,0,L|208:304,1,45,4|0,0:0|0:0,0:0:0:0:
176,324,79097,1,0,0:0:0:0:
176,360,79177,1,0,0:0:0:0:
144,380,79258,2,0,L|100:380,1,45,4|0,0:0|0:0,0:0:0:0:
68,360,79418,1,0,0:0:0:0:
68,324,79498,1,0,0:0:0:0:
36,304,79578,6,0,L|36:256,1,45,4|0,0:0|0:0,0:0:0:0:
68,240,79738,1,0,0:0:0:0:
100,260,79818,1,0,0:0:0:0:
132,240,79899,2,0,L|132:192,1,45,4|0,0:0|0:0,0:0:0:0:
100,176,80059,1,0,0:0:0:0:
68,196,80139,1,0,0:0:0:0:
36,176,80220,2,0,L|36:128,1,45,4|0,0:0|0:0,0:0:0:0:
68,112,80380,1,0,0:0:0:0:
100,132,80460,1,0,0:0:0:0:
132,112,80541,2,0,L|132:64,1,45,4|0,0:0|0:0,0:0:0:0:
100,48,80701,1,0,0:0:0:0:
68,68,80781,1,0,0:0:0:0:
36,48,80862,5,4,0:0:0:0:
38,12,80942,1,0,0:0:0:0:
68,32,81022,1,4,0:0:0:0:
85,0,81102,1,0,0:0:0:0:
104,32,81183,1,4,0:0:0:0:
134,12,81263,1,0,0:0:0:0:
136,48,81343,1,4,0:0:0:0:
171,46,81423,1,0,0:0:0:0:
160,80,81503,1,4,0:0:0:0:
149,114,81583,1,0,0:0:0:0:
184,112,81663,1,4,0:0:0:0:
186,148,81743,1,0,0:0:0:0:
216,128,81823,1,4,0:0:0:0:
235,160,81904,1,0,0:0:0:0:
252,128,81984,1,4,0:0:0:0:
282,148,82064,1,0,0:0:0:0:
284,112,82145,5,4,0:0:0:0:
286,76,82225,1,0,0:0:0:0:
316,96,82305,1,4,0:0:0:0:
333,64,82385,1,0,0:0:0:0:
352,96,82466,1,4,0:0:0:0:
382,76,82546,1,0,0:0:0:0:
384,112,82626,1,4,0:0:0:0:
419,110,82707,1,0,0:0:0:0:
408,144,82787,1,8,0:0:0:0:
428,184,82867,1,8,0:0:0:0:
428,228,82947,1,8,0:0:0:0:
408,268,83027,1,8,0:0:0:0:
368,292,83108,1,8,0:0:0:0:
324,288,83188,1,8,0:0:0:0:
280,296,83268,1,8,0:0:0:0:
244,324,83348,1,8,0:0:0:0:
232,368,83429,5,0,0:0:0:0:
156,320,83589,1,0,0:0:0:0:
224,260,83749,1,0,0:0:0:0:
148,212,83909,1,0,0:0:0:0:
144,196,83990,1,0,0:0:0:0:
140,180,84070,1,0,0:0:0:0:
208,120,84231,1,0,0:0:0:0:
132,72,84391,1,0,0:0:0:0:
200,12,84551,1,0,0:0:0:0:
48,20,84712,5,4,0:0:0:0:
0,96,84872,1,0,0:0:0:0:
4,112,84953,1,0,0:0:0:0:
8,128,85033,1,0,0:0:0:0:
88,172,85193,1,0,0:0:0:0:
84,188,85273,1,0,0:0:0:0:
80,204,85354,1,0,0:0:0:0:
76,220,85434,1,0,0:0:0:0:
72,236,85514,1,0,0:0:0:0:
24,312,85675,1,0,0:0:0:0:
104,356,85835,1,0,0:0:0:0:
220,228,85995,5,0,0:0:0:0:
280,380,86156,1,0,0:0:0:0:
212,320,86316,1,0,0:0:0:0:
368,364,86477,1,0,0:0:0:0:
384,368,86557,1,0,0:0:0:0:
400,372,86637,2,0,L|444:364,1,45
476,344,86798,1,0,0:0:0:0:
492,312,86878,1,0,0:0:0:0:
492,276,86958,1,0,0:0:0:0:
480,244,87038,1,0,0:0:0:0:
452,220,87118,1,0,0:0:0:0:
488,60,87279,5,0,0:0:0:0:
404,24,87439,1,0,0:0:0:0:
388,28,87519,1,0,0:0:0:0:
372,32,87600,1,0,0:0:0:0:
288,68,87760,1,0,0:0:0:0:
272,64,87840,1,0,0:0:0:0:
256,60,87921,1,0,0:0:0:0:
172,24,88081,1,0,0:0:0:0:
156,28,88161,1,0,0:0:0:0:
140,32,88241,1,0,0:0:0:0:
56,68,88401,1,0,0:0:0:0:
16,212,88562,5,0,0:0:0:0:
148,384,88723,1,4,0:0:0:0:
132,296,88883,1,0,0:0:0:0:
264,124,89044,1,4,0:0:0:0:
248,212,89204,1,0,0:0:0:0:
380,384,89364,1,4,0:0:0:0:
364,296,89525,1,0,0:0:0:0:
464,168,89685,1,4,0:0:0:0:
392,24,89846,5,4,0:0:0:0:
312,64,90006,1,0,0:0:0:0:
308,80,90086,1,0,0:0:0:0:
304,96,90167,1,0,0:0:0:0:
356,172,90327,1,0,0:0:0:0:
352,188,90407,1,0,0:0:0:0:
348,204,90488,1,0,0:0:0:0:
268,244,90647,1,0,0:0:0:0:
264,260,90727,1,0,0:0:0:0:
260,276,90808,1,0,0:0:0:0:
180,316,90969,1,0,0:0:0:0:
28,260,91129,5,0,0:0:0:0:
24,244,91209,1,0,0:0:0:0:
20,228,91289,1,0,0:0:0:0:
52,144,91450,1,0,0:0:0:0:
192,232,91611,1,0,0:0:0:0:
176,236,91691,1,0,0:0:0:0:
160,240,91771,1,0,0:0:0:0:
120,84,91931,1,0,0:0:0:0:
136,88,92011,1,0,0:0:0:0:
152,92,92091,1,0,0:0:0:0:
224,148,92252,1,0,0:0:0:0:
332,28,92412,5,0,0:0:0:0:
348,32,92493,1,0,0:0:0:0:
364,36,92573,1,0,0:0:0:0:
380,40,92654,1,0,0:0:0:0:
396,44,92734,1,0,0:0:0:0:
420,72,92814,1,0,0:0:0:0:
424,108,92894,1,0,0:0:0:0:
408,140,92974,1,0,0:0:0:0:
376,156,93054,1,0,0:0:0:0:
356,188,93134,1,0,0:0:0:0:
352,224,93215,1,0,0:0:0:0:
368,256,93295,1,0,0:0:0:0:
396,280,93375,1,0,0:0:0:0:
484,288,93535,1,0,0:0:0:0:
448,204,93696,5,0,0:0:0:0:
304,276,93856,1,0,0:0:0:0:
440,368,94017,1,4,0:0:0:0:
0,108,94338,1,4,0:0:0:0:
4,124,94418,1,0,0:0:0:0:
64,92,94498,1,0,0:0:0:0:
68,108,94578,1,0,0:0:0:0:
128,76,94658,1,4,0:0:0:0:
132,92,94739,1,0,0:0:0:0:
192,60,94819,1,0,0:0:0:0:
196,76,94899,1,0,0:0:0:0:
256,44,94979,5,4,0:0:0:0:
332,96,95140,1,0,0:0:0:0:
328,112,95220,1,0,0:0:0:0:
324,128,95300,1,0,0:0:0:0:
288,212,95461,1,0,0:0:0:0:
292,228,95541,1,0,0:0:0:0:
296,244,95622,1,0,0:0:0:0:
300,260,95702,1,0,0:0:0:0:
304,276,95782,1,0,0:0:0:0:
388,304,95942,1,0,0:0:0:0:
444,232,96102,1,0,0:0:0:0:
464,72,96263,5,0,0:0:0:0:
308,32,96423,1,0,0:0:0:0:
396,12,96584,1,0,0:0:0:0:
272,116,96744,1,0,0:0:0:0:
276,132,96824,1,0,0:0:0:0:
280,148,96904,2,0,L|276:192,1,45
252,220,97065,1,0,0:0:0:0:
236,252,97145,1,0,0:0:0:0:
232,288,97225,1,0,0:0:0:0:
244,324,97306,1,0,0:0:0:0:
268,352,97386,1,0,0:0:0:0:
108,336,97546,5,0,0:0:0:0:
40,276,97707,1,0,0:0:0:0:
44,260,97787,1,0,0:0:0:0:
48,244,97867,1,0,0:0:0:0:
116,184,98027,1,0,0:0:0:0:
112,168,98107,1,0,0:0:0:0:
108,152,98187,1,0,0:0:0:0:
40,92,98349,1,0,0:0:0:0:
44,76,98429,1,0,0:0:0:0:
48,60,98509,1,0,0:0:0:0:
116,0,98669,1,0,0:0:0:0:
376,40,98830,5,0,0:0:0:0:
136,88,98990,1,4,0:0:0:0:
120,176,99150,1,0,0:0:0:0:
392,128,99311,1,4,0:0:0:0:
408,216,99471,1,0,0:0:0:0:
104,264,99631,1,4,0:0:0:0:
88,352,99791,1,0,0:0:0:0:
424,304,99952,1,4,0:0:0:0:
256,376,100113,5,4,0:0:0:0:
144,256,100274,1,0,0:0:0:0:
155,245,100355,1,0,0:0:0:0:
166,233,100435,1,0,0:0:0:0:
275,97,100595,1,0,0:0:0:0:
280,113,100676,1,0,0:0:0:0:
284,129,100756,1,0,0:0:0:0:
347,291,100915,1,0,0:0:0:0:
331,287,100996,1,0,0:0:0:0:
315,283,101076,1,0,0:0:0:0:
255,215,101236,1,0,0:0:0:0:
400,20,101396,5,4,0:0:0:0:
404,36,101477,1,0,0:0:0:0:
408,52,101556,1,0,0:0:0:0:
480,108,101717,1,0,0:0:0:0:
324,160,101878,1,0,0:0:0:0:
328,176,101959,1,0,0:0:0:0:
332,192,102038,1,0,0:0:0:0:
404,248,102199,1,0,0:0:0:0:
400,264,102280,1,0,0:0:0:0:
396,280,102359,1,0,0:0:0:0:
464,344,102519,1,0,0:0:0:0:
256,320,102680,5,4,0:0:0:0:
224,304,102761,1,0,0:0:0:0:
256,288,102841,1,0,0:0:0:0:
288,272,102921,1,0,0:0:0:0:
256,256,103001,1,0,0:0:0:0:
224,240,103082,1,0,0:0:0:0:
256,224,103162,1,0,0:0:0:0:
288,208,103242,1,0,0:0:0:0:
256,192,103322,1,4,0:0:0:0:
224,176,103403,1,0,0:0:0:0:
256,160,103483,1,0,0:0:0:0:
288,144,103563,1,0,0:0:0:0:
256,128,103643,1,0,0:0:0:0:
224,112,103724,1,0,0:0:0:0:
256,96,103804,1,0,0:0:0:0:
288,80,103883,1,0,0:0:0:0:
259,67,103964,5,8,0:0:0:0:
259,67,104044,1,8,0:0:0:0:
51,19,104204,1,8,0:0:0:0:
51,19,104284,1,8,0:0:0:0:
3,235,104445,1,8,0:0:0:0:
3,235,104525,1,8,0:0:0:0:
256,192,104605,12,8,105247,0:0:0:0:
460,360,105568,6,0,L|464:316,1,45,4|0,0:0|0:0,0:0:0:0:
484,276,105728,1,0,0:0:0:0:
444,296,105808,1,0,0:0:0:0:
400,304,105888,1,0,0:0:0:0:
356,304,105968,1,0,0:0:0:0:
312,288,106049,1,0,0:0:0:0:
228,220,106209,1,0,0:0:0:0:
128,264,106370,1,0,0:0:0:0:
0,92,106530,5,0,0:0:0:0:
36,64,106610,1,0,0:0:0:0:
80,52,106691,1,0,0:0:0:0:
124,52,106771,1,0,0:0:0:0:
164,72,106851,2,0,L|176:116,1,45
215,135,107011,1,0,0:0:0:0:
259,135,107091,1,0,0:0:0:0:
303,123,107172,1,0,0:0:0:0:
360,32,107332,1,0,0:0:0:0:
404,32,107412,1,0,0:0:0:0:
444,52,107493,1,0,0:0:0:0:
472,88,107573,1,0,0:0:0:0:
480,132,107653,1,0,0:0:0:0:
512,292,107814,5,0,0:0:0:0:
472,272,107894,1,0,0:0:0:0:
428,264,107975,1,0,0:0:0:0:
388,284,108055,1,0,0:0:0:0:
364,320,108134,2,0,L|348:364,1,45
308,384,108295,1,0,0:0:0:0:
264,380,108375,1,0,0:0:0:0:
232,348,108455,1,0,0:0:0:0:
148,280,108616,1,0,0:0:0:0:
104,284,108696,1,0,0:0:0:0:
72,316,108776,1,0,0:0:0:0:
0,232,108937,1,0,0:0:0:0:
96,0,109097,5,0,0:0:0:0:
80,216,109257,1,4,0:0:0:0:
184,64,109418,1,0,0:0:0:0:
200,280,109578,1,4,0:0:0:0:
328,16,109739,1,0,0:0:0:0:
312,232,109899,1,4,0:0:0:0:
416,80,110060,1,0,0:0:0:0:
432,296,110220,1,4,0:0:0:0:
240,368,110380,5,4,0:0:0:0:
212,332,110461,1,0,0:0:0:0:
200,288,110541,1,0,0:0:0:0:
220,248,110621,1,0,0:0:0:0:
256,220,110701,2,0,L|304:216,1,45
336,188,110862,1,0,0:0:0:0:
356,148,110942,1,0,0:0:0:0:
344,104,111022,1,0,0:0:0:0:
248,52,111183,1,0,0:0:0:0:
228,92,111263,1,0,0:0:0:0:
240,136,111343,1,0,0:0:0:0:
144,184,111503,1,0,0:0:0:0:
16,84,111664,5,0,0:0:0:0:
52,112,111744,1,0,0:0:0:0:
64,156,111824,1,0,0:0:0:0:
56,200,111904,1,0,0:0:0:0:
28,236,111985,2,0,L|28:288,1,45
56,316,112145,1,0,0:0:0:0:
100,332,112225,1,0,0:0:0:0:
144,320,112306,1,0,0:0:0:0:
212,236,112466,1,0,0:0:0:0:
256,224,112547,1,0,0:0:0:0:
300,240,112627,1,0,0:0:0:0:
368,324,112787,1,0,0:0:0:0:
492,148,112947,5,0,0:0:0:0:
452,168,113027,1,0,0:0:0:0:
408,164,113108,1,0,0:0:0:0:
372,136,113188,1,0,0:0:0:0:
360,92,113268,1,0,0:0:0:0:
324,64,113348,1,0,0:0:0:0:
280,60,113429,1,0,0:0:0:0:
240,80,113509,1,0,0:0:0:0:
216,120,113589,1,0,0:0:0:0:
216,164,113669,1,0,0:0:0:0:
240,204,113749,1,0,0:0:0:0:
280,224,113830,1,0,0:0:0:0:
324,220,113910,1,0,0:0:0:0:
388,308,114070,1,0,0:0:0:0:
239,374,114231,5,0,0:0:0:0:
171,290,114391,1,0,0:0:0:0:
70,328,114552,1,4,0:0:0:0:
2,243,114712,1,0,0:0:0:0:
61,152,114872,1,4,0:0:0:0:
165,179,115033,1,0,0:0:0:0:
222,88,115193,1,4,0:0:0:0:
153,5,115354,1,0,0:0:0:0:
52,44,115514,6,0,L|52:108,1,45,4|0,0:0|0:0,0:0:0:0:
92,112,115675,1,0,0:0:0:0:
132,136,115755,2,0,L|132:181,1,45
92,204,115915,1,0,0:0:0:0:
72,244,115995,1,0,0:0:0:0:
72,288,116076,1,0,0:0:0:0:
92,328,116156,1,0,0:0:0:0:
128,356,116236,2,0,L|172:356,1,45
208,328,116396,1,0,0:0:0:0:
244,300,116476,2,0,L|288:300,1,45
324,328,116637,1,0,0:0:0:0:
360,356,116717,1,0,0:0:0:0:
400,380,116798,6,0,L|400:336,1,45
432,304,116958,1,0,0:0:0:0:
464,272,117038,2,0,L|464:227,1,45
496,196,117199,1,0,0:0:0:0:
512,152,117279,1,0,0:0:0:0:
512,108,117359,1,0,0:0:0:0:
496,64,117439,1,0,0:0:0:0:
464,32,117519,2,0,L|420:32,1,45
388,64,117680,1,0,0:0:0:0:
356,96,117760,2,0,L|312:96,1,45
280,64,117921,1,0,0:0:0:0:
248,32,118001,1,0,0:0:0:0:
216,0,118081,6,0,L|172:0,1,45
140,32,118241,1,0,0:0:0:0:
108,64,118321,2,0,L|64:64,1,45
28,96,118482,1,0,0:0:0:0:
8,136,118562,1,0,0:0:0:0:
8,180,118642,1,0,0:0:0:0:
28,220,118723,1,0,0:0:0:0:
64,248,118803,2,0,L|108:248,1,45
140,280,118963,1,0,0:0:0:0:
172,312,119043,2,0,L|216:312,1,45
248,280,119204,1,0,0:0:0:0:
280,248,119284,1,0,0:0:0:0:
312,216,119364,6,0,L|312:172,1,45
280,140,119525,1,4,0:0:0:0:
248,108,119605,2,0,L|248:64,1,45
280,32,119765,1,0,0:0:0:0:
320,12,119846,1,4,0:0:0:0:
364,12,119926,1,0,0:0:0:0:
404,32,120006,1,0,0:0:0:0:
436,64,120086,2,0,L|436:108,1,45,0|4,0:0|0:0,0:0:0:0:
404,140,120247,1,0,0:0:0:0:
372,172,120327,2,0,L|372:216,1,45
404,248,120487,1,4,0:0:0:0:
436,280,120567,1,0,0:0:0:0:
468,312,120648,5,4,0:0:0:0:
444,360,120728,1,0,0:0:0:0:
396,384,120808,1,0,0:0:0:0:
344,372,120888,1,0,0:0:0:0:
312,328,120969,1,0,0:0:0:0:
316,276,121049,1,0,0:0:0:0:
356,240,121129,1,0,0:0:0:0:
408,232,121209,1,0,0:0:0:0:
456,212,121289,1,0,0:0:0:0:
488,168,121370,1,0,0:0:0:0:
492,116,121450,1,0,0:0:0:0:
464,68,121530,1,0,0:0:0:0:
412,48,121610,1,0,0:0:0:0:
356,56,121691,1,0,0:0:0:0:
320,96,121771,1,0,0:0:0:0:
312,148,121851,1,0,0:0:0:0:
336,196,121931,5,4,0:0:0:0:
364,241,122011,1,0,0:0:0:0:
367,294,122091,1,0,0:0:0:0:
344,342,122171,1,0,0:0:0:0:
301,374,122251,1,0,0:0:0:0:
248,381,122332,1,0,0:0:0:0:
198,361,122412,1,0,0:0:0:0:
164,320,122492,1,0,0:0:0:0:
153,268,122573,2,0,L|160:224,1,45,4|0,0:0|0:0,0:0:0:0:
224,188,122733,1,0,0:0:0:0:
252,140,122814,1,0,0:0:0:0:
240,88,122894,2,0,L|246:43,1,45,4|0,0:0|0:0,0:0:0:0:
188,0,123054,1,0,0:0:0:0:
136,0,123134,1,0,0:0:0:0:
88,28,123215,5,4,0:0:0:0:
103,39,123295,1,0,0:0:0:0:
64,76,123375,1,0,0:0:0:0:
82,76,123455,1,0,0:0:0:0:
68,128,123535,1,0,0:0:0:0:
85,120,123616,1,0,0:0:0:0:
100,172,123696,1,0,0:0:0:0:
111,157,123776,1,0,0:0:0:0:
148,196,123856,1,0,0:0:0:0:
149,177,123937,1,0,0:0:0:0:
200,196,124017,1,0,0:0:0:0:
195,178,124097,1,0,0:0:0:0:
248,168,124177,1,0,0:0:0:0:
233,158,124257,1,0,0:0:0:0:
272,120,124338,1,0,0:0:0:0:
255,120,124418,1,0,0:0:0:0:
268,68,124498,5,0,0:0:0:0:
300,24,124578,1,0,0:0:0:0:
348,0,124658,1,0,0:0:0:0:
400,12,124739,1,0,0:0:0:0:
436,52,124819,1,0,0:0:0:0:
444,104,124899,1,0,0:0:0:0:
412,148,124979,1,0,0:0:0:0:
360,168,125060,1,0,0:0:0:0:
308,156,125140,1,0,0:0:0:0:
252,188,125220,1,0,0:0:0:0:
244,252,125300,1,0,0:0:0:0:
288,300,125380,1,0,0:0:0:0:
352,292,125461,1,0,0:0:0:0:
388,240,125541,1,0,0:0:0:0:
452,232,125622,1,0,0:0:0:0:
496,280,125702,1,0,0:0:0:0:
