osu file format v14

[General]
AudioFilename: audio.mp3
AudioLeadIn: 0
PreviewTime: 83408
Countdown: 1
SampleSet: Normal
StackLeniency: 0.7
Mode: 0
LetterboxInBreaks: 0
WidescreenStoryboard: 1

[Editor]
DistanceSpacing: 1
BeatDivisor: 4
GridSize: 32
TimelineZoom: 4.199999

[Metadata]
Title:Yakumo >>JOINT STRUGGLE
TitleUnicode:Yakumo >>JOINT STRUGGLE
Artist:Kucchi vs Akki
ArtistUnicode:くっちー vs あっきー
Creator:Muya
Version:Beginner
Source:BMS
Tags:BOF2009 おとなのらくがきちょう 東方妖々夢 ~ Perfect Cherry Blossom. Touhou Youyoumu SUKIMA TOUR 少女幻葬 Shoujo Gensou Necro-Fantasy ネクロファンタジア Necro Phantasia ティアオイエツォン Diao ye zong Withered Leaf
BeatmapID:1459577
BeatmapSetID:688877

[Difficulty]
HPDrainRate:3
CircleSize:3
OverallDifficulty:3
ApproachRate:4
SliderMultiplier:0.9
SliderTickRate:1

[Events]
//Background and Video events
0,0,"bg.png",0,0
Video,0,"Yakumo JOINT STRUGGLE.avi"
//Break Periods
//Storyboard Layer 0 (Background)
//Storyboard Layer 1 (Fail)
//Storyboard Layer 2 (Pass)
//Storyboard Layer 3 (Foreground)
//Storyboard Sound Samples

[TimingPoints]
1290,320.855614973262,4,1,1,60,1,0
28482,-100,4,1,2,60,0,0
29445,-100,4,1,1,60,0,0
30327,-100,4,1,2,60,0,0
31049,-100,4,1,1,60,0,0
32493,-100,4,1,2,60,0,0
34578,-100,4,1,1,60,0,0
35701,-100,4,1,2,60,0,0
37145,-100,4,1,1,60,0,0
38749,-100,4,1,2,60,0,0
39712,-100,4,1,1,60,0,0
40594,-100,4,1,2,60,0,0
41316,-100,4,1,1,60,0,0
42760,-100,4,1,2,60,0,0
44846,-100,4,1,1,60,0,0
55193,-100,4,1,2,60,0,0
57680,-100,4,1,1,60,0,0
61610,-100,4,1,2,60,0,0
62894,-100,4,1,1,60,0,0
65461,-100,4,1,2,60,0,0
67947,-100,4,1,1,60,0,0
80862,-100,4,1,2,40,0,0
82787,-100,4,1,2,60,0,0
83429,-100,4,1,2,40,0,0
84712,-100,4,1,1,60,0,0
103963,-100,4,1,2,60,0,0
104765,-100,4,2,0,60,0,0
105247,-100,4,1,2,60,0,0
105407,-100,4,1,1,60,0,0

[Colours]
Combo1 : 255,253,170
Combo2 : 255,170,255
Combo3 : 170,255,255
Combo4 : 185,255,170

[HitObjects]
0,116,1290,6,0,P|72:136|164:88,1,180
224,24,2252,1,0,0:0:0:0:
300,72,2573,2,0,P|324:132|300:244,1,180
224,288,3535,1,0,0:0:0:0:
272,364,3856,6,0,P|332:340|448:352,1,180
504,280,4819,1,0,0:0:0:0:
420,120,5461,2,0,P|468:120|512:108,2,90,4|4|4,0:0|0:0|0:0,0:0:0:0:
364,48,6423,6,0,P|296:52|236:24,1,135,4|0,0:0|0:0,0:0:0:0:
152,60,7225,2,0,P|136:104|136:152,1,90
208,200,7867,2,0,L|308:188,1,90
376,232,8509,2,0,P|396:280|404:320,1,90
332,372,9150,5,0,0:0:0:0:
256,324,9471,1,0,0:0:0:0:
180,372,9792,2,0,P|136:368|88:348,1,90
16,240,10594,2,0,L|8:144,1,90,4|4,0:0|0:0,0:0:0:0:
48,68,11236,1,4,0:0:0:0:
124,116,11557,6,0,P|192:116|244:76,1,135,4|0,0:0|0:0,0:0:0:0:
324,32,12359,2,0,P|324:76|336:120,1,90
280,192,13001,2,0,P|236:192|192:204,1,90
112,244,13642,2,0,L|120:336,1,90
208,356,14284,5,0,0:0:0:0:
268,288,14605,1,0,0:0:0:0:
356,312,14926,2,0,P|400:312|448:296,1,90
472,168,15728,2,0,P|428:168|380:184,2,90,4|4|4,0:0|0:0|0:0,0:0:0:0:
508,84,16691,6,0,P|440:76|388:36,1,135,4|0,0:0|0:0,0:0:0:0:
300,44,17493,2,0,P|280:88|272:132,1,90
320,204,18134,2,0,P|311:248|292:288,1,90
204,296,18776,2,0,L|116:272,1,90
52,208,19418,5,0,0:0:0:0:
109,136,19739,1,0,0:0:0:0:
44,72,20060,2,0,P|84:48|128:48,1,90
232,132,20862,2,0,P|276:130|314:107,2,90,4|4|4,0:0|0:0|0:0,0:0:0:0:
249,43,21824,6,0,P|289:19|380:44,1,135,4|0,0:0|0:0,0:0:0:0:
452,76,22626,2,0,P|436:128|436:172,1,90
476,244,23268,2,0,P|473:288|459:331,1,90
376,364,23910,2,0,L|288:348,1,90
224,284,24552,5,0,0:0:0:0:
280,212,24872,1,0,0:0:0:0:
216,148,25193,2,0,P|204:92|200:52,1,90
24,196,26316,2,0,P|28:240|28:288,1,90
92,348,26958,5,4,0:0:0:0:
144,276,27279,1,0,0:0:0:0:
228,244,27600,2,0,P|276:248|316:264,1,90
372,332,28241,1,0,0:0:0:0:
456,300,28562,2,0,P|476:264|484:216,1,90,4|4,0:0|0:0,0:0:0:0:
432,44,29525,5,4,0:0:0:0:
348,72,29846,1,0,0:0:0:0:
260,60,30167,2,0,P|252:120|256:200,1,135,0|4,0:0|0:0,0:0:0:0:
316,316,31129,1,4,0:0:0:0:
232,348,31450,2,0,P|172:352|132:340,1,90,4|4,0:0|0:0,0:0:0:0:
68,296,32092,5,4,0:0:0:0:
36,212,32412,1,0,0:0:0:0:
76,132,32733,2,0,P|88:80|88:28,1,90
208,104,33535,2,0,P|210:148|221:192,1,90,4|4,0:0|0:0,0:0:0:0:
272,268,34177,2,0,P|332:244|408:248,1,135,4|4,0:0|0:0,0:0:0:0:
484,212,34979,5,0,0:0:0:0:
440,132,35300,2,0,P|436:80|436:40,1,90
268,104,36263,1,4,0:0:0:0:
240,192,36584,1,4,0:0:0:0:
308,252,36904,1,4,0:0:0:0:
280,340,37225,5,4,0:0:0:0:
196,372,37546,1,0,0:0:0:0:
112,340,37867,2,0,P|104:296|104:244,1,90
40,188,38509,1,0,0:0:0:0:
64,100,38830,2,0,P|116:92|148:72,1,90,4|4,0:0|0:0,0:0:0:0:
324,32,39792,5,4,0:0:0:0:
356,116,40113,1,0,0:0:0:0:
308,192,40434,2,0,P|252:196|176:176,1,135,0|4,0:0|0:0,0:0:0:0:
140,308,41396,1,4,0:0:0:0:
224,280,41717,2,0,P|272:284|316:308,1,90,4|4,0:0|0:0,0:0:0:0:
380,360,42359,5,4,0:0:0:0:
460,316,42680,1,0,0:0:0:0:
420,236,43001,2,0,P|416:192|416:140,1,90
492,32,43803,2,0,P|440:36|392:32,1,90,4|4,0:0|0:0,0:0:0:0:
312,20,44445,2,0,P|320:84|320:160,1,135,4|4,0:0|0:0,0:0:0:0:
256,216,45247,5,0,0:0:0:0:
180,168,45568,2,0,P|120:164|88:168,1,90
12,216,46209,1,0,0:0:0:0:
100,372,46851,1,0,0:0:0:0:
160,304,47172,1,0,0:0:0:0:
244,272,47493,5,4,0:0:0:0:
332,292,47814,1,0,0:0:0:0:
408,340,48134,2,0,P|412:292|408:236,1,90
468,180,48776,1,0,0:0:0:0:
392,128,49097,2,0,P|389:83|393:38,2,90,0|0|2,0:0|0:0|0:0,0:0:0:0:
332,200,50060,6,0,P|236:168|144:32,1,270
68,84,51343,2,0,P|88:152|80:264,1,180
32,336,52306,1,2,0:0:0:0:
120,360,52626,6,0,P|200:296|364:288,1,270,4|0,0:0|0:0,0:0:0:0:
452,308,53910,2,0,P|432:236|436:132,1,180
492,60,54872,1,0,0:0:0:0:
408,28,55193,6,0,P|340:52|40:40,2,360,4|8|4,0:0|0:0|0:0,0:0:0:0:
492,60,58081,5,0,0:0:0:0:
436,132,58402,2,0,P|428:184|428:236,1,90
464,304,59044,1,0,0:0:0:0:
392,356,59364,1,0,0:0:0:0:
312,316,59685,2,0,P|264:316|220:324,1,90
140,364,60327,6,0,P|96:296|88:112,1,270
148,44,61610,2,0,P|196:56|252:52,1,90,4|4,0:0|0:0,0:0:0:0:
324,28,62252,1,4,0:0:0:0:
380,100,62573,1,0,0:0:0:0:
464,72,62894,6,0,P|488:120|480:332,1,270,4|0,0:0|0:0,0:0:0:0:
396,304,64177,2,0,P|306:297|216:320,1,180
140,364,65140,1,0,0:0:0:0:
80,296,65461,6,0,P|192:224|416:208,2,360,6|10|6,0:0|0:0|0:0,0:0:0:0:
4,252,68348,5,0,0:0:0:0:
60,180,68669,2,0,P|64:132|64:88,1,90
132,28,69311,1,0,0:0:0:0:
192,96,69632,1,0,0:0:0:0:
260,36,69953,2,0,P|316:36|352:40,1,90
428,80,70594,6,0,P|424:124|428:176,1,90
488,236,71236,2,0,P|491:280|486:325,1,90
408,368,71878,1,0,0:0:0:0:
372,284,72199,1,0,0:0:0:0:
292,328,72519,2,0,P|248:324|196:328,1,90
120,360,73161,6,0,P|76:248|92:100,1,270,4|0,0:0|0:0,0:0:0:0:
152,32,74445,2,0,P|240:64|412:44,1,270,4|0,0:0|0:0,0:0:0:0:
492,88,75728,6,0,P|496:136|492:180,1,90,4|0,0:0|0:0,0:0:0:0:
412,220,76370,2,0,P|408:268|412:312,1,90,4|0,0:0|0:0,0:0:0:0:
332,352,77011,2,0,P|284:356|240:352,1,90,4|0,0:0|0:0,0:0:0:0:
200,272,77653,2,0,P|152:268|108:272,1,90,4|0,0:0|0:0,0:0:0:0:
28,312,78295,6,0,P|20:200|208:48,2,360,4|4|4,0:0|0:0|0:0,0:0:0:0:
256,192,81022,12,0,83429,0:0:0:0:
176,296,84712,5,4,0:0:0:0:
92,328,85033,1,0,0:0:0:0:
32,260,85354,2,0,P|24:204|28:160,1,90
72,96,85995,1,0,0:0:0:0:
160,120,86316,1,0,0:0:0:0:
220,52,86637,2,0,P|268:52|320:36,1,90
388,84,87279,6,0,P|404:148|404:184,1,90
344,236,87921,1,0,0:0:0:0:
264,200,88241,1,0,0:0:0:0:
128,216,88723,2,0,P|120:284|124:320,1,90,4|4,0:0|0:0,0:0:0:0:
196,356,89364,2,0,P|256:328|324:328,1,135,4|4,0:0|0:0,0:0:0:0:
400,376,90167,5,0,0:0:0:0:
476,328,90487,2,0,P|480:280|476:236,1,90
400,188,91129,1,0,0:0:0:0:
324,236,91450,1,0,0:0:0:0:
248,188,91771,2,0,P|208:184|156:188,1,90
80,236,92412,6,0,P|64:164|84:52,1,180
160,16,93375,1,0,0:0:0:0:
244,64,93696,2,0,P|292:76|348:76,1,90,0|4,0:0|0:0,0:0:0:0:
416,116,94338,2,0,P|416:164|404:212,1,90,4|4,0:0|0:0,0:0:0:0:
368,284,94979,5,4,0:0:0:0:
288,240,95300,1,0,0:0:0:0:
248,320,95621,2,0,P|200:336|156:336,1,90
92,280,96263,1,0,0:0:0:0:
128,196,96584,1,0,0:0:0:0:
60,140,96904,2,0,P|56:92|56:40,1,90
140,24,97546,5,0,0:0:0:0:
204,88,97867,1,0,0:0:0:0:
292,112,98188,2,0,P|360:104|392:88,1,90
496,168,98990,2,0,P|476:208|468:252,1,90,4|4,0:0|0:0,0:0:0:0:
420,328,99632,2,0,P|364:348|292:320,1,135,4|4,0:0|0:0,0:0:0:0:
256,244,100434,5,0,0:0:0:0:
320,180,100755,2,0,P|324:136|324:88,1,90
268,20,101396,1,4,0:0:0:0:
232,104,101717,1,0,0:0:0:0:
160,156,102038,6,0,P|116:168|68:164,1,90
28,244,102680,2,0,P|88:256|152:352,2,180,4|4|8,0:0|0:0|0:0,0:0:0:0:
244,312,104765,6,0,P|308:320|372:296,1,135,0|8,0:0|0:0,0:0:0:0:
428,224,105568,5,4,0:0:0:0:
360,164,105888,2,0,P|352:128|348:76,1,90
268,36,106530,1,0,0:0:0:0:
180,48,106851,1,0,0:0:0:0:
112,108,107172,2,0,P|104:144|100:196,1,90
28,252,107814,5,0,0:0:0:0:
52,340,108134,1,0,0:0:0:0:
140,347,108455,2,0,P|200:344|232:320,1,90
328,240,109257,2,0,P|388:243|420:267,1,90,4|4,0:0|0:0,0:0:0:0:
492,216,109899,2,0,P|504:148|496:84,1,135,4|4,0:0|0:0,0:0:0:0:
428,24,110701,5,0,0:0:0:0:
352,68,111022,2,0,P|304:84|260:80,1,90
184,120,111664,1,0,0:0:0:0:
124,52,111985,1,0,0:0:0:0:
42,90,112306,2,0,P|32:136|32:192,1,90
4,264,112947,6,0,P|80:260|172:312,1,180
256,336,113910,1,0,0:0:0:0:
344,308,114231,2,0,P|348:263|344:218,1,90,0|4,0:0|0:0,0:0:0:0:
284,148,114872,2,0,P|280:103|284:58,1,90,4|4,0:0|0:0,0:0:0:0:
372,30,115513,5,4,0:0:0:0:
452,72,115835,1,0,0:0:0:0:
404,148,116156,2,0,P|400:192|400:244,1,90
464,300,116798,1,0,0:0:0:0:
392,356,117118,1,0,0:0:0:0:
324,296,117439,2,0,P|264:284|232:284,1,90
164,340,118081,5,0,0:0:0:0:
76,320,118402,1,0,0:0:0:0:
36,240,118723,2,0,P|32:188|36:132,1,90
140,64,119525,2,0,P|144:116|140:172,1,90,4|4,0:0|0:0,0:0:0:0:
224,196,120167,1,4,0:0:0:0:
296,312,120648,6,0,P|408:268|440:132,1,270,4|0,0:0|0:0,0:0:0:0:
388,60,121931,2,0,P|256:36|124:60,1,270,4|4,0:0|0:0,0:0:0:0:
72,132,123215,6,0,P|256:372|440:132,1,697.5,4|0,0:0|0:0,0:0:0:0:
