osu file format v14

[General]
AudioFilename: audio.mp3
AudioLeadIn: 0
PreviewTime: 83408
Countdown: 1
SampleSet: Normal
StackLeniency: 0.7
Mode: 0
LetterboxInBreaks: 0
WidescreenStoryboard: 1

[Editor]
DistanceSpacing: 1.8
BeatDivisor: 4
GridSize: 32
TimelineZoom: 4.199999

[Metadata]
Title:Yakumo >>JOINT STRUGGLE
TitleUnicode:Yakumo >>JOINT STRUGGLE
Artist:Kucchi vs Akki
ArtistUnicode:くっちー vs あっきー
Creator:Muya
Version:Another
Source:BMS
Tags:BOF2009 おとなのらくがきちょう 東方妖々夢 ~ Perfect Cherry Blossom. Touhou Youyoumu SUKIMA TOUR 少女幻葬 Shoujo Gensou Necro-Fantasy ネクロファンタジア Necro Phantasia ティアオイエツォン Diao ye zong Withered Leaf
BeatmapID:1463054
BeatmapSetID:688877

[Difficulty]
HPDrainRate:7
CircleSize:5
OverallDifficulty:8
ApproachRate:9
SliderMultiplier:1.8
SliderTickRate:1

[Events]
//Background and Video events
0,0,"bg.png",0,0
Video,0,"Yakumo JOINT STRUGGLE.avi"
//Break Periods
//Storyboard Layer 0 (Background)
//Storyboard Layer 1 (Fail)
//Storyboard Layer 2 (Pass)
//Storyboard Layer 3 (Foreground)
//Storyboard Sound Samples

[TimingPoints]
1290,320.855614973262,4,1,1,60,1,0
28482,-100,4,1,2,60,0,0
29445,-100,4,1,1,60,0,0
30327,-100,4,1,2,60,0,0
31049,-100,4,1,1,60,0,0
32493,-100,4,1,2,60,0,0
34578,-100,4,1,1,60,0,0
35701,-100,4,1,2,60,0,0
37145,-100,4,1,1,60,0,0
38749,-100,4,1,2,60,0,0
39712,-100,4,1,1,60,0,0
40594,-100,4,1,2,60,0,0
41316,-100,4,1,1,60,0,0
42760,-100,4,1,2,60,0,0
44846,-100,4,1,1,60,0,0
55193,-100,4,1,2,60,0,0
57680,-100,4,1,1,60,0,0
61610,-100,4,1,2,60,0,0
62894,-100,4,1,1,60,0,0
65461,-100,4,1,2,60,0,0
67947,-100,4,1,1,60,0,0
80862,-100,4,1,2,40,0,0
82787,-100,4,1,2,60,0,0
83429,-100,4,1,2,40,0,0
84712,-100,4,1,1,60,0,0
103963,-100,4,1,2,60,0,0
105407,-100,4,1,1,60,0,0

[Colours]
Combo1 : 255,253,170
Combo2 : 255,170,255
Combo3 : 170,255,255
Combo4 : 185,255,170

[HitObjects]
16,32,1290,5,0,0:0:0:0:
80,64,1450,1,0,0:0:0:0:
144,32,1610,1,0,0:0:0:0:
160,32,1691,1,0,0:0:0:0:
176,32,1771,1,0,0:0:0:0:
240,64,1930,1,0,0:0:0:0:
256,64,2011,1,0,0:0:0:0:
320,32,2171,1,0,0:0:0:0:
336,32,2252,1,0,0:0:0:0:
400,64,2412,1,0,0:0:0:0:
496,176,2573,5,0,0:0:0:0:
480,176,2653,1,0,0:0:0:0:
464,176,2733,1,0,0:0:0:0:
400,208,2894,1,0,0:0:0:0:
384,208,2974,1,0,0:0:0:0:
368,208,3054,1,0,0:0:0:0:
304,176,3215,1,0,0:0:0:0:
288,176,3295,1,0,0:0:0:0:
224,208,3456,1,0,0:0:0:0:
208,208,3536,1,0,0:0:0:0:
144,176,3696,1,0,0:0:0:0:
16,256,3856,5,0,0:0:0:0:
32,256,3937,1,0,0:0:0:0:
48,256,4017,1,0,0:0:0:0:
112,288,4177,1,0,0:0:0:0:
128,288,4258,1,0,0:0:0:0:
144,288,4338,1,0,0:0:0:0:
208,320,4498,1,0,0:0:0:0:
224,320,4579,1,0,0:0:0:0:
240,320,4658,1,0,0:0:0:0:
256,320,4739,1,0,0:0:0:0:
272,320,4819,1,0,0:0:0:0:
336,288,4979,1,0,0:0:0:0:
488,352,5140,5,0,0:0:0:0:
444,272,5300,1,0,0:0:0:0:
488,192,5461,1,4,0:0:0:0:
252,56,5781,1,4,0:0:0:0:
220,72,5861,1,0,0:0:0:0:
184,72,5942,1,0,0:0:0:0:
152,56,6021,1,0,0:0:0:0:
136,24,6102,1,4,0:0:0:0:
104,8,6183,1,0,0:0:0:0:
68,8,6262,1,0,0:0:0:0:
36,24,6342,1,0,0:0:0:0:
20,56,6423,5,4,0:0:0:0:
92,112,6584,1,0,0:0:0:0:
8,144,6744,1,0,0:0:0:0:
80,200,6904,2,0,L|66:296,1,90
139,345,7225,1,0,0:0:0:0:
152,256,7386,1,0,0:0:0:0:
224,312,7546,6,0,B|268:316|268:316|304:288,1,90
384,232,7867,1,0,0:0:0:0:
371,143,8028,1,0,0:0:0:0:
299,199,8188,2,0,B|255:203|255:203|219:175,1,90
139,119,8509,1,0,0:0:0:0:
152,30,8670,1,0,0:0:0:0:
224,86,8830,6,0,B|268:90|268:90|304:62,1,90
372,0,9150,1,0,0:0:0:0:
393,90,9311,1,0,0:0:0:0:
460,28,9471,2,0,B|481:118,1,90
432,192,9792,1,0,0:0:0:0:
480,268,9953,2,0,B|460:356,1,90
393,294,10273,5,0,0:0:0:0:
372,384,10434,1,0,0:0:0:0:
306,320,10594,1,4,0:0:0:0:
92,224,10915,1,4,0:0:0:0:
76,228,10995,1,0,0:0:0:0:
60,232,11076,1,0,0:0:0:0:
8,156,11236,1,4,0:0:0:0:
24,68,11396,1,0,0:0:0:0:
96,12,11556,5,4,0:0:0:0:
140,92,11717,1,0,0:0:0:0:
228,116,11878,1,0,0:0:0:0:
312,84,12038,2,0,L|400:100,1,90
480,144,12359,1,0,0:0:0:0:
496,232,12519,1,0,0:0:0:0:
452,312,12680,6,0,B|412:328|412:328|372:304,1,90
327,223,13001,1,0,0:0:0:0:
343,135,13161,1,0,0:0:0:0:
299,55,13322,2,0,B|259:39|259:39|219:63,1,90
174,144,13642,1,0,0:0:0:0:
190,232,13802,1,0,0:0:0:0:
146,312,13963,6,0,B|106:328|106:328|66:304,1,90
21,223,14284,1,0,0:0:0:0:
84,154,14445,1,0,0:0:0:0:
169,192,14605,2,0,L|280:168,1,90
342,211,14926,1,0,0:0:0:0:
405,142,15086,2,0,L|516:118,1,90
432,56,15407,5,0,0:0:0:0:
344,75,15568,1,0,0:0:0:0:
256,94,15729,1,4,0:0:0:0:
200,340,16049,1,4,0:0:0:0:
184,344,16129,1,0,0:0:0:0:
168,348,16209,1,0,0:0:0:0:
152,352,16290,1,0,0:0:0:0:
136,356,16370,2,0,L|88:352,3,45,4|0|0|0,0:0|0:0|0:0|0:0,0:0:0:0:
60,332,16691,6,0,B|40:292|40:292|60:252,1,90,4|0,0:0|0:0,0:0:0:0:
88,228,16931,2,0,B|108:188|108:188|88:148,1,90
80,132,17172,1,0,0:0:0:0:
72,116,17252,1,0,0:0:0:0:
64,100,17332,1,0,0:0:0:0:
80,68,17412,2,0,L|172:60,1,90
195,87,17653,2,0,L|284:79,1,90
292,64,17894,1,0,0:0:0:0:
300,48,17974,6,0,L|392:40,1,90
420,60,18215,2,0,B|444:100|444:100|428:140,1,90
420,156,18455,1,0,0:0:0:0:
412,172,18535,1,0,0:0:0:0:
404,188,18616,1,0,0:0:0:0:
376,212,18696,2,0,L|284:204,1,90
268,172,18937,2,0,L|176:164,1,90
164,176,19177,1,0,0:0:0:0:
150,188,19257,6,0,L|58:180,1,90
32,204,19498,2,0,B|4:240|4:240|16:300,1,90
16,300,19739,1,0,0:0:0:0:
20,316,19819,1,0,0:0:0:0:
24,332,19899,1,0,0:0:0:0:
52,356,19979,2,0,L|144:348,1,90
160,316,20220,2,0,L|252:308,1,90
260,296,20461,1,0,0:0:0:0:
272,284,20541,6,0,B|284:240|284:240|264:200,1,90
256,184,20781,1,0,0:0:0:0:
248,168,20862,1,4,0:0:0:0:
252,80,21022,1,0,0:0:0:0:
328,32,21183,1,4,0:0:0:0:
340,40,21263,1,0,0:0:0:0:
352,48,21343,1,0,0:0:0:0:
372,136,21503,1,4,0:0:0:0:
448,88,21664,1,0,0:0:0:0:
468,176,21824,6,0,B|488:216|488:216|468:256,1,90,4|0,0:0|0:0,0:0:0:0:
436,272,22065,2,0,B|416:312|416:312|436:352,1,90
420,356,22306,1,0,0:0:0:0:
404,360,22386,1,0,0:0:0:0:
388,364,22466,1,0,0:0:0:0:
356,348,22546,2,0,L|264:344,1,90
240,316,22787,2,0,L|148:312,1,90
134,308,23027,1,0,0:0:0:0:
118,304,23108,6,0,B|108:260|108:260|124:216,1,90
132,184,23348,2,0,L|224:188,1,90
232,200,23589,1,0,0:0:0:0:
244,212,23669,1,0,0:0:0:0:
256,224,23750,1,0,0:0:0:0:
272,256,23830,2,0,B|312:276|312:276|356:260,1,90
388,276,24070,2,0,L|392:184,1,90
404,172,24311,1,0,0:0:0:0:
416,160,24391,6,0,L|420:68,1,90
392,44,24632,2,0,B|352:24|352:24|308:40,1,90
304,56,24872,1,0,0:0:0:0:
300,72,24953,1,0,0:0:0:0:
296,88,25033,1,0,0:0:0:0:
264,108,25113,2,0,B|221:123|221:123|181:103,1,90
155,78,25354,1,0,0:0:0:0:
84,20,25514,1,0,0:0:0:0:
68,24,25594,1,0,0:0:0:0:
52,28,25675,6,0,B|52:132|52:132|4:172|4:172|4:276,1,270
92,292,26316,1,0,0:0:0:0:
128,284,26396,1,0,0:0:0:0:
164,292,26477,1,0,0:0:0:0:
192,316,26557,1,0,0:0:0:0:
208,348,26637,1,0,0:0:0:0:
236,372,26717,1,0,0:0:0:0:
272,380,26798,1,0,0:0:0:0:
308,372,26878,1,0,0:0:0:0:
336,348,26958,5,4,0:0:0:0:
424,352,27118,1,0,0:0:0:0:
472,276,27279,1,0,0:0:0:0:
432,196,27439,1,0,0:0:0:0:
416,192,27519,1,0,0:0:0:0:
400,188,27600,1,0,0:0:0:0:
360,108,27760,1,0,0:0:0:0:
408,32,27921,1,0,0:0:0:0:
496,36,28081,1,0,0:0:0:0:
448,112,28241,5,0,0:0:0:0:
304,188,28402,1,0,0:0:0:0:
228,44,28562,1,4,0:0:0:0:
232,28,28642,1,0,0:0:0:0:
239,15,28723,1,0,0:0:0:0:
239,15,28883,1,4,0:0:0:0:
444,268,29204,1,0,0:0:0:0:
448,284,29284,1,0,0:0:0:0:
452,300,29365,1,0,0:0:0:0:
396,372,29525,5,4,0:0:0:0:
310,340,29685,1,0,0:0:0:0:
313,248,29846,1,0,0:0:0:0:
227,216,30006,1,0,0:0:0:0:
171,288,30167,1,0,0:0:0:0:
167,304,30247,1,0,0:0:0:0:
169,326,30328,1,4,0:0:0:0:
169,326,30648,1,4,0:0:0:0:
169,326,30969,5,0,0:0:0:0:
96,272,31128,1,4,0:0:0:0:
107,182,31289,1,4,0:0:0:0:
191,146,31450,1,4,0:0:0:0:
207,150,31530,1,0,0:0:0:0:
223,154,31611,1,0,0:0:0:0:
239,158,31691,1,0,0:0:0:0:
255,162,31771,1,4,0:0:0:0:
339,126,31932,1,0,0:0:0:0:
504,44,32092,5,4,0:0:0:0:
420,12,32252,1,0,0:0:0:0:
344,60,32412,1,0,0:0:0:0:
260,28,32572,1,4,0:0:0:0:
256,44,32653,1,0,0:0:0:0:
252,60,32733,1,0,0:0:0:0:
176,108,32893,1,0,0:0:0:0:
92,76,33053,1,0,0:0:0:0:
16,124,33215,1,0,0:0:0:0:
20,140,33296,1,0,0:0:0:0:
24,156,33376,5,0,0:0:0:0:
64,312,33535,1,4,0:0:0:0:
112,156,33696,1,0,0:0:0:0:
152,312,33855,1,4,0:0:0:0:
172,224,34017,1,0,0:0:0:0:
212,380,34176,1,4,0:0:0:0:
260,224,34337,1,0,0:0:0:0:
300,380,34498,1,4,0:0:0:0:
320,292,34658,5,4,0:0:0:0:
336,296,34739,1,0,0:0:0:0:
352,300,34819,1,0,0:0:0:0:
372,212,34979,1,0,0:0:0:0:
440,272,35140,1,0,0:0:0:0:
460,184,35300,1,0,0:0:0:0:
456,168,35380,1,0,0:0:0:0:
452,152,35461,1,0,0:0:0:0:
448,136,35541,1,0,0:0:0:0:
444,120,35621,1,0,0:0:0:0:
464,32,35781,1,4,0:0:0:0:
377,58,35942,5,0,0:0:0:0:
332,216,36102,1,4,0:0:0:0:
332,216,36263,1,4,0:0:0:0:
36,80,36584,1,4,0:0:0:0:
40,96,36665,1,0,0:0:0:0:
17,183,36824,1,0,0:0:0:0:
21,199,36904,1,4,0:0:0:0:
97,247,37065,1,0,0:0:0:0:
74,334,37226,5,4,0:0:0:0:
150,382,37387,1,0,0:0:0:0:
219,324,37547,1,0,0:0:0:0:
185,240,37707,1,0,0:0:0:0:
189,224,37787,1,0,0:0:0:0:
193,208,37867,1,0,0:0:0:0:
159,124,38027,1,0,0:0:0:0:
228,66,38187,1,0,0:0:0:0:
304,114,38348,1,0,0:0:0:0:
281,201,38509,5,0,0:0:0:0:
372,332,38669,1,0,0:0:0:0:
512,248,38830,1,4,0:0:0:0:
508,232,38910,1,0,0:0:0:0:
507,219,38990,1,0,0:0:0:0:
507,219,39150,1,4,0:0:0:0:
256,12,39471,1,0,0:0:0:0:
260,28,39551,1,0,0:0:0:0:
264,44,39631,1,0,0:0:0:0:
340,92,39792,5,4,0:0:0:0:
318,179,39953,1,0,0:0:0:0:
229,184,40113,1,0,0:0:0:0:
207,271,40274,1,0,0:0:0:0:
283,319,40434,1,0,0:0:0:0:
299,315,40515,1,0,0:0:0:0:
321,317,40595,1,4,0:0:0:0:
321,317,40915,1,4,0:0:0:0:
321,317,41236,5,0,0:0:0:0:
410,312,41396,1,4,0:0:0:0:
432,225,41557,1,0,0:0:0:0:
356,177,41717,1,4,0:0:0:0:
340,181,41797,1,0,0:0:0:0:
324,185,41877,1,0,0:0:0:0:
308,189,41957,1,0,0:0:0:0:
292,193,42038,1,4,0:0:0:0:
216,145,42199,1,0,0:0:0:0:
108,24,42359,5,4,0:0:0:0:
36,80,42519,1,0,0:0:0:0:
120,116,42680,1,0,0:0:0:0:
48,172,42840,1,4,0:0:0:0:
52,188,42921,1,0,0:0:0:0:
56,204,43001,1,0,0:0:0:0:
140,240,43162,1,0,0:0:0:0:
68,296,43322,1,0,0:0:0:0:
152,332,43483,1,0,0:0:0:0:
168,328,43562,1,0,0:0:0:0:
184,324,43642,5,0,0:0:0:0:
196,160,43803,1,4,0:0:0:0:
272,304,43963,1,0,0:0:0:0:
284,140,44124,1,4,0:0:0:0:
320,224,44284,1,0,0:0:0:0:
332,60,44445,1,4,0:0:0:0:
408,204,44605,1,0,0:0:0:0:
420,40,44766,1,4,0:0:0:0:
456,124,44926,5,4,0:0:0:0:
440,128,45006,1,0,0:0:0:0:
424,132,45086,1,0,0:0:0:0:
336,108,45247,1,0,0:0:0:0:
356,196,45407,1,0,0:0:0:0:
268,172,45568,1,0,0:0:0:0:
252,176,45648,1,0,0:0:0:0:
236,180,45728,1,0,0:0:0:0:
220,184,45808,1,0,0:0:0:0:
204,188,45888,1,0,0:0:0:0:
116,164,46049,1,0,0:0:0:0:
48,228,46209,5,0,0:0:0:0:
160,352,46370,1,0,0:0:0:0:
160,352,46530,1,0,0:0:0:0:
466,102,46851,1,0,0:0:0:0:
494,124,46931,1,0,0:0:0:0:
504,159,47011,1,0,0:0:0:0:
491,194,47092,1,0,0:0:0:0:
459,210,47172,1,0,0:0:0:0:
443,242,47252,1,0,0:0:0:0:
446,278,47332,1,0,0:0:0:0:
469,306,47412,1,0,0:0:0:0:
504,316,47493,5,4,0:0:0:0:
432,372,47653,1,0,0:0:0:0:
360,316,47814,1,0,0:0:0:0:
344,312,47894,1,0,0:0:0:0:
328,308,47974,1,0,0:0:0:0:
256,364,48135,1,0,0:0:0:0:
240,368,48215,1,0,0:0:0:0:
224,372,48295,1,0,0:0:0:0:
152,316,48455,1,0,0:0:0:0:
80,372,48616,1,0,0:0:0:0:
0,232,48777,5,0,0:0:0:0:
44,156,48937,1,0,0:0:0:0:
12,72,49097,1,0,0:0:0:0:
256,0,49418,1,0,0:0:0:0:
500,72,49739,1,2,0:0:0:0:
504,320,50060,5,0,0:0:0:0:
488,316,50140,1,0,0:0:0:0:
472,312,50220,1,0,0:0:0:0:
456,308,50300,1,0,0:0:0:0:
440,304,50380,2,0,L|428:260,3,45
396,244,50701,1,0,0:0:0:0:
380,248,50781,1,0,0:0:0:0:
364,252,50861,1,0,0:0:0:0:
348,256,50941,1,0,0:0:0:0:
332,260,51022,2,0,L|320:304,3,45
292,328,51343,5,0,0:0:0:0:
260,344,51423,1,0,0:0:0:0:
224,340,51503,1,0,0:0:0:0:
196,316,51584,1,0,0:0:0:0:
180,284,51664,1,0,0:0:0:0:
152,260,51745,1,0,0:0:0:0:
116,256,51825,1,0,0:0:0:0:
84,272,51905,1,0,0:0:0:0:
60,300,51985,1,0,0:0:0:0:
0,32,52306,1,2,0:0:0:0:
124,344,52626,5,4,0:0:0:0:
148,316,52707,1,0,0:0:0:0:
156,280,52787,1,0,0:0:0:0:
148,244,52867,1,0,0:0:0:0:
124,216,52947,1,0,0:0:0:0:
92,200,53027,1,0,0:0:0:0:
68,172,53107,1,0,0:0:0:0:
60,136,53187,1,0,0:0:0:0:
68,100,53267,1,0,0:0:0:0:
92,72,53348,1,0,0:0:0:0:
128,60,53429,1,0,0:0:0:0:
164,64,53509,1,0,0:0:0:0:
196,80,53589,1,0,0:0:0:0:
264,140,53749,1,0,0:0:0:0:
396,44,53910,5,0,0:0:0:0:
428,60,53990,2,0,B|448:100|448:100|436:144,1,90
408,168,54231,1,0,0:0:0:0:
392,172,54311,1,0,0:0:0:0:
376,176,54391,1,0,0:0:0:0:
360,180,54471,1,0,0:0:0:0:
332,204,54552,2,0,B|320:248|320:248|340:288,1,90
372,304,54792,1,0,0:0:0:0:
388,308,54872,1,0,0:0:0:0:
404,312,54953,1,0,0:0:0:0:
420,316,55033,1,0,0:0:0:0:
436,320,55113,1,0,0:0:0:0:
452,324,55193,5,4,0:0:0:0:
404,112,55434,1,4,0:0:0:0:
318,311,55675,1,4,0:0:0:0:
504,199,55915,1,4,0:0:0:0:
288,179,56156,1,4,0:0:0:0:
244,260,56316,1,4,0:0:0:0:
164,304,56477,5,8,0:0:0:0:
148,308,56557,1,4,0:0:0:0:
0,112,56798,1,4,0:0:0:0:
243,81,57038,1,4,0:0:0:0:
60,244,57279,1,4,0:0:0:0:
122,95,57439,1,4,0:0:0:0:
220,224,57600,1,4,0:0:0:0:
158,372,57760,5,4,0:0:0:0:
72,344,57921,1,0,0:0:0:0:
140,284,58081,1,0,0:0:0:0:
136,268,58161,1,0,0:0:0:0:
132,252,58241,1,0,0:0:0:0:
46,224,58402,1,0,0:0:0:0:
42,208,58482,1,0,0:0:0:0:
38,192,58562,1,0,0:0:0:0:
106,132,58723,1,0,0:0:0:0:
20,104,58884,1,0,0:0:0:0:
88,44,59044,5,0,0:0:0:0:
174,72,59204,1,0,0:0:0:0:
242,12,59364,1,0,0:0:0:0:
262,20,59444,1,0,0:0:0:0:
278,24,59525,1,0,0:0:0:0:
364,56,59685,2,0,L|444:36,3,45
440,64,60006,1,0,0:0:0:0:
464,92,60086,1,0,0:0:0:0:
472,128,60167,1,0,0:0:0:0:
464,164,60247,1,0,0:0:0:0:
440,192,60327,6,0,L|396:188,3,45
360,200,60648,1,0,0:0:0:0:
356,184,60728,1,0,0:0:0:0:
352,168,60808,1,0,0:0:0:0:
348,152,60888,1,0,0:0:0:0:
344,136,60969,2,0,L|300:140,3,45
264,128,61290,1,0,0:0:0:0:
260,144,61370,1,0,0:0:0:0:
256,160,61450,1,0,0:0:0:0:
252,176,61530,1,0,0:0:0:0:
248,192,61610,5,4,0:0:0:0:
216,212,61691,1,0,0:0:0:0:
192,240,61771,1,0,0:0:0:0:
184,276,61851,1,0,0:0:0:0:
192,312,61931,1,4,0:0:0:0:
184,348,62011,1,0,0:0:0:0:
156,372,62092,1,0,0:0:0:0:
120,380,62172,1,0,0:0:0:0:
84,372,62252,1,4,0:0:0:0:
60,344,62332,1,0,0:0:0:0:
56,308,62412,1,0,0:0:0:0:
68,276,62493,1,0,0:0:0:0:
96,252,62573,2,0,L|100:220,5,30
127,198,62894,5,4,0:0:0:0:
152,224,62974,1,0,0:0:0:0:
188,232,63054,1,0,0:0:0:0:
224,224,63134,1,0,0:0:0:0:
252,200,63215,1,0,0:0:0:0:
268,168,63295,1,0,0:0:0:0:
264,132,63375,1,0,0:0:0:0:
248,100,63455,1,0,0:0:0:0:
244,64,63535,1,0,0:0:0:0:
260,32,63615,1,0,0:0:0:0:
288,8,63696,1,0,0:0:0:0:
324,0,63776,1,0,0:0:0:0:
360,8,63856,1,0,0:0:0:0:
440,56,64017,1,0,0:0:0:0:
500,204,64177,5,0,0:0:0:0:
464,212,64257,2,0,B|420:220|420:220|352:176,1,90
352,176,64498,1,0,0:0:0:0:
348,160,64578,1,0,0:0:0:0:
344,144,64658,1,0,0:0:0:0:
340,128,64739,1,0,0:0:0:0:
304,120,64819,2,0,B|260:112|260:112|192:156,1,90
192,156,65060,1,0,0:0:0:0:
188,172,65140,1,0,0:0:0:0:
184,188,65220,1,0,0:0:0:0:
180,204,65300,1,0,0:0:0:0:
176,220,65380,1,0,0:0:0:0:
172,236,65461,5,6,0:0:0:0:
12,92,65701,1,6,0:0:0:0:
226,114,65942,1,6,0:0:0:0:
39,221,66182,1,6,0:0:0:0:
126,24,66423,1,6,0:0:0:0:
212,52,66584,1,6,0:0:0:0:
284,0,66744,5,10,0:0:0:0:
300,4,66824,1,6,0:0:0:0:
512,124,67065,1,6,0:0:0:0:
302,247,67306,1,6,0:0:0:0:
420,36,67546,1,6,0:0:0:0:
416,200,67707,1,6,0:0:0:0:
275,114,67867,1,6,0:0:0:0:
420,36,68027,5,6,0:0:0:0:
424,52,68108,1,0,0:0:0:0:
504,104,68268,1,0,0:0:0:0:
500,120,68348,1,0,0:0:0:0:
416,172,68509,1,0,0:0:0:0:
420,188,68589,1,0,0:0:0:0:
424,204,68669,1,0,0:0:0:0:
504,248,68830,1,0,0:0:0:0:
424,292,68990,1,0,0:0:0:0:
504,336,69151,1,0,0:0:0:0:
424,380,69311,5,0,0:0:0:0:
408,376,69391,1,0,0:0:0:0:
392,372,69471,1,0,0:0:0:0:
376,368,69552,1,0,0:0:0:0:
360,364,69632,1,0,0:0:0:0:
284,316,69792,1,0,0:0:0:0:
328,236,69953,1,0,0:0:0:0:
252,188,70113,1,0,0:0:0:0:
248,172,70194,1,0,0:0:0:0:
244,156,70274,1,0,0:0:0:0:
288,76,70434,1,0,0:0:0:0:
212,28,70594,5,0,0:0:0:0:
196,32,70675,1,0,0:0:0:0:
180,36,70755,1,0,0:0:0:0:
164,40,70835,1,0,0:0:0:0:
148,44,70915,1,0,0:0:0:0:
76,100,71076,1,0,0:0:0:0:
160,132,71236,1,0,0:0:0:0:
172,220,71397,1,0,0:0:0:0:
88,188,71557,1,0,0:0:0:0:
100,276,71718,1,0,0:0:0:0:
184,308,71878,5,0,0:0:0:0:
256,252,72038,1,0,0:0:0:0:
272,256,72118,1,0,0:0:0:0:
288,260,72199,1,0,0:0:0:0:
360,204,72359,1,0,0:0:0:0:
276,168,72519,1,0,0:0:0:0:
348,112,72680,1,0,0:0:0:0:
364,116,72760,1,0,0:0:0:0:
380,120,72841,1,0,0:0:0:0:
452,64,73001,1,0,0:0:0:0:
504,220,73161,5,4,0:0:0:0:
488,224,73241,1,0,0:0:0:0:
416,280,73402,1,0,0:0:0:0:
400,276,73482,1,0,0:0:0:0:
328,220,73643,1,0,0:0:0:0:
312,224,73723,1,0,0:0:0:0:
296,228,73803,1,0,0:0:0:0:
224,284,73964,1,0,0:0:0:0:
208,280,74044,1,0,0:0:0:0:
192,276,74124,1,0,0:0:0:0:
120,220,74285,1,0,0:0:0:0:
8,100,74445,5,4,0:0:0:0:
24,96,74525,1,0,0:0:0:0:
96,40,74686,1,0,0:0:0:0:
112,44,74766,1,0,0:0:0:0:
184,100,74927,1,0,0:0:0:0:
200,96,75007,1,0,0:0:0:0:
216,92,75087,1,0,0:0:0:0:
288,36,75248,1,0,0:0:0:0:
304,40,75328,1,0,0:0:0:0:
320,44,75408,1,0,0:0:0:0:
392,100,75569,1,0,0:0:0:0:
504,220,75728,5,4,0:0:0:0:
500,236,75808,1,0,0:0:0:0:
496,252,75888,1,0,0:0:0:0:
474,339,76049,1,0,0:0:0:0:
386,363,76209,1,0,0:0:0:0:
408,276,76370,1,4,0:0:0:0:
412,260,76450,1,0,0:0:0:0:
416,244,76530,1,0,0:0:0:0:
437,156,76691,1,0,0:0:0:0:
370,92,76851,1,0,0:0:0:0:
349,180,77011,5,4,0:0:0:0:
345,196,77091,1,0,0:0:0:0:
341,212,77171,1,0,0:0:0:0:
319,299,77332,1,0,0:0:0:0:
231,323,77492,1,0,0:0:0:0:
253,236,77653,1,4,0:0:0:0:
257,220,77733,1,0,0:0:0:0:
261,204,77813,1,0,0:0:0:0:
282,116,77974,1,0,0:0:0:0:
215,52,78134,1,0,0:0:0:0:
32,88,78295,5,4,0:0:0:0:
8,176,78455,1,0,0:0:0:0:
4,192,78535,1,0,0:0:0:0:
0,208,78616,1,4,0:0:0:0:
80,164,78776,1,0,0:0:0:0:
76,180,78856,1,0,0:0:0:0:
72,196,78937,1,4,0:0:0:0:
152,152,79097,1,0,0:0:0:0:
148,168,79177,1,0,0:0:0:0:
144,184,79257,1,4,0:0:0:0:
224,140,79417,1,0,0:0:0:0:
220,156,79497,1,0,0:0:0:0:
216,172,79578,5,4,0:0:0:0:
296,128,79738,1,0,0:0:0:0:
292,144,79818,1,0,0:0:0:0:
288,160,79899,1,4,0:0:0:0:
368,116,80059,1,0,0:0:0:0:
364,132,80139,1,0,0:0:0:0:
360,148,80220,1,4,0:0:0:0:
440,104,80380,1,0,0:0:0:0:
436,120,80460,1,0,0:0:0:0:
432,136,80541,1,4,0:0:0:0:
512,92,80701,1,0,0:0:0:0:
508,108,80781,1,0,0:0:0:0:
504,124,80862,6,0,L|488:188,3,45,4|0|4|0,0:0|0:0|0:0|0:0,0:0:0:0:
476,232,81183,2,0,L|460:296,3,45,4|0|4|0,0:0|0:0|0:0|0:0,0:0:0:0:
444,340,81503,2,0,L|428:276,3,45,4|0|4|0,0:0|0:0|0:0|0:0,0:0:0:0:
416,232,81824,2,0,L|400:168,3,45,4|0|4|0,0:0|0:0|0:0|0:0,0:0:0:0:
388,124,82145,2,0,L|372:188,3,45,4|0|4|0,0:0|0:0|0:0|0:0,0:0:0:0:
360,232,82466,2,0,L|344:296,3,45,4|0|4|0,0:0|0:0|0:0|0:0,0:0:0:0:
328,340,82787,1,8,0:0:0:0:
296,320,82867,1,8,0:0:0:0:
260,312,82947,1,8,0:0:0:0:
224,320,83027,1,8,0:0:0:0:
192,340,83108,1,8,0:0:0:0:
156,348,83188,1,8,0:0:0:0:
120,340,83268,1,8,0:0:0:0:
88,320,83348,1,8,0:0:0:0:
72,288,83429,5,0,0:0:0:0:
84,200,83589,1,0,0:0:0:0:
168,164,83749,1,0,0:0:0:0:
240,220,83910,1,0,0:0:0:0:
256,224,83990,1,0,0:0:0:0:
272,228,84070,1,0,0:0:0:0:
344,284,84231,1,0,0:0:0:0:
428,248,84391,1,0,0:0:0:0:
440,160,84551,1,0,0:0:0:0:
376,96,84712,6,0,B|336:76|336:76|292:88,1,90,4|0,0:0|0:0,0:0:0:0:
280,76,84953,1,0,0:0:0:0:
268,64,85033,2,0,B|259:156,1,90
108,216,85354,2,0,B|176:224|176:224|200:260|200:260|268:268,1,180
424,312,85835,6,0,B|356:320|356:320|332:356|332:356|264:364,1,180
184,320,86316,1,0,0:0:0:0:
28,368,86477,1,0,0:0:0:0:
16,356,86557,1,0,0:0:0:0:
4,344,86637,2,0,L|12:252,1,90
36,228,86878,1,0,0:0:0:0:
72,220,86958,1,0,0:0:0:0:
108,224,87038,1,0,0:0:0:0:
140,244,87118,1,0,0:0:0:0:
256,360,87279,6,0,B|296:380|296:380|340:368,1,90
356,372,87519,1,0,0:0:0:0:
372,376,87600,2,0,B|376:283,1,90
348,124,87921,2,0,B|344:192|344:192|308:220|308:220|304:288,1,180
256,360,88402,1,0,0:0:0:0:
128,264,88562,5,0,0:0:0:0:
4,372,88723,2,0,B|-12:328|-12:328|4:284,1,90,4|0,0:0|0:0,0:0:0:0:
208,220,89044,2,0,B|224:264|224:264|208:308,1,90,4|0,0:0|0:0,0:0:0:0:
24,196,89364,2,0,L|26:105,1,90,4|0,0:0|0:0,0:0:0:0:
104,60,89685,1,4,0:0:0:0:
232,160,89846,6,0,B|276:176|276:176|320:164,1,90,4|0,0:0|0:0,0:0:0:0:
372,204,90086,1,0,0:0:0:0:
384,192,90167,2,0,L|376:100,1,90
328,56,90407,1,0,0:0:0:0:
340,44,90487,2,0,B|384:28|384:28|428:40,1,90,0|0,0:0|0:0,0:0:0:0:
480,0,90727,1,0,0:0:0:0:
492,12,90808,2,0,L|484:104,1,90
436,256,91129,5,0,0:0:0:0:
440,272,91209,1,0,0:0:0:0:
444,288,91289,1,0,0:0:0:0:
396,364,91450,1,0,0:0:0:0:
252,288,91610,1,0,0:0:0:0:
268,292,91690,1,0,0:0:0:0:
284,296,91770,1,0,0:0:0:0:
364,152,91931,1,0,0:0:0:0:
348,156,92011,1,0,0:0:0:0:
332,160,92092,1,0,0:0:0:0:
256,112,92253,1,0,0:0:0:0:
96,128,92412,5,0,0:0:0:0:
68,152,92493,1,0,0:0:0:0:
52,184,92573,1,0,0:0:0:0:
56,220,92653,1,0,0:0:0:0:
76,248,92733,2,0,L|164:264,1,90
304,348,93054,1,0,0:0:0:0:
332,324,93135,1,0,0:0:0:0:
348,292,93215,1,0,0:0:0:0:
344,256,93295,1,0,0:0:0:0:
324,228,93375,2,0,L|236:212,1,90
172,360,93696,5,0,0:0:0:0:
408,384,94017,1,4,0:0:0:0:
248,132,94338,1,4,0:0:0:0:
212,140,94418,1,0,0:0:0:0:
176,132,94498,1,0,0:0:0:0:
148,112,94578,1,0,0:0:0:0:
132,80,94658,1,4,0:0:0:0:
104,60,94738,1,0,0:0:0:0:
68,52,94818,1,0,0:0:0:0:
32,60,94898,1,0,0:0:0:0:
0,80,94979,6,0,L|8:172,1,90,4|0,0:0|0:0,0:0:0:0:
4,188,95220,1,0,0:0:0:0:
0,204,95300,2,0,B|44:216|44:216|88:200,1,90
144,48,95621,2,0,B|152:116|152:116|184:144|184:144|192:212,1,180
256,360,96102,6,0,B|264:292|264:292|296:264|296:264|304:196,1,180
264,112,96584,1,0,0:0:0:0:
400,24,96744,1,0,0:0:0:0:
412,36,96824,1,0,0:0:0:0:
424,48,96904,2,0,L|416:140,1,90
396,168,97145,1,0,0:0:0:0:
392,204,97225,1,0,0:0:0:0:
400,240,97306,1,0,0:0:0:0:
420,272,97386,1,0,0:0:0:0:
284,356,97546,6,0,B|244:376|244:376|200:368,1,90
180,372,97787,1,0,0:0:0:0:
164,376,97867,2,0,B|150:283,1,90
20,192,98188,2,0,B|88:184|88:184|124:208|124:208|192:200,1,180
260,140,98669,1,0,0:0:0:0:
368,260,98830,5,0,0:0:0:0:
292,308,98990,2,0,B|248:316|248:316|208:296,1,90,4|0,0:0|0:0,0:0:0:0:
220,76,99310,2,0,B|264:68|264:68|304:88,1,90,4|0,0:0|0:0,0:0:0:0:
108,184,99632,2,0,L|12:180,1,90,4|0,0:0|0:0,0:0:0:0:
60,260,99953,1,4,0:0:0:0:
164,384,100113,6,0,L|260:380,1,90,4|0,0:0|0:0,0:0:0:0:
308,336,100354,1,0,0:0:0:0:
320,324,100434,2,0,B|336:284|336:284|316:240,1,90
360,188,100675,1,0,0:0:0:0:
348,176,100755,2,0,L|252:172,1,90
204,128,100996,1,0,0:0:0:0:
192,116,101076,2,0,B|176:76|176:76|196:32,1,90
356,0,101396,5,4,0:0:0:0:
372,4,101477,1,0,0:0:0:0:
388,8,101557,1,0,0:0:0:0:
436,84,101717,1,0,0:0:0:0:
300,172,101878,1,0,0:0:0:0:
296,156,101958,1,0,0:0:0:0:
292,140,102038,1,0,0:0:0:0:
452,172,102199,1,0,0:0:0:0:
448,188,102279,1,0,0:0:0:0:
444,204,102359,1,0,0:0:0:0:
360,240,102519,1,0,0:0:0:0:
256,320,102680,5,4,0:0:0:0:
248,304,102761,1,0,0:0:0:0:
256,288,102841,1,0,0:0:0:0:
264,272,102921,1,0,0:0:0:0:
256,256,103001,1,0,0:0:0:0:
248,240,103082,1,0,0:0:0:0:
256,224,103162,1,0,0:0:0:0:
264,208,103242,1,0,0:0:0:0:
256,192,103322,1,4,0:0:0:0:
248,176,103403,1,0,0:0:0:0:
256,160,103483,1,0,0:0:0:0:
264,144,103563,1,0,0:0:0:0:
256,128,103643,1,0,0:0:0:0:
248,112,103724,1,0,0:0:0:0:
256,96,103804,1,0,0:0:0:0:
264,80,103883,1,0,0:0:0:0:
259,67,103964,5,8,0:0:0:0:
259,67,104044,1,8,0:0:0:0:
124,24,104204,1,8,0:0:0:0:
124,24,104284,1,8,0:0:0:0:
20,124,104445,1,8,0:0:0:0:
20,124,104525,1,8,0:0:0:0:
256,192,104605,12,0,105247,0:0:0:0:
176,144,105568,6,0,B|160:104|160:104|176:60,1,90,4|0,0:0|0:0,0:0:0:0:
328,112,105888,2,0,B|344:152|344:152|328:196,1,90
229,321,106209,1,0,0:0:0:0:
197,237,106370,2,0,B|265:241|265:241|293:277|293:277|361:281,1,180
416,211,106851,1,0,0:0:0:0:
496,72,107011,1,0,0:0:0:0:
484,60,107092,1,0,0:0:0:0:
472,48,107172,2,0,L|376:56,1,90
360,84,107412,1,0,0:0:0:0:
328,104,107493,1,0,0:0:0:0:
292,108,107573,1,0,0:0:0:0:
256,96,107653,1,0,0:0:0:0:
108,32,107814,6,0,B|64:19|64:19|24:36,1,90
12,48,108054,1,0,0:0:0:0:
0,60,108134,2,0,B|3:154,1,90
116,268,108455,2,0,B|112:200|112:200|76:172|76:172|73:106,1,180
164,124,108937,1,0,0:0:0:0:
300,36,109097,5,0,0:0:0:0:
368,96,109257,2,0,L|376:200,1,90,4|0,0:0|0:0,0:0:0:0:
144,196,109578,2,0,L|136:300,1,90,4|0,0:0|0:0,0:0:0:0:
332,384,109899,2,0,B|340:340|340:340|324:296,1,90,4|0,0:0|0:0,0:0:0:0:
256,236,110220,1,4,0:0:0:0:
176,376,110380,6,0,B|84:368,1,90,4|0,0:0|0:0,0:0:0:0:
28,332,110621,1,0,0:0:0:0:
24,316,110701,2,0,B|12:271|12:271|31:231,1,90
72,176,110942,1,0,0:0:0:0:
84,188,111022,2,0,B|176:180,1,90
232,144,111263,1,0,0:0:0:0:
236,128,111343,2,0,B|247:83|247:83|228:43,1,90
68,12,111664,5,0,0:0:0:0:
64,28,111744,1,0,0:0:0:0:
60,44,111824,1,0,0:0:0:0:
0,112,111985,1,0,0:0:0:0:
144,184,112145,1,0,0:0:0:0:
128,180,112225,1,0,0:0:0:0:
112,176,112305,1,0,0:0:0:0:
40,320,112466,1,0,0:0:0:0:
56,316,112546,1,0,0:0:0:0:
72,312,112626,1,0,0:0:0:0:
132,380,112787,1,0,0:0:0:0:
288,332,112947,5,0,0:0:0:0:
320,348,113027,1,0,0:0:0:0:
356,348,113108,1,0,0:0:0:0:
388,332,113188,1,0,0:0:0:0:
408,300,113268,2,0,L|400:208,1,90
364,52,113589,1,0,0:0:0:0:
396,36,113669,1,0,0:0:0:0:
432,36,113750,1,0,0:0:0:0:
464,52,113830,1,0,0:0:0:0:
484,84,113910,2,0,L|476:176,1,90
370,304,114231,5,0,0:0:0:0:
286,236,114391,1,0,0:0:0:0:
324,135,114552,1,4,0:0:0:0:
239,67,114712,1,0,0:0:0:0:
148,126,114873,1,4,0:0:0:0:
177,231,115034,1,0,0:0:0:0:
86,291,115193,1,4,0:0:0:0:
0,223,115354,1,0,0:0:0:0:
39,121,115514,6,0,B|83:133|83:133|123:113,1,90,4|0,0:0|0:0,0:0:0:0:
139,81,115755,2,0,B|179:61|179:61|223:73,1,90
235,85,115995,1,0,0:0:0:0:
247,97,116076,1,0,0:0:0:0:
259,109,116156,1,0,0:0:0:0:
287,133,116236,2,0,L|379:137,1,90
404,160,116477,2,0,L|496:164,1,90
500,180,116717,1,0,0:0:0:0:
508,196,116798,6,0,B|520:240|520:240|500:280,1,90
464,288,117038,2,0,B|444:328|444:328|456:372,1,90
440,376,117279,1,0,0:0:0:0:
424,380,117359,1,0,0:0:0:0:
408,384,117439,1,0,0:0:0:0:
380,360,117519,2,0,L|288:352,1,90
262,328,117760,2,0,L|170:320,1,90
156,324,118001,1,0,0:0:0:0:
140,328,118081,6,0,B|128:284|128:284|148:244,1,90
184,236,118321,2,0,B|204:196|204:196|192:152,1,90
208,148,118562,1,0,0:0:0:0:
224,144,118642,1,0,0:0:0:0:
240,140,118722,1,0,0:0:0:0:
268,164,118803,2,0,L|360:176,1,90
388,156,119044,2,0,L|480:168,1,90
494,164,119284,1,0,0:0:0:0:
508,160,119364,5,0,0:0:0:0:
444,96,119525,1,4,0:0:0:0:
440,80,119605,1,0,0:0:0:0:
436,64,119685,1,0,0:0:0:0:
372,0,119846,1,4,0:0:0:0:
291,41,120006,1,0,0:0:0:0:
304,130,120167,1,4,0:0:0:0:
223,169,120327,1,0,0:0:0:0:
160,104,120487,1,4,0:0:0:0:
84,284,120648,5,4,0:0:0:0:
100,288,120728,1,0,0:0:0:0:
116,292,120808,1,0,0:0:0:0:
132,296,120888,1,0,0:0:0:0:
148,300,120969,1,0,0:0:0:0:
164,304,121049,1,0,0:0:0:0:
180,308,121129,1,0,0:0:0:0:
196,312,121209,1,0,0:0:0:0:
212,316,121289,1,0,0:0:0:0:
228,320,121370,1,0,0:0:0:0:
244,324,121450,1,0,0:0:0:0:
260,328,121530,1,0,0:0:0:0:
276,332,121610,1,0,0:0:0:0:
364,312,121771,1,0,0:0:0:0:
428,164,121931,5,4,0:0:0:0:
412,168,122011,1,0,0:0:0:0:
396,172,122091,1,0,0:0:0:0:
380,176,122171,1,0,0:0:0:0:
364,180,122252,1,0,0:0:0:0:
348,184,122332,1,0,0:0:0:0:
332,188,122412,1,0,0:0:0:0:
316,192,122492,1,0,0:0:0:0:
300,196,122572,1,4,0:0:0:0:
284,200,122653,1,0,0:0:0:0:
268,204,122733,1,0,0:0:0:0:
252,208,122813,1,0,0:0:0:0:
236,212,122894,1,4,0:0:0:0:
148,192,123055,1,0,0:0:0:0:
84,44,123215,5,4,0:0:0:0:
100,48,123295,1,0,0:0:0:0:
116,52,123375,1,0,0:0:0:0:
132,56,123455,1,0,0:0:0:0:
148,60,123536,1,0,0:0:0:0:
164,64,123616,1,0,0:0:0:0:
180,68,123696,1,0,0:0:0:0:
196,72,123776,1,0,0:0:0:0:
212,76,123856,1,0,0:0:0:0:
228,80,123937,1,0,0:0:0:0:
244,84,124017,1,0,0:0:0:0:
260,88,124097,1,0,0:0:0:0:
276,92,124177,1,0,0:0:0:0:
292,96,124258,1,0,0:0:0:0:
308,100,124338,1,0,0:0:0:0:
324,104,124418,1,0,0:0:0:0:
340,108,124498,5,0,0:0:0:0:
376,100,124578,1,0,0:0:0:0:
412,108,124658,1,0,0:0:0:0:
440,132,124739,1,0,0:0:0:0:
448,168,124819,1,0,0:0:0:0:
440,204,124899,1,0,0:0:0:0:
412,228,124979,1,0,0:0:0:0:
376,236,125060,1,0,0:0:0:0:
340,232,125140,1,0,0:0:0:0:
304,240,125221,1,0,0:0:0:0:
276,264,125301,1,0,0:0:0:0:
268,300,125381,1,0,0:0:0:0:
276,336,125461,1,0,0:0:0:0:
304,360,125542,1,0,0:0:0:0:
340,368,125622,1,0,0:0:0:0:
376,360,125702,1,0,0:0:0:0:
