osu file format v14

[General]
AudioFilename: audio.mp3
AudioLeadIn: 0
PreviewTime: 83408
Countdown: 1
SampleSet: Normal
StackLeniency: 0.7
Mode: 0
LetterboxInBreaks: 0
WidescreenStoryboard: 1

[Editor]
DistanceSpacing: 1
BeatDivisor: 4
GridSize: 32
TimelineZoom: 4.199999

[Metadata]
Title:Yakumo >>JOINT STRUGGLE
TitleUnicode:Yakumo >>JOINT STRUGGLE
Artist:Kucchi vs Akki
ArtistUnicode:くっちー vs あっきー
Creator:Muya
Version:Normal
Source:BMS
Tags:BOF2009 おとなのらくがきちょう 東方妖々夢 ~ Perfect Cherry Blossom. Touhou Youyoumu SUKIMA TOUR 少女幻葬 Shoujo Gensou Necro-Fantasy ネクロファンタジア Necro Phantasia ティアオイエツォン Diao ye zong Withered Leaf
BeatmapID:1460422
BeatmapSetID:688877

[Difficulty]
HPDrainRate:4
CircleSize:3
OverallDifficulty:5
ApproachRate:6
SliderMultiplier:1.2
SliderTickRate:1

[Events]
//Background and Video events
0,0,"bg.png",0,0
Video,0,"Yakumo JOINT STRUGGLE.avi"
//Break Periods
//Storyboard Layer 0 (Background)
//Storyboard Layer 1 (Fail)
//Storyboard Layer 2 (Pass)
//Storyboard Layer 3 (Foreground)
//Storyboard Sound Samples

[TimingPoints]
1290,320.855614973262,4,1,1,60,1,0
28482,-100,4,1,2,60,0,0
29445,-100,4,1,1,60,0,0
30327,-100,4,1,2,60,0,0
31049,-100,4,1,1,60,0,0
32493,-100,4,1,2,60,0,0
34578,-100,4,1,1,60,0,0
35701,-100,4,1,2,60,0,0
37145,-100,4,1,1,60,0,0
38749,-100,4,1,2,60,0,0
39712,-100,4,1,1,60,0,0
40594,-100,4,1,2,60,0,0
41316,-100,4,1,1,60,0,0
42760,-100,4,1,2,60,0,0
44846,-100,4,1,1,60,0,0
55193,-100,4,1,2,60,0,0
57680,-100,4,1,1,60,0,0
61610,-100,4,1,2,60,0,0
62894,-100,4,1,1,60,0,0
65461,-100,4,1,2,60,0,0
67947,-100,4,1,1,60,0,0
80862,-100,4,1,2,40,0,0
82787,-100,4,1,2,60,0,0
83429,-100,4,1,2,40,0,0
84712,-100,4,1,1,60,0,0
103963,-100,4,1,2,60,0,0
104765,-100,4,2,0,60,0,0
105247,-100,4,1,2,60,0,0
105407,-100,4,1,1,60,0,0

[Colours]
Combo1 : 255,253,170
Combo2 : 255,170,255
Combo3 : 170,255,255
Combo4 : 185,255,170

[HitObjects]
12,44,1290,6,0,P|4:100|12:164,3,120
124,204,2573,2,0,P|132:148|124:84,3,120
236,44,3856,6,0,P|228:100|236:164,3,120
100,360,5461,1,4,0:0:0:0:
204,296,5781,1,4,0:0:0:0:
324,296,6102,1,4,0:0:0:0:
428,356,6423,6,0,P|436:300|428:236,1,120,4|0,0:0|0:0,0:0:0:0:
460,184,6904,2,0,P|416:136|392:64,1,120
288,32,7546,2,0,P|228:36|172:60,1,120
156,116,8027,1,0,0:0:0:0:
196,164,8188,2,0,P|216:212|220:280,1,120
132,360,8830,6,0,P|112:312|108:244,1,120
60,204,9311,1,0,0:0:0:0:
20,160,9471,2,0,P|48:100|52:40,1,120
172,44,10113,2,0,L|232:48,1,60
272,92,10434,2,0,L|332:96,1,60,0|4,0:0|0:0,0:0:0:0:
444,52,10915,1,4,0:0:0:0:
508,152,11236,1,4,0:0:0:0:
400,208,11557,6,0,P|392:272|392:336,1,120,4|0,0:0|0:0,0:0:0:0:
336,348,12038,2,0,P|276:356|216:340,1,120
116,280,12680,2,0,P|108:216|116:152,1,120
140,108,13161,1,0,0:0:0:0:
196,84,13322,2,0,P|256:80|328:44,1,120
428,20,13963,6,0,P|416:80|420:144,1,120
448,192,14445,1,0,0:0:0:0:
480,244,14605,2,0,P|482:303|470:362,1,120
364,304,15247,2,0,L|304:308,1,60
264,352,15568,2,0,L|204:356,1,60,0|4,0:0|0:0,0:0:0:0:
96,300,16049,1,4,0:0:0:0:
152,192,16370,1,4,0:0:0:0:
44,136,16691,6,0,P|88:88|140:72,1,120,4|0,0:0|0:0,0:0:0:0:
188,36,17172,2,0,P|244:56|304:48,1,120
424,36,17814,2,0,P|452:88|452:148,1,120
412,192,18295,1,0,0:0:0:0:
452,236,18455,2,0,P|452:295|424:348,1,120
312,304,19097,6,0,P|260:288|196:296,1,120
144,328,19578,1,0,0:0:0:0:
84,316,19739,2,0,P|64:256|72:200,1,120
148,108,20380,2,0,L|208:112,1,60
232,168,20701,2,0,L|292:172,1,60,0|4,0:0|0:0,0:0:0:0:
388,240,21183,1,4,0:0:0:0:
488,176,21503,1,4,0:0:0:0:
452,60,21824,6,0,P|392:52|332:72,1,120,4|0,0:0|0:0,0:0:0:0:
284,100,22306,2,0,P|296:164|296:224,1,120
284,340,22947,2,0,P|220:352|160:352,1,120
104,348,23429,1,0,0:0:0:0:
44,340,23589,2,0,P|32:276|32:216,1,120
0,104,24231,6,0,P|64:108|120:92,1,120
168,60,24712,1,0,0:0:0:0:
216,96,24872,2,0,P|228:160|224:220,1,120
292,312,25514,1,0,0:0:0:0:
344,344,25675,2,0,P|432:320|492:192,1,240
312,32,26958,5,4,0:0:0:0:
268,72,27118,2,0,P|228:76|200:76,1,60
96,36,27600,1,0,0:0:0:0:
40,144,27921,1,0,0:0:0:0:
80,188,28081,2,0,P|88:232|88:260,1,60
72,304,28402,1,0,0:0:0:0:
112,348,28562,2,0,P|184:356|248:332,1,120,4|4,0:0|0:0,0:0:0:0:
332,276,29204,1,0,0:0:0:0:
236,204,29525,5,4,0:0:0:0:
272,156,29685,2,0,P|276:128|276:96,1,60
372,24,30167,1,0,0:0:0:0:
420,60,30327,2,0,P|436:112|428:192,1,120,4|4,0:0|0:0,0:0:0:0:
380,284,30969,1,0,0:0:0:0:
324,264,31129,2,0,P|288:264|248:268,1,60,4|0,0:0|0:0,0:0:0:0:
212,296,31450,2,0,P|160:308|72:292,1,120,4|4,0:0|0:0,0:0:0:0:
12,212,32092,5,4,0:0:0:0:
52,168,32252,2,0,P|60:140|60:108,1,60
152,32,32733,1,0,0:0:0:0:
172,152,33054,1,0,0:0:0:0:
268,80,33375,1,0,0:0:0:0:
316,116,33535,2,0,P|320:176|308:256,3,120,4|4|4|4,0:0|0:0|0:0|0:0,0:0:0:0:
268,276,34658,5,4,0:0:0:0:
268,336,34819,2,0,P|312:356|340:356,1,60
444,364,35300,1,0,0:0:0:0:
496,256,35621,1,0,0:0:0:0:
456,212,35781,2,0,P|448:148|452:92,1,120,4|4,0:0|0:0,0:0:0:0:
492,48,36263,1,4,0:0:0:0:
372,28,36584,1,4,0:0:0:0:
328,140,36904,1,4,0:0:0:0:
208,120,37225,5,4,0:0:0:0:
168,168,37386,2,0,P|164:208|168:236,1,60
244,320,37867,1,0,0:0:0:0:
124,340,38188,1,0,0:0:0:0:
72,308,38348,2,0,P|72:280|68:248,1,60
32,200,38669,1,0,0:0:0:0:
52,144,38830,2,0,P|112:120|152:80,1,120,4|4,0:0|0:0,0:0:0:0:
256,24,39471,1,0,0:0:0:0:
360,80,39792,5,4,0:0:0:0:
328,132,39953,2,0,P|324:160|324:196,1,60
224,260,40434,1,0,0:0:0:0:
256,312,40594,2,0,P|312:336|368:324,1,120,4|4,0:0|0:0,0:0:0:0:
468,256,41236,1,0,0:0:0:0:
444,200,41396,2,0,P|440:164|440:136,1,60,4|0,0:0|0:0,0:0:0:0:
460,84,41717,2,0,P|404:60|348:72,1,120,4|4,0:0|0:0,0:0:0:0:
256,148,42359,5,4,0:0:0:0:
224,200,42519,2,0,P|224:229|228:259,1,60
344,296,43001,1,0,0:0:0:0:
252,376,43322,1,0,0:0:0:0:
136,339,43642,5,0,0:0:0:0:
84,308,43803,2,0,P|76:248|80:184,3,120,4|4|4|4,0:0|0:0|0:0|0:0,0:0:0:0:
56,140,44926,5,4,0:0:0:0:
96,96,45086,2,0,P|100:60|100:32,1,60
212,84,45568,1,0,0:0:0:0:
324,36,45888,1,0,0:0:0:0:
380,52,46049,2,0,P|408:120|392:248,1,180
472,324,46851,2,0,P|438:324|412:332,1,60
364,368,47172,2,0,P|330:368|304:360,1,60
256,324,47493,5,4,0:0:0:0:
200,300,47653,1,0,0:0:0:0:
144,324,47814,2,0,P|112:328|84:324,1,60
28,300,48134,2,0,P|16:240|28:184,1,120
132,120,48776,2,0,P|160:116|192:116,1,60
244,144,49097,2,0,P|256:84|244:28,2,120,0|0|2,0:0|0:0|0:0,0:0:0:0:
336,64,50060,6,0,P|420:88|468:164,1,180
467,221,50701,2,0,P|420:295|336:320,1,180
280,296,51343,2,0,P|192:288|136:300,2,120
340,192,52306,1,2,0:0:0:0:
280,88,52626,6,0,P|192:96|136:84,1,120,4|0,0:0|0:0,0:0:0:0:
108,60,53108,1,0,0:0:0:0:
48,72,53268,2,0,P|32:132|40:192,1,120
92,296,53910,2,0,P|136:276|208:280,1,120
256,316,54391,1,0,0:0:0:0:
305,352,54552,2,0,P|364:357|419:335,1,120
468,228,55193,6,0,P|492:168|476:56,2,180,4|4|4,0:0|0:0|0:0,0:0:0:0:
412,244,56316,1,4,0:0:0:0:
356,220,56477,2,0,L|324:216,1,30,8|4,0:0|0:0,0:0:0:0:
252,164,56798,2,0,P|240:208|244:252,2,90,4|4|4,0:0|0:0|0:0,0:0:0:0:
284,116,57439,2,0,L|276:56,1,60,4|4,0:0|0:0,0:0:0:0:
224,24,57760,5,4,0:0:0:0:
188,72,57921,1,0,0:0:0:0:
140,108,58081,2,0,P|108:112|80:112,1,60
44,160,58402,2,0,P|36:220|44:280,1,120
144,344,59044,2,0,P|152:284|144:224,3,120
140,108,60327,6,0,P|204:72|308:80,1,180
360,108,60969,2,0,P|388:192|360:276,1,180
307,304,61610,2,0,P|219:315|188:308,2,120,4|4|4,0:0|0:0|0:0,0:0:0:0:
412,360,62573,1,0,0:0:0:0:
500,276,62894,6,0,P|512:216|504:156,1,120,4|0,0:0|0:0,0:0:0:0:
464,112,63375,1,0,0:0:0:0:
412,140,63535,2,0,P|356:148|296:132,1,120
216,40,64177,2,0,P|158:23|99:31,1,120
48,64,64658,1,0,0:0:0:0:
16,116,64819,2,0,P|8:176|16:236,1,120
120,296,65461,6,0,P|108:228|112:112,2,180,6|6|6,0:0|0:0|0:0,0:0:0:0:
168,336,66584,1,6,0:0:0:0:
220,304,66744,2,0,L|256:300,1,30,10|6,0:0|0:0,0:0:0:0:
328,256,67065,2,0,P|332:304|332:348,2,90,6|6|6,0:0|0:0|0:0,0:0:0:0:
360,204,67707,2,0,L|420:200,1,60,6|6,0:0|0:0,0:0:0:0:
456,152,68027,6,0,P|456:120|452:84,1,60,6|0,0:0|0:0,0:0:0:0:
408,52,68348,2,0,P|348:56|296:28,1,120
244,56,68830,1,0,0:0:0:0:
220,112,68990,2,0,P|216:172|220:232,1,120
256,280,69471,1,0,0:0:0:0:
236,336,69632,2,0,P|176:344|104:340,1,120
20,268,70273,1,0,0:0:0:0:
56,152,70594,6,0,P|112:144|176:144,1,120
232,164,71076,1,0,0:0:0:0:
280,200,71236,2,0,P|339:200|399:191,1,120
372,72,71878,2,0,L|376:12,2,60
256,108,72519,1,0,0:0:0:0:
140,72,72840,1,0,0:0:0:0:
80,72,73001,1,0,0:0:0:0:
28,100,73161,6,0,P|24:160|28:220,1,120,4|0,0:0|0:0,0:0:0:0:
40,280,73642,1,0,0:0:0:0:
72,332,73803,2,0,L|192:328,1,120
303,280,74445,2,0,P|307:220|303:160,1,120,4|0,0:0|0:0,0:0:0:0:
291,100,74926,1,0,0:0:0:0:
259,48,75087,2,0,L|139:52,1,120
32,104,75728,6,0,L|28:164,1,60,4|0,0:0|0:0,0:0:0:0:
32,224,76049,1,0,0:0:0:0:
144,272,76370,2,0,L|148:212,1,60,4|0,0:0|0:0,0:0:0:0:
144,152,76691,1,0,0:0:0:0:
256,104,77011,2,0,L|252:164,1,60,4|0,0:0|0:0,0:0:0:0:
256,224,77332,1,0,0:0:0:0:
368,272,77653,2,0,L|372:212,1,60,4|0,0:0|0:0,0:0:0:0:
368,152,77974,1,0,0:0:0:0:
480,104,78295,5,4,0:0:0:0:
472,224,78616,1,4,0:0:0:0:
464,344,78937,1,4,0:0:0:0:
344,336,79257,1,4,0:0:0:0:
224,328,79578,1,4,0:0:0:0:
232,208,79899,1,4,0:0:0:0:
240,88,80220,1,4,0:0:0:0:
360,96,80541,1,4,0:0:0:0:
480,104,80862,6,0,L|472:224,7,120,4|4|4|4|4|4|8|8,0:0|0:0|0:0|0:0|0:0|0:0|0:0|0:0,0:0:0:0:
360,207,83429,1,4,0:0:0:0:
468,332,84712,6,0,P|392:356|336:332,1,120,4|0,0:0|0:0,0:0:0:0:
308,308,85193,1,0,0:0:0:0:
340,256,85354,2,0,P|348:188|348:136,1,120
372,80,85835,2,0,P|300:96|240:80,1,120
200,60,86316,1,0,0:0:0:0:
80,64,86637,2,0,P|60:120|64:184,1,120
84,236,87118,1,0,0:0:0:0:
144,248,87279,6,0,P|164:192|160:128,2,120
72,344,88241,1,0,0:0:0:0:
116,384,88402,2,0,L|176:376,1,60
220,336,88723,1,4,0:0:0:0:
272,228,89044,1,4,0:0:0:0:
340,328,89364,1,4,0:0:0:0:
392,220,89685,1,4,0:0:0:0:
448,200,89846,6,0,P|452:140|448:80,1,120,4|0,0:0|0:0,0:0:0:0:
404,36,90327,1,0,0:0:0:0:
348,56,90487,2,0,P|288:68|228:64,1,120
172,44,90969,2,0,P|156:116|152:168,1,120
180,216,91450,1,0,0:0:0:0:
108,312,91771,2,0,P|168:308|224:328,1,120
336,368,92412,6,0,P|396:360|444:324,2,120
352,248,93375,1,0,0:0:0:0:
292,244,93535,2,0,P|212:272|160:348,1,180,0|4,0:0|0:0,0:0:0:0:
60,284,94338,1,4,0:0:0:0:
120,180,94658,1,4,0:0:0:0:
20,116,94979,6,0,P|76:72|148:64,1,120,4|0,0:0|0:0,0:0:0:0:
180,84,95461,1,0,0:0:0:0:
220,132,95621,2,0,L|212:256,1,120
236,308,96102,2,0,P|292:352|364:360,1,120
396,348,96584,1,0,0:0:0:0:
344,240,96904,2,0,P|336:180|348:120,1,120
388,76,97386,1,0,0:0:0:0:
448,64,97546,6,0,P|456:124|444:184,2,120
332,32,98509,1,0,0:0:0:0:
292,76,98669,2,0,L|296:140,1,60
344,172,98990,1,4,0:0:0:0:
408,276,99311,1,4,0:0:0:0:
348,380,99632,1,4,0:0:0:0:
284,276,99953,1,4,0:0:0:0:
256,328,100113,5,4,0:0:0:0:
136,344,100434,1,0,0:0:0:0:
36,276,100755,1,0,0:0:0:0:
28,216,100915,1,0,0:0:0:0:
60,164,101076,2,0,L|52:100,1,60
88,56,101396,1,4,0:0:0:0:
208,40,101717,1,0,0:0:0:0:
308,108,102038,1,0,0:0:0:0:
316,168,102198,1,0,0:0:0:0:
284,220,102359,2,0,L|292:284,1,60
256,328,102680,6,0,P|152:340|36:276,2,240,4|4|8,0:0|0:0|0:0,0:0:0:0:
192,36,104765,2,0,P|275:26|368:77,1,180
480,68,105568,6,0,P|460:136|468:200,1,120,4|0,0:0|0:0,0:0:0:0:
500,232,106049,1,0,0:0:0:0:
504,292,106209,1,0,0:0:0:0:
460,332,106370,2,0,P|404:336|340:320,1,120
304,272,106851,2,0,P|244:268|188:288,1,120
84,352,107493,1,0,0:0:0:0:
8,260,107814,6,0,P|0:200|8:140,2,120
68,276,108616,1,0,0:0:0:0:
116,240,108776,2,0,L|120:180,1,60
168,144,109097,1,0,0:0:0:0:
228,160,109257,2,0,P|236:220|228:280,3,120,4|4|4|4,0:0|0:0|0:0|0:0,0:0:0:0:
268,324,110380,5,4,0:0:0:0:
388,332,110701,1,0,0:0:0:0:
432,292,110862,1,0,0:0:0:0:
452,236,111022,2,0,L|436:112,1,120
388,80,111503,2,0,P|332:88|264:76,1,120
228,124,111985,2,0,P|218:182|226:242,1,120
168,348,112626,1,0,0:0:0:0:
64,288,112947,6,0,P|73:229|65:169,1,120
8,64,113589,1,0,0:0:0:0:
64,80,113749,2,0,L|124:72,1,60
172,40,114070,1,0,0:0:0:0:
232,52,114231,1,0,0:0:0:0:
292,156,114552,2,0,L|288:216,1,60,4|0,0:0|0:0,0:0:0:0:
348,228,114872,2,0,L|344:288,1,60,4|0,0:0|0:0,0:0:0:0:
404,300,115193,2,0,L|400:360,1,60,4|0,0:0|0:0,0:0:0:0:
456,340,115514,5,4,0:0:0:0:
504,228,115835,1,0,0:0:0:0:
492,168,115995,1,0,0:0:0:0:
456,120,116156,2,0,L|396:116,1,60
348,156,116477,2,0,L|288:152,1,60
248,108,116798,1,0,0:0:0:0:
156,32,117118,1,0,0:0:0:0:
96,32,117279,1,0,0:0:0:0:
40,56,117439,2,0,L|24:116,1,60
52,168,117760,2,0,L|36:228,1,60
0,276,118081,5,0,0:0:0:0:
112,316,118402,1,0,0:0:0:0:
168,292,118562,1,0,0:0:0:0:
208,244,118723,2,0,L|212:184,1,60
176,136,119044,2,0,L|180:76,1,60
220,32,119364,1,0,0:0:0:0:
268,68,119525,1,4,0:0:0:0:
388,68,119846,1,4,0:0:0:0:
482,154,120167,2,0,L|474:214,1,60,4|0,0:0|0:0,0:0:0:0:
440,260,120487,1,4,0:0:0:0:
431,320,120648,6,0,P|256:276|224:64,1,420,4|0,0:0|0:0,0:0:0:0:
287,63,121931,2,0,P|308:168|248:284,1,240,4|4,0:0|0:0,0:0:0:0:
196,312,122733,1,0,0:0:0:0:
140,324,122894,2,0,L|80:320,1,60,4|0,0:0|0:0,0:0:0:0:
32,284,123215,1,4,0:0:0:0:
256,192,123375,12,0,125701,0:0:0:0:
