osu file format v14

[General]
AudioFilename: audio.mp3
AudioLeadIn: 0
PreviewTime: 83408
Countdown: 1
SampleSet: Normal
StackLeniency: 0.7
Mode: 0
LetterboxInBreaks: 0
WidescreenStoryboard: 1

[Editor]
DistanceSpacing: 1.2
BeatDivisor: 4
GridSize: 32
TimelineZoom: 4.199999

[Metadata]
Title:Yakumo >>JOINT STRUGGLE
TitleUnicode:Yakumo >>JOINT STRUGGLE
Artist:Kucchi vs Akki
ArtistUnicode:くっちー vs あっきー
Creator:Muya
Version:Hard
Source:BMS
Tags:BOF2009 おとなのらくがきちょう 東方妖々夢 ~ Perfect Cherry Blossom. Touhou Youyoumu SUKIMA TOUR 少女幻葬 Shoujo Gensou Necro-Fantasy ネクロファンタジア Necro Phantasia ティアオイエツォン Diao ye zong Withered Leaf
BeatmapID:1462189
BeatmapSetID:688877

[Difficulty]
HPDrainRate:5
CircleSize:4
OverallDifficulty:7
ApproachRate:8
SliderMultiplier:1.4
SliderTickRate:1

[Events]
//Background and Video events
0,0,"bg.png",0,0
Video,0,"Yakumo JOINT STRUGGLE.avi"
//Break Periods
//Storyboard Layer 0 (Background)
//Storyboard Layer 1 (Fail)
//Storyboard Layer 2 (Pass)
//Storyboard Layer 3 (Foreground)
//Storyboard Sound Samples

[TimingPoints]
1290,320.855614973262,4,1,1,60,1,0
28482,-100,4,1,2,60,0,0
29445,-100,4,1,1,60,0,0
30327,-100,4,1,2,60,0,0
31049,-100,4,1,1,60,0,0
32493,-100,4,1,2,60,0,0
34578,-100,4,1,1,60,0,0
35701,-100,4,1,2,60,0,0
37145,-100,4,1,1,60,0,0
38749,-100,4,1,2,60,0,0
39712,-100,4,1,1,60,0,0
40594,-100,4,1,2,60,0,0
41316,-100,4,1,1,60,0,0
42760,-100,4,1,2,60,0,0
44846,-100,4,1,1,60,0,0
55193,-100,4,1,2,60,0,0
57680,-100,4,1,1,60,0,0
61610,-100,4,1,2,60,0,0
62894,-100,4,1,1,60,0,0
65461,-100,4,1,2,60,0,0
67947,-100,4,1,1,60,0,0
80862,-100,4,1,2,40,0,0
82787,-100,4,1,2,60,0,0
83429,-100,4,1,2,40,0,0
84712,-100,4,1,1,60,0,0
103963,-100,4,1,2,60,0,0
104765,-100,4,2,0,60,0,0
105247,-100,4,1,2,60,0,0
105407,-100,4,1,1,60,0,0

[Colours]
Combo1 : 255,253,170
Combo2 : 255,170,255
Combo3 : 170,255,255
Combo4 : 185,255,170

[HitObjects]
40,48,1290,6,0,P|36:120|40:192,3,140
184,276,2573,6,0,P|188:204|184:132,3,140
328,48,3856,6,0,P|324:120|328:192,3,140
472,276,5140,6,0,P|476:204|472:132,1,140,0|4,0:0|0:0,0:0:0:0:
328,48,5781,1,4,0:0:0:0:
272,112,5942,1,0,0:0:0:0:
192,136,6102,2,0,P|156:144|124:144,1,70,4|0,0:0|0:0,0:0:0:0:
40,124,6423,6,0,P|20:192|32:260,1,140,4|0,0:0|0:0,0:0:0:0:
20,344,6904,2,0,P|88:320|156:324,1,140
224,372,7386,1,0,0:0:0:0:
304,344,7546,6,0,P|340:348|376:340,1,70
444,296,7867,2,0,L|448:224,1,70
380,176,8188,2,0,P|344:180|308:172,1,70
240,128,8509,2,0,L|236:56,1,70
304,8,8830,6,0,P|352:28|440:24,1,140
496,88,9311,1,0,0:0:0:0:
424,128,9471,2,0,P|408:196|420:264,1,140
476,328,9953,1,0,0:0:0:0:
404,372,10113,1,0,0:0:0:0:
348,308,10273,6,0,L|272:312,1,70
232,384,10594,1,4,0:0:0:0:
124,256,10915,2,0,L|88:252,2,35,4|0|0,0:0|0:0|0:0,0:0:0:0:
192,204,11236,1,4,0:0:0:0:
228,128,11396,1,0,0:0:0:0:
216,44,11557,6,0,P|284:20|352:28,1,140,4|0,0:0|0:0,0:0:0:0:
428,60,12038,2,0,P|408:128|416:196,1,140
468,260,12519,1,0,0:0:0:0:
404,316,12680,6,0,P|372:316|336:304,1,70
284,236,13001,2,0,L|296:168,1,70
224,124,13322,2,0,P|192:124|156:136,1,70
104,204,13643,2,0,L|116:272,1,70
44,316,13963,6,0,P|24:256|24:180,1,140
76,112,14445,1,0,0:0:0:0:
156,135,14605,2,0,P|224:132|288:100,1,140
336,32,15086,1,0,0:0:0:0:
420,39,15247,1,0,0:0:0:0:
456,115,15407,6,0,L|444:184,1,70
372,228,15728,1,4,0:0:0:0:
260,356,16049,2,0,L|224:352,3,35,4|0|0|0,0:0|0:0|0:0|0:0,0:0:0:0:
208,364,16370,2,0,L|172:360,3,35,4|0|0|0,0:0|0:0|0:0|0:0,0:0:0:0:
156,372,16691,6,0,P|128:328|128:240,1,140,4|0,0:0|0:0,0:0:0:0:
64,184,17172,2,0,P|128:160|168:104,1,140
184,20,17653,1,0,0:0:0:0:
264,48,17814,6,0,L|336:44,1,70
408,84,18134,2,0,P|416:116|412:156,1,70
344,204,18455,2,0,L|272:200,1,70
200,240,18776,2,0,P|192:272|196:312,1,70
264,360,19097,6,0,P|332:372|396:344,1,140
472,312,19578,1,0,0:0:0:0:
420,244,19739,2,0,P|404:172|432:112,1,140
500,64,20220,1,0,0:0:0:0:
436,8,20380,1,0,0:0:0:0:
366,57,20541,6,0,L|296:48,1,70
224,96,20862,1,4,0:0:0:0:
64,152,21183,2,0,L|56:192,2,35,4|0|0,0:0|0:0|0:0,0:0:0:0:
12,84,21503,1,4,0:0:0:0:
60,16,21664,1,0,0:0:0:0:
144,24,21824,6,0,P|208:48|280:40,1,140,4|0,0:0|0:0,0:0:0:0:
360,24,22306,2,0,P|432:40|476:88,1,140
500,168,22787,1,0,0:0:0:0:
448,236,22947,6,0,L|372:244,1,70
312,192,23268,2,0,P|300:156|304:116,1,70
252,56,23589,2,0,L|176:48,1,70
116,100,23910,2,0,P|104:136|108:176,1,70
56,236,24231,6,0,P|128:260|168:312,1,140
232,364,24712,1,0,0:0:0:0:
316,368,24872,2,0,P|380:348|428:296,1,140
448,212,25354,1,0,0:0:0:0:
396,144,25514,1,0,0:0:0:0:
416,60,25675,6,0,P|300:80|208:76,1,210
136,32,26316,1,0,0:0:0:0:
124,36,26396,1,0,0:0:0:0:
112,40,26477,2,0,P|100:96|104:140,1,70
40,168,26798,1,0,0:0:0:0:
64,248,26958,5,4,0:0:0:0:
144,232,27118,2,0,P|180:236|212:252,1,70
268,312,27439,2,0,L|260:348,2,35
352,328,27760,1,0,0:0:0:0:
424,284,27921,2,0,P|432:248|432:216,1,70
372,156,28241,5,0,0:0:0:0:
364,72,28402,1,0,0:0:0:0:
428,16,28562,1,4,0:0:0:0:
440,24,28642,1,0,0:0:0:0:
452,32,28723,1,0,0:0:0:0:
460,116,28883,1,4,0:0:0:0:
296,152,29204,2,0,L|300:188,2,35
288,68,29525,5,4,0:0:0:0:
220,116,29685,2,0,P|184:120|148:112,1,70
88,56,30006,1,0,0:0:0:0:
20,104,30167,2,0,L|16:148,2,35,0|0|4,0:0|0:0|0:0,0:0:0:0:
128,236,30648,1,4,0:0:0:0:
20,364,30969,5,0,0:0:0:0:
92,320,31129,2,0,P|125:311|160:312,1,70,4|0,0:0|0:0,0:0:0:0:
240,344,31450,2,0,L|248:380,4,35,4|0|0|0|4,0:0|0:0|0:0|0:0|0:0,0:0:0:0:
284,272,31931,1,0,0:0:0:0:
364,304,32092,5,4,0:0:0:0:
408,232,32252,2,0,P|412:196|404:164,1,70
336,112,32573,2,0,L|328:152,2,35,4|0|0,0:0|0:0|0:0,0:0:0:0:
256,136,32894,2,0,P|220:144|184:140,1,70
120,88,33215,2,0,L|84:92,2,35
180,32,33535,6,0,P|216:36|248:48,1,70,4|0,0:0|0:0,0:0:0:0:
320,92,33856,2,0,P|356:88|388:76,1,70,4|0,0:0|0:0,0:0:0:0:
460,32,34177,2,0,L|472:100,1,70,4|0,0:0|0:0,0:0:0:0:
404,152,34498,1,4,0:0:0:0:
484,184,34658,5,4,0:0:0:0:
480,196,34739,1,0,0:0:0:0:
476,208,34819,1,0,0:0:0:0:
407,259,34980,1,0,0:0:0:0:
487,291,35140,1,0,0:0:0:0:
418,342,35300,2,0,L|425:399,4,35
338,310,35781,1,4,0:0:0:0:
184,380,36102,5,4,0:0:0:0:
184,380,36263,1,4,0:0:0:0:
32,312,36584,1,4,0:0:0:0:
0,148,36905,1,4,0:0:0:0:
112,24,37225,5,4,0:0:0:0:
172,84,37386,1,0,0:0:0:0:
120,152,37546,1,0,0:0:0:0:
180,212,37707,2,0,L|216:208,2,35
128,280,38027,1,0,0:0:0:0:
188,340,38188,2,0,P|236:340|260:336,1,70
312,272,38509,5,0,0:0:0:0:
340,352,38669,1,0,0:0:0:0:
396,288,38830,1,4,0:0:0:0:
408,292,38910,1,0,0:0:0:0:
420,296,38990,1,0,0:0:0:0:
448,376,39150,1,4,0:0:0:0:
476,212,39471,2,0,L|512:216,2,35
448,132,39792,5,4,0:0:0:0:
364,148,39953,2,0,P|328:144|296:132,1,70
232,76,40273,1,0,0:0:0:0:
152,100,40434,2,0,L|112:112,2,35,0|0|4,0:0|0:0|0:0,0:0:0:0:
256,232,40915,1,4,0:0:0:0:
152,352,41236,5,0,0:0:0:0:
92,292,41396,2,0,P|88:252|88:220,1,70,4|0,0:0|0:0,0:0:0:0:
28,160,41717,2,0,L|-8:164,4,35,4|0|0|0|4,0:0|0:0|0:0|0:0|0:0,0:0:0:0:
92,104,42199,1,0,0:0:0:0:
128,28,42359,5,4,0:0:0:0:
208,56,42519,2,0,P|220:88|224:132,1,70
172,192,42840,2,0,L|192:224,2,35,4|0|0,0:0|0:0|0:0,0:0:0:0:
112,252,43161,2,0,P|116:286|128:319,1,70
208,344,43482,6,0,L|204:380,2,35
256,276,43803,2,0,P|292:268|324:268,1,70,4|0,0:0|0:0,0:0:0:0:
396,312,44124,2,0,P|430:311|464:304,1,70,4|0,0:0|0:0,0:0:0:0:
512,236,44445,2,0,L|508:164,1,70,4|0,0:0|0:0,0:0:0:0:
452,104,44765,1,4,0:0:0:0:
380,148,44926,6,0,L|384:184,4,35,4|0|0|0|0,0:0|0:0|0:0|0:0|0:0,0:0:0:0:
296,132,45407,1,0,0:0:0:0:
224,88,45568,2,0,L|228:52,4,35
140,104,46049,1,0,0:0:0:0:
76,48,46209,6,0,P|44:128|52:252,1,210
76,332,46851,1,0,0:0:0:0:
88,336,46931,1,0,0:0:0:0:
100,340,47011,2,0,L|104:380,4,35
168,288,47493,5,4,0:0:0:0:
204,212,47653,1,0,0:0:0:0:
148,148,47814,2,0,L|112:152,2,35
184,72,48134,2,0,P|256:72|316:44,1,140
392,84,48616,1,0,0:0:0:0:
344,152,48776,5,0,0:0:0:0:
360,236,48937,1,0,0:0:0:0:
428,284,49097,2,0,P|452:212|452:148,2,140,0|0|2,0:0|0:0|0:0,0:0:0:0:
272,344,50060,6,0,P|232:336|192:336,1,70
120,352,50380,2,0,P|112:324|108:280,1,70
52,220,50701,2,0,P|116:192|148:132,1,140
140,48,51183,1,0,0:0:0:0:
220,24,51343,6,0,P|256:32|284:52,1,70
348,104,51664,2,0,P|336:136|332:172,1,70
272,232,51985,1,0,0:0:0:0:
368,368,52306,1,2,0:0:0:0:
496,260,52626,6,0,P|492:216|492:180,1,70,4|0,0:0|0:0,0:0:0:0:
508,108,52947,2,0,P|472:112|432:112,1,70
360,80,53268,2,0,P|356:124|356:160,1,70
372,232,53589,1,0,0:0:0:0:
300,272,53749,1,0,0:0:0:0:
316,356,53910,6,0,P|244:348|176:352,1,140
96,376,54391,1,0,0:0:0:0:
40,312,54552,2,0,P|28:240|36:172,1,140
92,112,55033,1,0,0:0:0:0:
163,67,55193,6,0,P|126:32|74:28,4,105,4|4|4|4|4,0:0|0:0|0:0|0:0|0:0,0:0:0:0:
212,140,56316,1,4,0:0:0:0:
220,224,56477,2,0,L|256:232,1,35,8|4,0:0|0:0,0:0:0:0:
348,316,56798,6,0,P|385:351|437:355,2,105,4|4|4,0:0|0:0|0:0,0:0:0:0:
344,232,57439,1,4,0:0:0:0:
420,272,57600,1,4,0:0:0:0:
415,187,57760,6,0,P|407:151|403:115,1,70,4|0,0:0|0:0,0:0:0:0:
407,35,58081,2,0,P|371:43|335:47,1,70
255,43,58402,2,0,P|243:99|263:179,1,140
208,244,58883,1,0,0:0:0:0:
292,260,59044,6,0,P|300:296|300:328,1,70
232,380,59364,2,0,L|156:384,1,70
96,332,59685,2,0,P|80:256|88:180,1,140
132,124,60166,1,0,0:0:0:0:
72,64,60327,6,0,P|160:36|192:0,1,140
256,56,60808,1,0,0:0:0:0:
321,2,60969,2,0,P|372:49|440:64,1,140
380,124,61450,1,0,0:0:0:0:
427,194,61611,6,0,P|431:263|416:332,2,140,4|4|4,0:0|0:0|0:0,0:0:0:0:
333,54,62573,1,0,0:0:0:0:
164,40,62894,6,0,P|128:48|96:48,1,70,4|0,0:0|0:0,0:0:0:0:
40,112,63215,2,0,P|40:146|47:180,1,70
116,228,63535,2,0,P|152:220|184:220,1,70
268,236,63856,1,0,0:0:0:0:
340,188,64017,1,0,0:0:0:0:
348,104,64177,6,0,P|384:112|416:112,1,70
472,176,64498,2,0,P|472:210|465:244,1,70
396,292,64818,2,0,P|360:284|328:284,1,70
260,336,65140,1,0,0:0:0:0:
176,320,65300,1,0,0:0:0:0:
144,240,65461,6,0,P|88:232|40:236,4,105,6|6|6|6|6,0:0|0:0|0:0|0:0|0:0,0:0:0:0:
228,252,66584,1,6,0:0:0:0:
284,192,66744,6,0,L|280:156,1,35,10|6,0:0|0:0,0:0:0:0:
368,64,67065,2,0,P|424:56|472:60,2,105,6|6|6,0:0|0:0|0:0,0:0:0:0:
284,80,67707,1,6,0:0:0:0:
200,64,67867,1,6,0:0:0:0:
132,12,68027,6,0,P|116:68|60:128,1,140,6|0,0:0|0:0,0:0:0:0:
24,204,68509,1,0,0:0:0:0:
32,216,68589,1,0,0:0:0:0:
40,228,68669,2,0,P|100:252|144:312,1,140
208,368,69150,1,0,0:0:0:0:
292,376,69311,6,0,P|360:368|416:324,1,140
456,252,69792,1,0,0:0:0:0:
384,208,69953,2,0,P|376:132|376:68,1,140
303,24,70434,1,0,0:0:0:0:
232,72,70594,6,0,P|160:60|92:68,1,140
52,140,71076,1,0,0:0:0:0:
84,216,71236,2,0,P|156:228|224:220,1,140
264,148,71718,1,0,0:0:0:0:
420,92,72038,6,0,L|416:56,2,35
484,148,72359,1,0,0:0:0:0:
492,160,72439,1,0,0:0:0:0:
500,172,72519,2,0,P|504:256|488:312,1,140
424,364,73001,1,0,0:0:0:0:
344,336,73161,6,0,P|328:268|340:200,1,140,4|0,0:0|0:0,0:0:0:0:
396,136,73642,1,0,0:0:0:0:
388,124,73723,1,0,0:0:0:0:
380,112,73803,2,0,P|308:116|244:96,1,140
188,32,74284,1,0,0:0:0:0:
112,72,74445,6,0,P|120:148|112:212,1,140,4|0,0:0|0:0,0:0:0:0:
52,272,74926,1,0,0:0:0:0:
60,284,75006,1,0,0:0:0:0:
68,296,75086,2,0,P|140:320|204:312,1,140
256,244,75568,1,0,0:0:0:0:
308,312,75728,6,0,L|376:324,1,70,4|0,0:0|0:0,0:0:0:0:
448,280,76049,1,0,0:0:0:0:
488,116,76370,2,0,L|420:104,1,70,4|0,0:0|0:0,0:0:0:0:
348,148,76691,1,0,0:0:0:0:
204,236,77011,6,0,L|136:248,1,70,4|0,0:0|0:0,0:0:0:0:
64,204,77332,1,0,0:0:0:0:
24,40,77653,2,0,L|92:28,1,70,4|0,0:0|0:0,0:0:0:0:
164,72,77974,1,0,0:0:0:0:
324,20,78295,6,0,P|320:60|312:88,1,70,4|0,0:0|0:0,0:0:0:0:
264,156,78616,2,0,P|304:160|332:168,1,70,4|0,0:0|0:0,0:0:0:0:
400,216,78937,2,0,P|404:176|412:148,1,70,4|0,0:0|0:0,0:0:0:0:
460,80,79257,2,0,P|420:76|392:68,1,70,4|0,0:0|0:0,0:0:0:0:
311,88,79578,6,0,P|315:128|323:156,1,70,4|0,0:0|0:0,0:0:0:0:
371,224,79899,2,0,P|331:228|303:236,1,70,4|0,0:0|0:0,0:0:0:0:
235,284,80220,2,0,P|231:244|223:216,1,70,4|0,0:0|0:0,0:0:0:0:
175,148,80541,2,0,P|215:144|243:136,1,70,4|0,0:0|0:0,0:0:0:0:
323,156,80862,6,0,L|316:80,11,70,8|8|8|8|8|8|8|8|8|8|8|8,0:0|0:0|0:0|0:0|0:0|0:0|0:0|0:0|0:0|0:0|0:0|0:0,0:0:0:0:
396,106,82787,6,0,L|392:68,8,35,8|8|8|8|8|8|8|8|0,0:0|0:0|0:0|0:0|0:0|0:0|0:0|0:0|0:0,0:0:0:0:
76,356,84712,6,0,P|60:288|68:220,1,140,4|0,0:0|0:0,0:0:0:0:
108,144,85193,1,0,0:0:0:0:
52,80,85354,2,0,P|124:60|180:28,1,140
256,60,85835,6,0,P|336:52|396:64,1,140
468,104,86316,1,0,0:0:0:0:
392,144,86477,1,0,0:0:0:0:
380,152,86557,1,0,0:0:0:0:
368,160,86637,2,0,P|360:204|364:248,1,70
440,204,86958,1,0,0:0:0:0:
380,360,87279,6,0,P|344:360|308:348,1,70
252,288,87600,2,0,P|216:288|180:300,1,70
124,360,87921,2,0,P|88:360|4:272,1,140
0,212,88402,1,0,0:0:0:0:
60,156,88562,5,0,0:0:0:0:
140,180,88723,2,0,P|208:184|272:152,3,140,4|4|4|4,0:0|0:0|0:0|0:0,0:0:0:0:
320,84,89846,5,4,0:0:0:0:
400,56,90006,1,0,0:0:0:0:
412,64,90086,1,0,0:0:0:0:
424,72,90167,2,0,P|448:140|440:208,1,140
476,284,90648,2,0,P|400:284|344:316,1,140
280,368,91129,5,0,0:0:0:0:
268,360,91209,1,0,0:0:0:0:
256,352,91289,2,0,L|252:272,1,70
208,208,91610,2,0,L|168:210,2,35
268,148,91931,2,0,L|308:146,2,35
224,76,92252,1,0,0:0:0:0:
148,112,92412,6,0,P|76:116|4:72,2,140
224,76,93215,1,0,0:0:0:0:
268,148,93375,2,0,L|264:224,1,70
308,288,93696,5,0,0:0:0:0:
184,176,94017,1,4,0:0:0:0:
296,52,94338,2,0,L|332:56,3,35,4|0|0|0,0:0|0:0|0:0|0:0,0:0:0:0:
340,64,94658,2,0,L|376:68,3,35,4|0|0|0,0:0|0:0|0:0|0:0,0:0:0:0:
388,64,94979,6,0,P|416:120|412:196,1,140,4|0,0:0|0:0,0:0:0:0:
356,260,95461,1,0,0:0:0:0:
384,340,95621,2,0,P|312:328|244:336,1,140
168,368,96102,6,0,P|168:296|144:232,1,140
72,188,96584,1,0,0:0:0:0:
88,104,96744,1,0,0:0:0:0:
100,96,96824,1,0,0:0:0:0:
112,88,96904,2,0,L|184:84,1,70
232,152,97225,1,0,0:0:0:0:
372,60,97546,6,0,P|388:96|392:128,1,70
344,196,97867,2,0,P|349:230|364:262,1,70
444,288,98188,2,0,P|400:340|308:324,1,140
280,276,98669,1,0,0:0:0:0:
308,196,98830,5,0,0:0:0:0:
255,131,98991,2,0,P|187:131|143:183,3,140,4|4|4|4,0:0|0:0|0:0|0:0,0:0:0:0:
80,236,100113,5,4,0:0:0:0:
108,316,100273,1,0,0:0:0:0:
184,352,100434,1,0,0:0:0:0:
264,328,100594,1,0,0:0:0:0:
300,252,100755,2,0,L|288:180,1,70
224,236,101076,2,0,L|212:164,1,70
248,90,101397,5,4,0:0:0:0:
328,66,101557,1,0,0:0:0:0:
404,102,101718,1,0,0:0:0:0:
432,182,101878,1,0,0:0:0:0:
412,264,102038,2,0,L|340:276,1,70
320,356,102359,2,0,L|248:368,1,70
204,296,102680,6,0,L|200:260,3,35,4|0|0|0,0:0|0:0|0:0|0:0,0:0:0:0:
188,252,103001,2,0,L|184:216,3,35
172,208,103322,2,0,L|168:172,3,35,4|0|0|0,0:0|0:0|0:0|0:0,0:0:0:0:
156,164,103643,2,0,L|152:128,3,35
160,116,103963,6,0,P|108:108|56:116,2,105,8|8|8,0:0|0:0|0:0,0:0:0:0:
288,224,104765,2,0,P|388:240|480:188,1,210
500,20,105568,6,0,P|460:20|424:32,1,70,4|0,0:0|0:0,0:0:0:0:
356,68,105888,2,0,P|364:108|364:148,1,70
288,176,106209,1,0,0:0:0:0:
232,112,106370,6,0,P|160:112|104:76,1,140
24,104,106851,1,0,0:0:0:0:
40,188,107011,1,0,0:0:0:0:
32,200,107092,1,0,0:0:0:0:
24,212,107172,2,0,P|16:244|24:280,1,70
100,244,107493,1,0,0:0:0:0:
208,372,107814,6,0,P|244:376|280:368,1,70
344,316,108134,2,0,P|378:309|412:313,1,70
488,352,108455,2,0,P|480:272|484:208,1,140
512,136,108937,1,0,0:0:0:0:
456,72,109097,5,0,0:0:0:0:
376,92,109257,2,0,P|384:172|380:236,3,140,4|4|4|4,0:0|0:0|0:0|0:0,0:0:0:0:
300,252,110380,5,4,0:0:0:0:
296,336,110541,1,0,0:0:0:0:
288,348,110621,1,0,0:0:0:0:
280,360,110701,2,0,P|208:364|144:340,1,140
72,296,111183,2,0,P|84:224|80:144,1,140
36,84,111664,5,0,0:0:0:0:
48,76,111744,1,0,0:0:0:0:
60,68,111824,2,0,L|132:76,1,70
196,128,112145,2,0,L|194:168,2,35
256,68,112466,2,0,L|258:28,2,35
322,120,112787,1,0,0:0:0:0:
382,60,112947,6,0,P|400:128|400:204,2,140
316,8,113749,1,0,0:0:0:0:
256,68,113910,2,0,L|264:144,1,70
200,196,114231,5,0,0:0:0:0:
52,140,114552,1,4,0:0:0:0:
16,216,114712,1,0,0:0:0:0:
44,296,114872,1,4,0:0:0:0:
120,332,115032,1,0,0:0:0:0:
200,304,115193,2,0,L|272:308,1,70,4|0,0:0|0:0,0:0:0:0:
332,364,115514,6,0,P|368:352|392:332,1,70,4|0,0:0|0:0,0:0:0:0:
448,268,115835,2,0,P|416:256|388:232,1,70
388,150,116156,2,0,P|415:128|448:116,1,70
392,52,116477,2,0,P|365:30|332:20,1,70
252,44,116798,6,0,P|236:76|232:112,1,70
152,132,117118,2,0,P|120:148|80:148,1,70
86,234,117439,2,0,P|121:236|152:252,1,70
231,274,117760,2,0,P|236:308|252:340,1,70
336,352,118081,6,0,P|331:317|315:286,1,70
388,240,118402,2,0,P|428:232|460:236,1,70
456,148,118723,2,0,P|422:151|388:144,1,70
315,97,119044,2,0,P|331:66|336:32,1,70
256,8,119364,5,0,0:0:0:0:
188,56,119525,2,0,P|192:90|188:128,1,70,4|0,0:0|0:0,0:0:0:0:
104,120,119846,2,0,P|68:132|40:148,1,70,4|0,0:0|0:0,0:0:0:0:
40,236,120167,2,0,P|70:253|104:264,1,70,4|0,0:0|0:0,0:0:0:0:
188,258,120487,1,4,0:0:0:0:
256,312,120648,6,0,L|292:308,15,35,4|0|0|0|0|0|0|0|0|0|0|0|0|0|0|0,0:0|0:0|0:0|0:0|0:0|0:0|0:0|0:0|0:0|0:0|0:0|0:0|0:0|0:0|0:0|0:0,0:0:0:0:
300,320,121931,6,0,L|336:316,7,35,4|0|0|0|0|0|0|0,0:0|0:0|0:0|0:0|0:0|0:0|0:0|0:0,0:0:0:0:
344,328,122573,2,0,L|380:324,3,35,4|0|0|0,0:0|0:0|0:0|0:0,0:0:0:0:
388,336,122894,2,0,L|424:332,3,35,4|0|0|0,0:0|0:0|0:0|0:0,0:0:0:0:
432,344,123215,5,4,0:0:0:0:
256,192,123375,12,0,125701,0:0:0:0:
