osu file format v14

[General]
AudioFilename: audio.mp3
AudioLeadIn: 2000
PreviewTime: 226590
Countdown: 0
SampleSet: Normal
StackLeniency: 0.2
Mode: 0
LetterboxInBreaks: 0
WidescreenStoryboard: 0

[Editor]
Bookmarks: 20600,41135,51402,61670,82205,102739,123274,143809,164344,184878,205413,227231,248087,268301,288836
DistanceSpacing: 0.8
BeatDivisor: 4
GridSize: 4
TimelineZoom: 3.399999

[Metadata]
Title:Yakumo >>JOINT STRUGGLE (2014 ReWorks)
TitleUnicode:Yakumo >>JOINT STRUGGLE (2014 ReWorks)
Artist:Kucchi
ArtistUnicode:くっちー
Creator:Cherry Blossom
Version:Phantasm
Source:東方妖々夢 ~ Perfect Cherry Blossom.
Tags:BMS of fighters 2009 revolutionary battles sukima tour touhou project necrofantasia necrofantasy diao ye zong withered leaf zun
BeatmapID:1368231
BeatmapSetID:645726

[Difficulty]
HPDrainRate:7
CircleSize:5
OverallDifficulty:8
ApproachRate:8
SliderMultiplier:1.9
SliderTickRate:1

[Events]
//Background and Video events
0,0,"joint struggle.jpg",0,0
//Break Periods
//Storyboard Layer 0 (Background)
//Storyboard Layer 1 (Fail)
//Storyboard Layer 2 (Pass)
//Storyboard Layer 3 (Foreground)
//Storyboard Sound Samples

[TimingPoints]
86,320.855614973262,4,2,1,50,1,0
20620,-100,4,1,1,60,0,0
36021,-100,4,2,1,50,0,0
40513,-100,4,1,1,60,0,0
61208,-100,4,1,1,30,0,0
61289,-100,4,1,1,45,0,0
61369,-100,4,1,1,60,0,0
81743,-100,4,1,1,30,0,0
81823,-100,4,1,1,45,0,0
81904,-100,4,1,1,60,0,0
102278,-100,4,1,1,30,0,0
102358,-100,4,1,1,45,0,0
102438,-100,4,1,1,60,0,0
143909,-100,4,2,1,60,0,0
163882,-100,4,1,1,30,0,0
163963,-100,4,1,1,45,0,0
164043,-100,4,1,1,60,0,0
174631,-100,4,2,1,50,0,0
181048,-100,4,2,1,55,0,0
182331,-100,4,1,1,60,0,0
184417,-100,4,1,1,30,0,0
184497,-100,4,1,1,45,0,0
184577,-100,4,1,1,60,0,0
184898,-100,4,1,1,60,0,1
195166,-100,4,2,1,60,0,1
202866,-100,4,1,1,60,0,1
205433,-100,4,1,1,60,0,0
205513,-100,4,2,1,40,0,0
215059,-100,4,1,1,40,0,0
215460,-100,4,2,1,50,0,0
220834,-100,4,1,1,50,0,0
223401,-100,4,1,1,60,0,0
225968,-100,4,2,1,60,0,0
227251,-100,4,1,1,70,0,1
247144,-100,4,2,1,10,0,0
247465,-100,4,2,1,30,0,0
248107,-100,4,1,1,70,0,1
268321,-100,4,1,1,60,0,0
288936,-100,4,2,1,50,0,0
309390,-100,4,2,1,10,0,0

[Colours]
Combo1 : 109,109,252
Combo2 : 155,224,152

[HitObjects]
32,44,86,5,0,1:0:0:0:
108,44,246,1,0,0:0:0:0:
144,44,326,1,0,0:0:0:0:
180,44,406,1,0,1:0:0:0:
256,44,567,1,0,0:0:0:0:
332,44,727,1,0,1:0:0:0:
332,44,807,1,0,0:0:0:0:
332,44,888,1,0,0:0:0:0:
408,44,1048,1,0,1:0:0:0:
484,44,1208,1,0,0:0:0:0:
448,108,1369,5,0,1:0:0:0:
372,108,1529,1,0,0:0:0:0:
295,108,1690,1,0,1:0:0:0:
219,108,1850,1,0,0:0:0:0:
144,108,2011,1,0,1:0:0:0:
144,108,2091,1,0,0:0:0:0:
108,172,2251,1,0,0:0:0:0:
108,172,2331,1,0,1:0:0:0:
32,172,2492,1,0,0:0:0:0:
68,236,2652,5,0,1:0:0:0:
16,296,2813,1,0,0:0:0:0:
36,328,2893,1,0,0:0:0:0:
60,360,2973,1,0,1:0:0:0:
116,308,3134,1,0,0:0:0:0:
172,360,3294,1,0,1:0:0:0:
172,360,3374,1,0,0:0:0:0:
172,360,3454,1,0,0:0:0:0:
228,308,3615,1,0,1:0:0:0:
284,360,3775,1,0,0:0:0:0:
336,304,3936,5,0,1:0:0:0:
372,304,4016,1,0,0:0:0:0:
408,304,4096,1,0,0:0:0:0:
444,304,4176,1,0,0:0:0:0:
484,304,4257,1,0,1:0:0:0:
512,232,4417,1,0,0:0:0:0:
444,196,4577,1,0,1:0:0:0:
408,196,4658,1,0,0:0:0:0:
372,196,4738,1,0,0:0:0:0:
293,195,4898,1,0,1:0:0:0:
220,196,5059,1,0,0:0:0:0:
256,128,5219,5,0,1:0:0:0:
296,64,5380,1,0,0:0:0:0:
332,64,5460,1,0,0:0:0:0:
368,64,5540,1,0,1:0:0:0:
444,64,5700,1,0,0:0:0:0:
480,128,5861,1,0,1:0:0:0:
480,128,5941,1,0,0:0:0:0:
480,128,6021,1,0,0:0:0:0:
444,196,6182,1,0,1:0:0:0:
368,196,6342,1,0,0:0:0:0:
332,128,6503,5,0,1:0:0:0:
256,128,6663,1,0,0:0:0:0:
180,128,6823,1,0,1:0:0:0:
216,196,6984,1,0,0:0:0:0:
292,196,7144,1,0,1:0:0:0:
292,196,7225,1,0,0:0:0:0:
256,264,7385,1,0,0:0:0:0:
256,264,7465,1,0,1:0:0:0:
180,264,7626,1,0,0:0:0:0:
104,264,7786,5,0,1:0:0:0:
68,196,7946,1,0,0:0:0:0:
52,160,8027,1,0,0:0:0:0:
36,124,8107,1,0,1:0:0:0:
0,56,8267,1,0,0:0:0:0:
76,56,8428,1,0,1:0:0:0:
76,56,8508,1,0,0:0:0:0:
76,56,8588,1,0,0:0:0:0:
152,56,8749,1,0,1:0:0:0:
228,56,8909,1,0,0:0:0:0:
284,112,9069,5,0,1:0:0:0:
324,112,9150,1,0,0:0:0:0:
360,112,9230,1,0,0:0:0:0:
396,112,9310,1,0,0:0:0:0:
432,112,9390,1,0,1:0:0:0:
500,144,9551,1,0,0:0:0:0:
440,188,9711,1,0,1:0:0:0:
440,188,9791,1,0,0:0:0:0:
440,188,9872,1,0,0:0:0:0:
500,232,10032,1,0,1:0:0:0:
440,280,10192,1,0,0:0:0:0:
500,328,10353,5,0,1:0:0:0:
444,376,10513,1,0,0:0:0:0:
408,368,10594,1,0,0:0:0:0:
372,360,10674,1,0,1:0:0:0:
300,340,10834,1,0,0:0:0:0:
228,320,10995,1,0,1:0:0:0:
228,320,11075,1,0,0:0:0:0:
228,320,11155,1,0,0:0:0:0:
156,296,11315,1,0,1:0:0:0:
84,268,11476,1,0,0:0:0:0:
16,232,11636,5,0,1:0:0:0:
80,192,11797,1,0,0:0:0:0:
144,152,11957,1,0,1:0:0:0:
212,116,12118,1,0,0:0:0:0:
284,144,12278,1,0,1:0:0:0:
284,144,12358,1,0,0:0:0:0:
308,72,12519,1,0,0:0:0:0:
308,72,12599,1,0,1:0:0:0:
376,108,12759,1,0,0:0:0:0:
404,36,12920,5,0,1:0:0:0:
472,76,13080,1,0,0:0:0:0:
468,112,13160,1,0,0:0:0:0:
464,152,13241,1,0,1:0:0:0:
408,200,13401,1,0,0:0:0:0:
456,260,13561,1,0,1:0:0:0:
456,260,13642,1,0,0:0:0:0:
456,260,13722,1,0,0:0:0:0:
424,328,13882,1,0,1:0:0:0:
348,320,14042,1,0,0:0:0:0:
336,244,14203,5,0,1:0:0:0:
296,244,14283,1,0,0:0:0:0:
256,244,14364,1,0,0:0:0:0:
220,244,14444,1,0,0:0:0:0:
184,244,14524,1,0,1:0:0:0:
164,320,14684,1,0,0:0:0:0:
88,328,14844,1,0,1:0:0:0:
88,328,14925,1,0,0:0:0:0:
88,328,15005,1,0,0:0:0:0:
56,260,15166,1,0,1:0:0:0:
108,204,15326,1,0,0:0:0:0:
76,136,15487,5,0,1:0:0:0:
44,68,15647,1,0,0:0:0:0:
80,68,15727,1,0,0:0:0:0:
116,68,15807,1,0,1:0:0:0:
192,68,15968,1,0,0:0:0:0:
256,108,16128,1,0,1:0:0:0:
256,108,16208,1,0,0:0:0:0:
256,108,16289,1,0,0:0:0:0:
320,68,16449,1,0,1:0:0:0:
396,68,16610,1,0,0:0:0:0:
472,68,16770,5,0,1:0:0:0:
436,136,16930,1,0,0:0:0:0:
512,136,17091,1,0,1:0:0:0:
476,204,17251,1,0,0:0:0:0:
400,204,17412,1,0,1:0:0:0:
400,204,17492,1,0,0:0:0:0:
324,204,17652,1,0,0:0:0:0:
324,204,17733,1,0,1:0:0:0:
256,240,17893,1,0,0:0:0:0:
188,204,18053,5,0,1:0:0:0:
112,204,18214,1,0,0:0:0:0:
76,204,18294,1,0,0:0:0:0:
40,204,18374,1,0,1:0:0:0:
0,268,18535,1,0,0:0:0:0:
40,332,18695,1,0,1:0:0:0:
40,332,18775,1,0,0:0:0:0:
40,332,18856,1,0,0:0:0:0:
116,332,19016,1,0,1:0:0:0:
116,332,19096,1,0,0:0:0:0:
116,332,19176,1,0,0:0:0:0:
192,332,19337,6,0,L|312:332,1,95,2|0,0:0|0:0,0:0:0:0:
320,264,19658,2,0,L|225:264,1,95,2|0,0:0|0:0,0:0:0:0:
180,204,19979,1,0,0:0:0:0:
140,140,20139,1,2,0:0:0:0:
104,72,20299,1,2,0:0:0:0:
408,72,20620,5,4,2:1:0:0:
372,140,20780,1,0,0:0:0:0:
332,204,20940,1,8,0:0:0:0:
292,140,21102,1,0,0:0:0:0:
256,72,21262,1,0,0:0:0:0:
256,72,21342,1,0,0:0:0:0:
256,72,21422,1,0,0:0:0:0:
332,72,21583,2,0,L|428:72,1,95,8|0,0:0|0:0,0:0:0:0:
504,72,21904,5,0,0:0:0:0:
504,108,21984,1,0,0:0:0:0:
504,184,22144,1,0,0:0:0:0:
504,224,22225,1,8,0:0:0:0:
504,300,22385,1,0,0:0:0:0:
468,300,22465,1,0,0:0:0:0:
432,300,22545,1,0,0:0:0:0:
380,244,22706,1,0,0:0:0:0:
332,300,22866,1,8,0:0:0:0:
284,244,23027,1,0,0:0:0:0:
232,300,23187,5,0,0:0:0:0:
156,300,23348,1,0,0:0:0:0:
80,300,23508,1,8,0:0:0:0:
80,264,23588,1,0,0:0:0:0:
80,228,23668,1,0,0:0:0:0:
80,188,23749,1,0,0:0:0:0:
80,152,23829,1,0,0:0:0:0:
20,104,23989,1,0,0:0:0:0:
20,68,24069,1,0,0:0:0:0:
20,28,24150,1,8,0:0:0:0:
96,28,24310,1,0,0:0:0:0:
160,72,24471,5,0,0:0:0:0:
196,72,24551,1,0,0:0:0:0:
256,24,24711,1,0,0:0:0:0:
292,24,24791,1,8,0:0:0:0:
348,76,24952,1,0,0:0:0:0:
384,76,25032,1,0,0:0:0:0:
420,76,25112,1,0,0:0:0:0:
456,140,25273,1,0,0:0:0:0:
420,140,25353,1,0,0:0:0:0:
384,140,25433,1,8,0:0:0:0:
348,140,25513,1,0,0:0:0:0:
308,140,25594,1,0,0:0:0:0:
256,192,25754,5,0,0:0:0:0:
180,192,25914,1,0,0:0:0:0:
104,192,26075,1,8,0:0:0:0:
140,124,26235,1,0,0:0:0:0:
216,124,26396,1,0,0:0:0:0:
216,124,26476,1,0,0:0:0:0:
216,124,26556,1,0,0:0:0:0:
176,60,26717,2,0,L|56:60,1,95,8|0,0:0|0:0,0:0:0:0:
32,116,27037,5,0,0:0:0:0:
32,156,27118,1,0,0:0:0:0:
32,232,27278,1,0,0:0:0:0:
32,268,27358,1,8,0:0:0:0:
32,344,27519,1,0,0:0:0:0:
68,344,27599,1,0,0:0:0:0:
104,344,27679,1,0,0:0:0:0:
180,344,27840,1,0,0:0:0:0:
256,344,28000,1,8,0:0:0:0:
332,344,28160,1,0,0:0:0:0:
408,344,28321,5,0,0:0:0:0:
368,280,28481,1,0,0:0:0:0:
292,280,28642,1,8,0:0:0:0:
256,280,28722,1,0,0:0:0:0:
220,280,28802,1,0,0:0:0:0:
184,280,28882,1,0,0:0:0:0:
144,280,28963,1,0,0:0:0:0:
184,216,29123,1,0,0:0:0:0:
220,216,29203,1,0,0:0:0:0:
256,216,29283,1,8,0:0:0:0:
332,216,29444,1,0,0:0:0:0:
408,216,29604,5,0,0:0:0:0:
444,216,29684,1,0,0:0:0:0:
484,152,29845,1,0,0:0:0:0:
484,116,29925,1,8,0:0:0:0:
484,40,30085,1,0,0:0:0:0:
444,40,30166,1,0,0:0:0:0:
408,40,30246,1,0,0:0:0:0:
332,40,30406,1,0,0:0:0:0:
292,40,30487,1,0,0:0:0:0:
256,40,30567,1,8,0:0:0:0:
220,40,30647,1,0,0:0:0:0:
184,40,30727,1,0,0:0:0:0:
108,40,30888,5,4,2:1:0:0:
148,104,31048,1,0,0:0:0:0:
72,104,31208,1,8,0:0:0:0:
112,168,31369,1,0,0:0:0:0:
36,168,31529,1,0,0:0:0:0:
36,168,31610,1,0,0:0:0:0:
36,168,31690,1,0,0:0:0:0:
72,236,31850,2,0,L|184:236,1,95,8|0,0:0|0:0,0:0:0:0:
237,265,32171,5,0,0:0:0:0:
273,265,32251,1,0,0:0:0:0:
348,264,32412,1,0,0:0:0:0:
384,264,32492,1,8,0:0:0:0:
460,264,32652,1,0,0:0:0:0:
460,304,32733,1,0,0:0:0:0:
460,340,32813,1,0,0:0:0:0:
384,340,32973,1,0,0:0:0:0:
308,340,33134,1,8,0:0:0:0:
232,340,33294,1,0,0:0:0:0:
156,340,33454,5,0,0:0:0:0:
192,272,33615,1,0,0:0:0:0:
116,272,33775,1,8,0:0:0:0:
76,272,33856,1,0,0:0:0:0:
40,272,33936,1,0,0:0:0:0:
40,236,34016,1,0,0:0:0:0:
40,200,34096,1,0,0:0:0:0:
40,124,34257,1,0,0:0:0:0:
40,88,34337,1,0,0:0:0:0:
40,52,34417,1,8,0:0:0:0:
104,12,34577,1,0,0:0:0:0:
172,48,34738,5,0,0:0:0:0:
208,48,34818,1,0,0:0:0:0:
256,108,34979,1,0,0:0:0:0:
292,108,35059,1,8,0:0:0:0:
340,48,35219,1,0,0:0:0:0:
376,48,35299,1,0,0:0:0:0:
416,48,35380,1,0,0:0:0:0:
464,108,35540,1,0,0:0:0:0:
464,144,35620,1,0,0:0:0:0:
464,180,35700,1,8,0:0:0:0:
464,220,35781,1,0,0:0:0:0:
464,256,35861,1,0,0:0:0:0:
460,332,36021,5,4,2:1:0:0:
400,288,36182,1,0,0:0:0:0:
340,332,36342,1,0,1:0:0:0:
276,288,36503,1,0,0:0:0:0:
216,332,36663,1,0,1:0:0:0:
216,332,36743,1,0,0:0:0:0:
216,332,36823,1,0,0:0:0:0:
152,288,36984,2,0,L|52:288,1,95,0|0,1:0|0:0,0:0:0:0:
12,224,37305,5,0,1:0:0:0:
12,224,37385,1,0,0:0:0:0:
68,172,37545,1,0,0:0:0:0:
68,172,37626,1,0,1:0:0:0:
12,120,37786,1,0,0:0:0:0:
12,120,37866,1,0,0:0:0:0:
12,120,37946,1,0,1:0:0:0:
68,68,38107,1,0,0:0:0:0:
124,120,38267,2,0,L|220:120,1,95,0|0,1:0|0:0,0:0:0:0:
296,120,38588,5,0,1:0:0:0:
256,52,38749,1,0,0:0:0:0:
332,52,38909,1,0,1:0:0:0:
368,52,38989,1,0,0:0:0:0:
404,52,39069,1,0,0:0:0:0:
444,52,39150,1,0,0:0:0:0:
480,52,39230,1,0,1:0:0:0:
508,120,39390,1,0,0:0:0:0:
508,120,39471,1,0,0:0:0:0:
508,120,39551,1,0,1:0:0:0:
432,120,39711,1,0,0:0:0:0:
472,184,39872,5,0,1:0:0:0:
436,252,40032,1,0,0:0:0:0:
512,252,40192,1,2,0:0:0:0:
400,360,40513,1,0,0:0:0:0:
364,352,40594,1,0,0:0:0:0:
328,360,40674,1,0,0:0:0:0:
292,352,40754,1,0,0:0:0:0:
256,360,40834,1,0,0:0:0:0:
220,352,40914,1,0,0:0:0:0:
184,360,40995,1,0,0:0:0:0:
148,352,41075,1,0,0:0:0:0:
112,360,41155,6,0,L|112:256,1,95,4|0,2:1|0:0,0:0:0:0:
112,168,41476,1,8,0:0:0:0:
28,216,41636,1,2,0:0:0:0:
204,108,41957,5,0,0:0:0:0:
256,192,42118,1,8,0:0:0:0:
308,108,42278,1,2,0:0:0:0:
400,261,42599,5,0,0:0:0:0:
400,168,42759,1,8,0:0:0:0:
484,213,42920,1,2,0:0:0:0:
348,344,43241,5,0,0:0:0:0:
256,328,43401,1,8,0:0:0:0:
280,236,43561,1,2,0:0:0:0:
164,40,43882,5,0,0:0:0:0:
256,56,44042,1,8,0:0:0:0:
232,148,44202,1,2,0:0:0:0:
164,308,44524,5,0,0:0:0:0:
92,284,44684,1,8,0:0:0:0:
20,260,44845,1,2,0:0:0:0:
80,212,45005,5,0,0:0:0:0:
12,180,45166,1,0,0:0:0:0:
12,180,45246,1,0,0:0:0:0:
12,180,45326,1,8,0:0:0:0:
72,132,45487,1,0,0:0:0:0:
4,100,45647,1,0,0:0:0:0:
64,56,45807,1,0,0:0:0:0:
132,88,45968,1,8,0:0:0:0:
168,88,46048,1,0,0:0:0:0:
204,88,46128,1,2,0:0:0:0:
240,88,46208,1,0,0:0:0:0:
280,88,46289,1,0,0:0:0:0:
328,32,46449,5,0,0:0:0:0:
380,112,46610,1,8,0:0:0:0:
432,32,46770,1,2,0:0:0:0:
308,252,47091,5,0,0:0:0:0:
256,168,47252,1,8,0:0:0:0:
204,252,47412,1,2,0:0:0:0:
80,32,47733,5,0,0:0:0:0:
132,112,47894,1,8,0:0:0:0:
184,32,48054,1,2,0:0:0:0:
332,252,48374,5,0,0:0:0:0:
328,152,48535,1,8,0:0:0:0:
412,196,48695,1,2,0:0:0:0:
180,252,49016,5,0,0:0:0:0:
184,152,49177,1,8,0:0:0:0:
100,196,49337,1,2,0:0:0:0:
256,360,49658,5,0,0:0:0:0:
324,328,49818,1,8,0:0:0:0:
324,252,49979,1,2,0:0:0:0:
256,216,50139,1,0,0:0:0:0:
188,252,50299,1,0,0:0:0:0:
188,328,50460,1,8,0:0:0:0:
256,76,50781,5,0,0:0:0:0:
284,72,50861,1,0,0:0:0:0:
312,68,50941,1,0,0:0:0:0:
340,64,51021,1,0,0:0:0:0:
368,60,51102,1,0,0:0:0:0:
396,56,51182,1,0,0:0:0:0:
424,52,51262,1,0,0:0:0:0:
452,48,51342,1,0,0:0:0:0:
480,44,51422,6,0,L|476:128,1,47.5,4|0,2:1|0:0,0:0:0:0:
452,120,51583,1,0,0:0:0:0:
460,156,51663,1,0,0:0:0:0:
468,192,51743,1,8,0:0:0:0:
476,228,51823,1,0,0:0:0:0:
480,268,51904,2,0,L|416:248,1,47.5
412,284,52064,1,0,0:0:0:0:
388,312,52144,2,0,L|324:292,1,47.5
312,320,52305,1,0,0:0:0:0:
288,348,52385,1,8,0:0:0:0:
256,372,52465,2,0,L|200:356,1,47.5
172,364,52626,1,0,0:0:0:0:
136,368,52706,6,0,L|80:344,1,47.5
80,312,52866,1,0,0:0:0:0:
88,276,52946,1,0,0:0:0:0:
116,252,53027,1,8,0:0:0:0:
152,252,53107,1,0,0:0:0:0:
184,272,53187,2,0,L|248:268,1,47.5
268,260,53348,1,0,0:0:0:0:
296,236,53428,2,0,L|300:180,1,47.5
280,156,53588,1,0,0:0:0:0:
256,124,53668,1,8,0:0:0:0:
232,96,53749,2,0,L|236:32,1,47.5
200,32,53909,1,0,0:0:0:0:
164,16,53989,6,0,L|104:20,1,47.5
80,24,54150,1,0,0:0:0:0:
48,44,54230,1,0,0:0:0:0:
28,76,54310,1,8,0:0:0:0:
24,112,54390,1,0,0:0:0:0:
32,148,54471,2,0,L|40:196,1,47.5
76,212,54631,1,0,0:0:0:0:
112,224,54711,2,0,L|128:280,1,47.5
120,308,54872,1,0,0:0:0:0:
128,344,54952,1,8,0:0:0:0:
156,368,55032,2,0,P|184:372|216:368,1,47.5
236,352,55192,1,0,0:0:0:0:
256,320,55273,6,0,L|256:256,1,47.5
256,236,55433,1,0,0:0:0:0:
240,200,55513,1,0,0:0:0:0:
276,192,55594,1,8,0:0:0:0:
240,172,55674,1,0,0:0:0:0:
276,164,55754,1,0,0:0:0:0:
240,144,55834,1,0,0:0:0:0:
276,136,55914,2,0,L|344:128,1,47.5
360,120,56075,1,0,0:0:0:0:
396,116,56155,1,0,0:0:0:0:
432,128,56235,2,0,L|488:124,1,47.5,8|0,0:0|0:0,0:0:0:0:
508,152,56396,1,0,0:0:0:0:
504,188,56476,1,0,0:0:0:0:
500,224,56556,6,0,L|432:228,1,47.5
416,236,56717,1,0,0:0:0:0:
424,272,56797,1,0,0:0:0:0:
436,308,56877,1,8,0:0:0:0:
448,344,56957,1,0,0:0:0:0:
460,380,57037,2,0,L|392:376,1,47.5
376,364,57198,1,0,0:0:0:0:
344,348,57278,2,0,L|284:344,1,47.5
260,340,57438,1,0,0:0:0:0:
248,304,57519,1,8,0:0:0:0:
256,268,57599,2,0,P|260:232|256:208,1,47.5
256,184,57759,1,0,0:0:0:0:
232,156,57840,6,0,L|176:152,1,47.5
160,124,58000,1,0,0:0:0:0:
124,108,58080,1,0,0:0:0:0:
88,112,58160,1,8,0:0:0:0:
56,132,58241,1,0,0:0:0:0:
36,164,58321,2,0,L|40:224,1,47.5
60,244,58481,1,0,0:0:0:0:
88,268,58561,2,0,L|92:324,1,47.5
124,336,58722,1,0,0:0:0:0:
160,352,58802,1,8,0:0:0:0:
196,368,58882,2,0,L|248:364,1,47.5
280,360,59043,1,0,0:0:0:0:
312,340,59123,6,0,P|316:320|312:288,1,47.5
300,256,59283,1,0,0:0:0:0:
276,228,59364,1,0,0:0:0:0:
268,192,59444,1,8,0:0:0:0:
280,156,59524,1,0,0:0:0:0:
308,132,59604,2,0,L|364:136,1,47.5
388,156,59765,1,0,0:0:0:0:
420,176,59845,2,0,L|480:180,1,47.5
500,200,60005,1,0,0:0:0:0:
496,236,60085,1,8,0:0:0:0:
492,276,60166,2,0,L|440:272,1,47.5
436,308,60326,1,0,0:0:0:0:
432,344,60406,6,0,B|380:332|380:332|340:344|340:344|288:328,1,142.5,4|0,2:1|0:0,0:0:0:0:
256,320,60727,1,8,0:0:0:0:
256,248,60888,1,0,0:0:0:0:
256,248,60968,1,0,0:0:0:0:
256,248,61048,1,0,0:0:0:0:
256,172,61208,2,0,L|256:140,4,23.75
188,208,61529,1,0,0:0:0:0:
148,272,61690,5,4,2:1:0:0:
72,272,61850,1,0,0:0:0:0:
28,208,62011,1,8,0:0:0:0:
72,144,62171,1,0,0:0:0:0:
148,144,62331,1,0,0:0:0:0:
168,112,62412,1,0,0:0:0:0:
188,80,62492,1,0,0:0:0:0:
256,44,62652,1,8,0:0:0:0:
324,80,62813,1,0,0:0:0:0:
388,40,62973,5,0,0:0:0:0:
424,44,63053,1,0,0:0:0:0:
460,60,63134,1,0,0:0:0:0:
484,88,63214,1,0,0:0:0:0:
488,124,63294,1,8,0:0:0:0:
488,160,63374,1,0,0:0:0:0:
488,196,63454,1,0,0:0:0:0:
488,236,63535,1,0,0:0:0:0:
488,272,63615,1,0,0:0:0:0:
420,236,63775,1,0,0:0:0:0:
420,312,63936,1,8,0:0:0:0:
356,272,64096,1,0,0:0:0:0:
356,348,64257,5,0,0:0:0:0:
292,304,64417,1,0,0:0:0:0:
256,368,64577,1,8,0:0:0:0:
216,368,64658,1,0,0:0:0:0:
180,368,64738,1,0,0:0:0:0:
144,368,64818,1,0,0:0:0:0:
108,368,64898,1,0,0:0:0:0:
60,308,65059,1,0,0:0:0:0:
44,276,65139,1,0,0:0:0:0:
28,244,65219,1,8,0:0:0:0:
4,172,65380,1,0,0:0:0:0:
28,100,65540,5,0,0:0:0:0:
64,88,65620,1,0,0:0:0:0:
100,100,65700,1,0,0:0:0:0:
136,88,65781,1,0,0:0:0:0:
172,100,65861,1,8,0:0:0:0:
208,88,65941,1,0,0:0:0:0:
244,100,66021,1,0,0:0:0:0:
280,88,66102,1,0,0:0:0:0:
316,100,66182,1,0,0:0:0:0:
384,64,66342,1,0,0:0:0:0:
420,64,66422,1,0,0:0:0:0:
460,64,66503,1,8,0:0:0:0:
508,128,66663,1,0,0:0:0:0:
444,168,66823,5,0,0:0:0:0:
428,204,66904,1,0,0:0:0:0:
412,240,66984,1,0,0:0:0:0:
428,276,67064,1,0,0:0:0:0:
444,308,67144,1,8,0:0:0:0:
428,344,67225,1,0,0:0:0:0:
408,376,67305,2,0,L|356:372,1,47.5
328,352,67465,1,0,0:0:0:0:
296,328,67545,2,0,L|236:320,1,47.5
212,336,67706,1,0,0:0:0:0:
176,352,67786,1,8,0:0:0:0:
140,360,67866,2,0,L|88:352,1,47.5
76,320,68027,1,0,0:0:0:0:
60,284,68107,6,0,L|56:228,1,47.5
60,200,68267,1,0,0:0:0:0:
76,164,68348,1,0,0:0:0:0:
104,140,68428,1,8,0:0:0:0:
140,132,68508,1,0,0:0:0:0:
176,132,68588,2,0,L|228:140,1,47.5
256,160,68749,1,0,0:0:0:0:
288,176,68829,2,0,L|364:184,1,47.5
372,176,68989,1,0,0:0:0:0:
408,164,69069,1,8,0:0:0:0:
440,140,69150,2,0,L|436:92,1,47.5
424,56,69310,1,0,0:0:0:0:
396,32,69390,6,0,L|336:28,1,47.5
316,48,69551,1,0,0:0:0:0:
284,68,69631,1,0,0:0:0:0:
256,92,69711,1,8,0:0:0:0:
224,116,69791,1,0,0:0:0:0:
192,136,69872,2,0,L|136:132,1,47.5
128,168,70032,1,0,0:0:0:0:
108,200,70112,2,0,L|52:196,1,47.5
48,232,70273,1,0,0:0:0:0:
56,268,70353,1,8,0:0:0:0:
68,304,70433,2,0,L|140:284,1,47.5
148,280,70594,1,0,0:0:0:0:
184,268,70674,6,0,L|240:252,1,47.5
256,228,70834,1,0,0:0:0:0:
240,192,70914,1,0,0:0:0:0:
276,184,70995,1,8,0:0:0:0:
240,164,71075,1,0,0:0:0:0:
276,156,71155,1,0,0:0:0:0:
240,136,71235,1,0,0:0:0:0:
276,128,71315,1,0,0:0:0:0:
240,108,71396,1,0,0:0:0:0:
276,100,71476,1,0,0:0:0:0:
240,84,71556,1,0,0:0:0:0:
276,68,71636,2,0,L|328:52,1,47.5,8|0,0:0|0:0,0:0:0:0:
356,40,71797,5,0,0:0:0:0:
392,44,71877,1,0,0:0:0:0:
428,48,71957,1,4,2:1:0:0:
504,60,72118,1,0,0:0:0:0:
456,120,72278,1,8,0:0:0:0:
508,176,72438,1,0,0:0:0:0:
488,252,72599,1,0,0:0:0:0:
476,288,72679,1,0,0:0:0:0:
464,324,72759,1,0,0:0:0:0:
388,324,72920,1,8,0:0:0:0:
372,252,73080,1,0,0:0:0:0:
352,180,73241,5,0,0:0:0:0:
316,160,73321,1,0,0:0:0:0:
280,180,73401,1,0,0:0:0:0:
248,160,73481,1,0,0:0:0:0:
216,180,73561,1,8,0:0:0:0:
184,160,73642,1,0,0:0:0:0:
152,180,73722,1,0,0:0:0:0:
120,160,73802,1,0,0:0:0:0:
88,180,73882,1,0,0:0:0:0:
12,180,74043,1,0,0:0:0:0:
12,104,74203,1,8,0:0:0:0:
12,28,74364,1,0,0:0:0:0:
88,28,74524,5,0,0:0:0:0:
164,28,74684,1,0,0:0:0:0:
240,28,74845,1,8,0:0:0:0:
276,28,74925,1,0,0:0:0:0:
312,28,75005,1,0,0:0:0:0:
348,28,75085,1,0,0:0:0:0:
388,28,75166,1,0,0:0:0:0:
456,60,75326,1,0,0:0:0:0:
456,96,75406,1,0,0:0:0:0:
456,136,75487,1,8,0:0:0:0:
380,136,75647,1,0,0:0:0:0:
304,136,75807,5,0,0:0:0:0:
264,136,75888,1,0,0:0:0:0:
228,136,75968,1,0,0:0:0:0:
192,136,76048,1,0,0:0:0:0:
156,136,76128,1,8,0:0:0:0:
120,136,76208,1,0,0:0:0:0:
80,136,76289,1,0,0:0:0:0:
32,196,76449,1,0,0:0:0:0:
80,252,76610,1,0,0:0:0:0:
120,252,76690,1,0,0:0:0:0:
156,252,76770,1,8,0:0:0:0:
204,196,76930,1,0,0:0:0:0:
256,252,77091,5,0,0:0:0:0:
308,196,77251,1,0,0:0:0:0:
360,252,77412,1,8,0:0:0:0:
412,196,77572,1,0,0:0:0:0:
460,256,77733,1,0,0:0:0:0:
460,292,77813,1,0,0:0:0:0:
460,328,77893,1,0,0:0:0:0:
392,364,78053,1,8,0:0:0:0:
324,332,78214,1,0,0:0:0:0:
256,364,78374,5,0,0:0:0:0:
220,352,78454,1,0,0:0:0:0:
184,340,78535,1,0,0:0:0:0:
148,352,78615,1,0,0:0:0:0:
112,368,78695,2,0,L|60:368,1,47.5,8|0,0:0|0:0,0:0:0:0:
36,340,78856,1,0,0:0:0:0:
36,304,78936,1,0,0:0:0:0:
36,268,79016,1,0,0:0:0:0:
104,232,79176,1,0,0:0:0:0:
104,192,79257,1,0,0:0:0:0:
104,156,79337,1,8,0:0:0:0:
36,116,79497,1,0,0:0:0:0:
72,48,79658,5,0,0:0:0:0:
140,80,79818,1,0,0:0:0:0:
208,48,79979,1,8,0:0:0:0:
280,80,80139,1,0,0:0:0:0:
348,48,80299,1,0,0:0:0:0:
348,48,80380,1,0,0:0:0:0:
384,48,80460,1,0,0:0:0:0:
384,48,80540,1,0,0:0:0:0:
420,48,80620,1,8,0:0:0:0:
440,80,80700,1,0,0:0:0:0:
460,112,80781,1,0,0:0:0:0:
480,144,80861,1,0,0:0:0:0:
504,172,80941,6,0,L|504:280,1,95,0|0,0:0|2:0,0:0:0:0:
460,328,81262,2,0,B|412:336|412:336|364:328,1,95,8|0,0:0|0:0,0:0:0:0:
332,312,81503,1,0,0:0:0:0:
332,276,81583,2,0,L|332:200,1,47.5
332,192,81743,2,0,L|332:160,4,23.75
256,324,82225,5,4,2:1:0:0:
180,324,82385,1,0,0:0:0:0:
104,324,82545,1,8,0:0:0:0:
140,256,82706,1,0,0:0:0:0:
64,256,82866,1,0,0:0:0:0:
64,256,82946,1,0,0:0:0:0:
64,256,83027,1,0,0:0:0:0:
100,188,83187,1,8,0:0:0:0:
24,188,83348,1,0,0:0:0:0:
60,120,83508,5,0,0:0:0:0:
96,108,83588,1,0,0:0:0:0:
132,96,83668,1,0,0:0:0:0:
168,84,83749,1,0,0:0:0:0:
204,72,83829,1,8,0:0:0:0:
256,128,83989,1,0,0:0:0:0:
256,164,84069,1,0,0:0:0:0:
256,204,84150,1,0,0:0:0:0:
256,280,84310,1,0,0:0:0:0:
296,344,84471,1,8,0:0:0:0:
372,356,84631,1,0,0:0:0:0:
448,340,84791,5,0,0:0:0:0:
416,272,84952,1,0,0:0:0:0:
472,224,85112,1,8,0:0:0:0:
448,152,85273,1,0,0:0:0:0:
256,280,85594,5,0,0:0:0:0:
200,228,85754,1,8,0:0:0:0:
144,280,85914,1,0,0:0:0:0:
68,280,86075,1,0,0:0:0:0:
12,228,86235,1,0,0:0:0:0:
12,152,86396,1,8,0:0:0:0:
68,100,86556,1,0,0:0:0:0:
104,100,86636,1,0,0:0:0:0:
144,100,86717,1,0,0:0:0:0:
200,152,86877,1,0,0:0:0:0:
256,100,87037,1,8,0:0:0:0:
312,152,87198,1,0,0:0:0:0:
368,100,87358,5,0,0:0:0:0:
444,100,87519,1,0,0:0:0:0:
504,152,87679,1,8,0:0:0:0:
504,228,87840,1,0,0:0:0:0:
444,276,88000,1,0,0:0:0:0:
444,276,88080,1,0,0:0:0:0:
444,276,88160,1,0,0:0:0:0:
368,276,88321,1,8,0:0:0:0:
304,232,88481,1,0,0:0:0:0:
256,292,88642,5,0,0:0:0:0:
212,228,88802,1,0,0:0:0:0:
168,292,88963,1,8,0:0:0:0:
128,228,89123,1,0,0:0:0:0:
84,292,89283,1,0,0:0:0:0:
40,228,89444,1,0,0:0:0:0:
40,192,89524,1,0,0:0:0:0:
40,156,89604,1,8,0:0:0:0:
40,80,89765,1,0,0:0:0:0:
116,92,89925,5,0,0:0:0:0:
192,84,90085,1,0,0:0:0:0:
256,40,90246,1,8,0:0:0:0:
320,84,90406,1,0,0:0:0:0:
356,92,90487,1,0,0:0:0:0:
392,92,90567,1,0,0:0:0:0:
428,88,90647,1,0,0:0:0:0:
464,80,90727,1,0,0:0:0:0:
512,144,90888,1,8,0:0:0:0:
444,180,91048,1,0,0:0:0:0:
444,256,91208,5,0,0:0:0:0:
368,240,91369,1,0,0:0:0:0:
368,164,91529,1,8,0:0:0:0:
292,144,91690,1,0,0:0:0:0:
292,220,91850,1,0,0:0:0:0:
216,204,92011,1,0,0:0:0:0:
216,128,92171,1,8,0:0:0:0:
140,112,92331,1,0,0:0:0:0:
140,188,92492,5,4,2:1:0:0:
76,152,92652,1,0,0:0:0:0:
12,192,92813,1,8,0:0:0:0:
12,268,92973,1,0,0:0:0:0:
76,308,93134,1,0,0:0:0:0:
76,308,93214,1,0,0:0:0:0:
76,308,93294,1,0,0:0:0:0:
140,264,93454,1,8,0:0:0:0:
200,308,93615,1,0,0:0:0:0:
256,256,93775,5,0,0:0:0:0:
296,256,93856,1,0,0:0:0:0:
332,256,93936,1,0,0:0:0:0:
368,256,94016,1,0,0:0:0:0:
404,256,94096,1,8,0:0:0:0:
452,196,94257,1,0,0:0:0:0:
464,160,94337,1,0,0:0:0:0:
476,124,94417,1,0,0:0:0:0:
456,52,94577,1,0,0:0:0:0:
388,20,94738,1,8,0:0:0:0:
312,20,94898,1,0,0:0:0:0:
256,72,95059,5,0,0:0:0:0:
284,140,95219,1,0,0:0:0:0:
228,192,95380,1,8,0:0:0:0:
256,264,95540,1,0,0:0:0:0:
256,72,95861,1,0,0:0:0:0:
200,20,96021,1,8,0:0:0:0:
124,20,96182,1,0,0:0:0:0:
68,72,96342,5,0,0:0:0:0:
124,124,96503,1,0,0:0:0:0:
64,172,96663,1,8,0:0:0:0:
124,216,96823,1,0,0:0:0:0:
108,252,96904,1,0,0:0:0:0:
88,284,96984,1,0,0:0:0:0:
48,348,97144,1,0,0:0:0:0:
124,348,97305,1,8,0:0:0:0:
200,348,97465,1,0,0:0:0:0:
256,296,97626,5,0,0:0:0:0:
312,348,97786,1,0,0:0:0:0:
368,296,97946,1,8,0:0:0:0:
424,348,98107,1,0,0:0:0:0:
476,292,98267,1,0,0:0:0:0:
476,252,98348,1,0,0:0:0:0:
476,216,98428,1,0,0:0:0:0:
476,140,98588,1,8,0:0:0:0:
476,64,98749,1,0,0:0:0:0:
412,100,98909,5,0,0:0:0:0:
412,24,99069,1,0,0:0:0:0:
344,60,99230,1,8,0:0:0:0:
276,96,99390,1,0,0:0:0:0:
276,20,99551,1,0,0:0:0:0:
208,56,99711,1,0,0:0:0:0:
144,96,99872,1,8,0:0:0:0:
144,20,100032,1,0,0:0:0:0:
80,60,100192,5,0,0:0:0:0:
84,136,100353,1,0,0:0:0:0:
148,172,100513,1,8,0:0:0:0:
216,136,100674,1,0,0:0:0:0:
252,136,100754,1,0,0:0:0:0:
288,136,100834,1,0,0:0:0:0:
324,136,100914,1,0,0:0:0:0:
364,136,100995,1,0,0:0:0:0:
440,136,101155,1,8,0:0:0:0:
404,204,101315,1,0,0:0:0:0:
480,204,101476,6,0,P|424:280|340:248,1,190
308,184,101957,1,0,0:0:0:0:
308,184,102037,1,0,0:0:0:0:
308,184,102118,1,0,0:0:0:0:
256,240,102278,2,0,L|256:280,4,23.75
256,44,102759,5,4,2:1:0:0:
180,44,102920,1,0,0:0:0:0:
104,44,103080,1,8,0:0:0:0:
28,44,103241,1,0,0:0:0:0:
28,80,103321,1,0,0:0:0:0:
28,116,103401,1,0,0:0:0:0:
104,116,103561,1,0,0:0:0:0:
180,116,103722,1,8,0:0:0:0:
256,116,103882,5,4,2:1:0:0:
216,180,104043,1,0,0:0:0:0:
292,180,104203,1,4,2:1:0:0:
256,248,104364,1,4,2:1:0:0:
220,248,104444,1,0,0:0:0:0:
184,248,104524,1,0,0:0:0:0:
108,248,104684,1,4,0:0:0:0:
404,248,105005,1,0,0:0:0:0:
440,248,105085,1,0,0:0:0:0:
480,248,105166,1,0,0:0:0:0:
480,212,105246,1,0,0:0:0:0:
480,176,105326,1,4,2:1:0:0:
480,100,105487,5,0,0:0:0:0:
480,24,105647,1,8,0:0:0:0:
416,64,105807,1,0,0:0:0:0:
348,100,105968,1,0,0:0:0:0:
348,64,106048,1,0,0:0:0:0:
348,28,106128,1,0,0:0:0:0:
280,64,106289,1,4,2:1:0:0:
212,28,106449,1,4,2:1:0:0:
60,28,106770,5,4,2:1:0:0:
12,88,106930,1,4,2:1:0:0:
60,148,107091,1,0,0:0:0:0:
136,148,107251,1,4,2:1:0:0:
172,148,107331,1,0,0:0:0:0:
212,148,107412,1,0,0:0:0:0:
256,88,107572,1,4,2:1:0:0:
304,148,107733,1,0,0:0:0:0:
380,148,107893,5,4,2:1:0:0:
424,88,108053,1,0,0:0:0:0:
496,112,108214,1,8,0:0:0:0:
496,188,108374,1,0,0:0:0:0:
460,200,108454,1,0,0:0:0:0:
424,212,108535,1,0,0:0:0:0:
352,240,108695,1,0,0:0:0:0:
280,212,108856,1,8,0:0:0:0:
212,180,109016,1,4,2:1:0:0:
176,188,109096,1,0,0:0:0:0:
140,196,109176,1,0,0:0:0:0:
64,212,109337,5,4,2:1:0:0:
116,268,109497,1,4,2:1:0:0:
40,284,109658,1,0,0:0:0:0:
92,340,109818,2,0,L|208:340,1,95,4|0,2:1|0:0,0:0:0:0:
256,304,110139,2,0,L|256:196,1,95,4|0,2:1|0:0,0:0:0:0:
256,132,110460,5,4,2:1:0:0:
256,96,110540,1,0,0:0:0:0:
256,60,110620,1,0,0:0:0:0:
324,24,110781,1,8,0:0:0:0:
400,24,110941,1,0,0:0:0:0:
468,60,111102,1,0,0:0:0:0:
468,96,111182,1,0,0:0:0:0:
468,132,111262,1,0,0:0:0:0:
468,168,111342,1,0,0:0:0:0:
468,204,111422,1,4,2:1:0:0:
468,280,111583,1,4,2:1:0:0:
324,236,111904,5,4,2:1:0:0:
324,160,112064,1,4,2:1:0:0:
188,236,112385,1,4,2:1:0:0:
188,160,112545,1,0,0:0:0:0:
124,200,112706,1,4,2:1:0:0:
60,160,112866,1,0,0:0:0:0:
60,84,113027,5,4,2:1:0:0:
124,44,113187,1,0,0:0:0:0:
188,84,113348,1,8,0:0:0:0:
256,48,113508,1,0,0:0:0:0:
292,48,113588,1,0,0:0:0:0:
328,48,113668,1,0,0:0:0:0:
396,84,113829,1,0,0:0:0:0:
464,48,113989,1,8,0:0:0:0:
464,124,114150,1,0,0:0:0:0:
464,200,114310,5,0,0:0:0:0:
396,164,114471,1,0,0:0:0:0:
328,200,114631,1,8,0:0:0:0:
292,200,114711,1,0,0:0:0:0:
256,200,114791,1,0,0:0:0:0:
256,124,114952,1,0,0:0:0:0:
256,276,115273,1,8,0:0:0:0:
256,312,115353,1,0,0:0:0:0:
256,348,115433,1,0,0:0:0:0:
184,376,115594,5,0,0:0:0:0:
112,348,115754,1,0,0:0:0:0:
40,376,115914,1,8,0:0:0:0:
52,300,116075,1,0,0:0:0:0:
64,224,116235,1,0,0:0:0:0:
56,188,116315,1,0,0:0:0:0:
48,152,116396,1,0,0:0:0:0:
12,84,116556,1,8,0:0:0:0:
88,84,116717,1,0,0:0:0:0:
144,32,116877,5,0,0:0:0:0:
200,84,117037,1,0,0:0:0:0:
256,136,117198,1,8,0:0:0:0:
312,84,117358,1,0,0:0:0:0:
368,32,117519,1,0,0:0:0:0:
396,60,117599,1,0,0:0:0:0:
428,84,117679,1,0,0:0:0:0:
484,136,117840,1,8,0:0:0:0:
420,180,118000,1,0,0:0:0:0:
484,224,118160,5,0,0:0:0:0:
484,300,118321,1,0,0:0:0:0:
420,340,118481,1,8,0:0:0:0:
344,340,118642,1,0,0:0:0:0:
308,340,118722,1,0,0:0:0:0:
272,340,118802,1,0,0:0:0:0:
220,284,118963,1,0,0:0:0:0:
168,340,119123,1,8,0:0:0:0:
92,340,119283,1,0,0:0:0:0:
52,340,119364,1,0,0:0:0:0:
16,340,119444,1,0,0:0:0:0:
16,264,119604,5,0,0:0:0:0:
92,264,119765,1,8,0:0:0:0:
92,188,119925,1,0,0:0:0:0:
16,188,120085,1,0,0:0:0:0:
16,108,120246,1,0,0:0:0:0:
92,108,120406,1,8,0:0:0:0:
52,44,120567,1,0,0:0:0:0:
128,44,120727,5,0,0:0:0:0:
164,44,120807,1,0,0:0:0:0:
204,44,120888,1,0,0:0:0:0:
256,100,121048,1,8,0:0:0:0:
304,44,121208,1,0,0:0:0:0:
356,100,121369,1,0,0:0:0:0:
392,100,121449,1,0,0:0:0:0:
428,100,121529,1,0,0:0:0:0:
468,100,121610,1,0,0:0:0:0:
504,100,121690,2,0,L|504:204,1,95,8|0,0:0|0:0,0:0:0:0:
504,272,122011,5,0,0:0:0:0:
256,364,122652,1,0,0:0:0:0:
232,336,122733,1,0,0:0:0:0:
208,364,122813,1,0,0:0:0:0:
184,336,122893,1,0,0:0:0:0:
160,364,122973,1,0,0:0:0:0:
136,336,123053,1,0,0:0:0:0:
112,364,123134,1,0,0:0:0:0:
88,336,123214,1,0,0:0:0:0:
64,364,123294,5,4,2:1:0:0:
20,304,123454,1,0,0:0:0:0:
84,260,123615,1,8,0:0:0:0:
84,224,123695,1,0,0:0:0:0:
84,188,123775,1,0,0:0:0:0:
12,160,123936,1,0,0:0:0:0:
12,124,124016,1,0,0:0:0:0:
12,88,124096,1,0,0:0:0:0:
8,12,124257,1,8,0:0:0:0:
76,48,124417,1,0,0:0:0:0:
144,80,124577,5,0,0:0:0:0:
144,4,124738,1,0,0:0:0:0:
208,40,124898,1,8,0:0:0:0:
340,120,125219,1,0,0:0:0:0:
208,196,125540,1,8,0:0:0:0:
292,364,125861,5,0,0:0:0:0:
256,352,125941,1,0,0:0:0:0:
220,340,126021,1,0,0:0:0:0:
256,328,126102,1,0,0:0:0:0:
292,316,126182,5,8,0:0:0:0:
256,300,126262,1,0,0:0:0:0:
220,288,126342,1,0,0:0:0:0:
256,276,126422,1,0,0:0:0:0:
292,264,126503,5,0,0:0:0:0:
256,248,126583,1,0,0:0:0:0:
220,236,126663,1,0,0:0:0:0:
256,220,126743,1,0,0:0:0:0:
292,208,126823,5,8,0:0:0:0:
256,192,126904,1,0,0:0:0:0:
220,180,126984,1,0,0:0:0:0:
256,164,127064,1,0,0:0:0:0:
292,148,127144,5,0,0:0:0:0:
256,132,127225,1,0,0:0:0:0:
292,116,127305,1,0,0:0:0:0:
256,100,127385,1,0,0:0:0:0:
292,88,127465,5,8,0:0:0:0:
256,76,127545,1,0,0:0:0:0:
292,60,127626,1,0,0:0:0:0:
256,40,127706,1,0,0:0:0:0:
292,24,127786,5,0,0:0:0:0:
164,108,128107,1,8,0:0:0:0:
44,200,128428,5,0,0:0:0:0:
76,184,128508,1,0,0:0:0:0:
112,200,128588,1,0,0:0:0:0:
148,184,128668,1,0,0:0:0:0:
184,200,128749,1,8,0:0:0:0:
220,184,128829,1,0,0:0:0:0:
256,200,128909,1,0,0:0:0:0:
292,184,128989,1,0,0:0:0:0:
328,200,129069,1,0,0:0:0:0:
364,184,129150,1,0,0:0:0:0:
400,200,129230,1,0,0:0:0:0:
436,184,129310,1,0,0:0:0:0:
468,200,129390,1,8,0:0:0:0:
512,260,129551,1,0,0:0:0:0:
480,328,129711,5,0,0:0:0:0:
444,328,129791,1,0,0:0:0:0:
404,328,129872,1,0,0:0:0:0:
380,300,129952,1,0,0:0:0:0:
356,272,130032,1,8,0:0:0:0:
328,300,130112,1,0,0:0:0:0:
304,328,130192,1,0,0:0:0:0:
280,300,130273,1,0,0:0:0:0:
256,272,130353,1,0,0:0:0:0:
228,300,130433,1,0,0:0:0:0:
208,328,130513,1,0,0:0:0:0:
184,300,130593,1,0,0:0:0:0:
156,272,130673,1,8,0:0:0:0:
132,300,130753,1,0,0:0:0:0:
108,328,130833,1,0,0:0:0:0:
68,328,130914,1,0,0:0:0:0:
32,328,130994,5,4,2:1:0:0:
104,220,131235,1,4,2:1:0:0:
20,120,131476,1,4,2:1:0:0:
96,16,131717,1,4,2:1:0:0:
212,72,131957,1,4,2:1:0:0:
256,136,132118,1,4,2:1:0:0:
256,212,132278,1,4,2:1:0:0:
256,212,132358,1,4,2:1:0:0:
300,72,132599,5,4,2:1:0:0:
416,16,132840,1,4,2:1:0:0:
492,120,133081,1,4,2:1:0:0:
492,196,133241,1,4,2:1:0:0:
492,272,133401,1,4,2:1:0:0:
492,348,133561,5,4,2:1:0:0:
416,348,133722,1,0,0:0:0:0:
340,348,133882,1,8,0:0:0:0:
316,316,133963,1,0,0:0:0:0:
296,284,134043,1,0,0:0:0:0:
252,348,134203,1,0,0:0:0:0:
228,316,134284,1,0,0:0:0:0:
208,284,134364,1,0,0:0:0:0:
168,348,134524,1,8,0:0:0:0:
124,288,134684,1,0,0:0:0:0:
80,348,134845,5,0,0:0:0:0:
8,332,135005,1,0,0:0:0:0:
4,256,135166,1,8,0:0:0:0:
4,220,135246,1,0,0:0:0:0:
4,184,135326,1,0,0:0:0:0:
4,148,135406,1,0,0:0:0:0:
8,108,135487,1,0,0:0:0:0:
28,76,135567,1,0,0:0:0:0:
60,52,135647,1,0,0:0:0:0:
96,40,135727,1,0,0:0:0:0:
132,40,135807,1,8,0:0:0:0:
168,52,135888,1,0,0:0:0:0:
196,76,135968,2,0,L|192:136,1,47.5
188,160,136128,5,0,0:0:0:0:
168,192,136208,1,0,0:0:0:0:
160,228,136289,1,0,0:0:0:0:
168,264,136369,1,0,0:0:0:0:
188,296,136449,1,8,0:0:0:0:
220,316,136529,1,0,0:0:0:0:
256,324,136610,1,0,0:0:0:0:
292,316,136690,1,0,0:0:0:0:
324,296,136770,1,0,0:0:0:0:
344,264,136850,1,0,0:0:0:0:
352,228,136930,1,0,0:0:0:0:
344,192,137011,1,0,0:0:0:0:
324,160,137091,2,0,L|328:104,1,47.5,8|0,0:0|0:0,0:0:0:0:
332,76,137251,2,0,L|384:48,1,47.5
412,60,137412,5,0,0:0:0:0:
448,76,137492,1,0,0:0:0:0:
480,96,137572,1,0,0:0:0:0:
448,116,137652,1,0,0:0:0:0:
416,140,137733,1,8,0:0:0:0:
448,160,137813,1,0,0:0:0:0:
480,180,137893,1,0,0:0:0:0:
448,200,137973,1,0,0:0:0:0:
416,224,138054,1,0,0:0:0:0:
448,244,138134,1,0,0:0:0:0:
480,260,138214,1,0,0:0:0:0:
448,284,138294,1,0,0:0:0:0:
416,304,138374,6,0,L|388:300,6,23.75,8|0|0|0|0|0|0,0:0|0:0|0:0|0:0|0:0|0:0|0:0,0:0:0:0:
428,340,138695,1,0,0:0:0:0:
404,372,138775,1,0,0:0:0:0:
364,376,138856,1,0,0:0:0:0:
328,360,138936,1,0,0:0:0:0:
312,328,139016,1,8,0:0:0:0:
292,360,139096,1,0,0:0:0:0:
256,368,139176,1,0,0:0:0:0:
220,360,139257,1,0,0:0:0:0:
200,328,139337,1,0,0:0:0:0:
184,360,139417,1,0,0:0:0:0:
148,376,139497,1,0,0:0:0:0:
108,372,139578,1,0,0:0:0:0:
84,340,139658,1,8,0:0:0:0:
28,288,139818,1,0,0:0:0:0:
84,236,139979,5,0,0:0:0:0:
28,184,140139,1,0,0:0:0:0:
28,148,140219,1,0,0:0:0:0:
28,112,140299,2,0,L|28:60,1,47.5,8|0,0:0|0:0,0:0:0:0:
28,28,140460,1,0,0:0:0:0:
64,44,140540,1,0,0:0:0:0:
100,56,140620,1,0,0:0:0:0:
136,44,140700,1,0,0:0:0:0:
172,28,140781,1,0,0:0:0:0:
208,44,140861,1,0,0:0:0:0:
244,56,140941,1,8,0:0:0:0:
280,44,141021,1,0,0:0:0:0:
316,32,141102,1,0,0:0:0:0:
352,44,141182,1,0,0:0:0:0:
388,56,141262,5,4,2:1:0:0:
424,180,141503,1,4,2:1:0:0:
504,280,141743,1,4,2:1:0:0:
416,372,141984,1,4,2:1:0:0:
304,312,142224,1,4,2:1:0:0:
256,248,142385,1,4,2:1:0:0:
256,172,142545,5,4,2:1:0:0:
256,172,142625,1,4,2:1:0:0:
208,312,142866,1,4,2:1:0:0:
96,372,143106,1,4,2:1:0:0:
8,280,143347,1,4,2:1:0:0:
8,204,143508,1,4,2:1:0:0:
8,128,143668,1,4,2:1:0:0:
8,52,143829,5,4,2:1:0:0:
76,20,143989,1,0,0:0:0:0:
76,20,144069,1,0,0:0:0:0:
76,20,144150,1,8,0:0:0:0:
152,20,144310,1,0,0:0:0:0:
188,20,144390,1,0,0:0:0:0:
228,20,144471,1,0,0:0:0:0:
304,20,144631,1,0,0:0:0:0:
340,20,144711,1,0,0:0:0:0:
376,20,144791,1,8,0:0:0:0:
452,20,144952,1,0,0:0:0:0:
416,88,145112,5,0,0:0:0:0:
416,88,145192,1,0,0:0:0:0:
416,88,145273,1,0,0:0:0:0:
340,88,145433,1,8,0:0:0:0:
264,88,145594,1,0,0:0:0:0:
228,88,145674,1,0,0:0:0:0:
192,88,145754,1,0,0:0:0:0:
116,88,145914,1,0,0:0:0:0:
76,88,145995,1,0,0:0:0:0:
40,88,146075,1,8,0:0:0:0:
40,164,146235,1,0,0:0:0:0:
40,240,146396,5,0,0:0:0:0:
116,240,146556,1,0,0:0:0:0:
116,240,146636,1,0,0:0:0:0:
116,240,146717,1,8,0:0:0:0:
192,240,146877,1,0,0:0:0:0:
268,240,147037,1,0,0:0:0:0:
344,240,147198,1,0,0:0:0:0:
344,240,147278,1,0,0:0:0:0:
344,240,147358,1,8,0:0:0:0:
420,240,147519,1,0,0:0:0:0:
384,308,147679,5,0,0:0:0:0:
308,308,147840,1,0,0:0:0:0:
232,308,148000,1,8,0:0:0:0:
156,308,148160,1,0,0:0:0:0:
156,308,148241,1,0,0:0:0:0:
156,308,148321,1,0,0:0:0:0:
80,304,148481,1,0,0:0:0:0:
80,304,148561,1,0,0:0:0:0:
80,304,148642,1,8,0:0:0:0:
40,240,148802,1,0,0:0:0:0:
40,164,148963,5,0,0:0:0:0:
108,200,149123,1,0,0:0:0:0:
108,200,149203,1,0,0:0:0:0:
108,200,149283,1,8,0:0:0:0:
108,124,149444,1,0,0:0:0:0:
108,124,149524,1,0,0:0:0:0:
108,124,149604,1,0,0:0:0:0:
176,160,149765,1,0,0:0:0:0:
176,160,149845,1,0,0:0:0:0:
176,160,149925,1,8,0:0:0:0:
176,84,150085,1,0,0:0:0:0:
176,8,150246,5,0,0:0:0:0:
176,8,150326,1,0,0:0:0:0:
176,8,150406,1,0,0:0:0:0:
240,48,150567,1,8,0:0:0:0:
304,84,150727,1,0,0:0:0:0:
372,116,150888,1,0,0:0:0:0:
440,80,151048,1,0,0:0:0:0:
440,80,151128,1,0,0:0:0:0:
440,80,151208,1,8,0:0:0:0:
508,116,151369,1,0,0:0:0:0:
508,192,151529,5,0,0:0:0:0:
440,228,151690,1,0,0:0:0:0:
440,228,151770,1,0,0:0:0:0:
440,228,151850,1,8,0:0:0:0:
372,192,152011,1,0,0:0:0:0:
304,228,152171,1,0,0:0:0:0:
236,192,152331,1,0,0:0:0:0:
236,192,152412,1,0,0:0:0:0:
236,192,152492,1,8,0:0:0:0:
168,228,152652,1,0,0:0:0:0:
100,192,152813,5,0,0:0:0:0:
100,116,152973,1,0,0:0:0:0:
100,40,153134,1,8,0:0:0:0:
256,40,153454,1,0,0:0:0:0:
256,116,153615,1,0,0:0:0:0:
256,192,153775,1,8,0:0:0:0:
324,156,153936,1,0,0:0:0:0:
388,116,154096,5,4,2:1:0:0:
392,268,154417,1,8,0:0:0:0:
392,344,154577,1,0,0:0:0:0:
460,308,154738,1,0,0:0:0:0:
460,232,154898,1,0,0:0:0:0:
392,192,155059,1,8,0:0:0:0:
324,232,155219,1,0,0:0:0:0:
324,304,155380,5,0,0:0:0:0:
256,340,155540,1,0,0:0:0:0:
188,308,155700,1,8,0:0:0:0:
188,156,156021,1,0,0:0:0:0:
188,80,156182,1,0,0:0:0:0:
120,120,156342,1,8,0:0:0:0:
120,196,156503,1,0,0:0:0:0:
188,236,156663,5,0,0:0:0:0:
256,196,156823,1,0,0:0:0:0:
256,120,156984,1,8,0:0:0:0:
120,196,157305,1,0,0:0:0:0:
120,120,157465,1,0,0:0:0:0:
48,156,157626,1,8,0:0:0:0:
48,236,157786,1,0,0:0:0:0:
120,276,157946,5,0,0:0:0:0:
188,236,158107,1,0,0:0:0:0:
188,156,158267,1,8,0:0:0:0:
256,120,158428,1,0,0:0:0:0:
324,156,158588,1,0,0:0:0:0:
324,232,158749,1,0,0:0:0:0:
392,276,158909,1,8,0:0:0:0:
464,236,159069,1,0,0:0:0:0:
392,196,159230,5,0,0:0:0:0:
256,272,159551,1,8,0:0:0:0:
256,348,159711,1,0,0:0:0:0:
324,308,159872,1,0,0:0:0:0:
324,232,160032,1,0,0:0:0:0:
256,196,160192,1,8,0:0:0:0:
188,232,160353,1,0,0:0:0:0:
120,196,160513,5,0,0:0:0:0:
120,120,160674,1,0,0:0:0:0:
120,120,160834,1,8,0:0:0:0:
256,196,161155,1,0,0:0:0:0:
324,232,161315,1,0,0:0:0:0:
392,196,161476,1,8,0:0:0:0:
392,120,161636,1,0,0:0:0:0:
392,44,161797,5,0,0:0:0:0:
460,80,161957,1,0,0:0:0:0:
460,80,162118,1,8,0:0:0:0:
324,156,162438,1,0,0:0:0:0:
256,120,162599,1,0,0:0:0:0:
188,156,162759,1,8,0:0:0:0:
188,232,162920,1,0,0:0:0:0:
256,268,163080,5,4,2:1:0:0:
324,232,163241,1,0,0:0:0:0:
392,268,163401,1,8,0:0:0:0:
464,268,163561,1,0,0:0:0:0:
484,236,163642,1,0,0:0:0:0:
500,200,163722,1,0,0:0:0:0:
500,124,163882,2,0,L|500:84,4,23.75
432,160,164203,1,0,0:0:0:0:
400,92,164364,6,0,L|300:92,1,95,4|0,2:1|0:0,0:0:0:0:
256,36,164684,2,0,L|132:36,1,95,8|0,0:0|0:0,0:0:0:0:
84,36,165005,1,0,0:0:0:0:
84,36,165166,1,0,0:0:0:0:
8,36,165326,1,8,0:0:0:0:
8,36,165487,1,0,0:0:0:0:
8,112,165647,6,0,L|8:216,1,95
72,248,165968,2,0,L|72:352,1,95,8|0,0:0|0:0,0:0:0:0:
148,344,166289,1,0,0:0:0:0:
148,344,166449,1,0,0:0:0:0:
224,344,166610,1,8,0:0:0:0:
224,344,166770,1,0,0:0:0:0:
288,304,166930,6,0,P|296:256|288:208,1,95
224,168,167251,2,0,P|216:120|224:72,1,95,8|0,0:0|0:0,0:0:0:0:
284,32,167572,1,0,0:0:0:0:
284,32,167733,1,0,0:0:0:0:
360,32,167893,1,8,0:0:0:0:
396,32,167973,1,0,0:0:0:0:
432,32,168053,1,0,0:0:0:0:
500,64,168214,6,0,B|500:168,1,95
432,200,168535,2,0,B|432:308,1,95,8|0,0:0|0:0,0:0:0:0:
376,344,168856,1,0,0:0:0:0:
376,344,169016,1,0,0:0:0:0:
316,296,169176,1,8,0:0:0:0:
316,296,169337,1,0,0:0:0:0:
256,344,169497,6,0,L|160:344,1,95
84,344,169818,2,0,L|84:232,1,95,8|0,0:0|0:0,0:0:0:0:
84,172,170139,1,0,0:0:0:0:
84,172,170299,1,0,0:0:0:0:
84,96,170460,1,8,0:0:0:0:
84,96,170620,1,0,0:0:0:0:
84,20,170781,6,0,B|184:20,1,95
208,92,171102,2,0,L|308:92,1,95,8|0,0:0|0:0,0:0:0:0:
328,20,171422,1,0,0:0:0:0:
328,20,171583,1,0,0:0:0:0:
404,20,171743,1,8,0:0:0:0:
404,20,171904,1,0,0:0:0:0:
428,92,172064,6,0,P|440:136|428:184,1,95
376,240,172385,2,0,P|328:252|280:240,1,95,8|0,0:0|0:0,0:0:0:0:
232,184,172706,1,0,0:0:0:0:
232,184,172866,1,0,0:0:0:0:
180,240,173027,1,8,0:0:0:0:
180,240,173187,1,0,0:0:0:0:
128,184,173348,5,0,0:0:0:0:
100,184,173428,1,0,0:0:0:0:
72,184,173508,1,0,0:0:0:0:
44,184,173588,1,0,0:0:0:0:
16,184,173668,1,0,0:0:0:0:
16,212,173749,1,0,0:0:0:0:
16,240,173829,1,0,0:0:0:0:
16,268,173909,1,0,0:0:0:0:
16,296,173989,1,0,0:0:0:0:
44,296,174069,1,0,0:0:0:0:
72,296,174150,1,0,0:0:0:0:
100,296,174230,1,0,0:0:0:0:
128,296,174310,1,0,0:0:0:0:
156,296,174390,1,0,0:0:0:0:
184,296,174471,1,0,0:0:0:0:
212,296,174551,1,0,0:0:0:0:
240,296,174631,5,4,2:1:0:0:
256,192,174711,12,0,179604,0:0:0:0:
294,42,179765,5,0,0:0:0:0:
218,42,179925,1,0,0:0:0:0:
218,117,180085,1,0,0:0:0:0:
294,117,180245,1,0,0:0:0:0:
294,192,180406,1,0,0:0:0:0:
218,192,180566,1,0,0:0:0:0:
218,267,180727,1,0,0:0:0:0:
294,267,180887,1,0,0:0:0:0:
294,342,181048,5,0,0:0:0:0:
218,342,181208,1,0,0:0:0:0:
218,267,181369,1,0,0:0:0:0:
294,267,181529,1,0,0:0:0:0:
294,192,181690,1,0,0:0:0:0:
218,192,181850,1,0,0:0:0:0:
218,117,182011,1,0,0:0:0:0:
294,117,182171,1,0,0:0:0:0:
294,42,182331,5,0,0:0:0:0:
265,43,182412,1,0,0:0:0:0:
237,43,182492,1,0,0:0:0:0:
209,43,182572,1,0,0:0:0:0:
181,43,182652,1,0,0:0:0:0:
153,43,182733,1,0,0:0:0:0:
125,43,182813,1,0,0:0:0:0:
96,44,182893,1,0,0:0:0:0:
68,44,182973,1,0,0:0:0:0:
68,72,183053,1,0,0:0:0:0:
68,100,183134,1,0,0:0:0:0:
68,128,183214,1,0,0:0:0:0:
68,156,183294,1,0,0:0:0:0:
68,184,183374,1,0,0:0:0:0:
68,212,183454,1,0,0:0:0:0:
68,240,183535,1,0,0:0:0:0:
68,268,183615,5,4,2:1:0:0:
68,344,183775,1,0,0:0:0:0:
68,344,183856,1,0,0:0:0:0:
68,344,183936,1,0,0:0:0:0:
132,304,184096,1,0,0:0:0:0:
132,304,184176,1,0,0:0:0:0:
132,304,184257,1,0,0:0:0:0:
196,344,184417,2,0,L|196:376,4,23.75
256,304,184738,1,0,0:0:0:0:
316,344,184898,5,6,0:0:0:0:
352,348,184979,1,0,0:0:0:0:
392,344,185059,1,0,0:0:0:0:
428,332,185139,1,0,0:0:0:0:
460,312,185219,1,2,0:0:0:0:
484,280,185299,1,0,0:0:0:0:
496,244,185380,2,0,L|496:180,1,47.5
492,160,185540,5,2,0:0:0:0:
456,164,185620,1,0,0:0:0:0:
420,160,185700,1,0,0:0:0:0:
384,144,185781,1,0,0:0:0:0:
356,116,185861,2,0,L|356:68,1,47.5,2|0,0:0|0:0,0:0:0:0:
328,40,186021,2,0,B|304:36|276:40,1,47.5,2|0,0:0|0:0,0:0:0:0:
256,68,186182,5,0,0:0:0:0:
220,52,186262,1,0,0:0:0:0:
184,44,186342,1,0,0:0:0:0:
148,44,186422,1,0,0:0:0:0:
112,60,186503,1,0,0:0:0:0:
84,84,186583,1,0,0:0:0:0:
68,116,186663,2,0,L|68:168,1,47.5,2|0,0:0|0:0,0:0:0:0:
52,196,186823,5,2,0:0:0:0:
52,236,186904,1,0,0:0:0:0:
52,272,186984,1,0,0:0:0:0:
52,308,187064,1,0,0:0:0:0:
88,324,187144,2,0,L|140:320,1,47.5,2|0,0:0|0:0,0:0:0:0:
172,332,187305,2,0,L|236:324,1,47.5
256,324,187465,5,2,0:0:0:0:
268,288,187545,1,0,0:0:0:0:
268,248,187626,1,0,0:0:0:0:
252,212,187706,1,0,0:0:0:0:
244,176,187786,1,2,0:0:0:0:
248,140,187866,1,0,0:0:0:0:
256,104,187946,2,0,P|276:100|304:104,1,47.5
336,120,188107,5,2,0:0:0:0:
372,128,188187,1,0,0:0:0:0:
408,128,188267,1,0,0:0:0:0:
448,124,188348,1,0,0:0:0:0:
484,112,188428,2,0,L|484:176,1,47.5,2|0,0:0|0:0,0:0:0:0:
460,188,188588,2,0,L|460:256,1,47.5,2|0,0:0|0:0,0:0:0:0:
476,272,188749,5,0,0:0:0:0:
484,308,188829,1,0,0:0:0:0:
476,344,188909,1,2,0:0:0:0:
448,368,188989,1,0,0:0:0:0:
412,376,189069,1,0,0:0:0:0:
376,368,189150,1,0,0:0:0:0:
348,340,189230,1,0,0:0:0:0:
340,304,189310,1,0,0:0:0:0:
356,268,189390,1,2,0:0:0:0:
380,236,189471,1,0,0:0:0:0:
396,200,189551,1,0,0:0:0:0:
400,164,189631,1,0,0:0:0:0:
384,132,189711,1,2,0:0:0:0:
352,104,189791,1,0,0:0:0:0:
316,96,189872,1,0,0:0:0:0:
280,104,189952,1,0,0:0:0:0:
256,132,190032,5,6,0:0:0:0:
232,104,190112,1,0,0:0:0:0:
196,96,190192,1,0,0:0:0:0:
160,104,190273,1,0,0:0:0:0:
128,132,190353,1,2,0:0:0:0:
112,164,190433,1,0,0:0:0:0:
116,200,190513,2,0,L|124:248,1,47.5
136,284,190674,5,2,0:0:0:0:
136,320,190754,1,0,0:0:0:0:
112,352,190834,1,0,0:0:0:0:
80,368,190914,1,0,0:0:0:0:
44,360,190995,2,0,L|36:300,1,47.5,2|0,0:0|0:0,0:0:0:0:
12,284,191155,2,0,L|0:212,1,47.5,2|0,0:0|0:0,0:0:0:0:
0,200,191315,5,0,0:0:0:0:
8,164,191396,1,0,0:0:0:0:
20,128,191476,1,0,0:0:0:0:
32,92,191556,1,0,0:0:0:0:
44,56,191636,1,0,0:0:0:0:
76,76,191717,1,0,0:0:0:0:
108,96,191797,2,0,L|176:88,1,47.5,2|0,0:0|0:0,0:0:0:0:
192,100,191957,5,2,0:0:0:0:
224,76,192037,1,0,0:0:0:0:
256,56,192118,1,0,0:0:0:0:
288,76,192198,1,0,0:0:0:0:
320,100,192278,1,2,0:0:0:0:
352,76,192358,1,0,0:0:0:0:
384,52,192438,1,0,0:0:0:0:
416,76,192519,1,0,0:0:0:0:
448,96,192599,5,2,0:0:0:0:
448,132,192679,1,0,0:0:0:0:
436,168,192759,1,0,0:0:0:0:
412,196,192840,1,0,0:0:0:0:
376,208,192920,1,2,0:0:0:0:
340,208,193000,1,0,0:0:0:0:
304,196,193080,2,0,L|284:144,1,47.5
256,128,193241,5,2,0:0:0:0:
224,112,193321,1,0,0:0:0:0:
188,104,193401,1,0,0:0:0:0:
152,108,193481,1,0,0:0:0:0:
116,124,193561,2,0,L|68:152,1,47.5,2|0,0:0|0:0,0:0:0:0:
68,184,193722,2,0,L|64:240,1,47.5,2|0,0:0|0:0,0:0:0:0:
68,268,193882,5,4,0:0:0:0:
64,308,193963,1,0,0:0:0:0:
76,344,194043,1,0,0:0:0:0:
104,368,194123,1,0,0:0:0:0:
140,384,194203,1,2,0:0:0:0:
176,384,194283,1,0,0:0:0:0:
212,372,194364,1,0,0:0:0:0:
244,348,194444,1,0,0:0:0:0:
256,312,194524,5,2,0:0:0:0:
268,348,194604,1,0,0:0:0:0:
300,372,194684,1,0,0:0:0:0:
336,384,194765,1,0,0:0:0:0:
372,384,194845,1,2,0:0:0:0:
408,368,194925,1,0,0:0:0:0:
436,344,195005,1,0,0:0:0:0:
448,308,195085,1,0,0:0:0:0:
448,268,195166,5,4,0:0:0:0:
492,208,195326,1,0,0:0:0:0:
444,148,195487,1,8,0:0:0:0:
492,88,195647,1,0,0:0:0:0:
448,28,195807,1,0,0:0:0:0:
408,28,195888,1,0,0:0:0:0:
372,28,195968,1,0,0:0:0:0:
336,28,196048,1,0,0:0:0:0:
300,28,196128,1,8,0:0:0:0:
256,92,196289,1,0,0:0:0:0:
216,28,196449,5,0,0:0:0:0:
180,28,196529,1,0,0:0:0:0:
104,28,196690,1,0,0:0:0:0:
68,28,196770,1,8,0:0:0:0:
12,80,196930,1,0,0:0:0:0:
12,120,197011,1,0,0:0:0:0:
12,156,197091,1,0,0:0:0:0:
68,208,197251,1,0,0:0:0:0:
124,156,197412,1,8,0:0:0:0:
180,208,197572,1,0,0:0:0:0:
256,208,197733,5,0,0:0:0:0:
332,208,197893,1,0,0:0:0:0:
296,276,198053,1,8,0:0:0:0:
220,276,198214,1,0,0:0:0:0:
144,276,198374,1,0,0:0:0:0:
184,340,198535,1,0,0:0:0:0:
220,340,198615,1,0,0:0:0:0:
256,340,198695,1,8,0:0:0:0:
332,340,198856,1,0,0:0:0:0:
408,340,199016,5,0,0:0:0:0:
408,304,199096,1,0,0:0:0:0:
456,248,199257,1,0,0:0:0:0:
456,212,199337,1,8,0:0:0:0:
512,160,199497,1,0,0:0:0:0:
512,124,199577,1,0,0:0:0:0:
512,84,199658,1,0,0:0:0:0:
476,84,199738,1,0,0:0:0:0:
440,84,199818,1,0,0:0:0:0:
384,32,199979,1,8,0:0:0:0:
348,32,200059,1,0,0:0:0:0:
312,32,200139,1,0,0:0:0:0:
256,84,200299,5,4,2:1:0:0:
200,32,200460,1,0,0:0:0:0:
124,32,200620,1,8,0:0:0:0:
72,88,200781,1,0,0:0:0:0:
72,164,200941,1,0,0:0:0:0:
72,200,201021,1,0,0:0:0:0:
72,240,201102,1,0,0:0:0:0:
72,276,201182,1,0,0:0:0:0:
72,316,201262,1,8,0:0:0:0:
136,356,201422,1,0,0:0:0:0:
200,316,201583,5,0,0:0:0:0:
236,316,201663,1,0,0:0:0:0:
300,356,201823,1,0,0:0:0:0:
340,356,201904,1,8,0:0:0:0:
404,316,202064,1,0,0:0:0:0:
440,316,202144,1,0,0:0:0:0:
480,316,202225,1,0,0:0:0:0:
512,248,202385,1,0,0:0:0:0:
472,184,202545,1,8,0:0:0:0:
512,116,202706,1,0,0:0:0:0:
472,52,202866,5,0,0:0:0:0:
444,28,202946,1,0,0:0:0:0:
416,52,203027,1,0,0:0:0:0:
384,32,203107,1,0,0:0:0:0:
352,52,203187,1,0,0:0:0:0:
320,32,203267,1,0,0:0:0:0:
288,52,203348,1,0,0:0:0:0:
256,32,203428,1,0,0:0:0:0:
224,52,203508,5,0,0:0:0:0:
204,24,203588,1,0,0:0:0:0:
192,60,203668,1,0,0:0:0:0:
176,24,203749,1,0,0:0:0:0:
160,60,203829,1,0,0:0:0:0:
140,24,203909,1,0,0:0:0:0:
120,60,203989,1,0,0:0:0:0:
104,24,204069,1,0,0:0:0:0:
88,60,204150,6,0,L|88:260,1,190,4|0,2:1|0:0,0:0:0:0:
76,328,204631,1,0,0:0:0:0:
76,328,204711,1,0,0:0:0:0:
76,328,204791,1,0,0:0:0:0:
148,356,204952,2,0,L|148:384,4,23.75
200,300,205273,1,0,0:0:0:0:
164,236,205433,5,4,2:1:0:0:
256,192,205513,12,0,210406,0:0:0:0:
256,32,210567,5,4,2:1:0:0:
256,32,210647,1,0,0:0:0:0:
256,108,210807,1,0,0:0:0:0:
256,108,210888,1,8,0:0:0:0:
256,184,211048,1,0,0:0:0:0:
320,144,211208,1,0,0:0:0:0:
320,220,211369,1,0,0:0:0:0:
388,184,211529,1,8,0:0:0:0:
388,260,211690,1,0,0:0:0:0:
452,220,211850,5,0,0:0:0:0:
452,296,212011,1,0,0:0:0:0:
452,296,212091,1,0,0:0:0:0:
452,296,212171,1,8,0:0:0:0:
452,372,212331,1,0,0:0:0:0:
376,372,212492,1,0,0:0:0:0:
324,316,212652,1,0,0:0:0:0:
256,352,212813,1,8,0:0:0:0:
188,316,212973,1,0,0:0:0:0:
136,372,213134,5,0,0:0:0:0:
136,372,213214,1,0,0:0:0:0:
60,372,213374,1,0,0:0:0:0:
60,372,213454,1,8,0:0:0:0:
100,308,213615,1,0,0:0:0:0:
24,308,213775,1,0,0:0:0:0:
64,244,213936,1,0,0:0:0:0:
24,180,214096,1,8,0:0:0:0:
100,180,214257,1,0,0:0:0:0:
60,116,214417,5,0,0:0:0:0:
24,48,214577,1,0,0:0:0:0:
24,48,214658,1,0,0:0:0:0:
24,48,214738,1,8,0:0:0:0:
100,48,214898,1,0,0:0:0:0:
140,48,214979,1,0,0:0:0:0:
176,48,215059,2,0,L|208:48,8,23.75
256,180,215700,5,4,2:1:0:0:
256,180,215781,1,0,0:0:0:0:
328,180,215941,1,0,0:0:0:0:
328,180,216021,1,0,1:0:0:0:
404,180,216182,1,0,0:0:0:0:
404,256,216342,1,0,1:0:0:0:
368,256,216422,1,0,0:0:0:0:
328,256,216503,1,0,0:0:0:0:
292,256,216583,1,0,0:0:0:0:
256,256,216663,1,0,1:0:0:0:
220,256,216743,1,0,0:0:0:0:
184,256,216823,1,0,0:0:0:0:
108,256,216984,5,4,2:1:0:0:
108,256,217064,1,0,0:0:0:0:
108,180,217225,1,0,0:0:0:0:
108,180,217305,1,0,1:0:0:0:
108,104,217465,1,0,0:0:0:0:
184,104,217626,1,0,1:0:0:0:
220,104,217706,1,0,0:0:0:0:
256,104,217786,1,0,0:0:0:0:
292,104,217866,1,0,0:0:0:0:
328,104,217946,1,0,1:0:0:0:
368,104,218027,1,0,0:0:0:0:
404,104,218107,1,0,0:0:0:0:
480,104,218267,5,4,2:1:0:0:
480,104,218348,1,0,0:0:0:0:
480,104,218428,1,0,0:0:0:0:
480,180,218588,1,0,1:0:0:0:
404,180,218749,1,0,0:0:0:0:
404,104,218909,1,4,2:1:0:0:
404,104,218989,1,0,0:0:0:0:
404,104,219069,1,0,0:0:0:0:
404,180,219230,1,0,1:0:0:0:
328,180,219390,1,0,0:0:0:0:
328,104,219551,5,4,2:1:0:0:
328,104,219631,1,0,0:0:0:0:
328,104,219711,1,0,0:0:0:0:
328,180,219872,1,0,1:0:0:0:
256,180,220032,1,0,0:0:0:0:
256,104,220192,1,4,2:1:0:0:
256,104,220273,1,0,0:0:0:0:
256,104,220353,1,0,0:0:0:0:
256,180,220513,1,0,1:0:0:0:
180,180,220674,1,0,0:0:0:0:
180,104,220834,5,4,2:1:0:0:
104,104,220995,1,0,0:0:0:0:
68,116,221075,1,0,0:0:0:0:
32,128,221155,2,0,L|32:188,1,47.5
32,212,221315,1,0,0:0:0:0:
32,252,221396,1,0,0:0:0:0:
32,288,221476,2,0,L|32:340,1,47.5
60,360,221636,1,0,0:0:0:0:
100,360,221717,1,0,0:0:0:0:
132,340,221797,2,0,L|132:288,1,47.5
160,268,221957,1,0,0:0:0:0:
196,268,222037,1,0,0:0:0:0:
228,292,222118,6,0,P|256:296|288:292,1,47.5
316,268,222278,1,0,0:0:0:0:
352,268,222358,1,0,0:0:0:0:
380,292,222438,2,0,L|380:340,1,47.5
412,360,222599,1,0,0:0:0:0:
452,360,222680,1,0,0:0:0:0:
480,335,222759,2,0,L|480:288,1,47.5
480,252,222920,1,0,0:0:0:0:
480,212,223001,1,0,0:0:0:0:
480,175,223080,2,0,L|480:128,1,47.5
444,116,223241,1,0,0:0:0:0:
408,104,223321,1,0,0:0:0:0:
396,136,223401,5,0,0:0:0:0:
376,104,223481,1,0,0:0:0:0:
356,136,223561,1,0,0:0:0:0:
336,104,223641,1,0,0:0:0:0:
316,136,223722,1,0,0:0:0:0:
296,104,223802,1,0,0:0:0:0:
276,136,223882,1,0,0:0:0:0:
256,104,223962,1,0,0:0:0:0:
236,136,224043,5,0,0:0:0:0:
200,136,224123,1,0,0:0:0:0:
220,168,224203,1,0,0:0:0:0:
184,168,224283,1,0,0:0:0:0:
208,200,224364,1,0,0:0:0:0:
172,200,224444,1,0,0:0:0:0:
196,232,224524,1,0,0:0:0:0:
160,232,224604,1,0,0:0:0:0:
180,264,224684,5,0,0:0:0:0:
200,296,224765,1,0,0:0:0:0:
220,264,224845,1,0,0:0:0:0:
240,296,224925,1,0,0:0:0:0:
260,264,225005,1,0,0:0:0:0:
284,296,225085,1,0,0:0:0:0:
304,264,225166,1,0,0:0:0:0:
324,296,225246,1,0,0:0:0:0:
344,264,225326,5,0,0:0:0:0:
324,232,225406,1,0,0:0:0:0:
364,232,225487,1,0,0:0:0:0:
340,200,225567,1,0,0:0:0:0:
380,200,225648,1,0,0:0:0:0:
360,168,225727,1,0,0:0:0:0:
400,168,225808,1,0,0:0:0:0:
376,140,225888,1,0,0:0:0:0:
412,140,225968,5,2,0:0:0:0:
376,72,226128,1,0,0:0:0:0:
304,96,226289,1,2,0:0:0:0:
284,24,226449,1,0,0:0:0:0:
220,68,226610,1,2,0:0:0:0:
156,24,226770,1,0,0:0:0:0:
124,92,226930,1,2,0:0:0:0:
52,68,227091,1,2,0:0:0:0:
36,144,227251,5,4,2:1:0:0:
68,212,227412,1,0,0:0:0:0:
84,248,227492,1,0,0:0:0:0:
100,284,227572,1,8,0:0:0:0:
144,348,227733,1,0,0:0:0:0:
168,320,227813,1,0,0:0:0:0:
192,292,227893,1,0,0:0:0:0:
216,264,227973,1,0,0:0:0:0:
240,292,228053,1,0,0:0:0:0:
264,320,228134,1,0,0:0:0:0:
288,348,228214,1,8,0:0:0:0:
364,348,228374,1,0,0:0:0:0:
440,348,228535,5,0,0:0:0:0:
496,300,228695,1,0,0:0:0:0:
496,224,228856,1,8,0:0:0:0:
444,168,229016,1,0,0:0:0:0:
408,168,229096,1,0,0:0:0:0:
372,168,229176,2,0,L|336:212,1,47.5
320,236,229337,1,0,0:0:0:0:
288,256,229417,1,0,0:0:0:0:
256,272,229497,1,8,0:0:0:0:
224,256,229577,1,0,0:0:0:0:
192,236,229658,1,0,0:0:0:0:
192,160,229818,5,0,0:0:0:0:
132,116,229979,1,0,0:0:0:0:
96,100,230059,1,0,0:0:0:0:
60,116,230139,1,8,0:0:0:0:
8,172,230299,1,0,0:0:0:0:
8,212,230380,1,0,0:0:0:0:
8,248,230460,2,0,L|8:296,1,47.5
8,332,230620,1,0,0:0:0:0:
36,356,230700,1,0,0:0:0:0:
76,360,230781,2,0,L|152:360,1,47.5,8|0,0:0|0:0,0:0:0:0:
156,344,230941,1,0,0:0:0:0:
156,308,231021,1,0,0:0:0:0:
156,268,231102,5,4,2:1:0:0:
156,192,231262,1,4,2:1:0:0:
256,308,231583,1,4,2:1:0:0:
356,192,231904,1,4,2:1:0:0:
256,308,232225,1,4,2:1:0:0:
256,232,232385,5,4,2:1:0:0:
256,156,232545,1,0,0:0:0:0:
256,116,232626,1,0,0:0:0:0:
256,80,232706,1,8,0:0:0:0:
308,28,232866,1,0,0:0:0:0:
344,28,232946,1,0,0:0:0:0:
384,28,233027,1,0,0:0:0:0:
420,28,233107,1,0,0:0:0:0:
456,28,233187,1,0,0:0:0:0:
456,64,233267,1,0,0:0:0:0:
456,104,233348,1,8,0:0:0:0:
456,140,233428,1,0,0:0:0:0:
456,176,233508,1,0,0:0:0:0:
456,252,233668,5,0,0:0:0:0:
456,292,233749,1,0,0:0:0:0:
456,328,233829,1,0,0:0:0:0:
388,360,233989,1,8,0:0:0:0:
320,328,234150,1,0,0:0:0:0:
320,292,234230,1,0,0:0:0:0:
320,256,234310,2,0,L|320:196,1,47.5
320,172,234471,1,0,0:0:0:0:
288,148,234551,1,0,0:0:0:0:
256,132,234631,1,8,0:0:0:0:
220,148,234711,1,0,0:0:0:0:
188,172,234791,1,0,0:0:0:0:
136,224,234952,5,0,0:0:0:0:
136,224,235032,1,0,0:0:0:0:
100,224,235112,1,0,0:0:0:0:
100,224,235192,1,0,0:0:0:0:
60,224,235273,1,8,0:0:0:0:
44,188,235353,1,0,0:0:0:0:
32,152,235433,1,0,0:0:0:0:
20,116,235513,1,0,0:0:0:0:
8,80,235594,2,0,L|8:28,1,47.5
44,16,235754,1,0,0:0:0:0:
80,16,235834,1,0,0:0:0:0:
116,32,235914,2,0,L|176:32,1,47.5,8|0,0:0|0:0,0:0:0:0:
200,16,236075,1,0,0:0:0:0:
236,16,236155,1,0,0:0:0:0:
272,16,236235,6,0,L|368:16,1,95
444,16,236556,1,8,0:0:0:0:
404,164,236877,1,0,0:0:0:0:
368,164,236957,1,0,0:0:0:0:
332,164,237037,1,0,0:0:0:0:
292,164,237118,1,0,0:0:0:0:
256,164,237198,1,8,0:0:0:0:
220,164,237278,1,0,0:0:0:0:
184,164,237358,1,0,0:0:0:0:
148,164,237438,1,0,0:0:0:0:
108,164,237519,5,4,2:1:0:0:
56,220,237679,1,0,0:0:0:0:
56,256,237759,1,0,0:0:0:0:
56,296,237840,1,8,0:0:0:0:
108,352,238000,1,0,0:0:0:0:
132,324,238080,1,0,0:0:0:0:
156,296,238160,1,0,0:0:0:0:
180,268,238241,1,0,0:0:0:0:
216,268,238321,1,0,0:0:0:0:
252,268,238401,1,0,0:0:0:0:
288,268,238481,1,8,0:0:0:0:
364,268,238642,1,0,0:0:0:0:
440,268,238802,5,0,0:0:0:0:
476,200,238963,1,0,0:0:0:0:
440,132,239123,1,8,0:0:0:0:
364,132,239283,1,0,0:0:0:0:
324,132,239364,1,0,0:0:0:0:
288,132,239444,2,0,L|256:96,1,47.5
220,96,239604,1,0,0:0:0:0:
184,96,239684,1,0,0:0:0:0:
144,96,239765,1,8,0:0:0:0:
108,96,239845,1,0,0:0:0:0:
72,96,239925,1,0,0:0:0:0:
20,148,240085,5,0,0:0:0:0:
20,224,240246,1,0,0:0:0:0:
32,260,240326,1,0,0:0:0:0:
44,296,240406,1,8,0:0:0:0:
112,256,240567,1,0,0:0:0:0:
124,292,240647,1,0,0:0:0:0:
136,328,240727,2,0,L|188:328,1,47.5
220,328,240888,1,0,0:0:0:0:
256,328,240968,1,0,0:0:0:0:
292,328,241048,2,0,L|312:272,1,47.5,8|0,0:0|0:0,0:0:0:0:
320,248,241208,1,0,0:0:0:0:
336,212,241289,1,0,0:0:0:0:
352,176,241369,5,4,2:1:0:0:
384,108,241529,1,4,2:1:0:0:
256,24,241850,1,4,2:1:0:0:
128,108,242171,1,4,2:1:0:0:
256,24,242492,1,4,2:1:0:0:
256,100,242652,5,4,2:1:0:0:
256,100,242813,1,0,0:0:0:0:
256,176,242973,1,0,0:0:0:0:
256,176,243134,1,0,0:0:0:0:
256,252,243294,1,0,0:0:0:0:
256,252,243454,1,0,0:0:0:0:
256,328,243615,1,0,0:0:0:0:
256,328,243775,1,0,0:0:0:0:
188,360,243936,5,0,0:0:0:0:
120,328,244096,1,0,0:0:0:0:
120,252,244257,1,0,0:0:0:0:
188,212,244417,1,0,0:0:0:0:
256,252,244577,1,0,0:0:0:0:
256,328,244738,1,0,0:0:0:0:
324,360,244898,1,0,0:0:0:0:
392,328,245058,1,0,0:0:0:0:
392,252,245219,5,0,0:0:0:0:
356,240,245299,1,0,0:0:0:0:
320,228,245380,1,0,0:0:0:0:
356,212,245460,1,0,0:0:0:0:
392,196,245540,5,0,0:0:0:0:
356,180,245620,1,0,0:0:0:0:
320,168,245700,1,0,0:0:0:0:
356,152,245781,1,0,0:0:0:0:
392,140,245861,5,0,0:0:0:0:
356,124,245941,1,0,0:0:0:0:
320,112,246021,1,0,0:0:0:0:
356,96,246102,1,0,0:0:0:0:
392,80,246182,5,0,0:0:0:0:
356,64,246262,1,0,0:0:0:0:
320,52,246342,1,0,0:0:0:0:
284,44,246422,1,0,0:0:0:0:
256,72,246503,5,4,2:1:0:0:
256,72,246583,1,4,2:1:0:0:
256,148,246743,1,4,2:1:0:0:
256,148,246823,1,4,2:1:0:0:
256,224,246984,1,4,2:1:0:0:
256,224,247064,1,4,2:1:0:0:
256,192,247144,12,0,247786,0:0:0:0:
256,296,248107,5,4,2:1:0:0:
196,344,248267,1,0,0:0:0:0:
156,344,248348,1,0,0:0:0:0:
120,344,248428,1,0,0:0:0:0:
100,312,248508,1,0,0:0:0:0:
84,280,248588,1,0,0:0:0:0:
84,204,248749,1,8,0:0:0:0:
8,204,248909,1,0,0:0:0:0:
48,140,249069,5,0,0:0:0:0:
8,76,249230,1,0,0:0:0:0:
84,76,249390,1,8,0:0:0:0:
160,76,249551,1,0,0:0:0:0:
192,92,249631,1,0,0:0:0:0:
228,76,249711,1,0,0:0:0:0:
260,60,249791,1,0,0:0:0:0:
296,76,249872,2,0,L|348:76,1,47.5
380,60,250032,1,8,0:0:0:0:
416,60,250112,1,0,0:0:0:0:
452,60,250192,1,0,0:0:0:0:
508,112,250353,5,0,0:0:0:0:
480,136,250433,1,0,0:0:0:0:
452,160,250513,1,0,0:0:0:0:
480,188,250594,1,0,0:0:0:0:
512,212,250674,1,8,0:0:0:0:
512,288,250834,1,0,0:0:0:0:
484,312,250914,1,0,0:0:0:0:
456,336,250995,1,0,0:0:0:0:
404,280,251155,1,0,0:0:0:0:
376,304,251235,1,0,0:0:0:0:
348,328,251315,1,8,0:0:0:0:
292,276,251476,1,0,0:0:0:0:
160,356,251797,5,0,0:0:0:0:
160,320,251877,1,0,0:0:0:0:
160,284,251957,1,0,0:0:0:0:
92,320,252118,1,0,0:0:0:0:
92,284,252198,1,0,0:0:0:0:
92,248,252278,1,0,0:0:0:0:
24,284,252438,1,0,0:0:0:0:
24,244,252519,1,0,0:0:0:0:
24,208,252599,1,0,0:0:0:0:
24,172,252679,1,0,0:0:0:0:
24,136,252759,1,0,0:0:0:0:
24,96,252840,1,0,0:0:0:0:
24,60,252920,5,4,2:1:0:0:
92,24,253080,1,0,0:0:0:0:
116,52,253160,1,0,0:0:0:0:
140,80,253241,1,8,0:0:0:0:
204,120,253401,1,0,0:0:0:0:
232,92,253481,1,0,0:0:0:0:
256,64,253561,1,0,0:0:0:0:
296,64,253642,1,0,0:0:0:0:
296,64,253722,1,0,0:0:0:0:
332,64,253802,1,0,0:0:0:0:
332,64,253882,1,8,0:0:0:0:
408,64,254043,1,0,0:0:0:0:
460,120,254203,6,0,L|460:184,1,47.5
460,204,254364,1,0,0:0:0:0:
460,240,254444,1,0,0:0:0:0:
460,276,254524,1,8,0:0:0:0:
460,352,254684,1,0,0:0:0:0:
424,336,254765,1,0,0:0:0:0:
392,320,254845,1,0,0:0:0:0:
360,336,254925,1,0,0:0:0:0:
328,352,255005,1,0,0:0:0:0:
292,336,255085,1,0,0:0:0:0:
256,320,255166,1,8,0:0:0:0:
188,352,255326,1,0,0:0:0:0:
120,320,255487,6,0,L|72:296,1,47.5
44,280,255647,1,0,0:0:0:0:
44,244,255727,1,0,0:0:0:0:
44,208,255807,1,8,0:0:0:0:
44,132,255968,1,0,0:0:0:0:
80,148,256048,1,0,0:0:0:0:
116,164,256128,2,0,L|164:188,1,47.5
192,164,256289,1,0,0:0:0:0:
224,148,256369,1,0,0:0:0:0:
256,132,256449,2,0,L|300:152,1,47.5,8|0,0:0|0:0,0:0:0:0:
332,168,256610,1,0,0:0:0:0:
368,184,256690,1,0,0:0:0:0:
404,200,256770,5,0,0:0:0:0:
480,184,256930,1,0,0:0:0:0:
428,128,257091,1,8,0:0:0:0:
428,280,257412,1,0,0:0:0:0:
396,296,257492,1,0,0:0:0:0:
364,280,257572,1,0,0:0:0:0:
328,296,257652,1,0,0:0:0:0:
292,280,257733,1,0,0:0:0:0:
260,296,257813,1,0,0:0:0:0:
224,280,257893,1,0,0:0:0:0:
192,296,257973,1,0,0:0:0:0:
156,280,258053,6,0,L|100:280,1,47.5,4|0,2:1|0:0,0:0:0:0:
72,280,258214,1,0,0:0:0:0:
40,260,258294,1,0,0:0:0:0:
8,236,258374,1,0,0:0:0:0:
8,160,258535,2,0,L|8:112,1,47.5
8,76,258695,1,0,0:0:0:0:
8,40,258775,1,0,0:0:0:0:
44,52,258856,1,0,0:0:0:0:
80,64,258936,1,0,0:0:0:0:
116,52,259016,1,0,0:0:0:0:
184,20,259176,1,0,0:0:0:0:
256,52,259337,5,0,0:0:0:0:
288,32,259417,1,0,0:0:0:0:
320,12,259497,1,0,0:0:0:0:
352,32,259577,1,0,0:0:0:0:
384,52,259658,1,0,0:0:0:0:
420,52,259738,1,0,0:0:0:0:
456,52,259818,1,0,0:0:0:0:
476,84,259898,1,0,0:0:0:0:
496,116,259979,1,0,0:0:0:0:
464,136,260059,1,0,0:0:0:0:
496,156,260139,1,0,0:0:0:0:
464,176,260219,1,0,0:0:0:0:
496,196,260299,1,0,0:0:0:0:
464,216,260380,1,0,0:0:0:0:
496,236,260460,1,0,0:0:0:0:
464,256,260540,1,0,0:0:0:0:
496,276,260620,5,4,2:1:0:0:
444,332,260781,1,0,0:0:0:0:
412,312,260861,1,0,0:0:0:0:
380,292,260941,1,0,0:0:0:0:
320,340,261102,1,0,0:0:0:0:
288,320,261182,1,0,0:0:0:0:
256,300,261262,1,0,0:0:0:0:
224,320,261342,1,0,0:0:0:0:
192,340,261422,1,0,0:0:0:0:
160,320,261503,1,0,0:0:0:0:
132,296,261583,1,0,0:0:0:0:
100,320,261663,1,0,0:0:0:0:
68,340,261743,1,0,0:0:0:0:
36,320,261823,1,0,0:0:0:0:
4,296,261904,5,4,2:1:0:0:
4,220,262064,1,0,0:0:0:0:
4,184,262144,1,0,0:0:0:0:
4,144,262225,1,0,0:0:0:0:
80,144,262385,1,0,0:0:0:0:
80,184,262465,1,0,0:0:0:0:
80,220,262545,1,0,0:0:0:0:
116,232,262626,1,0,0:0:0:0:
152,244,262706,1,0,0:0:0:0:
188,236,262786,1,0,0:0:0:0:
224,220,262866,1,0,0:0:0:0:
244,252,262946,1,0,0:0:0:0:
264,220,263027,1,0,0:0:0:0:
284,252,263107,1,0,0:0:0:0:
308,220,263187,6,0,L|364:220,1,47.5,4|0,2:1|0:0,0:0:0:0:
392,232,263348,1,0,0:0:0:0:
428,248,263428,1,0,0:0:0:0:
464,264,263508,2,0,P|468:288|464:316,1,47.5
460,348,263668,1,0,0:0:0:0:
428,372,263749,1,0,0:0:0:0:
392,376,263829,1,0,0:0:0:0:
356,360,263909,1,0,0:0:0:0:
332,328,263989,2,0,L|328:272,1,47.5
308,248,264150,1,0,0:0:0:0:
272,232,264230,1,0,0:0:0:0:
236,232,264310,1,0,0:0:0:0:
200,244,264390,1,0,0:0:0:0:
172,272,264471,6,0,P|132:288|92:284,1,47.5,4|0,2:1|0:0,0:0:0:0:
92,288,264631,1,0,0:0:0:0:
56,276,264711,1,0,0:0:0:0:
28,248,264791,2,0,L|28:196,1,47.5
12,164,264952,1,0,0:0:0:0:
0,128,265032,1,0,0:0:0:0:
12,92,265112,1,0,0:0:0:0:
36,64,265192,1,0,0:0:0:0:
76,60,265273,2,0,L|128:64,1,47.5
124,100,265433,1,0,0:0:0:0:
128,136,265513,1,0,0:0:0:0:
152,168,265594,1,0,0:0:0:0:
188,184,265674,1,0,0:0:0:0:
228,188,265754,5,4,2:1:0:0:
256,164,265834,1,0,0:0:0:0:
264,200,265914,1,0,0:0:0:0:
280,164,265995,1,0,0:0:0:0:
288,200,266075,1,0,0:0:0:0:
304,164,266155,1,0,0:0:0:0:
312,200,266235,1,0,0:0:0:0:
328,164,266316,1,0,0:0:0:0:
336,200,266396,1,0,0:0:0:0:
352,164,266476,1,0,0:0:0:0:
360,200,266556,1,0,0:0:0:0:
376,164,266637,1,0,0:0:0:0:
384,200,266717,1,0,0:0:0:0:
400,164,266797,1,0,0:0:0:0:
408,200,266877,1,0,0:0:0:0:
424,164,266958,1,0,0:0:0:0:
452,188,267037,6,0,B|464:208|464:208|464:336,1,142.5,0|0,0:0|2:0,0:0:0:0:
464,364,267358,2,0,B|416:376|416:376|372:364,1,95,0|0,3:0|0:0,0:0:0:0:
340,344,267599,1,0,0:0:0:0:
312,312,267679,2,0,L|312:256,1,47.5
312,228,267840,2,0,L|312:192,4,23.75
280,248,268080,2,0,L|228:248,1,47.5
156,248,268321,5,4,2:1:0:0:
80,248,268481,1,0,0:0:0:0:
36,188,268642,1,8,0:0:0:0:
36,112,268802,1,0,0:0:0:0:
80,52,268963,1,0,0:0:0:0:
80,52,269043,1,0,0:0:0:0:
80,52,269123,1,0,0:0:0:0:
156,52,269283,2,0,L|256:52,1,95,8|0,0:0|0:0,0:0:0:0:
328,56,269604,5,0,0:0:0:0:
364,56,269684,1,0,0:0:0:0:
440,56,269845,1,0,0:0:0:0:
476,56,269925,1,8,0:0:0:0:
476,132,270085,1,0,0:0:0:0:
476,172,270166,1,0,0:0:0:0:
476,208,270246,1,0,0:0:0:0:
476,284,270406,1,0,0:0:0:0:
400,284,270567,1,8,0:0:0:0:
400,208,270727,1,0,0:0:0:0:
320,208,270888,5,0,0:0:0:0:
320,284,271048,1,0,0:0:0:0:
244,284,271208,1,8,0:0:0:0:
204,284,271289,1,0,0:0:0:0:
168,284,271369,1,0,0:0:0:0:
132,284,271449,1,0,0:0:0:0:
96,284,271529,1,0,0:0:0:0:
20,284,271690,1,0,0:0:0:0:
20,248,271770,1,0,0:0:0:0:
20,212,271850,1,8,0:0:0:0:
20,136,272011,1,0,0:0:0:0:
96,136,272171,5,0,0:0:0:0:
132,148,272251,1,0,0:0:0:0:
168,136,272331,1,0,0:0:0:0:
204,148,272412,1,0,0:0:0:0:
240,136,272492,1,8,0:0:0:0:
276,148,272572,1,0,0:0:0:0:
312,136,272652,1,0,0:0:0:0:
348,148,272733,1,0,0:0:0:0:
384,136,272813,1,0,0:0:0:0:
460,136,272973,1,0,0:0:0:0:
460,100,273053,1,0,0:0:0:0:
460,60,273134,1,8,0:0:0:0:
392,24,273294,1,0,0:0:0:0:
324,60,273454,5,0,0:0:0:0:
256,24,273615,1,0,0:0:0:0:
188,60,273775,1,8,0:0:0:0:
188,136,273936,1,0,0:0:0:0:
256,172,274096,1,0,0:0:0:0:
256,172,274176,1,0,0:0:0:0:
256,172,274257,1,0,0:0:0:0:
324,136,274417,2,0,L|424:136,1,95,8|0,0:0|0:0,0:0:0:0:
420,212,274738,5,0,0:0:0:0:
420,248,274818,1,0,0:0:0:0:
420,324,274979,1,0,0:0:0:0:
384,324,275059,1,8,0:0:0:0:
308,324,275219,1,0,0:0:0:0:
272,324,275299,1,0,0:0:0:0:
232,324,275380,1,0,0:0:0:0:
156,324,275540,1,0,0:0:0:0:
156,248,275700,1,8,0:0:0:0:
232,248,275861,1,0,0:0:0:0:
232,172,276021,5,0,0:0:0:0:
232,96,276182,1,0,0:0:0:0:
232,20,276342,1,8,0:0:0:0:
196,20,276422,1,0,0:0:0:0:
156,20,276503,1,0,0:0:0:0:
120,20,276583,1,0,0:0:0:0:
84,20,276663,1,0,0:0:0:0:
8,20,276823,1,0,0:0:0:0:
8,60,276904,1,0,0:0:0:0:
8,96,276984,1,8,0:0:0:0:
8,172,277144,1,0,0:0:0:0:
84,172,277305,5,0,0:0:0:0:
120,184,277385,1,0,0:0:0:0:
156,196,277465,1,0,0:0:0:0:
192,184,277545,1,0,0:0:0:0:
228,168,277626,1,8,0:0:0:0:
264,184,277706,1,0,0:0:0:0:
300,196,277786,1,0,0:0:0:0:
336,184,277866,1,0,0:0:0:0:
372,172,277946,1,0,0:0:0:0:
440,140,278107,1,0,0:0:0:0:
440,104,278187,1,0,0:0:0:0:
440,68,278267,1,8,0:0:0:0:
388,12,278428,1,0,0:0:0:0:
332,64,278588,5,4,2:1:0:0:
256,64,278749,1,0,0:0:0:0:
180,64,278909,1,8,0:0:0:0:
104,64,279069,1,0,0:0:0:0:
28,64,279230,1,0,0:0:0:0:
28,64,279310,1,0,0:0:0:0:
28,64,279390,1,0,0:0:0:0:
28,140,279551,2,0,L|132:140,1,95,8|0,0:0|0:0,0:0:0:0:
200,140,279872,5,0,0:0:0:0:
236,140,279952,1,0,0:0:0:0:
312,140,280112,1,0,0:0:0:0:
348,140,280192,1,8,0:0:0:0:
424,140,280353,1,0,0:0:0:0:
424,176,280433,1,0,0:0:0:0:
424,212,280513,1,0,0:0:0:0:
424,288,280674,1,0,0:0:0:0:
424,364,280834,1,8,0:0:0:0:
360,324,280995,1,0,0:0:0:0:
296,364,281155,5,0,0:0:0:0:
256,300,281315,1,0,0:0:0:0:
216,364,281476,1,8,0:0:0:0:
180,364,281556,1,0,0:0:0:0:
144,364,281636,1,0,0:0:0:0:
104,364,281717,1,0,0:0:0:0:
68,364,281797,1,0,0:0:0:0:
16,312,281957,1,0,0:0:0:0:
16,276,282037,1,0,0:0:0:0:
16,236,282118,1,8,0:0:0:0:
16,160,282278,1,0,0:0:0:0:
68,104,282438,5,0,0:0:0:0:
108,104,282519,1,0,0:0:0:0:
144,104,282599,1,0,0:0:0:0:
180,120,282679,1,0,0:0:0:0:
216,120,282759,1,8,0:0:0:0:
256,120,282840,1,0,0:0:0:0:
292,108,282920,1,0,0:0:0:0:
328,108,283000,1,0,0:0:0:0:
364,108,283080,1,0,0:0:0:0:
440,112,283241,1,0,0:0:0:0:
440,148,283321,1,0,0:0:0:0:
440,184,283401,1,8,0:0:0:0:
440,260,283561,1,0,0:0:0:0:
440,336,283722,5,0,0:0:0:0:
372,368,283882,1,0,0:0:0:0:
304,332,284043,1,8,0:0:0:0:
304,256,284203,1,0,0:0:0:0:
372,220,284364,1,0,0:0:0:0:
372,220,284444,1,0,0:0:0:0:
372,220,284524,1,0,0:0:0:0:
440,188,284684,2,0,L|440:84,1,95,8|0,0:0|0:0,0:0:0:0:
440,16,285005,5,0,0:0:0:0:
404,16,285085,1,0,0:0:0:0:
328,16,285246,1,0,0:0:0:0:
292,16,285326,1,8,0:0:0:0:
256,84,285487,1,0,0:0:0:0:
220,84,285567,1,0,0:0:0:0:
184,84,285647,1,0,0:0:0:0:
108,84,285807,1,0,0:0:0:0:
32,84,285968,1,8,0:0:0:0:
32,160,286128,1,0,0:0:0:0:
108,160,286289,5,0,0:0:0:0:
108,236,286449,1,0,0:0:0:0:
32,236,286610,1,8,0:0:0:0:
32,272,286690,1,0,0:0:0:0:
32,312,286770,1,0,0:0:0:0:
68,312,286850,1,0,0:0:0:0:
108,312,286930,1,0,0:0:0:0:
184,316,287091,1,0,0:0:0:0:
220,316,287171,1,0,0:0:0:0:
256,316,287251,1,8,0:0:0:0:
256,240,287412,1,0,0:0:0:0:
256,164,287572,6,0,L|256:12,1,142.5
292,12,287893,2,0,L|344:12,1,47.5
376,12,288053,2,0,L|432:12,1,47.5
460,12,288214,1,0,0:0:0:0:
504,72,288374,2,0,L|528:72,4,23.75
460,136,288695,1,0,0:0:0:0:
388,108,288856,5,4,2:1:0:0:
316,136,289016,1,0,0:0:0:0:
280,136,289096,1,0,0:0:0:0:
244,136,289176,1,0,1:0:0:0:
168,136,289337,1,0,0:0:0:0:
92,136,289497,1,0,1:0:0:0:
92,136,289577,1,0,0:0:0:0:
92,136,289658,1,0,0:0:0:0:
40,192,289818,1,0,1:0:0:0:
92,248,289979,1,0,0:0:0:0:
40,304,290139,5,0,1:0:0:0:
92,360,290299,1,0,0:0:0:0:
144,304,290460,1,0,1:0:0:0:
192,364,290620,1,0,0:0:0:0:
256,324,290781,1,0,1:0:0:0:
256,324,290861,1,0,0:0:0:0:
320,360,291021,1,0,0:0:0:0:
320,360,291102,1,0,1:0:0:0:
368,304,291262,1,0,0:0:0:0:
420,360,291422,5,0,1:0:0:0:
476,308,291583,1,0,0:0:0:0:
476,272,291663,1,0,0:0:0:0:
476,236,291743,1,0,1:0:0:0:
420,184,291904,1,0,0:0:0:0:
420,148,291984,1,0,0:0:0:0:
420,112,292064,1,0,1:0:0:0:
476,60,292225,1,0,0:0:0:0:
476,60,292305,1,0,0:0:0:0:
476,60,292385,1,0,1:0:0:0:
420,8,292545,1,0,0:0:0:0:
360,56,292706,5,0,1:0:0:0:
324,56,292786,1,0,0:0:0:0:
288,56,292866,1,0,0:0:0:0:
252,56,292946,1,0,0:0:0:0:
212,56,293027,1,0,1:0:0:0:
136,56,293187,1,0,0:0:0:0:
60,56,293348,1,0,1:0:0:0:
60,92,293428,1,0,0:0:0:0:
60,128,293508,1,0,0:0:0:0:
60,204,293668,1,0,1:0:0:0:
124,244,293829,1,0,0:0:0:0:
188,204,293989,5,0,1:0:0:0:
252,244,294150,1,0,0:0:0:0:
288,244,294230,1,0,0:0:0:0:
324,244,294310,1,0,1:0:0:0:
388,204,294471,1,0,0:0:0:0:
460,224,294631,1,0,1:0:0:0:
460,224,294711,1,0,0:0:0:0:
460,224,294791,1,0,0:0:0:0:
496,292,294952,1,0,1:0:0:0:
468,364,295112,1,0,0:0:0:0:
408,320,295273,5,0,1:0:0:0:
344,360,295433,1,0,0:0:0:0:
280,320,295594,1,0,1:0:0:0:
216,360,295754,1,0,0:0:0:0:
152,320,295914,1,0,1:0:0:0:
152,320,295995,1,0,0:0:0:0:
84,356,296155,1,0,0:0:0:0:
84,356,296235,1,0,1:0:0:0:
16,320,296396,1,0,0:0:0:0:
16,244,296556,5,0,1:0:0:0:
76,200,296717,1,0,0:0:0:0:
76,164,296797,1,0,0:0:0:0:
76,128,296877,1,0,1:0:0:0:
76,52,297037,1,0,0:0:0:0:
116,52,297118,1,0,0:0:0:0:
152,52,297198,1,0,1:0:0:0:
228,52,297358,1,0,0:0:0:0:
228,52,297438,1,0,0:0:0:0:
228,52,297519,1,0,1:0:0:0:
304,52,297679,1,0,0:0:0:0:
380,52,297840,5,0,1:0:0:0:
380,88,297920,1,0,0:0:0:0:
380,124,298000,1,0,0:0:0:0:
380,160,298080,1,0,0:0:0:0:
380,196,298160,1,0,1:0:0:0:
448,228,298321,1,0,0:0:0:0:
452,304,298481,1,0,1:0:0:0:
432,336,298561,1,0,0:0:0:0:
408,368,298642,1,0,0:0:0:0:
332,368,298802,1,0,1:0:0:0:
256,348,298963,1,0,0:0:0:0:
184,328,299123,5,4,2:1:0:0:
184,252,299283,1,0,0:0:0:0:
184,212,299364,1,0,0:0:0:0:
184,176,299444,1,0,1:0:0:0:
184,100,299604,1,0,0:0:0:0:
108,100,299765,1,0,1:0:0:0:
108,100,299845,1,0,0:0:0:0:
108,100,299925,1,0,0:0:0:0:
32,100,300085,1,0,1:0:0:0:
32,176,300246,1,0,0:0:0:0:
108,176,300406,5,0,1:0:0:0:
184,176,300567,1,0,0:0:0:0:
260,176,300727,1,0,1:0:0:0:
260,100,300888,1,0,0:0:0:0:
336,100,301048,1,0,1:0:0:0:
336,100,301128,1,0,0:0:0:0:
336,176,301289,1,0,0:0:0:0:
336,176,301369,1,0,1:0:0:0:
412,172,301529,1,0,0:0:0:0:
488,172,301690,5,0,1:0:0:0:
488,248,301850,1,0,0:0:0:0:
488,284,301930,1,0,0:0:0:0:
488,324,302011,1,0,1:0:0:0:
412,324,302171,1,0,0:0:0:0:
376,324,302251,1,0,0:0:0:0:
340,324,302331,1,0,1:0:0:0:
264,324,302492,1,0,0:0:0:0:
264,324,302572,1,0,0:0:0:0:
264,324,302652,1,0,1:0:0:0:
264,248,302813,1,0,0:0:0:0:
188,248,302973,5,0,1:0:0:0:
152,248,303053,1,0,0:0:0:0:
112,248,303134,1,0,0:0:0:0:
76,248,303214,1,0,0:0:0:0:
40,248,303294,1,0,1:0:0:0:
40,172,303454,1,0,0:0:0:0:
116,172,303615,1,0,1:0:0:0:
152,172,303695,1,0,0:0:0:0:
188,172,303775,1,0,0:0:0:0:
188,96,303936,1,0,1:0:0:0:
112,96,304096,1,0,0:0:0:0:
112,20,304257,6,0,L|256:20,1,142.5,0|0,1:0|0:0,0:0:0:0:
254,20,304577,1,0,1:0:0:0:
330,20,304738,1,0,0:0:0:0:
406,20,304898,1,0,1:0:0:0:
446,20,304979,1,0,0:0:0:0:
482,20,305059,1,0,0:0:0:0:
482,56,305139,1,0,0:0:0:0:
482,92,305219,1,0,1:0:0:0:
482,168,305380,1,0,0:0:0:0:
482,244,305540,5,0,1:0:0:0:
406,244,305700,1,0,0:0:0:0:
406,168,305861,1,0,1:0:0:0:
330,168,306021,1,0,0:0:0:0:
330,244,306182,1,0,1:0:0:0:
330,244,306262,1,0,0:0:0:0:
254,244,306422,1,0,0:0:0:0:
254,244,306503,1,0,1:0:0:0:
254,168,306663,1,0,0:0:0:0:
178,168,306823,6,0,L|34:168,1,142.5,0|0,1:0|0:0,0:0:0:0:
35,168,307144,1,0,1:0:0:0:
32,244,307305,1,0,0:0:0:0:
104,264,307465,1,0,1:0:0:0:
104,264,307545,1,0,0:0:0:0:
180,244,307706,1,0,0:0:0:0:
180,244,307786,1,0,1:0:0:0:
256,260,307946,1,0,0:0:0:0:
256,184,308107,5,0,1:0:0:0:
256,108,308267,1,0,0:0:0:0:
256,32,308428,1,0,1:0:0:0:
320,72,308588,1,0,0:0:0:0:
320,148,308749,1,0,1:0:0:0:
320,148,308829,1,0,0:0:0:0:
388,112,308989,1,0,0:0:0:0:
388,112,309069,1,0,1:0:0:0:
452,68,309230,6,0,P|464:120|448:160,1,95
