osu file format v14

[General]
AudioFilename: audio120.mp3
AudioLeadIn: 0
PreviewTime: 43961
Countdown: 0
SampleSet: None
StackLeniency: 0.7
Mode: 3
LetterboxInBreaks: 0
SpecialStyle: 0
WidescreenStoryboard: 0

[Editor]
DistanceSpacing: 0.8
BeatDivisor: 4
GridSize: 4
TimelineZoom: 1.7

[Metadata]
Title:More One Night
TitleUnicode:More One Night
Artist:Kubo Yurika/Inori Minase
ArtistUnicode:久保ユリカ/水瀬いのり
Creator:MEIDAN
Version:One More Time [1.2x]
Source:
Tags:
BeatmapID:4556380
BeatmapSetID:2159031

[Difficulty]
HPDrainRate:8
CircleSize:4
OverallDifficulty:8
ApproachRate:5
SliderMultiplier:1.4
SliderTickRate:1

[Events]
//Background and Video events
0,0,"BG.jpg",0,0
//Break Periods
//Storyboard Layer 0 (Background)
//Storyboard Layer 1 (Fail)
//Storyboard Layer 2 (Pass)
//Storyboard Layer 3 (Foreground)
//Storyboard Layer 4 (Overlay)
//Storyboard Sound Samples

[TimingPoints]
607,406.50406504065,4,3,0,0,1,0

[HitObjects]
64,192,607,5,0,0:0:0:0:
192,192,607,1,0,0:0:0:0:
320,192,607,1,0,0:0:0:0:
448,192,607,1,0,0:0:0:0:
64,192,809,1,0,0:0:0:0:
448,192,809,1,0,0:0:0:0:
64,192,1012,1,0,0:0:0:0:
320,192,1012,1,0,0:0:0:0:
448,192,1012,1,0,0:0:0:0:
192,192,1012,1,0,0:0:0:0:
320,192,1216,1,0,0:0:0:0:
448,192,1216,1,0,0:0:0:0:
64,192,1419,1,0,0:0:0:0:
192,192,1419,1,0,0:0:0:0:
320,192,1419,1,0,0:0:0:0:
448,192,1419,1,0,0:0:0:0:
64,192,1622,1,0,0:0:0:0:
320,192,1622,1,0,0:0:0:0:
64,192,1826,1,0,0:0:0:0:
192,192,1826,1,0,0:0:0:0:
320,192,1826,1,0,0:0:0:0:
448,192,1826,1,0,0:0:0:0:
192,192,2029,1,0,0:0:0:0:
320,192,2029,1,0,0:0:0:0:
64,192,2232,1,0,0:0:0:0:
192,192,2232,1,0,0:0:0:0:
320,192,2232,1,0,0:0:0:0:
448,192,2232,1,0,0:0:0:0:
448,192,2436,1,0,0:0:0:0:
192,192,2436,1,0,0:0:0:0:
64,192,2639,1,0,0:0:0:0:
192,192,2639,1,0,0:0:0:0:
320,192,2639,1,0,0:0:0:0:
448,192,2639,1,0,0:0:0:0:
192,192,2842,1,0,0:0:0:0:
64,192,2842,1,0,0:0:0:0:
64,192,3045,1,0,0:0:0:0:
192,192,3045,1,0,0:0:0:0:
320,192,3045,1,0,0:0:0:0:
448,192,3045,1,0,0:0:0:0:
448,192,3248,1,0,0:0:0:0:
64,192,3248,1,0,0:0:0:0:
64,192,3452,1,0,0:0:0:0:
192,192,3452,1,0,0:0:0:0:
320,192,3452,1,0,0:0:0:0:
448,192,3452,1,0,0:0:0:0:
448,192,3655,1,0,0:0:0:0:
192,192,3655,1,0,0:0:0:0:
320,192,3858,1,0,0:0:0:0:
192,192,3960,1,0,0:0:0:0:
320,192,4062,1,0,0:0:0:0:
192,192,4163,1,0,0:0:0:0:
64,192,4265,1,0,0:0:0:0:
192,192,4367,1,0,0:0:0:0:
320,192,4468,1,0,0:0:0:0:
192,192,4570,1,0,0:0:0:0:
320,192,4672,1,0,0:0:0:0:
448,192,4772,1,0,0:0:0:0:
320,192,4874,1,0,0:0:0:0:
192,192,4976,1,0,0:0:0:0:
64,192,5078,1,0,0:0:0:0:
448,192,5078,1,0,0:0:0:0:
64,192,5484,1,0,0:0:0:0:
320,192,5484,1,0,0:0:0:0:
448,192,5484,1,0,0:0:0:0:
192,192,5484,1,0,0:0:0:0:
64,192,5891,1,0,0:0:0:0:
448,192,5891,1,0,0:0:0:0:
320,192,6298,1,0,0:0:0:0:
448,192,6298,1,0,0:0:0:0:
320,192,6602,1,0,0:0:0:0:
448,192,6602,1,0,0:0:0:0:
64,192,6704,1,0,0:0:0:0:
448,192,6704,1,0,0:0:0:0:
192,192,6907,1,0,0:0:0:0:
320,192,6907,1,0,0:0:0:0:
64,192,7517,1,0,0:0:0:0:
448,192,7517,1,0,0:0:0:0:
448,192,8330,1,0,0:0:0:0:
64,192,8330,1,0,0:0:0:0:
192,192,8330,1,0,0:0:0:0:
448,192,8737,1,0,0:0:0:0:
64,192,8737,1,0,0:0:0:0:
448,192,9142,1,0,0:0:0:0:
320,192,9142,1,0,0:0:0:0:
192,192,9549,1,0,0:0:0:0:
448,192,9549,1,0,0:0:0:0:
192,192,9854,1,0,0:0:0:0:
448,192,9854,1,0,0:0:0:0:
320,192,9956,1,0,0:0:0:0:
448,192,9956,1,0,0:0:0:0:
64,192,10159,1,0,0:0:0:0:
192,192,10159,1,0,0:0:0:0:
448,192,10159,1,0,0:0:0:0:
64,192,10769,1,0,0:0:0:0:
320,192,10769,1,0,0:0:0:0:
64,192,11175,1,0,0:0:0:0:
448,192,11175,1,0,0:0:0:0:
192,192,11175,1,0,0:0:0:0:
320,192,11378,1,0,0:0:0:0:
192,192,11480,1,0,0:0:0:0:
320,192,11582,1,0,0:0:0:0:
448,192,11582,1,0,0:0:0:0:
64,192,11582,1,0,0:0:0:0:
64,192,11988,1,0,0:0:0:0:
192,192,11988,1,0,0:0:0:0:
448,192,11988,1,0,0:0:0:0:
320,192,11988,1,0,0:0:0:0:
320,192,12090,1,0,0:0:0:0:
64,192,12090,1,0,0:0:0:0:
192,192,12192,1,0,0:0:0:0:
448,192,12192,1,0,0:0:0:0:
320,192,12192,1,0,0:0:0:0:
64,192,12293,1,0,0:0:0:0:
192,192,12293,1,0,0:0:0:0:
320,192,12395,1,0,0:0:0:0:
448,192,12395,1,0,0:0:0:0:
64,192,12395,1,0,0:0:0:0:
192,192,12497,1,0,0:0:0:0:
320,192,12497,1,0,0:0:0:0:
448,192,12598,1,0,0:0:0:0:
64,192,12598,1,0,0:0:0:0:
320,192,12598,1,0,0:0:0:0:
448,192,12700,1,0,0:0:0:0:
192,192,12700,1,0,0:0:0:0:
64,192,12700,1,0,0:0:0:0:
320,192,12802,1,0,0:0:0:0:
64,192,12802,1,0,0:0:0:0:
320,192,12903,1,0,0:0:0:0:
448,192,12903,1,0,0:0:0:0:
192,192,12903,1,0,0:0:0:0:
448,192,13005,1,0,0:0:0:0:
64,192,13005,1,0,0:0:0:0:
320,192,13106,1,0,0:0:0:0:
64,192,13106,1,0,0:0:0:0:
192,192,13106,1,0,0:0:0:0:
448,192,13208,1,0,0:0:0:0:
320,192,13208,1,0,0:0:0:0:
192,192,13309,1,0,0:0:0:0:
448,192,13309,1,0,0:0:0:0:
448,192,13411,1,0,0:0:0:0:
320,192,13411,1,0,0:0:0:0:
64,192,13411,1,0,0:0:0:0:
192,192,13512,1,0,0:0:0:0:
64,192,13512,1,0,0:0:0:0:
320,192,13614,1,0,0:0:0:0:
448,192,13614,1,0,0:0:0:0:
192,192,13614,1,0,0:0:0:0:
448,192,13716,1,0,0:0:0:0:
64,192,13716,1,0,0:0:0:0:
192,192,13818,1,0,0:0:0:0:
320,192,13818,1,0,0:0:0:0:
64,192,13818,1,0,0:0:0:0:
448,192,13919,1,0,0:0:0:0:
192,192,13919,1,0,0:0:0:0:
64,192,14021,1,0,0:0:0:0:
448,192,14021,1,0,0:0:0:0:
320,192,14021,1,0,0:0:0:0:
192,192,14122,1,0,0:0:0:0:
64,192,14122,1,0,0:0:0:0:
320,192,14224,1,0,0:0:0:0:
448,192,14224,1,0,0:0:0:0:
192,192,14224,1,0,0:0:0:0:
448,192,14326,1,0,0:0:0:0:
320,192,14326,1,0,0:0:0:0:
64,192,14326,1,0,0:0:0:0:
192,192,14428,1,0,0:0:0:0:
448,192,14428,1,0,0:0:0:0:
320,192,14529,1,0,0:0:0:0:
192,192,14529,1,0,0:0:0:0:
64,192,14529,1,0,0:0:0:0:
448,192,14631,1,0,0:0:0:0:
320,192,14631,1,0,0:0:0:0:
448,192,14732,1,0,0:0:0:0:
192,192,14732,1,0,0:0:0:0:
64,192,14732,1,0,0:0:0:0:
320,192,14834,1,0,0:0:0:0:
448,192,14834,1,0,0:0:0:0:
192,192,14834,1,0,0:0:0:0:
320,192,14936,1,0,0:0:0:0:
64,192,14936,1,0,0:0:0:0:
192,192,15038,1,0,0:0:0:0:
320,192,15038,1,0,0:0:0:0:
448,192,15038,1,0,0:0:0:0:
192,192,15139,1,0,0:0:0:0:
64,192,15139,1,0,0:0:0:0:
64,192,15240,1,0,0:0:0:0:
320,192,15240,1,0,0:0:0:0:
448,192,15240,1,0,0:0:0:0:
192,192,15240,1,0,0:0:0:0:
448,192,15342,1,0,0:0:0:0:
320,192,15342,1,0,0:0:0:0:
192,192,15443,1,0,0:0:0:0:
64,192,15443,1,0,0:0:0:0:
448,192,15443,1,0,0:0:0:0:
64,192,15545,1,0,0:0:0:0:
320,192,15545,1,0,0:0:0:0:
320,192,15647,1,0,0:0:0:0:
192,192,15647,1,0,0:0:0:0:
64,192,15647,1,0,0:0:0:0:
448,192,15647,1,0,0:0:0:0:
192,192,15748,1,0,0:0:0:0:
448,192,15748,1,0,0:0:0:0:
192,192,15850,1,0,0:0:0:0:
320,192,15850,1,0,0:0:0:0:
64,192,15850,1,0,0:0:0:0:
64,192,15952,1,0,0:0:0:0:
448,192,15952,1,0,0:0:0:0:
320,192,16053,1,0,0:0:0:0:
448,192,16053,1,0,0:0:0:0:
64,192,16053,1,0,0:0:0:0:
192,192,16053,1,0,0:0:0:0:
64,192,16155,1,0,0:0:0:0:
192,192,16155,1,0,0:0:0:0:
192,192,16257,1,0,0:0:0:0:
448,192,16257,1,0,0:0:0:0:
320,192,16257,1,0,0:0:0:0:
320,192,16358,1,0,0:0:0:0:
64,192,16358,1,0,0:0:0:0:
320,192,16460,1,0,0:0:0:0:
192,192,16460,1,0,0:0:0:0:
64,192,16460,1,0,0:0:0:0:
448,192,16460,1,0,0:0:0:0:
192,192,16562,1,0,0:0:0:0:
320,192,16562,1,0,0:0:0:0:
64,192,16663,1,0,0:0:0:0:
448,192,16663,1,0,0:0:0:0:
192,192,16663,1,0,0:0:0:0:
320,192,16765,1,0,0:0:0:0:
64,192,16765,1,0,0:0:0:0:
448,192,16867,1,0,0:0:0:0:
320,192,16867,1,0,0:0:0:0:
64,192,16867,1,0,0:0:0:0:
192,192,16867,1,0,0:0:0:0:
320,192,16968,1,0,0:0:0:0:
448,192,16968,1,0,0:0:0:0:
64,192,17070,1,0,0:0:0:0:
192,192,17070,1,0,0:0:0:0:
192,192,17172,1,0,0:0:0:0:
64,192,17172,1,0,0:0:0:0:
448,192,17272,1,0,0:0:0:0:
320,192,17272,1,0,0:0:0:0:
64,192,17272,1,0,0:0:0:0:
320,192,17374,1,0,0:0:0:0:
448,192,17374,1,0,0:0:0:0:
64,192,17476,1,0,0:0:0:0:
192,192,17476,1,0,0:0:0:0:
192,192,17578,1,0,0:0:0:0:
64,192,17578,1,0,0:0:0:0:
64,192,17679,1,0,0:0:0:0:
448,192,17679,1,0,0:0:0:0:
320,192,17679,1,0,0:0:0:0:
64,192,17781,1,0,0:0:0:0:
320,192,17781,1,0,0:0:0:0:
448,192,17781,1,0,0:0:0:0:
64,192,17882,1,0,0:0:0:0:
320,192,17882,1,0,0:0:0:0:
448,192,17882,1,0,0:0:0:0:
64,192,18086,1,0,0:0:0:0:
192,192,18086,1,0,0:0:0:0:
320,192,18086,1,0,0:0:0:0:
448,192,18086,1,0,0:0:0:0:
64,192,18492,1,0,0:0:0:0:
320,192,18492,1,0,0:0:0:0:
448,192,18492,1,0,0:0:0:0:
192,192,18492,1,0,0:0:0:0:
448,192,18696,1,0,0:0:0:0:
64,192,18696,1,0,0:0:0:0:
320,192,18899,1,0,0:0:0:0:
448,192,18899,1,0,0:0:0:0:
64,192,18899,1,0,0:0:0:0:
320,192,19102,1,0,0:0:0:0:
192,192,19102,1,0,0:0:0:0:
192,192,19306,1,0,0:0:0:0:
64,192,19306,1,0,0:0:0:0:
448,192,19306,1,0,0:0:0:0:
64,192,19712,1,0,0:0:0:0:
448,192,19712,1,0,0:0:0:0:
320,192,19712,1,0,0:0:0:0:
448,192,19915,1,0,0:0:0:0:
192,192,19915,1,0,0:0:0:0:
320,192,20118,1,0,0:0:0:0:
64,192,20118,1,0,0:0:0:0:
192,192,20118,1,0,0:0:0:0:
320,192,20322,1,0,0:0:0:0:
64,192,20322,1,0,0:0:0:0:
448,192,20525,1,0,0:0:0:0:
64,192,20525,1,0,0:0:0:0:
192,192,20525,1,0,0:0:0:0:
192,192,20728,1,0,0:0:0:0:
64,192,20728,1,0,0:0:0:0:
64,192,20932,1,0,0:0:0:0:
448,192,20932,1,0,0:0:0:0:
320,192,20932,1,0,0:0:0:0:
320,192,21338,1,0,0:0:0:0:
64,192,21338,1,0,0:0:0:0:
192,192,21338,1,0,0:0:0:0:
192,192,21541,1,0,0:0:0:0:
448,192,21541,1,0,0:0:0:0:
320,192,21744,1,0,0:0:0:0:
448,192,21744,1,0,0:0:0:0:
64,192,21744,1,0,0:0:0:0:
320,192,21948,1,0,0:0:0:0:
192,192,21948,1,0,0:0:0:0:
320,192,22151,1,0,0:0:0:0:
64,192,22151,1,0,0:0:0:0:
192,192,22151,1,0,0:0:0:0:
64,192,22354,1,0,0:0:0:0:
448,192,22354,1,0,0:0:0:0:
192,192,22558,1,0,0:0:0:0:
320,192,22558,1,0,0:0:0:0:
448,192,22558,1,0,0:0:0:0:
64,192,22964,1,0,0:0:0:0:
192,192,22964,1,0,0:0:0:0:
448,192,22964,1,0,0:0:0:0:
320,192,23168,1,0,0:0:0:0:
64,192,23168,1,0,0:0:0:0:
192,192,23371,1,0,0:0:0:0:
320,192,23371,1,0,0:0:0:0:
448,192,23371,1,0,0:0:0:0:
320,192,23573,1,0,0:0:0:0:
448,192,23573,1,0,0:0:0:0:
64,192,23777,1,0,0:0:0:0:
192,192,23777,1,0,0:0:0:0:
448,192,23777,1,0,0:0:0:0:
448,192,23980,1,0,0:0:0:0:
192,192,23980,1,0,0:0:0:0:
320,192,24183,1,0,0:0:0:0:
64,192,24183,1,0,0:0:0:0:
448,192,24183,1,0,0:0:0:0:
64,192,24590,1,0,0:0:0:0:
192,192,24590,1,0,0:0:0:0:
448,192,24590,1,0,0:0:0:0:
320,192,24793,1,0,0:0:0:0:
64,192,24793,1,0,0:0:0:0:
192,192,24997,1,0,0:0:0:0:
320,192,24997,1,0,0:0:0:0:
448,192,24997,1,0,0:0:0:0:
320,192,25403,1,0,0:0:0:0:
64,192,25403,1,0,0:0:0:0:
192,192,25403,1,0,0:0:0:0:
448,192,25606,1,0,0:0:0:0:
320,192,25606,1,0,0:0:0:0:
192,192,25809,1,0,0:0:0:0:
448,192,25809,1,0,0:0:0:0:
64,192,25809,1,0,0:0:0:0:
64,192,26216,1,0,0:0:0:0:
448,192,26216,1,0,0:0:0:0:
320,192,26216,1,0,0:0:0:0:
448,192,26419,1,0,0:0:0:0:
192,192,26419,1,0,0:0:0:0:
320,192,26622,1,0,0:0:0:0:
192,192,26622,1,0,0:0:0:0:
64,192,26622,1,0,0:0:0:0:
64,192,26826,1,0,0:0:0:0:
448,192,26826,1,0,0:0:0:0:
192,192,27029,1,0,0:0:0:0:
320,192,27029,1,0,0:0:0:0:
448,192,27029,1,0,0:0:0:0:
64,192,27232,1,0,0:0:0:0:
320,192,27232,1,0,0:0:0:0:
192,192,27436,1,0,0:0:0:0:
64,192,27436,1,0,0:0:0:0:
448,192,27436,1,0,0:0:0:0:
192,192,27842,1,0,0:0:0:0:
320,192,27842,1,0,0:0:0:0:
448,192,27842,1,0,0:0:0:0:
320,192,28045,1,0,0:0:0:0:
64,192,28045,1,0,0:0:0:0:
192,192,28248,1,0,0:0:0:0:
64,192,28248,1,0,0:0:0:0:
448,192,28248,1,0,0:0:0:0:
320,192,28248,1,0,0:0:0:0:
192,192,28655,1,0,0:0:0:0:
64,192,28655,1,0,0:0:0:0:
448,192,28655,1,0,0:0:0:0:
320,192,28858,1,0,0:0:0:0:
64,192,28858,1,0,0:0:0:0:
320,192,29062,5,0,0:0:0:0:
448,192,29062,1,0,0:0:0:0:
64,192,29062,1,0,0:0:0:0:
192,192,29062,1,0,0:0:0:0:
192,192,29265,1,0,0:0:0:0:
448,192,29265,1,0,0:0:0:0:
320,192,29468,1,0,0:0:0:0:
192,192,29468,1,0,0:0:0:0:
64,192,29468,1,0,0:0:0:0:
448,192,29672,1,0,0:0:0:0:
64,192,29672,1,0,0:0:0:0:
64,192,29874,5,0,0:0:0:0:
320,192,29874,1,0,0:0:0:0:
448,192,29874,1,0,0:0:0:0:
192,192,29874,1,0,0:0:0:0:
64,192,30078,1,0,0:0:0:0:
448,192,30078,1,0,0:0:0:0:
320,192,30078,1,0,0:0:0:0:
192,192,30078,1,0,0:0:0:0:
64,192,30281,1,0,0:0:0:0:
320,192,30281,1,0,0:0:0:0:
448,192,30281,1,0,0:0:0:0:
192,192,30281,1,0,0:0:0:0:
64,192,30484,1,0,0:0:0:0:
320,192,30484,1,0,0:0:0:0:
448,192,30484,1,0,0:0:0:0:
192,192,30484,1,0,0:0:0:0:
320,192,30688,1,0,0:0:0:0:
64,192,30688,1,0,0:0:0:0:
448,192,30688,1,0,0:0:0:0:
192,192,30688,1,0,0:0:0:0:
64,192,30891,1,0,0:0:0:0:
448,192,30891,1,0,0:0:0:0:
192,192,30942,1,0,0:0:0:0:
320,192,30992,1,0,0:0:0:0:
448,192,31043,1,0,0:0:0:0:
192,192,31094,1,0,0:0:0:0:
64,192,31094,1,0,0:0:0:0:
64,192,31501,1,0,0:0:0:0:
192,192,31501,1,0,0:0:0:0:
448,192,31501,1,0,0:0:0:0:
320,192,31602,1,0,0:0:0:0:
448,192,31602,1,0,0:0:0:0:
64,192,31602,1,0,0:0:0:0:
192,192,31704,1,0,0:0:0:0:
320,192,31704,1,0,0:0:0:0:
448,192,31704,1,0,0:0:0:0:
64,192,31806,1,0,0:0:0:0:
192,192,31806,1,0,0:0:0:0:
448,192,31806,1,0,0:0:0:0:
320,192,31907,1,0,0:0:0:0:
192,192,31907,1,0,0:0:0:0:
64,192,31907,1,0,0:0:0:0:
448,192,32110,1,0,0:0:0:0:
192,192,32110,1,0,0:0:0:0:
64,192,32110,1,0,0:0:0:0:
320,192,32212,1,0,0:0:0:0:
64,192,32212,1,0,0:0:0:0:
448,192,32212,1,0,0:0:0:0:
192,192,32313,1,0,0:0:0:0:
448,192,32313,1,0,0:0:0:0:
320,192,32313,1,0,0:0:0:0:
448,192,32415,1,0,0:0:0:0:
192,192,32415,1,0,0:0:0:0:
64,192,32415,1,0,0:0:0:0:
320,192,32517,1,0,0:0:0:0:
64,192,32517,1,0,0:0:0:0:
192,192,32517,1,0,0:0:0:0:
64,192,32720,1,0,0:0:0:0:
448,192,32720,1,0,0:0:0:0:
192,192,32720,1,0,0:0:0:0:
64,192,32822,1,0,0:0:0:0:
448,192,32822,1,0,0:0:0:0:
320,192,32822,1,0,0:0:0:0:
320,192,32923,1,0,0:0:0:0:
192,192,32923,1,0,0:0:0:0:
448,192,32923,1,0,0:0:0:0:
64,192,33025,1,0,0:0:0:0:
192,192,33025,1,0,0:0:0:0:
448,192,33025,1,0,0:0:0:0:
320,192,33127,1,0,0:0:0:0:
64,192,33127,1,0,0:0:0:0:
192,192,33127,1,0,0:0:0:0:
320,192,33228,1,0,0:0:0:0:
448,192,33228,1,0,0:0:0:0:
64,192,33228,1,0,0:0:0:0:
192,192,33330,1,0,0:0:0:0:
320,192,33330,1,0,0:0:0:0:
448,192,33330,1,0,0:0:0:0:
64,192,33432,1,0,0:0:0:0:
192,192,33432,1,0,0:0:0:0:
448,192,33432,1,0,0:0:0:0:
320,192,33533,1,0,0:0:0:0:
448,192,33533,1,0,0:0:0:0:
64,192,33533,1,0,0:0:0:0:
192,192,33635,1,0,0:0:0:0:
320,192,33635,1,0,0:0:0:0:
64,192,33635,1,0,0:0:0:0:
192,192,33838,1,0,0:0:0:0:
64,192,33838,1,0,0:0:0:0:
448,192,33838,1,0,0:0:0:0:
320,192,33939,1,0,0:0:0:0:
64,192,33939,1,0,0:0:0:0:
448,192,33939,1,0,0:0:0:0:
64,192,34142,1,0,0:0:0:0:
192,192,34142,1,0,0:0:0:0:
448,192,34142,1,0,0:0:0:0:
448,192,34244,1,0,0:0:0:0:
64,192,34244,1,0,0:0:0:0:
320,192,34244,1,0,0:0:0:0:
320,192,34346,1,0,0:0:0:0:
448,192,34346,1,0,0:0:0:0:
192,192,34346,1,0,0:0:0:0:
64,192,34448,1,0,0:0:0:0:
192,192,34448,1,0,0:0:0:0:
448,192,34448,1,0,0:0:0:0:
192,192,34549,1,0,0:0:0:0:
64,192,34549,1,0,0:0:0:0:
320,192,34549,1,0,0:0:0:0:
192,192,34752,1,0,0:0:0:0:
320,192,34752,1,0,0:0:0:0:
448,192,34752,1,0,0:0:0:0:
64,192,34854,1,0,0:0:0:0:
192,192,34854,1,0,0:0:0:0:
448,192,34854,1,0,0:0:0:0:
320,192,34956,1,0,0:0:0:0:
64,192,34956,1,0,0:0:0:0:
448,192,34956,1,0,0:0:0:0:
192,192,35058,1,0,0:0:0:0:
320,192,35058,1,0,0:0:0:0:
64,192,35058,1,0,0:0:0:0:
448,192,35159,1,0,0:0:0:0:
192,192,35159,1,0,0:0:0:0:
64,192,35159,1,0,0:0:0:0:
192,192,35362,1,0,0:0:0:0:
448,192,35362,1,0,0:0:0:0:
320,192,35362,1,0,0:0:0:0:
192,192,35464,1,0,0:0:0:0:
448,192,35464,1,0,0:0:0:0:
64,192,35464,1,0,0:0:0:0:
448,192,35566,1,0,0:0:0:0:
320,192,35566,1,0,0:0:0:0:
64,192,35566,1,0,0:0:0:0:
320,192,35668,1,0,0:0:0:0:
64,192,35668,1,0,0:0:0:0:
192,192,35668,1,0,0:0:0:0:
192,192,35769,1,0,0:0:0:0:
448,192,35769,1,0,0:0:0:0:
64,192,35769,1,0,0:0:0:0:
64,192,35972,1,0,0:0:0:0:
192,192,35972,1,0,0:0:0:0:
448,192,35972,1,0,0:0:0:0:
320,192,36073,1,0,0:0:0:0:
64,192,36073,1,0,0:0:0:0:
448,192,36073,1,0,0:0:0:0:
192,192,36175,1,0,0:0:0:0:
320,192,36175,1,0,0:0:0:0:
448,192,36175,1,0,0:0:0:0:
64,192,36277,1,0,0:0:0:0:
192,192,36277,1,0,0:0:0:0:
448,192,36277,1,0,0:0:0:0:
320,192,36378,1,0,0:0:0:0:
192,192,36378,1,0,0:0:0:0:
64,192,36378,1,0,0:0:0:0:
320,192,36480,1,0,0:0:0:0:
448,192,36480,1,0,0:0:0:0:
64,192,36480,1,0,0:0:0:0:
192,192,36582,1,0,0:0:0:0:
320,192,36582,1,0,0:0:0:0:
448,192,36582,1,0,0:0:0:0:
64,192,36683,1,0,0:0:0:0:
192,192,36683,1,0,0:0:0:0:
448,192,36683,1,0,0:0:0:0:
320,192,36785,1,0,0:0:0:0:
64,192,36785,1,0,0:0:0:0:
192,192,36785,1,0,0:0:0:0:
320,192,36887,1,0,0:0:0:0:
320,192,36988,1,0,0:0:0:0:
320,192,37090,1,0,0:0:0:0:
64,192,37192,1,0,0:0:0:0:
448,192,37192,1,0,0:0:0:0:
192,192,37192,1,0,0:0:0:0:
448,192,37293,1,0,0:0:0:0:
320,192,37395,1,0,0:0:0:0:
64,192,37395,1,0,0:0:0:0:
320,192,37497,1,0,0:0:0:0:
64,192,37598,1,0,0:0:0:0:
448,192,37598,1,0,0:0:0:0:
192,192,37598,1,0,0:0:0:0:
64,192,37700,1,0,0:0:0:0:
192,192,37802,1,0,0:0:0:0:
448,192,37802,1,0,0:0:0:0:
192,192,37903,1,0,0:0:0:0:
64,192,38005,1,0,0:0:0:0:
320,192,38005,1,0,0:0:0:0:
448,192,38005,1,0,0:0:0:0:
192,192,38005,1,0,0:0:0:0:
448,192,38106,1,0,0:0:0:0:
320,192,38106,1,0,0:0:0:0:
64,192,38106,1,0,0:0:0:0:
192,192,38208,1,0,0:0:0:0:
320,192,38208,1,0,0:0:0:0:
64,192,38208,1,0,0:0:0:0:
448,192,38309,1,0,0:0:0:0:
192,192,38309,1,0,0:0:0:0:
320,192,38309,1,0,0:0:0:0:
64,192,38411,1,0,0:0:0:0:
192,192,38411,1,0,0:0:0:0:
448,192,38411,1,0,0:0:0:0:
64,192,38512,1,0,0:0:0:0:
448,192,38614,1,0,0:0:0:0:
320,192,38614,1,0,0:0:0:0:
192,192,38614,1,0,0:0:0:0:
64,192,38716,1,0,0:0:0:0:
448,192,38716,1,0,0:0:0:0:
320,192,38716,1,0,0:0:0:0:
64,192,38818,1,0,0:0:0:0:
192,192,38818,1,0,0:0:0:0:
320,192,38818,1,0,0:0:0:0:
192,192,38919,1,0,0:0:0:0:
320,192,38919,1,0,0:0:0:0:
448,192,38919,1,0,0:0:0:0:
64,192,39021,1,0,0:0:0:0:
192,192,39021,1,0,0:0:0:0:
448,192,39021,1,0,0:0:0:0:
64,192,39122,1,0,0:0:0:0:
320,192,39224,1,0,0:0:0:0:
448,192,39224,1,0,0:0:0:0:
192,192,39224,1,0,0:0:0:0:
64,192,39326,1,0,0:0:0:0:
192,192,39326,1,0,0:0:0:0:
448,192,39326,1,0,0:0:0:0:
320,192,39428,1,0,0:0:0:0:
64,192,39428,1,0,0:0:0:0:
448,192,39428,1,0,0:0:0:0:
192,192,39529,1,0,0:0:0:0:
64,192,39529,1,0,0:0:0:0:
320,192,39529,1,0,0:0:0:0:
448,192,39631,1,0,0:0:0:0:
192,192,39631,1,0,0:0:0:0:
64,192,39631,1,0,0:0:0:0:
320,192,39732,1,0,0:0:0:0:
64,192,39834,1,0,0:0:0:0:
320,192,39834,1,0,0:0:0:0:
448,192,39834,1,0,0:0:0:0:
192,192,39936,1,0,0:0:0:0:
64,192,39936,1,0,0:0:0:0:
448,192,39936,1,0,0:0:0:0:
192,192,40038,1,0,0:0:0:0:
320,192,40038,1,0,0:0:0:0:
448,192,40038,1,0,0:0:0:0:
320,192,40139,1,0,0:0:0:0:
64,192,40139,1,0,0:0:0:0:
448,192,40139,1,0,0:0:0:0:
320,192,40240,1,0,0:0:0:0:
192,192,40240,1,0,0:0:0:0:
64,192,40240,1,0,0:0:0:0:
192,192,40342,1,0,0:0:0:0:
64,192,40443,1,0,0:0:0:0:
320,192,40443,1,0,0:0:0:0:
448,192,40545,1,0,0:0:0:0:
320,192,40647,1,0,0:0:0:0:
192,192,40748,1,0,0:0:0:0:
448,192,40748,1,0,0:0:0:0:
320,192,40850,1,0,0:0:0:0:
64,192,40850,1,0,0:0:0:0:
192,192,40952,1,0,0:0:0:0:
320,192,41053,5,0,0:0:0:0:
192,192,41104,1,0,0:0:0:0:
320,192,41155,1,0,0:0:0:0:
192,192,41206,1,0,0:0:0:0:
64,192,41257,1,0,0:0:0:0:
320,192,41257,1,0,0:0:0:0:
448,192,41257,1,0,0:0:0:0:
192,192,41358,1,0,0:0:0:0:
320,192,41460,1,0,0:0:0:0:
64,192,41562,1,0,0:0:0:0:
320,192,41663,1,0,0:0:0:0:
448,192,41765,1,0,0:0:0:0:
192,192,41867,1,0,0:0:0:0:
320,192,41918,1,0,0:0:0:0:
192,192,41968,1,0,0:0:0:0:
320,192,42019,1,0,0:0:0:0:
64,192,42070,1,0,0:0:0:0:
448,192,42070,1,0,0:0:0:0:
192,192,42070,1,0,0:0:0:0:
320,192,42172,1,0,0:0:0:0:
192,192,42272,1,0,0:0:0:0:
448,192,42374,1,0,0:0:0:0:
64,192,42476,1,0,0:0:0:0:
320,192,42578,1,0,0:0:0:0:
192,192,42679,1,0,0:0:0:0:
320,192,42730,1,0,0:0:0:0:
192,192,42781,1,0,0:0:0:0:
320,192,42832,1,0,0:0:0:0:
64,192,42882,1,0,0:0:0:0:
192,192,42882,1,0,0:0:0:0:
448,192,42882,1,0,0:0:0:0:
320,192,42951,1,0,0:0:0:0:
192,192,43018,1,0,0:0:0:0:
64,192,43086,1,0,0:0:0:0:
192,192,43153,1,0,0:0:0:0:
320,192,43222,1,0,0:0:0:0:
448,192,43289,1,0,0:0:0:0:
192,192,43289,1,0,0:0:0:0:
64,192,43289,1,0,0:0:0:0:
320,192,43357,1,0,0:0:0:0:
448,192,43425,1,0,0:0:0:0:
320,192,43492,1,0,0:0:0:0:
192,192,43560,1,0,0:0:0:0:
320,192,43628,1,0,0:0:0:0:
192,192,43696,1,0,0:0:0:0:
64,192,43696,1,0,0:0:0:0:
448,192,43696,1,0,0:0:0:0:
320,192,44102,1,0,0:0:0:0:
320,192,44306,1,0,0:0:0:0:
64,192,44508,1,0,0:0:0:0:
192,192,44508,1,0,0:0:0:0:
448,192,44508,1,0,0:0:0:0:
320,192,44508,1,0,0:0:0:0:
64,192,44610,1,0,0:0:0:0:
192,192,44610,1,0,0:0:0:0:
320,192,44712,1,0,0:0:0:0:
448,192,44712,1,0,0:0:0:0:
192,192,44712,1,0,0:0:0:0:
448,192,44813,1,0,0:0:0:0:
64,192,44813,1,0,0:0:0:0:
320,192,44915,1,0,0:0:0:0:
448,192,44915,1,0,0:0:0:0:
64,192,44915,1,0,0:0:0:0:
192,192,44915,1,0,0:0:0:0:
320,192,45017,1,0,0:0:0:0:
448,192,45017,1,0,0:0:0:0:
192,192,45118,1,0,0:0:0:0:
64,192,45118,1,0,0:0:0:0:
320,192,45118,1,0,0:0:0:0:
64,192,45220,1,0,0:0:0:0:
448,192,45220,1,0,0:0:0:0:
64,192,45322,1,0,0:0:0:0:
192,192,45322,1,0,0:0:0:0:
320,192,45322,1,0,0:0:0:0:
448,192,45322,1,0,0:0:0:0:
320,192,45423,1,0,0:0:0:0:
64,192,45423,1,0,0:0:0:0:
448,192,45525,1,0,0:0:0:0:
192,192,45525,1,0,0:0:0:0:
320,192,45627,1,0,0:0:0:0:
448,192,45627,1,0,0:0:0:0:
64,192,45627,1,0,0:0:0:0:
192,192,45627,1,0,0:0:0:0:
64,192,45728,1,0,0:0:0:0:
320,192,45728,1,0,0:0:0:0:
448,192,45728,1,0,0:0:0:0:
192,192,45830,1,0,0:0:0:0:
64,192,45830,1,0,0:0:0:0:
192,192,45932,1,0,0:0:0:0:
320,192,45932,1,0,0:0:0:0:
448,192,45932,1,0,0:0:0:0:
64,192,45932,1,0,0:0:0:0:
448,192,46033,1,0,0:0:0:0:
192,192,46033,1,0,0:0:0:0:
320,192,46135,1,0,0:0:0:0:
448,192,46135,1,0,0:0:0:0:
64,192,46135,1,0,0:0:0:0:
192,192,46237,1,0,0:0:0:0:
64,192,46237,1,0,0:0:0:0:
320,192,46338,1,0,0:0:0:0:
448,192,46338,1,0,0:0:0:0:
192,192,46338,1,0,0:0:0:0:
64,192,46338,1,0,0:0:0:0:
448,192,46439,1,0,0:0:0:0:
320,192,46439,1,0,0:0:0:0:
320,192,46541,1,0,0:0:0:0:
448,192,46541,1,0,0:0:0:0:
64,192,46541,1,0,0:0:0:0:
192,192,46541,1,0,0:0:0:0:
64,192,46642,1,0,0:0:0:0:
448,192,46642,1,0,0:0:0:0:
320,192,46744,1,0,0:0:0:0:
192,192,46744,1,0,0:0:0:0:
64,192,46744,1,0,0:0:0:0:
448,192,46744,1,0,0:0:0:0:
192,192,46846,1,0,0:0:0:0:
64,192,46846,1,0,0:0:0:0:
64,192,46948,1,0,0:0:0:0:
192,192,46948,1,0,0:0:0:0:
448,192,46948,1,0,0:0:0:0:
320,192,46948,1,0,0:0:0:0:
192,192,47049,1,0,0:0:0:0:
448,192,47049,1,0,0:0:0:0:
320,192,47151,1,0,0:0:0:0:
448,192,47151,1,0,0:0:0:0:
64,192,47151,1,0,0:0:0:0:
192,192,47252,1,0,0:0:0:0:
64,192,47252,1,0,0:0:0:0:
192,192,47354,1,0,0:0:0:0:
448,192,47354,1,0,0:0:0:0:
320,192,47354,1,0,0:0:0:0:
64,192,47354,1,0,0:0:0:0:
320,192,47456,1,0,0:0:0:0:
448,192,47456,1,0,0:0:0:0:
448,192,47558,1,0,0:0:0:0:
64,192,47558,1,0,0:0:0:0:
192,192,47558,1,0,0:0:0:0:
320,192,47659,1,0,0:0:0:0:
64,192,47659,1,0,0:0:0:0:
64,192,47761,1,0,0:0:0:0:
192,192,47761,1,0,0:0:0:0:
320,192,47761,1,0,0:0:0:0:
448,192,47761,1,0,0:0:0:0:
64,192,47862,1,0,0:0:0:0:
448,192,47862,1,0,0:0:0:0:
192,192,47964,1,0,0:0:0:0:
448,192,47964,1,0,0:0:0:0:
320,192,47964,1,0,0:0:0:0:
192,192,48066,1,0,0:0:0:0:
64,192,48066,1,0,0:0:0:0:
64,192,48168,1,0,0:0:0:0:
192,192,48168,1,0,0:0:0:0:
320,192,48168,1,0,0:0:0:0:
448,192,48168,1,0,0:0:0:0:
448,192,48269,1,0,0:0:0:0:
64,192,48269,1,0,0:0:0:0:
320,192,48371,1,0,0:0:0:0:
192,192,48371,1,0,0:0:0:0:
64,192,48371,1,0,0:0:0:0:
320,192,48472,1,0,0:0:0:0:
448,192,48472,1,0,0:0:0:0:
448,192,48573,1,0,0:0:0:0:
320,192,48573,1,0,0:0:0:0:
192,192,48573,1,0,0:0:0:0:
64,192,48573,1,0,0:0:0:0:
448,192,48675,1,0,0:0:0:0:
192,192,48675,1,0,0:0:0:0:
320,192,48777,1,0,0:0:0:0:
64,192,48777,1,0,0:0:0:0:
320,192,48878,1,0,0:0:0:0:
448,192,48878,1,0,0:0:0:0:
64,192,48878,1,0,0:0:0:0:
192,192,48878,1,0,0:0:0:0:
192,192,48980,1,0,0:0:0:0:
64,192,48980,1,0,0:0:0:0:
448,192,48980,1,0,0:0:0:0:
320,192,49082,1,0,0:0:0:0:
448,192,49082,1,0,0:0:0:0:
64,192,49183,1,0,0:0:0:0:
192,192,49183,1,0,0:0:0:0:
320,192,49183,1,0,0:0:0:0:
448,192,49183,1,0,0:0:0:0:
320,192,49285,1,0,0:0:0:0:
64,192,49285,1,0,0:0:0:0:
192,192,49387,1,0,0:0:0:0:
64,192,49387,1,0,0:0:0:0:
448,192,49387,1,0,0:0:0:0:
320,192,49387,1,0,0:0:0:0:
192,192,49488,1,0,0:0:0:0:
64,192,49488,1,0,0:0:0:0:
320,192,49590,1,0,0:0:0:0:
448,192,49590,1,0,0:0:0:0:
192,192,49590,1,0,0:0:0:0:
64,192,49590,1,0,0:0:0:0:
448,192,49692,1,0,0:0:0:0:
192,192,49692,1,0,0:0:0:0:
320,192,49793,1,0,0:0:0:0:
448,192,49793,1,0,0:0:0:0:
64,192,49793,1,0,0:0:0:0:
192,192,49793,1,0,0:0:0:0:
320,192,49895,1,0,0:0:0:0:
448,192,49895,1,0,0:0:0:0:
64,192,49997,1,0,0:0:0:0:
192,192,49997,1,0,0:0:0:0:
320,192,49997,1,0,0:0:0:0:
448,192,49997,1,0,0:0:0:0:
320,192,50098,1,0,0:0:0:0:
64,192,50098,1,0,0:0:0:0:
192,192,50200,1,0,0:0:0:0:
64,192,50200,1,0,0:0:0:0:
448,192,50200,1,0,0:0:0:0:
320,192,50200,1,0,0:0:0:0:
192,192,50302,1,0,0:0:0:0:
448,192,50302,1,0,0:0:0:0:
320,192,50403,1,0,0:0:0:0:
448,192,50403,1,0,0:0:0:0:
64,192,50403,1,0,0:0:0:0:
448,192,50505,1,0,0:0:0:0:
320,192,50505,1,0,0:0:0:0:
64,192,50505,1,0,0:0:0:0:
192,192,50606,1,0,0:0:0:0:
64,192,50606,1,0,0:0:0:0:
320,192,50606,1,0,0:0:0:0:
448,192,50606,1,0,0:0:0:0:
192,192,50708,1,0,0:0:0:0:
320,192,50708,1,0,0:0:0:0:
64,192,50809,1,0,0:0:0:0:
192,192,50809,1,0,0:0:0:0:
448,192,50809,1,0,0:0:0:0:
320,192,50809,1,0,0:0:0:0:
64,192,50911,1,0,0:0:0:0:
448,192,50911,1,0,0:0:0:0:
448,192,51012,1,0,0:0:0:0:
320,192,51012,1,0,0:0:0:0:
192,192,51012,1,0,0:0:0:0:
64,192,51012,1,0,0:0:0:0:
448,192,51114,1,0,0:0:0:0:
192,192,51114,1,0,0:0:0:0:
64,192,51216,1,0,0:0:0:0:
320,192,51216,1,0,0:0:0:0:
448,192,51216,1,0,0:0:0:0:
192,192,51318,1,0,0:0:0:0:
64,192,51318,1,0,0:0:0:0:
320,192,51419,1,0,0:0:0:0:
448,192,51419,1,0,0:0:0:0:
192,192,51419,1,0,0:0:0:0:
64,192,51419,1,0,0:0:0:0:
64,192,51521,1,0,0:0:0:0:
320,192,51521,1,0,0:0:0:0:
192,192,51622,1,0,0:0:0:0:
448,192,51622,1,0,0:0:0:0:
64,192,51622,1,0,0:0:0:0:
320,192,51724,1,0,0:0:0:0:
448,192,51724,1,0,0:0:0:0:
64,192,51826,1,0,0:0:0:0:
192,192,51826,1,0,0:0:0:0:
320,192,51826,1,0,0:0:0:0:
448,192,51826,1,0,0:0:0:0:
64,192,51928,1,0,0:0:0:0:
192,192,51928,1,0,0:0:0:0:
192,192,52029,1,0,0:0:0:0:
448,192,52029,1,0,0:0:0:0:
64,192,52131,1,0,0:0:0:0:
192,192,52131,1,0,0:0:0:0:
320,192,52131,1,0,0:0:0:0:
448,192,52131,1,0,0:0:0:0:
320,192,52232,1,0,0:0:0:0:
448,192,52232,1,0,0:0:0:0:
64,192,52232,1,0,0:0:0:0:
192,192,52334,1,0,0:0:0:0:
64,192,52334,1,0,0:0:0:0:
64,192,52436,1,0,0:0:0:0:
192,192,52436,1,0,0:0:0:0:
320,192,52436,1,0,0:0:0:0:
448,192,52436,1,0,0:0:0:0:
448,192,52538,1,0,0:0:0:0:
192,192,52538,1,0,0:0:0:0:
320,192,52639,1,0,0:0:0:0:
448,192,52639,1,0,0:0:0:0:
64,192,52639,1,0,0:0:0:0:
192,192,52639,1,0,0:0:0:0:
320,192,52740,1,0,0:0:0:0:
448,192,52740,1,0,0:0:0:0:
64,192,52842,1,0,0:0:0:0:
192,192,52842,1,0,0:0:0:0:
320,192,52842,1,0,0:0:0:0:
448,192,52842,1,0,0:0:0:0:
192,192,52943,1,0,0:0:0:0:
64,192,52943,1,0,0:0:0:0:
64,192,53045,1,0,0:0:0:0:
320,192,53045,1,0,0:0:0:0:
448,192,53045,1,0,0:0:0:0:
192,192,53045,1,0,0:0:0:0:
448,192,53147,1,0,0:0:0:0:
64,192,53147,1,0,0:0:0:0:
64,192,53248,1,0,0:0:0:0:
192,192,53248,1,0,0:0:0:0:
320,192,53248,1,0,0:0:0:0:
448,192,53248,1,0,0:0:0:0:
192,192,53350,1,0,0:0:0:0:
320,192,53350,1,0,0:0:0:0:
64,192,53452,1,0,0:0:0:0:
192,192,53452,1,0,0:0:0:0:
448,192,53452,1,0,0:0:0:0:
320,192,53452,1,0,0:0:0:0:
448,192,53553,1,0,0:0:0:0:
64,192,53553,1,0,0:0:0:0:
192,192,53655,1,0,0:0:0:0:
320,192,53655,1,0,0:0:0:0:
448,192,53655,1,0,0:0:0:0:
320,192,53757,1,0,0:0:0:0:
64,192,53757,1,0,0:0:0:0:
64,192,53858,1,0,0:0:0:0:
448,192,53858,1,0,0:0:0:0:
192,192,53858,1,0,0:0:0:0:
320,192,53858,1,0,0:0:0:0:
448,192,53960,1,0,0:0:0:0:
64,192,53960,1,0,0:0:0:0:
192,192,54062,1,0,0:0:0:0:
320,192,54062,1,0,0:0:0:0:
448,192,54062,1,0,0:0:0:0:
192,192,54163,1,0,0:0:0:0:
64,192,54163,1,0,0:0:0:0:
64,192,54265,1,0,0:0:0:0:
320,192,54265,1,0,0:0:0:0:
448,192,54265,1,0,0:0:0:0:
192,192,54265,1,0,0:0:0:0:
192,192,54367,1,0,0:0:0:0:
320,192,54367,1,0,0:0:0:0:
448,192,54468,1,0,0:0:0:0:
64,192,54468,1,0,0:0:0:0:
192,192,54468,1,0,0:0:0:0:
64,192,54570,1,0,0:0:0:0:
320,192,54570,1,0,0:0:0:0:
320,192,54672,1,0,0:0:0:0:
448,192,54672,1,0,0:0:0:0:
192,192,54672,1,0,0:0:0:0:
64,192,54672,1,0,0:0:0:0:
192,192,54772,1,0,0:0:0:0:
320,192,54772,1,0,0:0:0:0:
192,192,54874,1,0,0:0:0:0:
64,192,54874,1,0,0:0:0:0:
448,192,54874,1,0,0:0:0:0:
320,192,54874,1,0,0:0:0:0:
64,192,54976,1,0,0:0:0:0:
448,192,54976,1,0,0:0:0:0:
64,192,55078,1,0,0:0:0:0:
192,192,55078,1,0,0:0:0:0:
320,192,55078,1,0,0:0:0:0:
448,192,55078,1,0,0:0:0:0:
192,192,55179,1,0,0:0:0:0:
320,192,55179,1,0,0:0:0:0:
320,192,55281,1,0,0:0:0:0:
64,192,55281,1,0,0:0:0:0:
448,192,55281,1,0,0:0:0:0:
448,192,55382,1,0,0:0:0:0:
192,192,55382,1,0,0:0:0:0:
320,192,55484,1,0,0:0:0:0:
448,192,55484,1,0,0:0:0:0:
192,192,55484,1,0,0:0:0:0:
64,192,55484,1,0,0:0:0:0:
320,192,55586,1,0,0:0:0:0:
64,192,55586,1,0,0:0:0:0:
192,192,55688,1,0,0:0:0:0:
320,192,55688,1,0,0:0:0:0:
448,192,55688,1,0,0:0:0:0:
64,192,55688,1,0,0:0:0:0:
320,192,55789,1,0,0:0:0:0:
448,192,55789,1,0,0:0:0:0:
64,192,55891,1,0,0:0:0:0:
192,192,55891,1,0,0:0:0:0:
448,192,55891,1,0,0:0:0:0:
320,192,55891,1,0,0:0:0:0:
448,192,55992,1,0,0:0:0:0:
64,192,55992,1,0,0:0:0:0:
192,192,56094,1,0,0:0:0:0:
64,192,56094,1,0,0:0:0:0:
320,192,56094,1,0,0:0:0:0:
448,192,56094,1,0,0:0:0:0:
320,192,56196,1,0,0:0:0:0:
64,192,56196,1,0,0:0:0:0:
192,192,56298,1,0,0:0:0:0:
320,192,56298,1,0,0:0:0:0:
448,192,56298,1,0,0:0:0:0:
64,192,56298,1,0,0:0:0:0:
192,192,56399,1,0,0:0:0:0:
448,192,56399,1,0,0:0:0:0:
320,192,56501,1,0,0:0:0:0:
64,192,56501,1,0,0:0:0:0:
448,192,56501,1,0,0:0:0:0:
192,192,56501,1,0,0:0:0:0:
448,192,56602,1,0,0:0:0:0:
64,192,56602,1,0,0:0:0:0:
448,192,56704,1,0,0:0:0:0:
320,192,56704,1,0,0:0:0:0:
192,192,56704,1,0,0:0:0:0:
64,192,56704,1,0,0:0:0:0:
448,192,57110,1,0,0:0:0:0:
64,192,57110,1,0,0:0:0:0:
64,192,57517,1,0,0:0:0:0:
448,192,57517,1,0,0:0:0:0:
448,192,57720,1,0,0:0:0:0:
320,192,57923,1,0,0:0:0:0:
192,192,58127,1,0,0:0:0:0:
64,192,58330,1,0,0:0:0:0:
64,192,59142,1,0,0:0:0:0:
320,192,59142,1,0,0:0:0:0:
448,192,59142,1,0,0:0:0:0:
320,192,59448,1,0,0:0:0:0:
192,192,59498,1,0,0:0:0:0:
448,192,59549,1,0,0:0:0:0:
320,192,59549,1,0,0:0:0:0:
64,192,59549,1,0,0:0:0:0:
192,192,59752,1,0,0:0:0:0:
64,192,59752,1,0,0:0:0:0:
192,192,59854,1,0,0:0:0:0:
64,192,59854,1,0,0:0:0:0:
64,192,59956,1,0,0:0:0:0:
320,192,59956,1,0,0:0:0:0:
448,192,59956,1,0,0:0:0:0:
448,192,60261,1,0,0:0:0:0:
320,192,60261,1,0,0:0:0:0:
192,192,60362,1,0,0:0:0:0:
64,192,60362,1,0,0:0:0:0:
192,192,60464,1,0,0:0:0:0:
64,192,60464,1,0,0:0:0:0:
64,192,60566,1,0,0:0:0:0:
448,192,60566,1,0,0:0:0:0:
320,192,60566,1,0,0:0:0:0:
192,192,60769,1,0,0:0:0:0:
64,192,60769,1,0,0:0:0:0:
320,192,60769,1,0,0:0:0:0:
192,192,60972,1,0,0:0:0:0:
448,192,60972,1,0,0:0:0:0:
64,192,60972,1,0,0:0:0:0:
320,192,61175,1,0,0:0:0:0:
448,192,61175,1,0,0:0:0:0:
64,192,61175,1,0,0:0:0:0:
192,192,61277,1,0,0:0:0:0:
64,192,61277,1,0,0:0:0:0:
192,192,61378,1,0,0:0:0:0:
320,192,61378,1,0,0:0:0:0:
448,192,61378,1,0,0:0:0:0:
448,192,61480,1,0,0:0:0:0:
64,192,61480,1,0,0:0:0:0:
64,192,61582,1,0,0:0:0:0:
192,192,61582,1,0,0:0:0:0:
320,192,61582,1,0,0:0:0:0:
448,192,61582,1,0,0:0:0:0:
64,192,61988,1,0,0:0:0:0:
64,192,62192,1,0,0:0:0:0:
64,192,62395,1,0,0:0:0:0:
192,192,62395,1,0,0:0:0:0:
320,192,62395,1,0,0:0:0:0:
448,192,62395,1,0,0:0:0:0:
320,192,62802,1,0,0:0:0:0:
448,192,62802,1,0,0:0:0:0:
64,192,62802,1,0,0:0:0:0:
192,192,63005,1,0,0:0:0:0:
320,192,63005,1,0,0:0:0:0:
192,192,63208,1,0,0:0:0:0:
64,192,63208,1,0,0:0:0:0:
448,192,63208,1,0,0:0:0:0:
64,192,63614,1,0,0:0:0:0:
320,192,63614,1,0,0:0:0:0:
448,192,63614,1,0,0:0:0:0:
192,192,63818,1,0,0:0:0:0:
448,192,63818,1,0,0:0:0:0:
320,192,64021,1,0,0:0:0:0:
192,192,64021,1,0,0:0:0:0:
64,192,64021,1,0,0:0:0:0:
64,192,64224,1,0,0:0:0:0:
448,192,64224,1,0,0:0:0:0:
192,192,64428,1,0,0:0:0:0:
320,192,64428,1,0,0:0:0:0:
448,192,64428,1,0,0:0:0:0:
320,192,64631,1,0,0:0:0:0:
192,192,64631,1,0,0:0:0:0:
64,192,64834,1,0,0:0:0:0:
192,192,64834,1,0,0:0:0:0:
448,192,64834,1,0,0:0:0:0:
192,192,65240,1,0,0:0:0:0:
320,192,65240,1,0,0:0:0:0:
448,192,65240,1,0,0:0:0:0:
320,192,65443,1,0,0:0:0:0:
64,192,65443,1,0,0:0:0:0:
192,192,65647,1,0,0:0:0:0:
64,192,65647,1,0,0:0:0:0:
448,192,65647,1,0,0:0:0:0:
64,192,66053,1,0,0:0:0:0:
320,192,66053,1,0,0:0:0:0:
448,192,66053,1,0,0:0:0:0:
192,192,66257,1,0,0:0:0:0:
448,192,66257,1,0,0:0:0:0:
64,192,66460,1,0,0:0:0:0:
192,192,66460,1,0,0:0:0:0:
320,192,66460,1,0,0:0:0:0:
64,192,66867,1,0,0:0:0:0:
192,192,66867,1,0,0:0:0:0:
320,192,66867,1,0,0:0:0:0:
448,192,67272,1,0,0:0:0:0:
320,192,67272,1,0,0:0:0:0:
64,192,67272,1,0,0:0:0:0:
192,192,67476,1,0,0:0:0:0:
448,192,67476,1,0,0:0:0:0:
320,192,67679,1,0,0:0:0:0:
192,192,67679,1,0,0:0:0:0:
64,192,67679,1,0,0:0:0:0:
64,192,67882,1,0,0:0:0:0:
448,192,67882,1,0,0:0:0:0:
320,192,68086,1,0,0:0:0:0:
192,192,68086,1,0,0:0:0:0:
448,192,68086,1,0,0:0:0:0:
64,192,68492,1,0,0:0:0:0:
192,192,68492,1,0,0:0:0:0:
448,192,68492,1,0,0:0:0:0:
320,192,68696,1,0,0:0:0:0:
192,192,68696,1,0,0:0:0:0:
64,192,68899,1,0,0:0:0:0:
320,192,68899,1,0,0:0:0:0:
448,192,68899,1,0,0:0:0:0:
320,192,69306,1,0,0:0:0:0:
448,192,69306,1,0,0:0:0:0:
64,192,69306,1,0,0:0:0:0:
192,192,69508,1,0,0:0:0:0:
320,192,69508,1,0,0:0:0:0:
192,192,69712,1,0,0:0:0:0:
64,192,69712,1,0,0:0:0:0:
448,192,69712,1,0,0:0:0:0:
320,192,70118,1,0,0:0:0:0:
64,192,70118,1,0,0:0:0:0:
192,192,70118,1,0,0:0:0:0:
192,192,70322,1,0,0:0:0:0:
448,192,70322,1,0,0:0:0:0:
320,192,70525,1,0,0:0:0:0:
448,192,70525,1,0,0:0:0:0:
64,192,70525,1,0,0:0:0:0:
192,192,70728,1,0,0:0:0:0:
448,192,70728,1,0,0:0:0:0:
64,192,70932,1,0,0:0:0:0:
320,192,70932,1,0,0:0:0:0:
192,192,70932,1,0,0:0:0:0:
64,192,71135,1,0,0:0:0:0:
448,192,71135,1,0,0:0:0:0:
320,192,71338,1,0,0:0:0:0:
64,192,71338,1,0,0:0:0:0:
448,192,71338,1,0,0:0:0:0:
192,192,71744,1,0,0:0:0:0:
320,192,71744,1,0,0:0:0:0:
448,192,71744,1,0,0:0:0:0:
320,192,71948,1,0,0:0:0:0:
64,192,71948,1,0,0:0:0:0:
192,192,72151,1,0,0:0:0:0:
64,192,72151,1,0,0:0:0:0:
448,192,72151,1,0,0:0:0:0:
320,192,72151,1,0,0:0:0:0:
320,192,72558,1,0,0:0:0:0:
192,192,72558,1,0,0:0:0:0:
64,192,72558,1,0,0:0:0:0:
448,192,72761,1,0,0:0:0:0:
192,192,72761,1,0,0:0:0:0:
64,192,72964,1,0,0:0:0:0:
320,192,72964,1,0,0:0:0:0:
448,192,72964,1,0,0:0:0:0:
192,192,72964,1,0,0:0:0:0:
192,192,73371,1,0,0:0:0:0:
64,192,73371,1,0,0:0:0:0:
448,192,73371,1,0,0:0:0:0:
192,192,73777,1,0,0:0:0:0:
448,192,73777,1,0,0:0:0:0:
320,192,73777,1,0,0:0:0:0:
64,192,73777,1,0,0:0:0:0:
64,192,73980,1,0,0:0:0:0:
192,192,73980,1,0,0:0:0:0:
448,192,73980,1,0,0:0:0:0:
320,192,73980,1,0,0:0:0:0:
320,192,74183,1,0,0:0:0:0:
192,192,74183,1,0,0:0:0:0:
64,192,74183,1,0,0:0:0:0:
448,192,74183,1,0,0:0:0:0:
64,192,74387,1,0,0:0:0:0:
320,192,74387,1,0,0:0:0:0:
448,192,74387,1,0,0:0:0:0:
192,192,74387,1,0,0:0:0:0:
192,192,74590,1,0,0:0:0:0:
320,192,74590,1,0,0:0:0:0:
448,192,74590,1,0,0:0:0:0:
64,192,74590,1,0,0:0:0:0:
64,192,74793,1,0,0:0:0:0:
448,192,74793,1,0,0:0:0:0:
320,192,74844,1,0,0:0:0:0:
192,192,74895,1,0,0:0:0:0:
64,192,74946,1,0,0:0:0:0:
320,192,74997,1,0,0:0:0:0:
448,192,74997,1,0,0:0:0:0:
64,192,75403,1,0,0:0:0:0:
192,192,75403,1,0,0:0:0:0:
448,192,75403,1,0,0:0:0:0:
320,192,75403,1,0,0:0:0:0:
64,192,75505,1,0,0:0:0:0:
320,192,75505,1,0,0:0:0:0:
448,192,75505,1,0,0:0:0:0:
192,192,75606,1,0,0:0:0:0:
448,192,75606,1,0,0:0:0:0:
64,192,75606,1,0,0:0:0:0:
320,192,75708,1,0,0:0:0:0:
448,192,75708,1,0,0:0:0:0:
192,192,75708,1,0,0:0:0:0:
320,192,75809,1,0,0:0:0:0:
64,192,75809,1,0,0:0:0:0:
192,192,75809,1,0,0:0:0:0:
192,192,76012,1,0,0:0:0:0:
320,192,76012,1,0,0:0:0:0:
64,192,76012,1,0,0:0:0:0:
64,192,76114,1,0,0:0:0:0:
448,192,76114,1,0,0:0:0:0:
320,192,76114,1,0,0:0:0:0:
448,192,76216,1,0,0:0:0:0:
64,192,76216,1,0,0:0:0:0:
192,192,76216,1,0,0:0:0:0:
192,192,76318,1,0,0:0:0:0:
320,192,76318,1,0,0:0:0:0:
448,192,76318,1,0,0:0:0:0:
320,192,76419,1,0,0:0:0:0:
192,192,76419,1,0,0:0:0:0:
64,192,76419,1,0,0:0:0:0:
64,192,76622,1,0,0:0:0:0:
192,192,76622,1,0,0:0:0:0:
448,192,76622,1,0,0:0:0:0:
320,192,76724,1,0,0:0:0:0:
448,192,76724,1,0,0:0:0:0:
192,192,76724,1,0,0:0:0:0:
64,192,76826,1,0,0:0:0:0:
192,192,76826,1,0,0:0:0:0:
320,192,76826,1,0,0:0:0:0:
64,192,76928,1,0,0:0:0:0:
320,192,76928,1,0,0:0:0:0:
448,192,76928,1,0,0:0:0:0:
192,192,77029,1,0,0:0:0:0:
320,192,77029,1,0,0:0:0:0:
448,192,77029,1,0,0:0:0:0:
64,192,77131,1,0,0:0:0:0:
192,192,77131,1,0,0:0:0:0:
448,192,77131,1,0,0:0:0:0:
320,192,77232,1,0,0:0:0:0:
192,192,77232,1,0,0:0:0:0:
64,192,77232,1,0,0:0:0:0:
320,192,77334,1,0,0:0:0:0:
448,192,77334,1,0,0:0:0:0:
64,192,77334,1,0,0:0:0:0:
192,192,77436,1,0,0:0:0:0:
320,192,77436,1,0,0:0:0:0:
448,192,77436,1,0,0:0:0:0:
64,192,77538,1,0,0:0:0:0:
192,192,77538,1,0,0:0:0:0:
448,192,77538,1,0,0:0:0:0:
64,192,77740,1,0,0:0:0:0:
320,192,77740,1,0,0:0:0:0:
192,192,77740,1,0,0:0:0:0:
192,192,77842,1,0,0:0:0:0:
320,192,77842,1,0,0:0:0:0:
448,192,77842,1,0,0:0:0:0:
64,192,78045,1,0,0:0:0:0:
192,192,78045,1,0,0:0:0:0:
448,192,78045,1,0,0:0:0:0:
320,192,78147,1,0,0:0:0:0:
448,192,78147,1,0,0:0:0:0:
192,192,78147,1,0,0:0:0:0:
64,192,78248,1,0,0:0:0:0:
320,192,78248,1,0,0:0:0:0:
448,192,78248,1,0,0:0:0:0:
192,192,78350,1,0,0:0:0:0:
64,192,78350,1,0,0:0:0:0:
320,192,78350,1,0,0:0:0:0:
192,192,78452,1,0,0:0:0:0:
64,192,78452,1,0,0:0:0:0:
448,192,78452,1,0,0:0:0:0:
64,192,78655,1,0,0:0:0:0:
320,192,78655,1,0,0:0:0:0:
448,192,78655,1,0,0:0:0:0:
192,192,78757,1,0,0:0:0:0:
320,192,78757,1,0,0:0:0:0:
448,192,78757,1,0,0:0:0:0:
192,192,78858,1,0,0:0:0:0:
64,192,78858,1,0,0:0:0:0:
448,192,78858,1,0,0:0:0:0:
320,192,78960,1,0,0:0:0:0:
64,192,78960,1,0,0:0:0:0:
192,192,78960,1,0,0:0:0:0:
64,192,79062,1,0,0:0:0:0:
320,192,79062,1,0,0:0:0:0:
448,192,79062,1,0,0:0:0:0:
320,192,79265,1,0,0:0:0:0:
448,192,79265,1,0,0:0:0:0:
64,192,79265,1,0,0:0:0:0:
448,192,79367,1,0,0:0:0:0:
320,192,79367,1,0,0:0:0:0:
192,192,79367,1,0,0:0:0:0:
64,192,79468,1,0,0:0:0:0:
192,192,79468,1,0,0:0:0:0:
448,192,79468,1,0,0:0:0:0:
64,192,79570,1,0,0:0:0:0:
320,192,79570,1,0,0:0:0:0:
192,192,79570,1,0,0:0:0:0:
64,192,79672,1,0,0:0:0:0:
320,192,79672,1,0,0:0:0:0:
448,192,79672,1,0,0:0:0:0:
192,192,79874,1,0,0:0:0:0:
320,192,79874,1,0,0:0:0:0:
448,192,79874,1,0,0:0:0:0:
64,192,79976,1,0,0:0:0:0:
192,192,79976,1,0,0:0:0:0:
448,192,79976,1,0,0:0:0:0:
320,192,80078,1,0,0:0:0:0:
64,192,80078,1,0,0:0:0:0:
448,192,80078,1,0,0:0:0:0:
192,192,80179,1,0,0:0:0:0:
320,192,80179,1,0,0:0:0:0:
448,192,80179,1,0,0:0:0:0:
64,192,80281,1,0,0:0:0:0:
320,192,80281,1,0,0:0:0:0:
192,192,80281,1,0,0:0:0:0:
64,192,80382,1,0,0:0:0:0:
192,192,80382,1,0,0:0:0:0:
448,192,80382,1,0,0:0:0:0:
320,192,80484,1,0,0:0:0:0:
448,192,80484,1,0,0:0:0:0:
64,192,80484,1,0,0:0:0:0:
192,192,80586,1,0,0:0:0:0:
320,192,80586,1,0,0:0:0:0:
64,192,80586,1,0,0:0:0:0:
192,192,80688,1,0,0:0:0:0:
320,192,80688,1,0,0:0:0:0:
448,192,80688,1,0,0:0:0:0:
448,192,80789,1,0,0:0:0:0:
448,192,80891,1,0,0:0:0:0:
448,192,80992,1,0,0:0:0:0:
448,192,81094,1,0,0:0:0:0:
64,192,81094,1,0,0:0:0:0:
192,192,81094,1,0,0:0:0:0:
192,192,81196,1,0,0:0:0:0:
64,192,81298,1,0,0:0:0:0:
320,192,81298,1,0,0:0:0:0:
320,192,81399,1,0,0:0:0:0:
192,192,81501,1,0,0:0:0:0:
448,192,81501,1,0,0:0:0:0:
64,192,81501,1,0,0:0:0:0:
192,192,81602,1,0,0:0:0:0:
320,192,81704,1,0,0:0:0:0:
64,192,81704,1,0,0:0:0:0:
320,192,81806,1,0,0:0:0:0:
192,192,81907,1,0,0:0:0:0:
64,192,81907,1,0,0:0:0:0:
448,192,81907,1,0,0:0:0:0:
320,192,82008,1,0,0:0:0:0:
448,192,82008,1,0,0:0:0:0:
64,192,82008,1,0,0:0:0:0:
192,192,82110,1,0,0:0:0:0:
320,192,82110,1,0,0:0:0:0:
448,192,82110,1,0,0:0:0:0:
320,192,82212,1,0,0:0:0:0:
192,192,82212,1,0,0:0:0:0:
64,192,82212,1,0,0:0:0:0:
64,192,82313,1,0,0:0:0:0:
192,192,82313,1,0,0:0:0:0:
448,192,82313,1,0,0:0:0:0:
320,192,82415,1,0,0:0:0:0:
192,192,82517,1,0,0:0:0:0:
448,192,82517,1,0,0:0:0:0:
64,192,82517,1,0,0:0:0:0:
64,192,82618,1,0,0:0:0:0:
320,192,82618,1,0,0:0:0:0:
448,192,82618,1,0,0:0:0:0:
192,192,82720,1,0,0:0:0:0:
320,192,82720,1,0,0:0:0:0:
448,192,82720,1,0,0:0:0:0:
64,192,82822,1,0,0:0:0:0:
192,192,82822,1,0,0:0:0:0:
320,192,82822,1,0,0:0:0:0:
192,192,82923,1,0,0:0:0:0:
64,192,82923,1,0,0:0:0:0:
448,192,82923,1,0,0:0:0:0:
320,192,83025,1,0,0:0:0:0:
320,192,83127,1,0,0:0:0:0:
448,192,83127,1,0,0:0:0:0:
192,192,83127,1,0,0:0:0:0:
64,192,83228,1,0,0:0:0:0:
192,192,83228,1,0,0:0:0:0:
448,192,83228,1,0,0:0:0:0:
320,192,83330,1,0,0:0:0:0:
64,192,83330,1,0,0:0:0:0:
448,192,83330,1,0,0:0:0:0:
192,192,83432,1,0,0:0:0:0:
320,192,83432,1,0,0:0:0:0:
64,192,83432,1,0,0:0:0:0:
192,192,83533,1,0,0:0:0:0:
448,192,83533,1,0,0:0:0:0:
320,192,83533,1,0,0:0:0:0:
64,192,83635,1,0,0:0:0:0:
64,192,83737,1,0,0:0:0:0:
448,192,83737,1,0,0:0:0:0:
192,192,83737,1,0,0:0:0:0:
64,192,83838,1,0,0:0:0:0:
192,192,83838,1,0,0:0:0:0:
320,192,83838,1,0,0:0:0:0:
320,192,83939,1,0,0:0:0:0:
448,192,83939,1,0,0:0:0:0:
64,192,83939,1,0,0:0:0:0:
192,192,84041,1,0,0:0:0:0:
320,192,84041,1,0,0:0:0:0:
448,192,84041,1,0,0:0:0:0:
64,192,84142,1,0,0:0:0:0:
192,192,84142,1,0,0:0:0:0:
320,192,84142,1,0,0:0:0:0:
192,192,84244,1,0,0:0:0:0:
64,192,84346,1,0,0:0:0:0:
320,192,84346,1,0,0:0:0:0:
448,192,84346,1,0,0:0:0:0:
448,192,84448,1,0,0:0:0:0:
320,192,84549,1,0,0:0:0:0:
64,192,84549,1,0,0:0:0:0:
320,192,84651,1,0,0:0:0:0:
192,192,84752,1,0,0:0:0:0:
448,192,84752,1,0,0:0:0:0:
64,192,84752,1,0,0:0:0:0:
192,192,84854,1,0,0:0:0:0:
64,192,84956,1,0,0:0:0:0:
448,192,84956,1,0,0:0:0:0:
320,192,85023,1,0,0:0:0:0:
192,192,85092,1,0,0:0:0:0:
64,192,85159,1,0,0:0:0:0:
320,192,85159,1,0,0:0:0:0:
448,192,85159,1,0,0:0:0:0:
192,192,85261,1,0,0:0:0:0:
448,192,85362,1,0,0:0:0:0:
192,192,85464,1,0,0:0:0:0:
448,192,85566,1,0,0:0:0:0:
320,192,85668,1,0,0:0:0:0:
192,192,85769,1,0,0:0:0:0:
320,192,85837,1,0,0:0:0:0:
64,192,85904,1,0,0:0:0:0:
192,192,85972,1,0,0:0:0:0:
448,192,85972,1,0,0:0:0:0:
320,192,85972,1,0,0:0:0:0:
64,192,86073,1,0,0:0:0:0:
320,192,86175,1,0,0:0:0:0:
64,192,86277,1,0,0:0:0:0:
320,192,86378,1,0,0:0:0:0:
192,192,86480,1,0,0:0:0:0:
64,192,86582,1,0,0:0:0:0:
192,192,86650,1,0,0:0:0:0:
320,192,86718,1,0,0:0:0:0:
448,192,86785,1,0,0:0:0:0:
64,192,86785,1,0,0:0:0:0:
192,192,86785,1,0,0:0:0:0:
320,192,86988,5,0,0:0:0:0:
192,192,86988,1,0,0:0:0:0:
64,192,86988,1,0,0:0:0:0:
64,192,87192,1,0,0:0:0:0:
320,192,87192,1,0,0:0:0:0:
448,192,87192,1,0,0:0:0:0:
192,192,87395,1,0,0:0:0:0:
320,192,87395,1,0,0:0:0:0:
448,192,87395,1,0,0:0:0:0:
64,192,87598,1,0,0:0:0:0:
192,192,87598,1,0,0:0:0:0:
448,192,87598,1,0,0:0:0:0:
320,192,87598,1,0,0:0:0:0:
320,192,87903,5,0,0:0:0:0:
192,192,87954,1,0,0:0:0:0:
64,192,88005,1,0,0:0:0:0:
320,192,88005,1,0,0:0:0:0:
448,192,88005,1,0,0:0:0:0:
192,192,88208,1,0,0:0:0:0:
320,192,88258,1,0,0:0:0:0:
448,192,88309,1,0,0:0:0:0:
192,192,88309,1,0,0:0:0:0:
64,192,88309,1,0,0:0:0:0:
320,192,88411,1,0,0:0:0:0:
448,192,88411,1,0,0:0:0:0:
192,192,88411,1,0,0:0:0:0:
64,192,88411,1,0,0:0:0:0:
320,192,88512,1,0,0:0:0:0:
64,192,88512,1,0,0:0:0:0:
192,192,88614,1,0,0:0:0:0:
448,192,88614,1,0,0:0:0:0:
320,192,88614,1,0,0:0:0:0:
64,192,88716,1,0,0:0:0:0:
192,192,88716,1,0,0:0:0:0:
64,192,88818,1,0,0:0:0:0:
320,192,88818,1,0,0:0:0:0:
448,192,88818,1,0,0:0:0:0:
192,192,88818,1,0,0:0:0:0:
448,192,88919,1,0,0:0:0:0:
320,192,88919,1,0,0:0:0:0:
192,192,89021,1,0,0:0:0:0:
64,192,89021,1,0,0:0:0:0:
320,192,89021,1,0,0:0:0:0:
64,192,89122,1,0,0:0:0:0:
448,192,89122,1,0,0:0:0:0:
192,192,89224,1,0,0:0:0:0:
64,192,89224,1,0,0:0:0:0:
320,192,89224,1,0,0:0:0:0:
448,192,89224,1,0,0:0:0:0:
192,192,89326,1,0,0:0:0:0:
64,192,89326,1,0,0:0:0:0:
320,192,89428,1,0,0:0:0:0:
448,192,89428,1,0,0:0:0:0:
192,192,89529,1,0,0:0:0:0:
64,192,89529,1,0,0:0:0:0:
320,192,89529,1,0,0:0:0:0:
448,192,89529,1,0,0:0:0:0:
64,192,89631,1,0,0:0:0:0:
192,192,89631,1,0,0:0:0:0:
448,192,89631,1,0,0:0:0:0:
320,192,89732,1,0,0:0:0:0:
64,192,89732,1,0,0:0:0:0:
192,192,89834,1,0,0:0:0:0:
320,192,89834,1,0,0:0:0:0:
448,192,89834,1,0,0:0:0:0:
64,192,89834,1,0,0:0:0:0:
320,192,89936,1,0,0:0:0:0:
192,192,89936,1,0,0:0:0:0:
64,192,90038,1,0,0:0:0:0:
192,192,90038,1,0,0:0:0:0:
448,192,90038,1,0,0:0:0:0:
320,192,90139,1,0,0:0:0:0:
64,192,90139,1,0,0:0:0:0:
192,192,90240,1,0,0:0:0:0:
320,192,90240,1,0,0:0:0:0:
448,192,90240,1,0,0:0:0:0:
64,192,90240,1,0,0:0:0:0:
448,192,90342,1,0,0:0:0:0:
64,192,90342,1,0,0:0:0:0:
192,192,90443,1,0,0:0:0:0:
64,192,90443,1,0,0:0:0:0:
320,192,90443,1,0,0:0:0:0:
448,192,90443,1,0,0:0:0:0:
192,192,90545,1,0,0:0:0:0:
320,192,90545,1,0,0:0:0:0:
448,192,90647,1,0,0:0:0:0:
320,192,90647,1,0,0:0:0:0:
192,192,90647,1,0,0:0:0:0:
64,192,90647,1,0,0:0:0:0:
320,192,90748,1,0,0:0:0:0:
64,192,90748,1,0,0:0:0:0:
64,192,90850,1,0,0:0:0:0:
192,192,90850,1,0,0:0:0:0:
320,192,90850,1,0,0:0:0:0:
448,192,90850,1,0,0:0:0:0:
192,192,90952,1,0,0:0:0:0:
448,192,90952,1,0,0:0:0:0:
64,192,91053,1,0,0:0:0:0:
448,192,91053,1,0,0:0:0:0:
320,192,91053,1,0,0:0:0:0:
192,192,91155,1,0,0:0:0:0:
320,192,91155,1,0,0:0:0:0:
320,192,91257,1,0,0:0:0:0:
448,192,91257,1,0,0:0:0:0:
64,192,91257,1,0,0:0:0:0:
192,192,91257,1,0,0:0:0:0:
64,192,91358,1,0,0:0:0:0:
320,192,91358,1,0,0:0:0:0:
192,192,91460,1,0,0:0:0:0:
64,192,91460,1,0,0:0:0:0:
448,192,91460,1,0,0:0:0:0:
320,192,91562,1,0,0:0:0:0:
192,192,91562,1,0,0:0:0:0:
64,192,91663,1,0,0:0:0:0:
192,192,91663,1,0,0:0:0:0:
320,192,91663,1,0,0:0:0:0:
448,192,91663,1,0,0:0:0:0:
64,192,91765,1,0,0:0:0:0:
448,192,91765,1,0,0:0:0:0:
320,192,91867,1,0,0:0:0:0:
192,192,91867,1,0,0:0:0:0:
448,192,91867,1,0,0:0:0:0:
320,192,91968,1,0,0:0:0:0:
64,192,91968,1,0,0:0:0:0:
64,192,92070,1,0,0:0:0:0:
192,192,92070,1,0,0:0:0:0:
320,192,92070,1,0,0:0:0:0:
448,192,92070,1,0,0:0:0:0:
64,192,92172,1,0,0:0:0:0:
448,192,92172,1,0,0:0:0:0:
192,192,92272,1,0,0:0:0:0:
320,192,92272,1,0,0:0:0:0:
64,192,92272,1,0,0:0:0:0:
192,192,92374,1,0,0:0:0:0:
448,192,92374,1,0,0:0:0:0:
320,192,92476,1,0,0:0:0:0:
448,192,92476,1,0,0:0:0:0:
192,192,92476,1,0,0:0:0:0:
64,192,92476,1,0,0:0:0:0:
448,192,92578,1,0,0:0:0:0:
64,192,92578,1,0,0:0:0:0:
192,192,92679,1,0,0:0:0:0:
320,192,92679,1,0,0:0:0:0:
64,192,92781,1,0,0:0:0:0:
448,192,92781,1,0,0:0:0:0:
192,192,92781,1,0,0:0:0:0:
320,192,92781,1,0,0:0:0:0:
64,192,92882,1,0,0:0:0:0:
320,192,92882,1,0,0:0:0:0:
448,192,92882,1,0,0:0:0:0:
192,192,92984,1,0,0:0:0:0:
448,192,92984,1,0,0:0:0:0:
320,192,93086,1,0,0:0:0:0:
192,192,93086,1,0,0:0:0:0:
64,192,93086,1,0,0:0:0:0:
448,192,93086,1,0,0:0:0:0:
192,192,93188,1,0,0:0:0:0:
64,192,93188,1,0,0:0:0:0:
64,192,93289,1,0,0:0:0:0:
192,192,93289,1,0,0:0:0:0:
320,192,93289,1,0,0:0:0:0:
448,192,93289,1,0,0:0:0:0:
448,192,93391,1,0,0:0:0:0:
64,192,93391,1,0,0:0:0:0:
64,192,93492,1,0,0:0:0:0:
192,192,93492,1,0,0:0:0:0:
320,192,93492,1,0,0:0:0:0:
448,192,93492,1,0,0:0:0:0:
192,192,93594,1,0,0:0:0:0:
320,192,93594,1,0,0:0:0:0:
64,192,93696,1,0,0:0:0:0:
192,192,93696,1,0,0:0:0:0:
320,192,93696,1,0,0:0:0:0:
448,192,93696,1,0,0:0:0:0:
192,192,93798,1,0,0:0:0:0:
448,192,93798,1,0,0:0:0:0:
320,192,93899,1,0,0:0:0:0:
448,192,93899,1,0,0:0:0:0:
192,192,93899,1,0,0:0:0:0:
64,192,93899,1,0,0:0:0:0:
192,192,94001,1,0,0:0:0:0:
64,192,94001,1,0,0:0:0:0:
64,192,94102,1,0,0:0:0:0:
192,192,94102,1,0,0:0:0:0:
320,192,94102,1,0,0:0:0:0:
448,192,94102,1,0,0:0:0:0:
448,192,94204,1,0,0:0:0:0:
192,192,94204,1,0,0:0:0:0:
64,192,94306,1,0,0:0:0:0:
320,192,94306,1,0,0:0:0:0:
448,192,94306,1,0,0:0:0:0:
192,192,94306,1,0,0:0:0:0:
448,192,94407,1,0,0:0:0:0:
320,192,94407,1,0,0:0:0:0:
64,192,94407,1,0,0:0:0:0:
192,192,94508,1,0,0:0:0:0:
64,192,94508,1,0,0:0:0:0:
448,192,94508,1,0,0:0:0:0:
320,192,94508,1,0,0:0:0:0:
192,192,94610,1,0,0:0:0:0:
64,192,94610,1,0,0:0:0:0:
64,192,94712,1,0,0:0:0:0:
192,192,94712,1,0,0:0:0:0:
320,192,94712,1,0,0:0:0:0:
448,192,94712,1,0,0:0:0:0:
448,192,94813,1,0,0:0:0:0:
320,192,94813,1,0,0:0:0:0:
64,192,94915,1,0,0:0:0:0:
192,192,94915,1,0,0:0:0:0:
320,192,94915,1,0,0:0:0:0:
448,192,94915,1,0,0:0:0:0:
64,192,95017,1,0,0:0:0:0:
320,192,95017,1,0,0:0:0:0:
192,192,95118,1,0,0:0:0:0:
64,192,95118,1,0,0:0:0:0:
448,192,95118,1,0,0:0:0:0:
192,192,95220,1,0,0:0:0:0:
320,192,95220,1,0,0:0:0:0:
64,192,95322,1,0,0:0:0:0:
320,192,95322,1,0,0:0:0:0:
448,192,95322,1,0,0:0:0:0:
192,192,95322,1,0,0:0:0:0:
448,192,95423,1,0,0:0:0:0:
64,192,95423,1,0,0:0:0:0:
320,192,95525,1,0,0:0:0:0:
192,192,95525,1,0,0:0:0:0:
448,192,95525,1,0,0:0:0:0:
320,192,95627,1,0,0:0:0:0:
64,192,95627,1,0,0:0:0:0:
192,192,95728,1,0,0:0:0:0:
64,192,95728,1,0,0:0:0:0:
320,192,95728,1,0,0:0:0:0:
448,192,95728,1,0,0:0:0:0:
448,192,95830,1,0,0:0:0:0:
192,192,95830,1,0,0:0:0:0:
320,192,95932,1,0,0:0:0:0:
448,192,95932,1,0,0:0:0:0:
64,192,96033,1,0,0:0:0:0:
192,192,96033,1,0,0:0:0:0:
320,192,96033,1,0,0:0:0:0:
448,192,96033,1,0,0:0:0:0:
192,192,96135,1,0,0:0:0:0:
64,192,96135,1,0,0:0:0:0:
320,192,96135,1,0,0:0:0:0:
64,192,96237,1,0,0:0:0:0:
448,192,96237,1,0,0:0:0:0:
192,192,96338,1,0,0:0:0:0:
320,192,96338,1,0,0:0:0:0:
448,192,96338,1,0,0:0:0:0:
64,192,96439,1,0,0:0:0:0:
192,192,96439,1,0,0:0:0:0:
448,192,96439,1,0,0:0:0:0:
64,192,96541,1,0,0:0:0:0:
192,192,96541,1,0,0:0:0:0:
320,192,96541,1,0,0:0:0:0:
448,192,96541,1,0,0:0:0:0:
320,192,96642,1,0,0:0:0:0:
64,192,96642,1,0,0:0:0:0:
192,192,96744,1,0,0:0:0:0:
320,192,96744,1,0,0:0:0:0:
448,192,96744,1,0,0:0:0:0:
64,192,96744,1,0,0:0:0:0:
320,192,96846,1,0,0:0:0:0:
448,192,96846,1,0,0:0:0:0:
192,192,96948,1,0,0:0:0:0:
64,192,96948,1,0,0:0:0:0:
448,192,96948,1,0,0:0:0:0:
320,192,96948,1,0,0:0:0:0:
64,192,97049,1,0,0:0:0:0:
192,192,97049,1,0,0:0:0:0:
64,192,97151,1,0,0:0:0:0:
320,192,97151,1,0,0:0:0:0:
448,192,97151,1,0,0:0:0:0:
64,192,97252,1,0,0:0:0:0:
448,192,97252,1,0,0:0:0:0:
320,192,97252,1,0,0:0:0:0:
192,192,97354,1,0,0:0:0:0:
64,192,97354,1,0,0:0:0:0:
320,192,97354,1,0,0:0:0:0:
448,192,97354,1,0,0:0:0:0:
192,192,97456,1,0,0:0:0:0:
64,192,97456,1,0,0:0:0:0:
192,192,97558,1,0,0:0:0:0:
320,192,97558,1,0,0:0:0:0:
448,192,97558,1,0,0:0:0:0:
64,192,97659,1,0,0:0:0:0:
448,192,97659,1,0,0:0:0:0:
64,192,97761,1,0,0:0:0:0:
192,192,97761,1,0,0:0:0:0:
320,192,97761,1,0,0:0:0:0:
448,192,97761,1,0,0:0:0:0:
448,192,97862,1,0,0:0:0:0:
192,192,97862,1,0,0:0:0:0:
192,192,97964,1,0,0:0:0:0:
320,192,97964,1,0,0:0:0:0:
64,192,97964,1,0,0:0:0:0:
320,192,98066,1,0,0:0:0:0:
448,192,98066,1,0,0:0:0:0:
64,192,98168,1,0,0:0:0:0:
192,192,98168,1,0,0:0:0:0:
320,192,98168,1,0,0:0:0:0:
448,192,98168,1,0,0:0:0:0:
64,192,98269,1,0,0:0:0:0:
448,192,98269,1,0,0:0:0:0:
320,192,98371,1,0,0:0:0:0:
192,192,98371,1,0,0:0:0:0:
448,192,98371,1,0,0:0:0:0:
320,192,98472,1,0,0:0:0:0:
64,192,98472,1,0,0:0:0:0:
192,192,98573,1,0,0:0:0:0:
64,192,98573,1,0,0:0:0:0:
320,192,98573,1,0,0:0:0:0:
448,192,98573,1,0,0:0:0:0:
192,192,98675,1,0,0:0:0:0:
64,192,98675,1,0,0:0:0:0:
64,192,98777,1,0,0:0:0:0:
320,192,98777,1,0,0:0:0:0:
448,192,98777,1,0,0:0:0:0:
448,192,98878,1,0,0:0:0:0:
192,192,98878,1,0,0:0:0:0:
448,192,98980,1,0,0:0:0:0:
64,192,98980,1,0,0:0:0:0:
320,192,98980,1,0,0:0:0:0:
192,192,98980,1,0,0:0:0:0:
320,192,99082,1,0,0:0:0:0:
192,192,99082,1,0,0:0:0:0:
448,192,99183,1,0,0:0:0:0:
320,192,99183,1,0,0:0:0:0:
64,192,99183,1,0,0:0:0:0:
192,192,99285,1,0,0:0:0:0:
448,192,99285,1,0,0:0:0:0:
320,192,99387,1,0,0:0:0:0:
192,192,99387,1,0,0:0:0:0:
64,192,99387,1,0,0:0:0:0:
448,192,99387,1,0,0:0:0:0:
320,192,99488,1,0,0:0:0:0:
64,192,99488,1,0,0:0:0:0:
320,192,99590,1,0,0:0:0:0:
192,192,99590,1,0,0:0:0:0:
64,192,99590,1,0,0:0:0:0:
448,192,99590,1,0,0:0:0:0:
192,192,99692,1,0,0:0:0:0:
448,192,99692,1,0,0:0:0:0:
64,192,99793,1,0,0:0:0:0:
192,192,99793,1,0,0:0:0:0:
320,192,99793,1,0,0:0:0:0:
448,192,99793,1,0,0:0:0:0:
64,192,99895,1,0,0:0:0:0:
64,192,99997,1,0,0:0:0:0:
192,192,99997,1,0,0:0:0:0:
448,192,99997,1,0,0:0:0:0:
320,192,99997,1,0,0:0:0:0:
448,192,100098,1,0,0:0:0:0:
64,192,100200,1,0,0:0:0:0:
192,192,100200,1,0,0:0:0:0:
448,192,100200,1,0,0:0:0:0:
320,192,100200,1,0,0:0:0:0:
64,192,100302,1,0,0:0:0:0:
64,192,100403,1,0,0:0:0:0:
192,192,100403,1,0,0:0:0:0:
320,192,100403,1,0,0:0:0:0:
448,192,100403,1,0,0:0:0:0:
448,192,100505,1,0,0:0:0:0:
64,192,100606,1,0,0:0:0:0:
192,192,100606,1,0,0:0:0:0:
320,192,100606,1,0,0:0:0:0:
448,192,100606,1,0,0:0:0:0:
64,192,100708,1,0,0:0:0:0:
320,192,100708,1,0,0:0:0:0:
448,192,100809,1,0,0:0:0:0:
64,192,100809,1,0,0:0:0:0:
192,192,100809,1,0,0:0:0:0:
448,192,100911,1,0,0:0:0:0:
320,192,100911,1,0,0:0:0:0:
64,192,101012,1,0,0:0:0:0:
192,192,101012,1,0,0:0:0:0:
320,192,101012,1,0,0:0:0:0:
448,192,101012,1,0,0:0:0:0:
192,192,101114,1,0,0:0:0:0:
64,192,101114,1,0,0:0:0:0:
64,192,101216,1,0,0:0:0:0:
192,192,101216,1,0,0:0:0:0:
320,192,101216,1,0,0:0:0:0:
448,192,101216,1,0,0:0:0:0:
64,192,101318,1,0,0:0:0:0:
192,192,101318,1,0,0:0:0:0:
192,192,101419,1,0,0:0:0:0:
64,192,101419,1,0,0:0:0:0:
320,192,101419,1,0,0:0:0:0:
448,192,101419,1,0,0:0:0:0:
448,192,101521,1,0,0:0:0:0:
192,192,101521,1,0,0:0:0:0:
320,192,101622,1,0,0:0:0:0:
448,192,101622,1,0,0:0:0:0:
64,192,101622,1,0,0:0:0:0:
192,192,101724,1,0,0:0:0:0:
320,192,101724,1,0,0:0:0:0:
64,192,101826,1,0,0:0:0:0:
192,192,101826,1,0,0:0:0:0:
448,192,101826,1,0,0:0:0:0:
320,192,101826,1,0,0:0:0:0:
64,192,101928,1,0,0:0:0:0:
448,192,101928,1,0,0:0:0:0:
320,192,102029,1,0,0:0:0:0:
192,192,102029,1,0,0:0:0:0:
64,192,102029,1,0,0:0:0:0:
192,192,102131,1,0,0:0:0:0:
448,192,102131,1,0,0:0:0:0:
320,192,102232,1,0,0:0:0:0:
448,192,102232,1,0,0:0:0:0:
64,192,102232,1,0,0:0:0:0:
192,192,102232,1,0,0:0:0:0:
448,192,102334,1,0,0:0:0:0:
192,192,102334,1,0,0:0:0:0:
64,192,102436,1,0,0:0:0:0:
320,192,102436,1,0,0:0:0:0:
192,192,102538,1,0,0:0:0:0:
64,192,102538,1,0,0:0:0:0:
320,192,102538,1,0,0:0:0:0:
448,192,102538,1,0,0:0:0:0:
192,192,102639,1,0,0:0:0:0:
64,192,102639,1,0,0:0:0:0:
448,192,102639,1,0,0:0:0:0:
320,192,102740,1,0,0:0:0:0:
448,192,102740,1,0,0:0:0:0:
64,192,102842,1,0,0:0:0:0:
192,192,102842,1,0,0:0:0:0:
320,192,102842,1,0,0:0:0:0:
448,192,102842,1,0,0:0:0:0:
320,192,102943,1,0,0:0:0:0:
64,192,102943,1,0,0:0:0:0:
192,192,103045,1,0,0:0:0:0:
64,192,103045,1,0,0:0:0:0:
448,192,103045,1,0,0:0:0:0:
320,192,103045,1,0,0:0:0:0:
192,192,103147,1,0,0:0:0:0:
320,192,103147,1,0,0:0:0:0:
64,192,103248,1,0,0:0:0:0:
192,192,103248,1,0,0:0:0:0:
320,192,103248,1,0,0:0:0:0:
448,192,103248,1,0,0:0:0:0:
64,192,103350,1,0,0:0:0:0:
448,192,103350,1,0,0:0:0:0:
320,192,103452,1,0,0:0:0:0:
448,192,103452,1,0,0:0:0:0:
192,192,103452,1,0,0:0:0:0:
64,192,103452,1,0,0:0:0:0:
320,192,103553,1,0,0:0:0:0:
448,192,103553,1,0,0:0:0:0:
64,192,103655,1,0,0:0:0:0:
192,192,103655,1,0,0:0:0:0:
320,192,103655,1,0,0:0:0:0:
448,192,103655,1,0,0:0:0:0:
192,192,103757,1,0,0:0:0:0:
64,192,103757,1,0,0:0:0:0:
192,192,103858,1,0,0:0:0:0:
64,192,103858,1,0,0:0:0:0:
320,192,103858,1,0,0:0:0:0:
448,192,103858,1,0,0:0:0:0:
448,192,103960,1,0,0:0:0:0:
64,192,103960,1,0,0:0:0:0:
192,192,104062,1,0,0:0:0:0:
320,192,104062,1,0,0:0:0:0:
448,192,104062,1,0,0:0:0:0:
320,192,104163,1,0,0:0:0:0:
64,192,104163,1,0,0:0:0:0:
192,192,104265,1,0,0:0:0:0:
64,192,104265,1,0,0:0:0:0:
448,192,104265,1,0,0:0:0:0:
320,192,104265,1,0,0:0:0:0:
448,192,104367,1,0,0:0:0:0:
320,192,104367,1,0,0:0:0:0:
192,192,104468,1,0,0:0:0:0:
64,192,104468,1,0,0:0:0:0:
448,192,104468,1,0,0:0:0:0:
320,192,104570,1,0,0:0:0:0:
64,192,104570,1,0,0:0:0:0:
64,192,104672,1,0,0:0:0:0:
192,192,104672,1,0,0:0:0:0:
320,192,104672,1,0,0:0:0:0:
448,192,104672,1,0,0:0:0:0:
192,192,104772,1,0,0:0:0:0:
448,192,104772,1,0,0:0:0:0:
320,192,104874,1,0,0:0:0:0:
448,192,104874,1,0,0:0:0:0:
64,192,104874,1,0,0:0:0:0:
192,192,104976,1,0,0:0:0:0:
64,192,104976,1,0,0:0:0:0:
64,192,105078,1,0,0:0:0:0:
448,192,105078,1,0,0:0:0:0:
320,192,105078,1,0,0:0:0:0:
192,192,105078,1,0,0:0:0:0:
320,192,105179,1,0,0:0:0:0:
192,192,105179,1,0,0:0:0:0:
64,192,105281,1,0,0:0:0:0:
320,192,105281,1,0,0:0:0:0:
448,192,105281,1,0,0:0:0:0:
192,192,105382,1,0,0:0:0:0:
448,192,105382,1,0,0:0:0:0:
320,192,105484,1,0,0:0:0:0:
448,192,105484,1,0,0:0:0:0:
64,192,105484,1,0,0:0:0:0:
192,192,105484,1,0,0:0:0:0:
64,192,105586,1,0,0:0:0:0:
320,192,105586,1,0,0:0:0:0:
448,192,105688,1,0,0:0:0:0:
192,192,105688,1,0,0:0:0:0:
320,192,105789,1,0,0:0:0:0:
448,192,105789,1,0,0:0:0:0:
192,192,105789,1,0,0:0:0:0:
64,192,105789,1,0,0:0:0:0:
320,192,105891,1,0,0:0:0:0:
64,192,105891,1,0,0:0:0:0:
448,192,105891,1,0,0:0:0:0:
192,192,105992,1,0,0:0:0:0:
64,192,105992,1,0,0:0:0:0:
192,192,106094,1,0,0:0:0:0:
320,192,106094,1,0,0:0:0:0:
448,192,106094,1,0,0:0:0:0:
64,192,106094,1,0,0:0:0:0:
448,192,106196,1,0,0:0:0:0:
192,192,106196,1,0,0:0:0:0:
192,192,106298,1,0,0:0:0:0:
320,192,106298,1,0,0:0:0:0:
448,192,106298,1,0,0:0:0:0:
64,192,106298,1,0,0:0:0:0:
320,192,106399,1,0,0:0:0:0:
448,192,106399,1,0,0:0:0:0:
64,192,106501,1,0,0:0:0:0:
192,192,106501,1,0,0:0:0:0:
320,192,106501,1,0,0:0:0:0:
448,192,106501,1,0,0:0:0:0:
64,192,106602,1,0,0:0:0:0:
192,192,106602,1,0,0:0:0:0:
64,192,106704,1,0,0:0:0:0:
192,192,106704,1,0,0:0:0:0:
320,192,106704,1,0,0:0:0:0:
448,192,106704,1,0,0:0:0:0:
448,192,106806,1,0,0:0:0:0:
64,192,106806,1,0,0:0:0:0:
64,192,106907,1,0,0:0:0:0:
192,192,106907,1,0,0:0:0:0:
320,192,106907,1,0,0:0:0:0:
448,192,106907,1,0,0:0:0:0:
192,192,107008,1,0,0:0:0:0:
320,192,107008,1,0,0:0:0:0:
64,192,107110,1,0,0:0:0:0:
192,192,107110,1,0,0:0:0:0:
448,192,107110,1,0,0:0:0:0:
320,192,107110,1,0,0:0:0:0:
64,192,107212,1,0,0:0:0:0:
320,192,107212,1,0,0:0:0:0:
192,192,107313,1,0,0:0:0:0:
448,192,107313,1,0,0:0:0:0:
64,192,107313,1,0,0:0:0:0:
192,192,107415,1,0,0:0:0:0:
448,192,107415,1,0,0:0:0:0:
64,192,107415,1,0,0:0:0:0:
64,192,107517,1,0,0:0:0:0:
192,192,107517,1,0,0:0:0:0:
320,192,107517,1,0,0:0:0:0:
448,192,107517,1,0,0:0:0:0:
320,192,107618,1,0,0:0:0:0:
448,192,107618,1,0,0:0:0:0:
192,192,107720,1,0,0:0:0:0:
64,192,107720,1,0,0:0:0:0:
320,192,107720,1,0,0:0:0:0:
448,192,107720,1,0,0:0:0:0:
192,192,107822,1,0,0:0:0:0:
64,192,107822,1,0,0:0:0:0:
320,192,107923,1,0,0:0:0:0:
448,192,107923,1,0,0:0:0:0:
192,192,107923,1,0,0:0:0:0:
64,192,107923,1,0,0:0:0:0:
448,192,108025,1,0,0:0:0:0:
64,192,108025,1,0,0:0:0:0:
192,192,108127,1,0,0:0:0:0:
320,192,108127,1,0,0:0:0:0:
448,192,108127,1,0,0:0:0:0:
320,192,108228,1,0,0:0:0:0:
64,192,108228,1,0,0:0:0:0:
192,192,108330,1,0,0:0:0:0:
64,192,108330,1,0,0:0:0:0:
320,192,108330,1,0,0:0:0:0:
448,192,108330,1,0,0:0:0:0:
192,192,108432,1,0,0:0:0:0:
320,192,108432,1,0,0:0:0:0:
64,192,108533,1,0,0:0:0:0:
192,192,108533,1,0,0:0:0:0:
448,192,108533,1,0,0:0:0:0:
320,192,108635,1,0,0:0:0:0:
64,192,108635,1,0,0:0:0:0:
192,192,108737,1,0,0:0:0:0:
64,192,108737,1,0,0:0:0:0:
448,192,108737,1,0,0:0:0:0:
320,192,108737,1,0,0:0:0:0:
448,192,108838,1,0,0:0:0:0:
320,192,108838,1,0,0:0:0:0:
448,192,108939,1,0,0:0:0:0:
192,192,108939,1,0,0:0:0:0:
64,192,109041,1,0,0:0:0:0:
448,192,109041,1,0,0:0:0:0:
320,192,109041,1,0,0:0:0:0:
192,192,109041,1,0,0:0:0:0:
64,192,109142,1,0,0:0:0:0:
320,192,109142,1,0,0:0:0:0:
448,192,109142,1,0,0:0:0:0:
192,192,109244,1,0,0:0:0:0:
64,192,109244,1,0,0:0:0:0:
320,192,109346,1,0,0:0:0:0:
448,192,109346,1,0,0:0:0:0:
192,192,109346,1,0,0:0:0:0:
64,192,109346,1,0,0:0:0:0:
320,192,109448,1,0,0:0:0:0:
448,192,109448,1,0,0:0:0:0:
64,192,109549,1,0,0:0:0:0:
192,192,109549,1,0,0:0:0:0:
320,192,109549,1,0,0:0:0:0:
448,192,109549,1,0,0:0:0:0:
320,192,109651,1,0,0:0:0:0:
64,192,109651,1,0,0:0:0:0:
192,192,109752,1,0,0:0:0:0:
64,192,109752,1,0,0:0:0:0:
320,192,109752,1,0,0:0:0:0:
448,192,109752,1,0,0:0:0:0:
192,192,109854,1,0,0:0:0:0:
64,192,109854,1,0,0:0:0:0:
64,192,109956,1,0,0:0:0:0:
192,192,109956,1,0,0:0:0:0:
320,192,109956,1,0,0:0:0:0:
448,192,109956,1,0,0:0:0:0:
448,192,110058,1,0,0:0:0:0:
192,192,110058,1,0,0:0:0:0:
320,192,110159,1,0,0:0:0:0:
448,192,110159,1,0,0:0:0:0:
64,192,110159,1,0,0:0:0:0:
192,192,110159,1,0,0:0:0:0:
320,192,110261,1,0,0:0:0:0:
448,192,110261,1,0,0:0:0:0:
64,192,110362,1,0,0:0:0:0:
192,192,110362,1,0,0:0:0:0:
320,192,110362,1,0,0:0:0:0:
448,192,110362,1,0,0:0:0:0:
64,192,110464,1,0,0:0:0:0:
320,192,110464,1,0,0:0:0:0:
192,192,110566,1,0,0:0:0:0:
64,192,110566,1,0,0:0:0:0:
448,192,110566,1,0,0:0:0:0:
320,192,110668,1,0,0:0:0:0:
448,192,110668,1,0,0:0:0:0:
64,192,110769,1,0,0:0:0:0:
192,192,110769,1,0,0:0:0:0:
320,192,110769,1,0,0:0:0:0:
448,192,110769,1,0,0:0:0:0:
192,192,110871,1,0,0:0:0:0:
64,192,110871,1,0,0:0:0:0:
64,192,110972,1,0,0:0:0:0:
320,192,110972,1,0,0:0:0:0:
448,192,110972,1,0,0:0:0:0:
192,192,110972,1,0,0:0:0:0:
320,192,111073,1,0,0:0:0:0:
448,192,111073,1,0,0:0:0:0:
64,192,111175,1,0,0:0:0:0:
192,192,111175,1,0,0:0:0:0:
320,192,111175,1,0,0:0:0:0:
448,192,111175,1,0,0:0:0:0:
64,192,111277,1,0,0:0:0:0:
192,192,111277,1,0,0:0:0:0:
320,192,111378,1,0,0:0:0:0:
448,192,111378,1,0,0:0:0:0:
64,192,111378,1,0,0:0:0:0:
192,192,111480,1,0,0:0:0:0:
448,192,111480,1,0,0:0:0:0:
64,192,111582,1,0,0:0:0:0:
192,192,111582,1,0,0:0:0:0:
320,192,111582,1,0,0:0:0:0:
448,192,111582,1,0,0:0:0:0:
64,192,111683,1,0,0:0:0:0:
320,192,111683,1,0,0:0:0:0:
192,192,111785,1,0,0:0:0:0:
64,192,111785,1,0,0:0:0:0:
320,192,111785,1,0,0:0:0:0:
448,192,111785,1,0,0:0:0:0:
192,192,111887,1,0,0:0:0:0:
448,192,111887,1,0,0:0:0:0:
192,192,111988,1,0,0:0:0:0:
64,192,111988,1,0,0:0:0:0:
448,192,111988,1,0,0:0:0:0:
320,192,111988,1,0,0:0:0:0:
320,192,112090,1,0,0:0:0:0:
192,192,112090,1,0,0:0:0:0:
64,192,112192,1,0,0:0:0:0:
448,192,112192,1,0,0:0:0:0:
320,192,112192,1,0,0:0:0:0:
192,192,112293,1,0,0:0:0:0:
64,192,112293,1,0,0:0:0:0:
192,192,112395,1,0,0:0:0:0:
320,192,112395,1,0,0:0:0:0:
448,192,112395,1,0,0:0:0:0:
64,192,112395,1,0,0:0:0:0:
448,192,112497,1,0,0:0:0:0:
192,192,112497,1,0,0:0:0:0:
320,192,112598,1,0,0:0:0:0:
448,192,112598,1,0,0:0:0:0:
64,192,112598,1,0,0:0:0:0:
192,192,112598,1,0,0:0:0:0:
192,192,112700,1,0,0:0:0:0:
320,192,112700,1,0,0:0:0:0:
64,192,112802,1,0,0:0:0:0:
192,192,112802,1,0,0:0:0:0:
320,192,112802,1,0,0:0:0:0:
448,192,112802,1,0,0:0:0:0:
448,192,112903,1,0,0:0:0:0:
64,192,112903,1,0,0:0:0:0:
192,192,113005,1,0,0:0:0:0:
320,192,113005,1,0,0:0:0:0:
64,192,113005,1,0,0:0:0:0:
448,192,113005,1,0,0:0:0:0:
320,192,113106,1,0,0:0:0:0:
192,192,113106,1,0,0:0:0:0:
192,192,113208,1,0,0:0:0:0:
64,192,113208,1,0,0:0:0:0:
320,192,113208,1,0,0:0:0:0:
448,192,113208,1,0,0:0:0:0:
64,192,113309,1,0,0:0:0:0:
320,192,113309,1,0,0:0:0:0:
192,192,113411,1,0,0:0:0:0:
64,192,113411,1,0,0:0:0:0:
448,192,113411,1,0,0:0:0:0:
320,192,113411,1,0,0:0:0:0:
448,192,113512,1,0,0:0:0:0:
192,192,113512,1,0,0:0:0:0:
320,192,113614,1,0,0:0:0:0:
192,192,113614,1,0,0:0:0:0:
64,192,113614,1,0,0:0:0:0:
448,192,113614,1,0,0:0:0:0:
192,192,114021,1,0,0:0:0:0:
64,192,114021,1,0,0:0:0:0:
192,192,114428,1,0,0:0:0:0:
320,192,114428,1,0,0:0:0:0:
320,192,114834,1,0,0:0:0:0:
448,192,114834,1,0,0:0:0:0:
64,192,115038,1,0,0:0:0:0:
448,192,115038,1,0,0:0:0:0:
192,192,115139,1,0,0:0:0:0:
320,192,115139,1,0,0:0:0:0:
64,192,115240,1,0,0:0:0:0:
320,192,115240,1,0,0:0:0:0:
192,192,115342,1,0,0:0:0:0:
448,192,115342,1,0,0:0:0:0:
320,192,115443,1,0,0:0:0:0:
192,192,115443,1,0,0:0:0:0:
64,192,115545,1,0,0:0:0:0:
320,192,115545,1,0,0:0:0:0:
192,192,115647,1,0,0:0:0:0:
448,192,115647,1,0,0:0:0:0:
320,192,115748,1,0,0:0:0:0:
448,192,115748,1,0,0:0:0:0:
320,192,115850,1,0,0:0:0:0:
64,192,115850,1,0,0:0:0:0:
192,192,115952,1,0,0:0:0:0:
64,192,115952,1,0,0:0:0:0:
320,192,116053,1,0,0:0:0:0:
448,192,116053,1,0,0:0:0:0:
192,192,116121,1,0,0:0:0:0:
320,192,116189,1,0,0:0:0:0:
192,192,116257,1,0,0:0:0:0:
320,192,116324,1,0,0:0:0:0:
192,192,116392,1,0,0:0:0:0:
320,192,116867,1,0,0:0:0:0:
64,192,116867,1,0,0:0:0:0:
192,192,116867,1,0,0:0:0:0:
448,192,116867,1,0,0:0:0:0:
64,192,117070,1,0,0:0:0:0:
448,192,117070,1,0,0:0:0:0:
64,192,117272,1,0,0:0:0:0:
192,192,117272,1,0,0:0:0:0:
320,192,117272,1,0,0:0:0:0:
448,192,117272,1,0,0:0:0:0:
192,192,117476,1,0,0:0:0:0:
320,192,117476,1,0,0:0:0:0:
64,192,117679,1,0,0:0:0:0:
192,192,117679,1,0,0:0:0:0:
320,192,117679,1,0,0:0:0:0:
448,192,117679,1,0,0:0:0:0:
64,192,117882,1,0,0:0:0:0:
320,192,117882,1,0,0:0:0:0:
64,192,118086,1,0,0:0:0:0:
192,192,118086,1,0,0:0:0:0:
320,192,118086,1,0,0:0:0:0:
448,192,118086,1,0,0:0:0:0:
320,192,118289,1,0,0:0:0:0:
448,192,118289,1,0,0:0:0:0:
64,192,118492,1,0,0:0:0:0:
192,192,118492,1,0,0:0:0:0:
320,192,118492,1,0,0:0:0:0:
448,192,118492,1,0,0:0:0:0:
192,192,118696,1,0,0:0:0:0:
448,192,118696,1,0,0:0:0:0:
64,192,118899,1,0,0:0:0:0:
192,192,118899,1,0,0:0:0:0:
320,192,118899,1,0,0:0:0:0:
448,192,118899,1,0,0:0:0:0:
192,192,119102,1,0,0:0:0:0:
64,192,119102,1,0,0:0:0:0:
64,192,119306,1,0,0:0:0:0:
192,192,119306,1,0,0:0:0:0:
320,192,119306,1,0,0:0:0:0:
448,192,119306,1,0,0:0:0:0:
320,192,119915,1,0,0:0:0:0:
192,192,119983,1,0,0:0:0:0:
320,192,120051,1,0,0:0:0:0:
192,192,120118,1,0,0:0:0:0:
64,192,120118,1,0,0:0:0:0:
448,192,120118,1,0,0:0:0:0:
192,192,120322,1,0,0:0:0:0:
64,192,120322,1,0,0:0:0:0:
64,192,120525,1,0,0:0:0:0:
192,192,120525,1,0,0:0:0:0:
192,192,120728,1,0,0:0:0:0:
64,192,120728,1,0,0:0:0:0:
64,192,120932,1,0,0:0:0:0:
192,192,120932,1,0,0:0:0:0:
320,192,120932,1,0,0:0:0:0:
448,192,120932,1,0,0:0:0:0:
320,192,121135,1,0,0:0:0:0:
448,192,121135,1,0,0:0:0:0:
320,192,121338,1,0,0:0:0:0:
448,192,121338,1,0,0:0:0:0:
320,192,121541,1,0,0:0:0:0:
448,192,121541,1,0,0:0:0:0:
64,192,121744,1,0,0:0:0:0:
192,192,121744,1,0,0:0:0:0:
320,192,121744,1,0,0:0:0:0:
448,192,121744,1,0,0:0:0:0:
192,192,121948,1,0,0:0:0:0:
320,192,121948,1,0,0:0:0:0:
64,192,122151,1,0,0:0:0:0:
192,192,122151,1,0,0:0:0:0:
320,192,122151,1,0,0:0:0:0:
448,192,122151,1,0,0:0:0:0:
64,192,122354,1,0,0:0:0:0:
448,192,122354,1,0,0:0:0:0:
448,192,122558,1,0,0:0:0:0:
320,192,122558,1,0,0:0:0:0:
192,192,122558,1,0,0:0:0:0:
64,192,122558,1,0,0:0:0:0:
64,192,123371,1,0,0:0:0:0:
192,192,123371,1,0,0:0:0:0:
448,192,123371,1,0,0:0:0:0:
320,192,123371,1,0,0:0:0:0:
64,192,123573,1,0,0:0:0:0:
320,192,123573,1,0,0:0:0:0:
64,192,123777,1,0,0:0:0:0:
320,192,123777,1,0,0:0:0:0:
64,192,123980,1,0,0:0:0:0:
320,192,123980,1,0,0:0:0:0:
64,192,124183,1,0,0:0:0:0:
192,192,124183,1,0,0:0:0:0:
320,192,124183,1,0,0:0:0:0:
448,192,124183,1,0,0:0:0:0:
192,192,124387,1,0,0:0:0:0:
448,192,124387,1,0,0:0:0:0:
192,192,124590,1,0,0:0:0:0:
448,192,124590,1,0,0:0:0:0:
192,192,124793,1,0,0:0:0:0:
448,192,124793,1,0,0:0:0:0:
448,192,124997,1,0,0:0:0:0:
320,192,124997,1,0,0:0:0:0:
192,192,124997,1,0,0:0:0:0:
64,192,124997,1,0,0:0:0:0:
320,192,125200,1,0,0:0:0:0:
448,192,125200,1,0,0:0:0:0:
64,192,125403,1,0,0:0:0:0:
192,192,125403,1,0,0:0:0:0:
320,192,125403,1,0,0:0:0:0:
448,192,125403,1,0,0:0:0:0:
192,192,125606,1,0,0:0:0:0:
64,192,125606,1,0,0:0:0:0:
64,192,125809,1,0,0:0:0:0:
192,192,125809,1,0,0:0:0:0:
320,192,125809,1,0,0:0:0:0:
448,192,125809,1,0,0:0:0:0:
64,192,126622,1,0,0:0:0:0:
192,192,126622,1,0,0:0:0:0:
320,192,126622,1,0,0:0:0:0:
448,192,126622,1,0,0:0:0:0:
320,192,126826,1,0,0:0:0:0:
192,192,126826,1,0,0:0:0:0:
192,192,127029,1,0,0:0:0:0:
320,192,127029,1,0,0:0:0:0:
192,192,127232,1,0,0:0:0:0:
320,192,127232,1,0,0:0:0:0:
64,192,127436,1,0,0:0:0:0:
320,192,127436,1,0,0:0:0:0:
192,192,127436,1,0,0:0:0:0:
448,192,127436,1,0,0:0:0:0:
448,192,127639,1,0,0:0:0:0:
64,192,127639,1,0,0:0:0:0:
448,192,127842,1,0,0:0:0:0:
64,192,127842,1,0,0:0:0:0:
64,192,128045,1,0,0:0:0:0:
448,192,128045,1,0,0:0:0:0:
64,192,128248,1,0,0:0:0:0:
192,192,128248,1,0,0:0:0:0:
320,192,128248,1,0,0:0:0:0:
448,192,128248,1,0,0:0:0:0:
192,192,128452,1,0,0:0:0:0:
448,192,128452,1,0,0:0:0:0:
64,192,128655,1,0,0:0:0:0:
192,192,128655,1,0,0:0:0:0:
320,192,128655,1,0,0:0:0:0:
448,192,128655,1,0,0:0:0:0:
320,192,128858,1,0,0:0:0:0:
64,192,128858,1,0,0:0:0:0:
64,192,129062,1,0,0:0:0:0:
192,192,129062,1,0,0:0:0:0:
320,192,129062,1,0,0:0:0:0:
448,192,129062,1,0,0:0:0:0:
64,192,129874,1,0,0:0:0:0:
192,192,129874,1,0,0:0:0:0:
320,192,129874,1,0,0:0:0:0:
448,192,129874,1,0,0:0:0:0:
448,192,130078,1,0,0:0:0:0:
64,192,130078,1,0,0:0:0:0:
64,192,130281,1,0,0:0:0:0:
448,192,130281,1,0,0:0:0:0:
448,192,130484,1,0,0:0:0:0:
64,192,130484,1,0,0:0:0:0:
64,192,130688,1,0,0:0:0:0:
192,192,130688,1,0,0:0:0:0:
320,192,130688,1,0,0:0:0:0:
448,192,130688,1,0,0:0:0:0:
320,192,130891,1,0,0:0:0:0:
64,192,130891,1,0,0:0:0:0:
320,192,131094,1,0,0:0:0:0:
64,192,131094,1,0,0:0:0:0:
320,192,131298,1,0,0:0:0:0:
64,192,131298,1,0,0:0:0:0:
448,192,132720,1,0,0:0:0:0:
448,192,132923,1,0,0:0:0:0:
64,192,133127,1,0,0:0:0:0:
448,192,133127,1,0,0:0:0:0:
448,192,133533,1,0,0:0:0:0:
192,192,133533,1,0,0:0:0:0:
64,192,133533,1,0,0:0:0:0:
320,192,133533,1,0,0:0:0:0:
448,192,133635,1,0,0:0:0:0:
192,192,133635,1,0,0:0:0:0:
320,192,133737,1,0,0:0:0:0:
64,192,133737,1,0,0:0:0:0:
448,192,133737,1,0,0:0:0:0:
192,192,133838,1,0,0:0:0:0:
64,192,133838,1,0,0:0:0:0:
64,192,133939,1,0,0:0:0:0:
192,192,133939,1,0,0:0:0:0:
448,192,133939,1,0,0:0:0:0:
320,192,133939,1,0,0:0:0:0:
448,192,134041,1,0,0:0:0:0:
320,192,134041,1,0,0:0:0:0:
64,192,134142,1,0,0:0:0:0:
192,192,134142,1,0,0:0:0:0:
64,192,134244,1,0,0:0:0:0:
448,192,134244,1,0,0:0:0:0:
320,192,134244,1,0,0:0:0:0:
192,192,134244,1,0,0:0:0:0:
64,192,134346,1,0,0:0:0:0:
448,192,134346,1,0,0:0:0:0:
320,192,134346,1,0,0:0:0:0:
192,192,134448,1,0,0:0:0:0:
448,192,134448,1,0,0:0:0:0:
320,192,134549,1,0,0:0:0:0:
64,192,134549,1,0,0:0:0:0:
192,192,134549,1,0,0:0:0:0:
448,192,134549,1,0,0:0:0:0:
192,192,134651,1,0,0:0:0:0:
64,192,134651,1,0,0:0:0:0:
64,192,134752,1,0,0:0:0:0:
192,192,134752,1,0,0:0:0:0:
320,192,134752,1,0,0:0:0:0:
448,192,134752,1,0,0:0:0:0:
448,192,134854,1,0,0:0:0:0:
64,192,134854,1,0,0:0:0:0:
64,192,134956,1,0,0:0:0:0:
192,192,134956,1,0,0:0:0:0:
320,192,134956,1,0,0:0:0:0:
448,192,134956,1,0,0:0:0:0:
192,192,135058,1,0,0:0:0:0:
448,192,135058,1,0,0:0:0:0:
320,192,135159,1,0,0:0:0:0:
64,192,135159,1,0,0:0:0:0:
192,192,135159,1,0,0:0:0:0:
448,192,135159,1,0,0:0:0:0:
320,192,135261,1,0,0:0:0:0:
192,192,135261,1,0,0:0:0:0:
64,192,135362,1,0,0:0:0:0:
192,192,135362,1,0,0:0:0:0:
320,192,135362,1,0,0:0:0:0:
448,192,135362,1,0,0:0:0:0:
64,192,135464,1,0,0:0:0:0:
320,192,135464,1,0,0:0:0:0:
192,192,135566,1,0,0:0:0:0:
64,192,135566,1,0,0:0:0:0:
320,192,135566,1,0,0:0:0:0:
448,192,135566,1,0,0:0:0:0:
192,192,135668,1,0,0:0:0:0:
64,192,135668,1,0,0:0:0:0:
320,192,135769,1,0,0:0:0:0:
448,192,135769,1,0,0:0:0:0:
64,192,135769,1,0,0:0:0:0:
192,192,135871,1,0,0:0:0:0:
448,192,135871,1,0,0:0:0:0:
64,192,135972,1,0,0:0:0:0:
192,192,135972,1,0,0:0:0:0:
320,192,135972,1,0,0:0:0:0:
448,192,136073,1,0,0:0:0:0:
320,192,136073,1,0,0:0:0:0:
448,192,136175,1,0,0:0:0:0:
64,192,136175,1,0,0:0:0:0:
320,192,136175,1,0,0:0:0:0:
192,192,136175,1,0,0:0:0:0:
192,192,136277,1,0,0:0:0:0:
64,192,136277,1,0,0:0:0:0:
64,192,136378,1,0,0:0:0:0:
192,192,136378,1,0,0:0:0:0:
320,192,136378,1,0,0:0:0:0:
448,192,136378,1,0,0:0:0:0:
448,192,136480,1,0,0:0:0:0:
192,192,136480,1,0,0:0:0:0:
320,192,136582,1,0,0:0:0:0:
448,192,136582,1,0,0:0:0:0:
64,192,136582,1,0,0:0:0:0:
192,192,136683,1,0,0:0:0:0:
320,192,136683,1,0,0:0:0:0:
64,192,136785,1,0,0:0:0:0:
192,192,136785,1,0,0:0:0:0:
448,192,136785,1,0,0:0:0:0:
320,192,136785,1,0,0:0:0:0:
64,192,136887,1,0,0:0:0:0:
448,192,136887,1,0,0:0:0:0:
192,192,136988,1,0,0:0:0:0:
320,192,136988,1,0,0:0:0:0:
64,192,136988,1,0,0:0:0:0:
320,192,137090,1,0,0:0:0:0:
448,192,137090,1,0,0:0:0:0:
64,192,137192,1,0,0:0:0:0:
192,192,137192,1,0,0:0:0:0:
320,192,137192,1,0,0:0:0:0:
448,192,137192,1,0,0:0:0:0:
192,192,137293,1,0,0:0:0:0:
448,192,137293,1,0,0:0:0:0:
320,192,137395,1,0,0:0:0:0:
64,192,137395,1,0,0:0:0:0:
192,192,137497,1,0,0:0:0:0:
320,192,137497,1,0,0:0:0:0:
64,192,137497,1,0,0:0:0:0:
448,192,137497,1,0,0:0:0:0:
448,192,137598,1,0,0:0:0:0:
192,192,137598,1,0,0:0:0:0:
64,192,137598,1,0,0:0:0:0:
320,192,137700,1,0,0:0:0:0:
448,192,137700,1,0,0:0:0:0:
64,192,137802,1,0,0:0:0:0:
192,192,137802,1,0,0:0:0:0:
320,192,137802,1,0,0:0:0:0:
448,192,137802,1,0,0:0:0:0:
64,192,137903,1,0,0:0:0:0:
320,192,137903,1,0,0:0:0:0:
192,192,138005,1,0,0:0:0:0:
64,192,138005,1,0,0:0:0:0:
448,192,138005,1,0,0:0:0:0:
320,192,138005,1,0,0:0:0:0:
192,192,138106,1,0,0:0:0:0:
64,192,138106,1,0,0:0:0:0:
192,192,138208,1,0,0:0:0:0:
320,192,138208,1,0,0:0:0:0:
448,192,138208,1,0,0:0:0:0:
64,192,138208,1,0,0:0:0:0:
320,192,138309,1,0,0:0:0:0:
448,192,138309,1,0,0:0:0:0:
64,192,138411,1,0,0:0:0:0:
192,192,138411,1,0,0:0:0:0:
320,192,138411,1,0,0:0:0:0:
448,192,138411,1,0,0:0:0:0:
448,192,138512,1,0,0:0:0:0:
64,192,138512,1,0,0:0:0:0:
64,192,138614,1,0,0:0:0:0:
192,192,138614,1,0,0:0:0:0:
320,192,138614,1,0,0:0:0:0:
448,192,138614,1,0,0:0:0:0:
192,192,138716,1,0,0:0:0:0:
320,192,138716,1,0,0:0:0:0:
64,192,138818,1,0,0:0:0:0:
192,192,138818,1,0,0:0:0:0:
320,192,138818,1,0,0:0:0:0:
448,192,138818,1,0,0:0:0:0:
64,192,138919,1,0,0:0:0:0:
320,192,138919,1,0,0:0:0:0:
64,192,139021,1,0,0:0:0:0:
448,192,139021,1,0,0:0:0:0:
192,192,139021,1,0,0:0:0:0:
320,192,139021,1,0,0:0:0:0:
64,192,139122,1,0,0:0:0:0:
192,192,139122,1,0,0:0:0:0:
448,192,139122,1,0,0:0:0:0:
64,192,139224,1,0,0:0:0:0:
192,192,139224,1,0,0:0:0:0:
320,192,139224,1,0,0:0:0:0:
448,192,139224,1,0,0:0:0:0:
320,192,139326,1,0,0:0:0:0:
192,192,139326,1,0,0:0:0:0:
64,192,139428,1,0,0:0:0:0:
192,192,139428,1,0,0:0:0:0:
320,192,139428,1,0,0:0:0:0:
448,192,139428,1,0,0:0:0:0:
64,192,139529,1,0,0:0:0:0:
448,192,139529,1,0,0:0:0:0:
448,192,139631,1,0,0:0:0:0:
320,192,139631,1,0,0:0:0:0:
192,192,139631,1,0,0:0:0:0:
64,192,139631,1,0,0:0:0:0:
192,192,139732,1,0,0:0:0:0:
448,192,139732,1,0,0:0:0:0:
320,192,139834,1,0,0:0:0:0:
192,192,139834,1,0,0:0:0:0:
64,192,139834,1,0,0:0:0:0:
320,192,139936,1,0,0:0:0:0:
448,192,139936,1,0,0:0:0:0:
64,192,140038,1,0,0:0:0:0:
320,192,140038,1,0,0:0:0:0:
192,192,140038,1,0,0:0:0:0:
448,192,140038,1,0,0:0:0:0:
192,192,140139,1,0,0:0:0:0:
64,192,140139,1,0,0:0:0:0:
320,192,140240,1,0,0:0:0:0:
448,192,140240,1,0,0:0:0:0:
64,192,140240,1,0,0:0:0:0:
192,192,140342,1,0,0:0:0:0:
448,192,140342,1,0,0:0:0:0:
320,192,140443,1,0,0:0:0:0:
448,192,140443,1,0,0:0:0:0:
192,192,140443,1,0,0:0:0:0:
64,192,140443,1,0,0:0:0:0:
64,192,140545,1,0,0:0:0:0:
320,192,140545,1,0,0:0:0:0:
192,192,140647,1,0,0:0:0:0:
64,192,140647,1,0,0:0:0:0:
320,192,140748,1,0,0:0:0:0:
448,192,140748,1,0,0:0:0:0:
192,192,140748,1,0,0:0:0:0:
64,192,140748,1,0,0:0:0:0:
192,192,140850,1,0,0:0:0:0:
320,192,140850,1,0,0:0:0:0:
448,192,140850,1,0,0:0:0:0:
64,192,140952,1,0,0:0:0:0:
448,192,140952,1,0,0:0:0:0:
192,192,141053,1,0,0:0:0:0:
64,192,141053,1,0,0:0:0:0:
320,192,141053,1,0,0:0:0:0:
448,192,141053,1,0,0:0:0:0:
320,192,141155,1,0,0:0:0:0:
64,192,141155,1,0,0:0:0:0:
192,192,141257,1,0,0:0:0:0:
320,192,141257,1,0,0:0:0:0:
448,192,141257,1,0,0:0:0:0:
64,192,141257,1,0,0:0:0:0:
320,192,141358,1,0,0:0:0:0:
448,192,141358,1,0,0:0:0:0:
64,192,141460,1,0,0:0:0:0:
192,192,141460,1,0,0:0:0:0:
320,192,141460,1,0,0:0:0:0:
448,192,141460,1,0,0:0:0:0:
64,192,141562,1,0,0:0:0:0:
448,192,141562,1,0,0:0:0:0:
320,192,141663,1,0,0:0:0:0:
192,192,141663,1,0,0:0:0:0:
64,192,141663,1,0,0:0:0:0:
448,192,141663,1,0,0:0:0:0:
320,192,141765,1,0,0:0:0:0:
64,192,141765,1,0,0:0:0:0:
192,192,141867,1,0,0:0:0:0:
64,192,141867,1,0,0:0:0:0:
320,192,141867,1,0,0:0:0:0:
448,192,141867,1,0,0:0:0:0:
320,192,141968,1,0,0:0:0:0:
192,192,141968,1,0,0:0:0:0:
64,192,142070,1,0,0:0:0:0:
192,192,142070,1,0,0:0:0:0:
320,192,142070,1,0,0:0:0:0:
448,192,142070,1,0,0:0:0:0:
64,192,142172,1,0,0:0:0:0:
448,192,142172,1,0,0:0:0:0:
320,192,142272,1,0,0:0:0:0:
192,192,142272,1,0,0:0:0:0:
64,192,142272,1,0,0:0:0:0:
448,192,142374,1,0,0:0:0:0:
192,192,142374,1,0,0:0:0:0:
64,192,142476,1,0,0:0:0:0:
192,192,142476,1,0,0:0:0:0:
320,192,142476,1,0,0:0:0:0:
448,192,142476,1,0,0:0:0:0:
320,192,142578,1,0,0:0:0:0:
448,192,142578,1,0,0:0:0:0:
320,192,142679,1,0,0:0:0:0:
192,192,142679,1,0,0:0:0:0:
64,192,142679,1,0,0:0:0:0:
448,192,142679,1,0,0:0:0:0:
64,192,142781,1,0,0:0:0:0:
192,192,142781,1,0,0:0:0:0:
448,192,142882,1,0,0:0:0:0:
320,192,142882,1,0,0:0:0:0:
192,192,142882,1,0,0:0:0:0:
64,192,142882,1,0,0:0:0:0:
192,192,142984,1,0,0:0:0:0:
448,192,142984,1,0,0:0:0:0:
64,192,143086,1,0,0:0:0:0:
192,192,143086,1,0,0:0:0:0:
320,192,143086,1,0,0:0:0:0:
448,192,143188,1,0,0:0:0:0:
64,192,143188,1,0,0:0:0:0:
192,192,143289,1,0,0:0:0:0:
64,192,143289,1,0,0:0:0:0:
320,192,143289,1,0,0:0:0:0:
448,192,143289,1,0,0:0:0:0:
320,192,143391,1,0,0:0:0:0:
448,192,143391,1,0,0:0:0:0:
192,192,143492,1,0,0:0:0:0:
64,192,143492,1,0,0:0:0:0:
448,192,143492,1,0,0:0:0:0:
320,192,143492,1,0,0:0:0:0:
192,192,143594,1,0,0:0:0:0:
64,192,143594,1,0,0:0:0:0:
64,192,143696,1,0,0:0:0:0:
192,192,143696,1,0,0:0:0:0:
320,192,143696,1,0,0:0:0:0:
448,192,143696,1,0,0:0:0:0:
448,192,143798,1,0,0:0:0:0:
320,192,143798,1,0,0:0:0:0:
192,192,143899,1,0,0:0:0:0:
64,192,143899,1,0,0:0:0:0:
448,192,143899,1,0,0:0:0:0:
320,192,144001,1,0,0:0:0:0:
64,192,144001,1,0,0:0:0:0:
192,192,144102,1,0,0:0:0:0:
320,192,144102,1,0,0:0:0:0:
448,192,144102,1,0,0:0:0:0:
64,192,144102,1,0,0:0:0:0:
448,192,144204,1,0,0:0:0:0:
320,192,144204,1,0,0:0:0:0:
192,192,144306,1,0,0:0:0:0:
64,192,144306,1,0,0:0:0:0:
320,192,144306,1,0,0:0:0:0:
448,192,144306,1,0,0:0:0:0:
64,192,144407,1,0,0:0:0:0:
448,192,144407,1,0,0:0:0:0:
448,192,144508,1,0,0:0:0:0:
320,192,144508,1,0,0:0:0:0:
192,192,144508,1,0,0:0:0:0:
64,192,144508,1,0,0:0:0:0:
64,192,144610,1,0,0:0:0:0:
192,192,144610,1,0,0:0:0:0:
64,192,144712,1,0,0:0:0:0:
192,192,144712,1,0,0:0:0:0:
448,192,144712,1,0,0:0:0:0:
320,192,144712,1,0,0:0:0:0:
448,192,144813,1,0,0:0:0:0:
192,192,144813,1,0,0:0:0:0:
64,192,144915,1,0,0:0:0:0:
192,192,144915,1,0,0:0:0:0:
320,192,144915,1,0,0:0:0:0:
448,192,144915,1,0,0:0:0:0:
320,192,145017,1,0,0:0:0:0:
448,192,145017,1,0,0:0:0:0:
64,192,145118,1,0,0:0:0:0:
192,192,145118,1,0,0:0:0:0:
448,192,145118,1,0,0:0:0:0:
320,192,145118,1,0,0:0:0:0:
192,192,145220,1,0,0:0:0:0:
64,192,145220,1,0,0:0:0:0:
64,192,145322,1,0,0:0:0:0:
192,192,145322,1,0,0:0:0:0:
448,192,145322,1,0,0:0:0:0:
320,192,145322,1,0,0:0:0:0:
448,192,145728,1,0,0:0:0:0:
64,192,145728,1,0,0:0:0:0:
448,192,146135,1,0,0:0:0:0:
64,192,146135,1,0,0:0:0:0:
192,192,146338,1,0,0:0:0:0:
320,192,146541,1,0,0:0:0:0:
448,192,146744,1,0,0:0:0:0:
192,192,146948,5,0,0:0:0:0:
64,192,147761,5,0,0:0:0:0:
192,192,147761,1,0,0:0:0:0:
320,192,147761,1,0,0:0:0:0:
448,192,147761,1,0,0:0:0:0:
64,192,147862,1,0,0:0:0:0:
448,192,147862,1,0,0:0:0:0:
320,192,147964,1,0,0:0:0:0:
192,192,147964,1,0,0:0:0:0:
64,192,147964,1,0,0:0:0:0:
448,192,147964,1,0,0:0:0:0:
320,192,148066,1,0,0:0:0:0:
64,192,148066,1,0,0:0:0:0:
192,192,148168,1,0,0:0:0:0:
320,192,148168,1,0,0:0:0:0:
448,192,148168,1,0,0:0:0:0:
64,192,148168,1,0,0:0:0:0:
64,192,148269,1,0,0:0:0:0:
192,192,148269,1,0,0:0:0:0:
448,192,148371,1,0,0:0:0:0:
320,192,148371,1,0,0:0:0:0:
192,192,148371,1,0,0:0:0:0:
64,192,148371,1,0,0:0:0:0:
448,192,148472,1,0,0:0:0:0:
64,192,148472,1,0,0:0:0:0:
448,192,148573,1,0,0:0:0:0:
320,192,148573,1,0,0:0:0:0:
192,192,148573,1,0,0:0:0:0:
64,192,148573,1,0,0:0:0:0:
192,192,148675,1,0,0:0:0:0:
448,192,148675,1,0,0:0:0:0:
192,192,148777,1,0,0:0:0:0:
64,192,148777,1,0,0:0:0:0:
320,192,148777,1,0,0:0:0:0:
448,192,148777,1,0,0:0:0:0:
320,192,148878,1,0,0:0:0:0:
448,192,148878,1,0,0:0:0:0:
64,192,148980,1,0,0:0:0:0:
320,192,148980,1,0,0:0:0:0:
192,192,148980,1,0,0:0:0:0:
448,192,148980,1,0,0:0:0:0:
64,192,149082,1,0,0:0:0:0:
448,192,149082,1,0,0:0:0:0:
320,192,149183,1,0,0:0:0:0:
192,192,149183,1,0,0:0:0:0:
64,192,149183,1,0,0:0:0:0:
448,192,149183,1,0,0:0:0:0:
320,192,149285,1,0,0:0:0:0:
64,192,149285,1,0,0:0:0:0:
192,192,149387,1,0,0:0:0:0:
320,192,149387,1,0,0:0:0:0:
448,192,149387,1,0,0:0:0:0:
64,192,149387,1,0,0:0:0:0:
64,192,149488,1,0,0:0:0:0:
192,192,149488,1,0,0:0:0:0:
448,192,149590,1,0,0:0:0:0:
320,192,149590,1,0,0:0:0:0:
192,192,149590,1,0,0:0:0:0:
64,192,149590,1,0,0:0:0:0:
448,192,149692,1,0,0:0:0:0:
64,192,149692,1,0,0:0:0:0:
448,192,149793,1,0,0:0:0:0:
320,192,149793,1,0,0:0:0:0:
192,192,149793,1,0,0:0:0:0:
64,192,149793,1,0,0:0:0:0:
192,192,149895,1,0,0:0:0:0:
448,192,149895,1,0,0:0:0:0:
192,192,149997,1,0,0:0:0:0:
64,192,149997,1,0,0:0:0:0:
320,192,149997,1,0,0:0:0:0:
448,192,149997,1,0,0:0:0:0:
320,192,150098,1,0,0:0:0:0:
448,192,150098,1,0,0:0:0:0:
448,192,150200,1,0,0:0:0:0:
320,192,150200,1,0,0:0:0:0:
192,192,150200,1,0,0:0:0:0:
64,192,150200,1,0,0:0:0:0:
64,192,150302,1,0,0:0:0:0:
64,192,150403,1,0,0:0:0:0:
192,192,150403,1,0,0:0:0:0:
320,192,150403,1,0,0:0:0:0:
448,192,150403,1,0,0:0:0:0:
192,192,150505,1,0,0:0:0:0:
64,192,150606,1,0,0:0:0:0:
192,192,150606,1,0,0:0:0:0:
320,192,150606,1,0,0:0:0:0:
448,192,150606,1,0,0:0:0:0:
320,192,150708,1,0,0:0:0:0:
64,192,150809,1,0,0:0:0:0:
192,192,150809,1,0,0:0:0:0:
320,192,150809,1,0,0:0:0:0:
448,192,150809,1,0,0:0:0:0:
448,192,150911,1,0,0:0:0:0:
64,192,151012,1,0,0:0:0:0:
192,192,151012,1,0,0:0:0:0:
320,192,151012,1,0,0:0:0:0:
448,192,151012,1,0,0:0:0:0:
192,192,151114,1,0,0:0:0:0:
64,192,151114,1,0,0:0:0:0:
64,192,151216,1,0,0:0:0:0:
192,192,151216,1,0,0:0:0:0:
448,192,151216,1,0,0:0:0:0:
320,192,151216,1,0,0:0:0:0:
320,192,151318,1,0,0:0:0:0:
192,192,151318,1,0,0:0:0:0:
64,192,151419,1,0,0:0:0:0:
192,192,151419,1,0,0:0:0:0:
320,192,151419,1,0,0:0:0:0:
448,192,151419,1,0,0:0:0:0:
320,192,151521,1,0,0:0:0:0:
448,192,151521,1,0,0:0:0:0:
448,192,151622,1,0,0:0:0:0:
320,192,151622,1,0,0:0:0:0:
192,192,151622,1,0,0:0:0:0:
64,192,151622,1,0,0:0:0:0:
320,192,151724,1,0,0:0:0:0:
448,192,151724,1,0,0:0:0:0:
64,192,151826,1,0,0:0:0:0:
192,192,151826,1,0,0:0:0:0:
320,192,151826,1,0,0:0:0:0:
448,192,151826,1,0,0:0:0:0:
192,192,151928,1,0,0:0:0:0:
320,192,151928,1,0,0:0:0:0:
64,192,152029,1,0,0:0:0:0:
192,192,152029,1,0,0:0:0:0:
320,192,152029,1,0,0:0:0:0:
448,192,152029,1,0,0:0:0:0:
192,192,152131,1,0,0:0:0:0:
64,192,152131,1,0,0:0:0:0:
64,192,152232,1,0,0:0:0:0:
192,192,152232,1,0,0:0:0:0:
320,192,152232,1,0,0:0:0:0:
448,192,152232,1,0,0:0:0:0:
64,192,152334,1,0,0:0:0:0:
192,192,152334,1,0,0:0:0:0:
64,192,152436,1,0,0:0:0:0:
192,192,152436,1,0,0:0:0:0:
320,192,152436,1,0,0:0:0:0:
448,192,152436,1,0,0:0:0:0:
192,192,152538,1,0,0:0:0:0:
320,192,152538,1,0,0:0:0:0:
64,192,152639,1,0,0:0:0:0:
192,192,152639,1,0,0:0:0:0:
320,192,152639,1,0,0:0:0:0:
448,192,152639,1,0,0:0:0:0:
320,192,152740,1,0,0:0:0:0:
448,192,152740,1,0,0:0:0:0:
64,192,152842,1,0,0:0:0:0:
192,192,152842,1,0,0:0:0:0:
320,192,152842,1,0,0:0:0:0:
448,192,152842,1,0,0:0:0:0:
320,192,152943,1,0,0:0:0:0:
448,192,152943,1,0,0:0:0:0:
64,192,153045,1,0,0:0:0:0:
320,192,153045,1,0,0:0:0:0:
192,192,153045,1,0,0:0:0:0:
448,192,153045,1,0,0:0:0:0:
192,192,153147,1,0,0:0:0:0:
320,192,153147,1,0,0:0:0:0:
320,192,153248,1,0,0:0:0:0:
448,192,153248,1,0,0:0:0:0:
64,192,153248,1,0,0:0:0:0:
192,192,153248,1,0,0:0:0:0:
192,192,153350,1,0,0:0:0:0:
64,192,153350,1,0,0:0:0:0:
64,192,153452,1,0,0:0:0:0:
192,192,153452,1,0,0:0:0:0:
320,192,153452,1,0,0:0:0:0:
448,192,153452,1,0,0:0:0:0:
64,192,153553,1,0,0:0:0:0:
448,192,153553,1,0,0:0:0:0:
320,192,153553,1,0,0:0:0:0:
320,192,153655,1,0,0:0:0:0:
64,192,153655,1,0,0:0:0:0:
192,192,153655,1,0,0:0:0:0:
448,192,153655,1,0,0:0:0:0:
192,192,153757,1,0,0:0:0:0:
320,192,153757,1,0,0:0:0:0:
64,192,153858,1,0,0:0:0:0:
192,192,153858,1,0,0:0:0:0:
448,192,153858,1,0,0:0:0:0:
320,192,153858,1,0,0:0:0:0:
64,192,153960,1,0,0:0:0:0:
192,192,154062,1,0,0:0:0:0:
64,192,154062,1,0,0:0:0:0:
448,192,154062,1,0,0:0:0:0:
320,192,154062,1,0,0:0:0:0:
448,192,154163,1,0,0:0:0:0:
320,192,154265,1,0,0:0:0:0:
448,192,154265,1,0,0:0:0:0:
192,192,154265,1,0,0:0:0:0:
64,192,154265,1,0,0:0:0:0:
320,192,154367,1,0,0:0:0:0:
192,192,154367,1,0,0:0:0:0:
64,192,154468,1,0,0:0:0:0:
192,192,154468,1,0,0:0:0:0:
320,192,154468,1,0,0:0:0:0:
448,192,154468,1,0,0:0:0:0:
64,192,154570,1,0,0:0:0:0:
448,192,154570,1,0,0:0:0:0:
64,192,154672,1,0,0:0:0:0:
192,192,154672,1,0,0:0:0:0:
320,192,154672,1,0,0:0:0:0:
448,192,154672,1,0,0:0:0:0:
192,192,154772,1,0,0:0:0:0:
320,192,154772,1,0,0:0:0:0:
64,192,154874,1,0,0:0:0:0:
192,192,154874,1,0,0:0:0:0:
320,192,154874,1,0,0:0:0:0:
448,192,154874,1,0,0:0:0:0:
64,192,154976,1,0,0:0:0:0:
320,192,154976,1,0,0:0:0:0:
192,192,155078,1,0,0:0:0:0:
64,192,155078,1,0,0:0:0:0:
320,192,155078,1,0,0:0:0:0:
448,192,155078,1,0,0:0:0:0:
192,192,155179,1,0,0:0:0:0:
448,192,155179,1,0,0:0:0:0:
320,192,155281,1,0,0:0:0:0:
448,192,155281,1,0,0:0:0:0:
192,192,155281,1,0,0:0:0:0:
64,192,155281,1,0,0:0:0:0:
320,192,155382,1,0,0:0:0:0:
64,192,155382,1,0,0:0:0:0:
64,192,155484,1,0,0:0:0:0:
192,192,155484,1,0,0:0:0:0:
320,192,155484,1,0,0:0:0:0:
448,192,155484,1,0,0:0:0:0:
320,192,155586,1,0,0:0:0:0:
448,192,155586,1,0,0:0:0:0:
192,192,155688,1,0,0:0:0:0:
64,192,155688,1,0,0:0:0:0:
320,192,155688,1,0,0:0:0:0:
448,192,155688,1,0,0:0:0:0:
192,192,155789,1,0,0:0:0:0:
64,192,155789,1,0,0:0:0:0:
64,192,155891,1,0,0:0:0:0:
192,192,155891,1,0,0:0:0:0:
448,192,155891,1,0,0:0:0:0:
320,192,155891,1,0,0:0:0:0:
320,192,155992,1,0,0:0:0:0:
448,192,155992,1,0,0:0:0:0:
64,192,156094,1,0,0:0:0:0:
192,192,156094,1,0,0:0:0:0:
320,192,156094,1,0,0:0:0:0:
448,192,156094,1,0,0:0:0:0:
64,192,156196,1,0,0:0:0:0:
448,192,156196,1,0,0:0:0:0:
320,192,156298,1,0,0:0:0:0:
448,192,156298,1,0,0:0:0:0:
192,192,156298,1,0,0:0:0:0:
64,192,156298,1,0,0:0:0:0:
192,192,156399,1,0,0:0:0:0:
320,192,156399,1,0,0:0:0:0:
64,192,156501,1,0,0:0:0:0:
192,192,156501,1,0,0:0:0:0:
320,192,156501,1,0,0:0:0:0:
448,192,156501,1,0,0:0:0:0:
64,192,156602,1,0,0:0:0:0:
448,192,156602,1,0,0:0:0:0:
64,192,156704,1,0,0:0:0:0:
192,192,156704,1,0,0:0:0:0:
320,192,156704,1,0,0:0:0:0:
448,192,156704,1,0,0:0:0:0:
192,192,156806,1,0,0:0:0:0:
320,192,156907,1,0,0:0:0:0:
64,192,156907,1,0,0:0:0:0:
192,192,156907,1,0,0:0:0:0:
448,192,156907,1,0,0:0:0:0:
448,192,157008,1,0,0:0:0:0:
64,192,157110,1,0,0:0:0:0:
320,192,157110,1,0,0:0:0:0:
448,192,157110,1,0,0:0:0:0:
192,192,157110,1,0,0:0:0:0:
192,192,157212,1,0,0:0:0:0:
64,192,157313,1,0,0:0:0:0:
192,192,157313,1,0,0:0:0:0:
320,192,157313,1,0,0:0:0:0:
448,192,157313,1,0,0:0:0:0:
448,192,157415,1,0,0:0:0:0:
448,192,157517,1,0,0:0:0:0:
320,192,157517,1,0,0:0:0:0:
192,192,157517,1,0,0:0:0:0:
64,192,157517,1,0,0:0:0:0:
64,192,157618,1,0,0:0:0:0:
448,192,157618,1,0,0:0:0:0:
320,192,157720,1,0,0:0:0:0:
192,192,157720,1,0,0:0:0:0:
64,192,157720,1,0,0:0:0:0:
448,192,157720,1,0,0:0:0:0:
320,192,157822,1,0,0:0:0:0:
64,192,157822,1,0,0:0:0:0:
192,192,157923,1,0,0:0:0:0:
320,192,157923,1,0,0:0:0:0:
448,192,157923,1,0,0:0:0:0:
64,192,157923,1,0,0:0:0:0:
64,192,158025,1,0,0:0:0:0:
192,192,158025,1,0,0:0:0:0:
448,192,158127,1,0,0:0:0:0:
320,192,158127,1,0,0:0:0:0:
192,192,158127,1,0,0:0:0:0:
64,192,158127,1,0,0:0:0:0:
448,192,158228,1,0,0:0:0:0:
64,192,158228,1,0,0:0:0:0:
448,192,158330,1,0,0:0:0:0:
320,192,158330,1,0,0:0:0:0:
192,192,158330,1,0,0:0:0:0:
64,192,158330,1,0,0:0:0:0:
192,192,158432,1,0,0:0:0:0:
448,192,158432,1,0,0:0:0:0:
192,192,158533,1,0,0:0:0:0:
64,192,158533,1,0,0:0:0:0:
320,192,158533,1,0,0:0:0:0:
448,192,158533,1,0,0:0:0:0:
320,192,158635,1,0,0:0:0:0:
448,192,158635,1,0,0:0:0:0:
64,192,158737,1,0,0:0:0:0:
320,192,158737,1,0,0:0:0:0:
192,192,158737,1,0,0:0:0:0:
448,192,158737,1,0,0:0:0:0:
64,192,158838,1,0,0:0:0:0:
448,192,158838,1,0,0:0:0:0:
320,192,158939,1,0,0:0:0:0:
192,192,158939,1,0,0:0:0:0:
64,192,158939,1,0,0:0:0:0:
448,192,158939,1,0,0:0:0:0:
320,192,159041,1,0,0:0:0:0:
64,192,159041,1,0,0:0:0:0:
192,192,159142,1,0,0:0:0:0:
320,192,159142,1,0,0:0:0:0:
448,192,159142,1,0,0:0:0:0:
64,192,159142,1,0,0:0:0:0:
64,192,159244,1,0,0:0:0:0:
192,192,159244,1,0,0:0:0:0:
448,192,159346,1,0,0:0:0:0:
320,192,159346,1,0,0:0:0:0:
192,192,159346,1,0,0:0:0:0:
64,192,159346,1,0,0:0:0:0:
448,192,159549,1,0,0:0:0:0:
320,192,159549,1,0,0:0:0:0:
192,192,159549,1,0,0:0:0:0:
64,192,159549,1,0,0:0:0:0:
320,192,159651,1,0,0:0:0:0:
448,192,159651,1,0,0:0:0:0:
192,192,159752,1,0,0:0:0:0:
64,192,159752,1,0,0:0:0:0:
320,192,159752,1,0,0:0:0:0:
448,192,159752,1,0,0:0:0:0:
192,192,159854,1,0,0:0:0:0:
64,192,159854,1,0,0:0:0:0:
448,192,159956,1,0,0:0:0:0:
320,192,159956,1,0,0:0:0:0:
192,192,159956,1,0,0:0:0:0:
64,192,159956,1,0,0:0:0:0:
320,192,160159,1,0,0:0:0:0:
192,192,160159,1,0,0:0:0:0:
320,192,160261,1,0,0:0:0:0:
192,192,160261,1,0,0:0:0:0:
64,192,160362,1,0,0:0:0:0:
192,192,160362,1,0,0:0:0:0:
448,192,160362,1,0,0:0:0:0:
320,192,160464,1,0,0:0:0:0:
64,192,160464,1,0,0:0:0:0:
448,192,160464,1,0,0:0:0:0:
64,192,160566,1,0,0:0:0:0:
192,192,160566,1,0,0:0:0:0:
320,192,160566,1,0,0:0:0:0:
448,192,160566,1,0,0:0:0:0:
64,192,160769,1,0,0:0:0:0:
192,192,160769,1,0,0:0:0:0:
320,192,160769,1,0,0:0:0:0:
448,192,160769,1,0,0:0:0:0:
64,192,160871,1,0,0:0:0:0:
320,192,160871,1,0,0:0:0:0:
320,192,160972,1,0,0:0:0:0:
448,192,160972,1,0,0:0:0:0:
192,192,160972,1,0,0:0:0:0:
64,192,160972,1,0,0:0:0:0:
192,192,161073,1,0,0:0:0:0:
448,192,161073,1,0,0:0:0:0:
64,192,161175,1,0,0:0:0:0:
192,192,161175,1,0,0:0:0:0:
320,192,161175,1,0,0:0:0:0:
448,192,161175,1,0,0:0:0:0:
64,192,161277,1,0,0:0:0:0:
320,192,161277,1,0,0:0:0:0:
64,192,161378,1,0,0:0:0:0:
192,192,161378,1,0,0:0:0:0:
320,192,161378,1,0,0:0:0:0:
448,192,161378,1,0,0:0:0:0:
64,192,161480,1,0,0:0:0:0:
448,192,161480,1,0,0:0:0:0:
448,192,161582,1,0,0:0:0:0:
320,192,161582,1,0,0:0:0:0:
192,192,161582,1,0,0:0:0:0:
64,192,161582,1,0,0:0:0:0:
192,192,161683,1,0,0:0:0:0:
320,192,161683,1,0,0:0:0:0:
64,192,161785,1,0,0:0:0:0:
192,192,161785,1,0,0:0:0:0:
320,192,161785,1,0,0:0:0:0:
448,192,161785,1,0,0:0:0:0:
64,192,161887,1,0,0:0:0:0:
448,192,161887,1,0,0:0:0:0:
448,192,161988,1,0,0:0:0:0:
320,192,161988,1,0,0:0:0:0:
192,192,161988,1,0,0:0:0:0:
64,192,161988,1,0,0:0:0:0:
192,192,162090,1,0,0:0:0:0:
448,192,162090,1,0,0:0:0:0:
320,192,162192,1,0,0:0:0:0:
448,192,162192,1,0,0:0:0:0:
192,192,162192,1,0,0:0:0:0:
64,192,162192,1,0,0:0:0:0:
64,192,162293,1,0,0:0:0:0:
320,192,162293,1,0,0:0:0:0:
192,192,162395,1,0,0:0:0:0:
64,192,162395,1,0,0:0:0:0:
320,192,162395,1,0,0:0:0:0:
448,192,162395,1,0,0:0:0:0:
192,192,162497,1,0,0:0:0:0:
448,192,162497,1,0,0:0:0:0:
448,192,162598,1,0,0:0:0:0:
320,192,162598,1,0,0:0:0:0:
192,192,162598,1,0,0:0:0:0:
64,192,162598,1,0,0:0:0:0:
320,192,162700,1,0,0:0:0:0:
448,192,162700,1,0,0:0:0:0:
192,192,162802,1,0,0:0:0:0:
64,192,162802,1,0,0:0:0:0:
320,192,162802,1,0,0:0:0:0:
448,192,162802,1,0,0:0:0:0:
192,192,162903,1,0,0:0:0:0:
64,192,162903,1,0,0:0:0:0:
64,192,163005,1,0,0:0:0:0:
320,192,163005,1,0,0:0:0:0:
448,192,163005,1,0,0:0:0:0:
192,192,163005,1,0,0:0:0:0:
320,192,163106,1,0,0:0:0:0:
448,192,163106,1,0,0:0:0:0:
64,192,163208,1,0,0:0:0:0:
192,192,163208,1,0,0:0:0:0:
320,192,163208,1,0,0:0:0:0:
448,192,163208,1,0,0:0:0:0:
192,192,163309,1,0,0:0:0:0:
64,192,163411,1,0,0:0:0:0:
192,192,163411,1,0,0:0:0:0:
320,192,163411,1,0,0:0:0:0:
448,192,163411,1,0,0:0:0:0:
320,192,163512,1,0,0:0:0:0:
64,192,163614,1,0,0:0:0:0:
192,192,163614,1,0,0:0:0:0:
320,192,163614,1,0,0:0:0:0:
448,192,163614,1,0,0:0:0:0:
64,192,163716,1,0,0:0:0:0:
64,192,163818,1,0,0:0:0:0:
192,192,163818,1,0,0:0:0:0:
320,192,163818,1,0,0:0:0:0:
448,192,163818,1,0,0:0:0:0:
448,192,163919,1,0,0:0:0:0:
64,192,164021,1,0,0:0:0:0:
320,192,164021,1,0,0:0:0:0:
448,192,164021,1,0,0:0:0:0:
192,192,164021,1,0,0:0:0:0:
192,192,164122,1,0,0:0:0:0:
64,192,164122,1,0,0:0:0:0:
192,192,164224,1,0,0:0:0:0:
64,192,164224,1,0,0:0:0:0:
320,192,164224,1,0,0:0:0:0:
448,192,164224,1,0,0:0:0:0:
448,192,164326,1,0,0:0:0:0:
192,192,164326,1,0,0:0:0:0:
320,192,164428,1,0,0:0:0:0:
448,192,164428,1,0,0:0:0:0:
64,192,164428,1,0,0:0:0:0:
192,192,164428,1,0,0:0:0:0:
320,192,164529,1,0,0:0:0:0:
64,192,164529,1,0,0:0:0:0:
64,192,164631,1,0,0:0:0:0:
192,192,164631,1,0,0:0:0:0:
320,192,164631,1,0,0:0:0:0:
448,192,164631,1,0,0:0:0:0:
448,192,164732,1,0,0:0:0:0:
320,192,164732,1,0,0:0:0:0:
64,192,164834,1,0,0:0:0:0:
192,192,164834,1,0,0:0:0:0:
448,192,164834,1,0,0:0:0:0:
320,192,164834,1,0,0:0:0:0:
64,192,164936,1,0,0:0:0:0:
320,192,164936,1,0,0:0:0:0:
320,192,165038,1,0,0:0:0:0:
448,192,165038,1,0,0:0:0:0:
192,192,165038,1,0,0:0:0:0:
64,192,165038,1,0,0:0:0:0:
192,192,165139,1,0,0:0:0:0:
448,192,165139,1,0,0:0:0:0:
64,192,165240,1,0,0:0:0:0:
192,192,165240,1,0,0:0:0:0:
320,192,165240,1,0,0:0:0:0:
448,192,165240,1,0,0:0:0:0:
192,192,165342,1,0,0:0:0:0:
64,192,165342,1,0,0:0:0:0:
192,192,165443,1,0,0:0:0:0:
64,192,165443,1,0,0:0:0:0:
320,192,165443,1,0,0:0:0:0:
448,192,165443,1,0,0:0:0:0:
448,192,165545,1,0,0:0:0:0:
192,192,165545,1,0,0:0:0:0:
320,192,165647,1,0,0:0:0:0:
448,192,165647,1,0,0:0:0:0:
64,192,165647,1,0,0:0:0:0:
192,192,165647,1,0,0:0:0:0:
320,192,165748,1,0,0:0:0:0:
64,192,165748,1,0,0:0:0:0:
64,192,165850,1,0,0:0:0:0:
192,192,165850,1,0,0:0:0:0:
320,192,165850,1,0,0:0:0:0:
448,192,165850,1,0,0:0:0:0:
448,192,165952,1,0,0:0:0:0:
320,192,165952,1,0,0:0:0:0:
64,192,166053,1,0,0:0:0:0:
192,192,166053,1,0,0:0:0:0:
448,192,166053,1,0,0:0:0:0:
320,192,166053,1,0,0:0:0:0:
64,192,166155,1,0,0:0:0:0:
320,192,166155,1,0,0:0:0:0:
320,192,166257,1,0,0:0:0:0:
448,192,166257,1,0,0:0:0:0:
192,192,166257,1,0,0:0:0:0:
64,192,166257,1,0,0:0:0:0:
192,192,166358,1,0,0:0:0:0:
448,192,166358,1,0,0:0:0:0:
320,192,166460,1,0,0:0:0:0:
448,192,166460,1,0,0:0:0:0:
192,192,166460,1,0,0:0:0:0:
64,192,166460,1,0,0:0:0:0:
64,192,166562,1,0,0:0:0:0:
320,192,166562,1,0,0:0:0:0:
448,192,166562,1,0,0:0:0:0:
192,192,166663,1,0,0:0:0:0:
64,192,166663,1,0,0:0:0:0:
320,192,166663,1,0,0:0:0:0:
448,192,166663,1,0,0:0:0:0:
192,192,166765,1,0,0:0:0:0:
64,192,166765,1,0,0:0:0:0:
64,192,166867,1,0,0:0:0:0:
192,192,166867,1,0,0:0:0:0:
320,192,166867,1,0,0:0:0:0:
448,192,166867,1,0,0:0:0:0:
448,192,166968,1,0,0:0:0:0:
192,192,167070,1,0,0:0:0:0:
64,192,167070,1,0,0:0:0:0:
320,192,167070,1,0,0:0:0:0:
448,192,167070,1,0,0:0:0:0:
192,192,167172,1,0,0:0:0:0:
64,192,167272,1,0,0:0:0:0:
192,192,167272,1,0,0:0:0:0:
448,192,167272,1,0,0:0:0:0:
320,192,167272,1,0,0:0:0:0:
64,192,167374,1,0,0:0:0:0:
320,192,167374,1,0,0:0:0:0:
192,192,167476,1,0,0:0:0:0:
320,192,167476,1,0,0:0:0:0:
448,192,167476,1,0,0:0:0:0:
64,192,167476,1,0,0:0:0:0:
192,192,167578,1,0,0:0:0:0:
448,192,167578,1,0,0:0:0:0:
64,192,167679,1,0,0:0:0:0:
192,192,167679,1,0,0:0:0:0:
320,192,167679,1,0,0:0:0:0:
448,192,167679,1,0,0:0:0:0:
320,192,167781,1,0,0:0:0:0:
448,192,167781,1,0,0:0:0:0:
192,192,167882,1,0,0:0:0:0:
64,192,167882,1,0,0:0:0:0:
320,192,167882,1,0,0:0:0:0:
448,192,167882,1,0,0:0:0:0:
192,192,167984,1,0,0:0:0:0:
448,192,167984,1,0,0:0:0:0:
320,192,168086,1,0,0:0:0:0:
448,192,168086,1,0,0:0:0:0:
192,192,168086,1,0,0:0:0:0:
64,192,168086,1,0,0:0:0:0:
320,192,168188,1,0,0:0:0:0:
64,192,168188,1,0,0:0:0:0:
192,192,168289,1,0,0:0:0:0:
64,192,168289,1,0,0:0:0:0:
320,192,168289,1,0,0:0:0:0:
448,192,168289,1,0,0:0:0:0:
192,192,168391,1,0,0:0:0:0:
64,192,168391,1,0,0:0:0:0:
64,192,168492,1,0,0:0:0:0:
192,192,168492,1,0,0:0:0:0:
448,192,168492,1,0,0:0:0:0:
320,192,168492,1,0,0:0:0:0:
64,192,168594,1,0,0:0:0:0:
320,192,168594,1,0,0:0:0:0:
192,192,168696,1,0,0:0:0:0:
320,192,168696,1,0,0:0:0:0:
448,192,168696,1,0,0:0:0:0:
64,192,168696,1,0,0:0:0:0:
192,192,168798,1,0,0:0:0:0:
448,192,168798,1,0,0:0:0:0:
64,192,168899,1,0,0:0:0:0:
192,192,168899,1,0,0:0:0:0:
320,192,168899,1,0,0:0:0:0:
448,192,168899,1,0,0:0:0:0:
320,192,169001,1,0,0:0:0:0:
448,192,169001,1,0,0:0:0:0:
192,192,169102,1,0,0:0:0:0:
64,192,169102,1,0,0:0:0:0:
320,192,169102,1,0,0:0:0:0:
448,192,169102,1,0,0:0:0:0:
192,192,169204,1,0,0:0:0:0:
448,192,169204,1,0,0:0:0:0:
320,192,169306,1,0,0:0:0:0:
448,192,169306,1,0,0:0:0:0:
192,192,169306,1,0,0:0:0:0:
64,192,169306,1,0,0:0:0:0:
320,192,169407,1,0,0:0:0:0:
64,192,169407,1,0,0:0:0:0:
192,192,169508,1,0,0:0:0:0:
64,192,169508,1,0,0:0:0:0:
320,192,169508,1,0,0:0:0:0:
448,192,169508,1,0,0:0:0:0:
192,192,169610,1,0,0:0:0:0:
64,192,169610,1,0,0:0:0:0:
64,192,169712,1,0,0:0:0:0:
192,192,169712,1,0,0:0:0:0:
320,192,169712,1,0,0:0:0:0:
448,192,169712,1,0,0:0:0:0:
448,192,169813,1,0,0:0:0:0:
448,192,169915,1,0,0:0:0:0:
320,192,169915,1,0,0:0:0:0:
192,192,169915,1,0,0:0:0:0:
64,192,169915,1,0,0:0:0:0:
320,192,170017,1,0,0:0:0:0:
64,192,170118,1,0,0:0:0:0:
192,192,170118,1,0,0:0:0:0:
320,192,170118,1,0,0:0:0:0:
448,192,170118,1,0,0:0:0:0:
192,192,170220,1,0,0:0:0:0:
64,192,170322,1,0,0:0:0:0:
192,192,170322,1,0,0:0:0:0:
320,192,170322,1,0,0:0:0:0:
448,192,170322,1,0,0:0:0:0:
64,192,170423,1,0,0:0:0:0:
64,192,170525,1,0,0:0:0:0:
192,192,170525,1,0,0:0:0:0:
320,192,170525,1,0,0:0:0:0:
448,192,170525,1,0,0:0:0:0:
448,192,170627,1,0,0:0:0:0:
320,192,170627,1,0,0:0:0:0:
192,192,170728,1,0,0:0:0:0:
64,192,170728,1,0,0:0:0:0:
320,192,170728,1,0,0:0:0:0:
448,192,170728,1,0,0:0:0:0:
320,192,170830,1,0,0:0:0:0:
192,192,170830,1,0,0:0:0:0:
64,192,170932,1,0,0:0:0:0:
192,192,170932,1,0,0:0:0:0:
320,192,170932,1,0,0:0:0:0:
448,192,170932,1,0,0:0:0:0:
192,192,171033,1,0,0:0:0:0:
64,192,171033,1,0,0:0:0:0:
64,192,171135,1,0,0:0:0:0:
192,192,171135,1,0,0:0:0:0:
320,192,171135,1,0,0:0:0:0:
448,192,171135,1,0,0:0:0:0:
192,192,171237,1,0,0:0:0:0:
64,192,171237,1,0,0:0:0:0:
64,192,171338,1,0,0:0:0:0:
192,192,171338,1,0,0:0:0:0:
320,192,171338,1,0,0:0:0:0:
448,192,171338,1,0,0:0:0:0:
192,192,171439,1,0,0:0:0:0:
320,192,171439,1,0,0:0:0:0:
192,192,171541,1,0,0:0:0:0:
64,192,171541,1,0,0:0:0:0:
320,192,171541,1,0,0:0:0:0:
448,192,171541,1,0,0:0:0:0:
320,192,171642,1,0,0:0:0:0:
448,192,171642,1,0,0:0:0:0:
448,192,171744,1,0,0:0:0:0:
320,192,171744,1,0,0:0:0:0:
192,192,171744,1,0,0:0:0:0:
64,192,171744,1,0,0:0:0:0:
320,192,171846,1,0,0:0:0:0:
448,192,171846,1,0,0:0:0:0:
448,192,171948,1,0,0:0:0:0:
320,192,171948,1,0,0:0:0:0:
192,192,171948,1,0,0:0:0:0:
64,192,171948,1,0,0:0:0:0:
192,192,172049,1,0,0:0:0:0:
320,192,172049,1,0,0:0:0:0:
64,192,172151,1,0,0:0:0:0:
192,192,172151,1,0,0:0:0:0:
320,192,172151,1,0,0:0:0:0:
448,192,172151,1,0,0:0:0:0:
64,192,172252,1,0,0:0:0:0:
192,192,172252,1,0,0:0:0:0:
64,192,172354,1,0,0:0:0:0:
320,192,172354,1,0,0:0:0:0:
448,192,172354,1,0,0:0:0:0:
192,192,172456,1,0,0:0:0:0:
448,192,172456,1,0,0:0:0:0:
64,192,172558,1,0,0:0:0:0:
320,192,172558,1,0,0:0:0:0:
192,192,172558,1,0,0:0:0:0:
320,192,172659,1,0,0:0:0:0:
448,192,172659,1,0,0:0:0:0:
64,192,172761,1,0,0:0:0:0:
192,192,172761,1,0,0:0:0:0:
448,192,172761,1,0,0:0:0:0:
320,192,172862,1,0,0:0:0:0:
64,192,172862,1,0,0:0:0:0:
192,192,172964,1,0,0:0:0:0:
320,192,172964,1,0,0:0:0:0:
448,192,172964,1,0,0:0:0:0:
64,192,172964,1,0,0:0:0:0:
192,192,173066,1,0,0:0:0:0:
320,192,173066,1,0,0:0:0:0:
64,192,173168,1,0,0:0:0:0:
192,192,173168,1,0,0:0:0:0:
448,192,173168,1,0,0:0:0:0:
320,192,173269,1,0,0:0:0:0:
64,192,173269,1,0,0:0:0:0:
64,192,173371,1,0,0:0:0:0:
192,192,173371,1,0,0:0:0:0:
320,192,173371,1,0,0:0:0:0:
448,192,173371,1,0,0:0:0:0:
320,192,173472,1,0,0:0:0:0:
64,192,173472,1,0,0:0:0:0:
192,192,173573,1,0,0:0:0:0:
320,192,173573,1,0,0:0:0:0:
448,192,173573,1,0,0:0:0:0:
192,192,173675,1,0,0:0:0:0:
64,192,173675,1,0,0:0:0:0:
64,192,173777,1,0,0:0:0:0:
192,192,173777,1,0,0:0:0:0:
320,192,173777,1,0,0:0:0:0:
448,192,173777,1,0,0:0:0:0:
64,192,174183,1,0,0:0:0:0:
192,192,174183,1,0,0:0:0:0:
320,192,174183,1,0,0:0:0:0:
448,192,174183,1,0,0:0:0:0:
320,192,174387,1,0,0:0:0:0:
192,192,174454,1,0,0:0:0:0:
320,192,174522,1,0,0:0:0:0:
64,192,174590,1,0,0:0:0:0:
448,192,174590,1,0,0:0:0:0:
192,192,174590,1,0,0:0:0:0:
192,192,174793,1,0,0:0:0:0:
64,192,174793,1,0,0:0:0:0:
320,192,174861,1,0,0:0:0:0:
448,192,174861,1,0,0:0:0:0:
192,192,174928,1,0,0:0:0:0:
64,192,174928,1,0,0:0:0:0:
320,192,174997,1,0,0:0:0:0:
64,192,174997,1,0,0:0:0:0:
448,192,174997,1,0,0:0:0:0:
