osu file format v14

[General]
AudioFilename: audio.mp3
AudioLeadIn: 0
PreviewTime: 45575
Countdown: 1
SampleSet: Normal
StackLeniency: 0.7
Mode: 1
LetterboxInBreaks: 0
WidescreenStoryboard: 1

[Editor]
Bookmarks: 90343
DistanceSpacing: 0.8
BeatDivisor: 1
GridSize: 8
TimelineZoom: 2.4

[Metadata]
Title:Sex is Good
TitleUnicode:Sex is Good
Artist:Kuba Oms
ArtistUnicode:Kuba Oms
Creator:D3kuu
Version:Kantan
Source:osu!
Tags:featured artist fa pop english adhd
BeatmapID:2063831
BeatmapSetID:986505

[Difficulty]
HPDrainRate:7
CircleSize:5
OverallDifficulty:4
ApproachRate:5
SliderMultiplier:1.4
SliderTickRate:1

[Events]
//Background and Video events
0,0,"1_vo8bfvr4k9iNktDWxd1F2g.jpeg",0,70
//Break Periods
//Storyboard Layer 0 (Background)
//Storyboard Layer 1 (Fail)
//Storyboard Layer 2 (Pass)
//Storyboard Layer 3 (Foreground)
//Storyboard Layer 4 (Overlay)
//Storyboard Sound Samples

[TimingPoints]
1041,465.116279069767,4,1,0,60,1,0
1041,-100,4,1,0,60,0,0
45692,-100,4,1,0,60,0,1
60575,-100,4,1,0,60,0,0
90343,-100,4,1,0,60,0,1
105227,-100,4,1,0,60,0,0
127552,-100,4,1,0,60,0,1
157320,-100,4,1,0,60,0,0
172203,-100,4,1,0,60,0,1
187087,-100,4,1,0,60,0,0

[HitObjects]
313,218,1041,5,4,0:0:0:0:
272,153,2436,1,8,0:0:0:0:
320,171,2901,1,0,0:0:0:0:
319,140,3599,1,0,0:0:0:0:
299,142,4296,1,8,0:0:0:0:
329,173,4761,1,8,0:0:0:0:
317,160,5459,1,8,0:0:0:0:
344,258,6157,1,8,0:0:0:0:
466,163,6622,1,4,0:0:0:0:
328,130,7552,1,4,0:0:0:0:
331,146,8017,1,4,0:0:0:0:
488,126,8482,1,4,0:0:0:0:
294,154,9878,1,8,0:0:0:0:
386,185,10343,1,8,0:0:0:0:
227,84,11040,1,8,0:0:0:0:
290,133,11738,5,8,0:0:0:0:
365,175,12203,1,8,0:0:0:0:
334,62,12901,1,0,0:0:0:0:
483,121,13599,1,8,0:0:0:0:
231,102,14064,5,4,0:0:0:0:
403,120,14994,1,4,0:0:0:0:
386,118,15459,1,4,0:0:0:0:
362,198,15924,1,4,0:0:0:0:
336,257,16389,1,8,0:0:0:0:
406,165,17785,1,0,0:0:0:0:
261,133,18715,1,8,0:0:0:0:
287,136,19180,1,8,0:0:0:0:
458,130,19645,1,0,0:0:0:0:
268,100,20575,1,8,0:0:0:0:
285,179,21040,1,8,0:0:0:0:
316,176,21506,1,8,0:0:0:0:
457,146,22436,1,8,0:0:0:0:
306,119,23831,1,8,0:0:0:0:
306,174,24296,5,8,0:0:0:0:
336,125,25227,1,0,0:0:0:0:
359,184,26157,1,0,0:0:0:0:
297,110,26622,1,8,0:0:0:0:
416,152,27087,1,0,0:0:0:0:
152,80,28017,5,0,0:0:0:0:
463,119,28482,1,8,0:0:0:0:
233,152,28947,1,0,0:0:0:0:
459,152,29878,1,0,0:0:0:0:
395,123,30808,1,8,0:0:0:0:
245,164,31273,1,0,0:0:0:0:
348,161,31738,1,8,0:0:0:0:
140,153,33134,1,8,0:0:0:0:
316,196,33599,1,0,0:0:0:0:
381,142,34529,1,8,0:0:0:0:
392,152,35459,1,8,0:0:0:0:
230,97,35924,1,8,0:0:0:0:
363,176,36389,1,0,0:0:0:0:
386,168,37320,1,0,0:0:0:0:
230,129,38250,1,0,0:0:0:0:
357,155,38715,1,8,0:0:0:0:
295,193,39180,1,0,0:0:0:0:
456,162,40110,1,8,0:0:0:0:
436,150,40575,1,8,0:0:0:0:
136,95,41040,5,0,0:0:0:0:
433,138,41971,1,8,0:0:0:0:
254,164,43366,1,8,0:0:0:0:
375,131,43831,1,0,0:0:0:0:
384,118,44761,1,8,0:0:0:0:
268,171,45227,1,8,0:0:0:0:
322,185,45692,1,12,0:0:0:0:
458,143,46622,1,4,0:0:0:0:
461,125,47320,1,12,0:0:0:0:
394,202,48250,1,4,0:0:0:0:
444,128,49413,1,12,0:0:0:0:
413,194,50343,1,4,0:0:0:0:
428,143,51040,1,12,0:0:0:0:
316,111,51971,1,4,0:0:0:0:
411,132,53134,1,12,0:0:0:0:
332,186,54064,1,4,0:0:0:0:
460,153,54761,1,12,0:0:0:0:
452,169,55692,1,4,0:0:0:0:
213,168,56854,1,12,0:0:0:0:
305,162,57785,1,4,0:0:0:0:
288,168,58482,1,4,0:0:0:0:
394,141,59645,1,12,0:0:0:0:
331,84,60110,1,12,0:0:0:0:
414,148,60575,1,4,0:0:0:0:
256,192,63134,12,0,63831,0:0:0:0:
470,109,64296,5,4,0:0:0:0:
411,198,65692,1,8,0:0:0:0:
467,153,66157,1,0,0:0:0:0:
177,129,67087,1,8,0:0:0:0:
246,129,68482,1,8,0:0:0:0:
215,135,68947,1,0,0:0:0:0:
387,92,69413,1,8,0:0:0:0:
345,204,69878,1,0,0:0:0:0:
305,164,70808,1,0,0:0:0:0:
188,188,71273,1,8,0:0:0:0:
438,130,71738,1,0,0:0:0:0:
232,60,72668,1,0,0:0:0:0:
406,168,73599,1,8,0:0:0:0:
278,142,74529,1,8,0:0:0:0:
395,123,75459,1,8,0:0:0:0:
255,161,75924,1,0,0:0:0:0:
348,161,76389,1,8,0:0:0:0:
309,178,77785,5,8,0:0:0:0:
316,196,78250,1,0,0:0:0:0:
381,142,79180,1,8,0:0:0:0:
392,152,80110,1,8,0:0:0:0:
230,97,80575,1,8,0:0:0:0:
363,176,81040,1,0,0:0:0:0:
386,168,81971,1,0,0:0:0:0:
350,205,82901,1,0,0:0:0:0:
357,155,83366,1,8,0:0:0:0:
295,193,83831,1,0,0:0:0:0:
456,162,84761,1,8,0:0:0:0:
436,150,85226,1,8,0:0:0:0:
136,95,85691,5,0,0:0:0:0:
433,138,86622,1,8,0:0:0:0:
254,164,88017,1,8,0:0:0:0:
375,131,88482,1,0,0:0:0:0:
384,118,89412,5,8,0:0:0:0:
268,171,89878,1,8,0:0:0:0:
226,138,90343,5,12,0:0:0:0:
250,124,91273,1,4,0:0:0:0:
461,125,91971,1,12,0:0:0:0:
265,73,92901,5,4,0:0:0:0:
441,134,94064,1,12,0:0:0:0:
303,115,94994,1,4,0:0:0:0:
282,141,95692,1,12,0:0:0:0:
350,133,96622,1,4,0:0:0:0:
370,137,97785,1,12,0:0:0:0:
386,166,98715,1,4,0:0:0:0:
457,159,99413,1,12,0:0:0:0:
411,149,100343,1,4,0:0:0:0:
351,172,101506,1,12,0:0:0:0:
349,184,102436,1,4,0:0:0:0:
360,144,103366,1,8,0:0:0:0:
421,140,104296,1,0,0:0:0:0:
313,218,105227,5,4,0:0:0:0:
294,154,106622,1,8,0:0:0:0:
386,185,107087,1,8,0:0:0:0:
227,84,107784,1,8,0:0:0:0:
290,133,108482,5,8,0:0:0:0:
365,175,108947,1,8,0:0:0:0:
334,62,109645,1,0,0:0:0:0:
483,121,110343,1,8,0:0:0:0:
231,102,110808,5,4,0:0:0:0:
403,120,111738,5,4,0:0:0:0:
386,118,112203,1,4,0:0:0:0:
362,198,112668,1,4,0:0:0:0:
267,60,113134,1,8,0:0:0:0:
206,163,114064,5,8,0:0:0:0:
230,159,114994,1,8,0:0:0:0:
179,69,115924,1,0,0:0:0:0:
245,276,116854,1,0,0:0:0:0:
241,117,117785,1,8,0:0:0:0:
212,91,118715,1,0,0:0:0:0:
185,111,119645,1,8,0:0:0:0:
403,145,120110,1,0,0:0:0:0:
254,244,120575,1,8,0:0:0:0:
174,4,121738,1,8,0:0:0:0:
183,75,122203,1,8,0:0:0:0:
216,168,122901,1,0,0:0:0:0:
267,151,123831,1,0,0:0:0:0:
360,156,124761,5,0,0:0:0:0:
197,64,125692,1,0,0:0:0:0:
420,170,126622,1,8,0:0:0:0:
420,170,127087,1,0,0:0:0:0:
347,130,127552,1,12,0:0:0:0:
364,160,128482,1,4,0:0:0:0:
417,151,129180,1,12,0:0:0:0:
450,148,130110,1,4,0:0:0:0:
388,133,131273,1,12,0:0:0:0:
398,153,132203,1,4,0:0:0:0:
441,178,132901,1,12,0:0:0:0:
422,164,133831,1,4,0:0:0:0:
402,138,134994,1,12,0:0:0:0:
460,144,135924,1,4,0:0:0:0:
401,166,136622,1,12,0:0:0:0:
383,173,137552,1,4,0:0:0:0:
345,136,138715,1,12,0:0:0:0:
461,163,139645,1,4,0:0:0:0:
313,146,140575,1,8,0:0:0:0:
347,130,142436,1,12,0:0:0:0:
364,160,143366,1,4,0:0:0:0:
417,151,144064,1,12,0:0:0:0:
450,148,144994,1,4,0:0:0:0:
388,133,146157,1,12,0:0:0:0:
398,153,147087,1,4,0:0:0:0:
416,117,147785,5,12,0:0:0:0:
422,164,148715,1,4,0:0:0:0:
402,138,149878,1,12,0:0:0:0:
460,144,150808,1,4,0:0:0:0:
401,166,151506,1,12,0:0:0:0:
383,173,152436,1,4,0:0:0:0:
345,136,153599,1,12,0:0:0:0:
461,163,154529,1,4,0:0:0:0:
313,146,155459,1,8,0:0:0:0:
72,190,156389,1,0,0:0:0:0:
403,145,157320,1,4,0:0:0:0:
254,98,157785,1,8,0:0:0:0:
260,215,158947,1,8,0:0:0:0:
323,162,160110,1,0,0:0:0:0:
473,141,161040,1,0,0:0:0:0:
447,168,162668,1,8,0:0:0:0:
283,153,163831,1,0,0:0:0:0:
282,99,164296,1,8,0:0:0:0:
275,218,164761,1,0,0:0:0:0:
214,51,166389,1,8,0:0:0:0:
396,138,167552,1,0,0:0:0:0:
361,110,168482,1,0,0:0:0:0:
468,153,169413,1,0,0:0:0:0:
416,156,170343,1,0,0:0:0:0:
362,224,170808,1,0,0:0:0:0:
409,138,171273,5,0,0:0:0:0:
342,242,171738,1,8,0:0:0:0:
272,125,172203,1,12,0:0:0:0:
458,143,173133,1,4,0:0:0:0:
461,125,173831,1,12,0:0:0:0:
394,202,174761,1,4,0:0:0:0:
444,128,175924,1,12,0:0:0:0:
413,194,176854,1,4,0:0:0:0:
490,126,177552,5,12,0:0:0:0:
316,111,178482,1,4,0:0:0:0:
411,132,179645,1,12,0:0:0:0:
332,186,180575,1,4,0:0:0:0:
460,153,181272,1,12,0:0:0:0:
452,169,182203,1,4,0:0:0:0:
213,168,183365,1,12,0:0:0:0:
305,162,184296,1,4,0:0:0:0:
247,123,185227,1,8,0:0:0:0:
361,143,186157,1,8,0:0:0:0:
248,192,187087,1,12,0:0:0:0:
