osu file format v14

[General]
AudioFilename: audio.mp3
AudioLeadIn: 0
PreviewTime: 45624
Countdown: 0
SampleSet: Soft
StackLeniency: 0.7
Mode: 0
LetterboxInBreaks: 0
EpilepsyWarning: 1
WidescreenStoryboard: 1

[Editor]
Bookmarks: 1051,15934,30818,45702,60585,75469,90353,105237,112678,127562,142446,157330,172213,187097
DistanceSpacing: 1.1
BeatDivisor: 4
GridSize: 8
TimelineZoom: 1.5

[Metadata]
Title:Sex Is Good
TitleUnicode:Sex Is Good
Artist:Kuba Oms
ArtistUnicode:Kuba Oms
Creator:Affirmation
Version:Insane
Source:osu!
Tags:featured artist osu Venax Alphabet Cherry_Blossom
BeatmapID:1954975
BeatmapSetID:935772

[Difficulty]
HPDrainRate:6
CircleSize:4
OverallDifficulty:7.6
ApproachRate:9
SliderMultiplier:1
SliderTickRate:1

[Events]
//Background and Video events
0,0,"BG.jpg",0,0
//Break Periods
2,60818,63232
2,112869,125092
//Storyboard Layer 0 (Background)
//Storyboard Layer 1 (Fail)
//Storyboard Layer 2 (Pass)
//Storyboard Layer 3 (Foreground)
//Storyboard Sound Samples

[TimingPoints]
111,465.116279069767,4,2,69,50,1,0
111,-62.5,4,2,69,50,0,0
1042,465.116279069767,4,2,69,50,1,0
1042,-62.5,4,2,69,50,0,0
45693,-62.5,4,2,69,70,0,1
60576,-62.5,4,2,69,50,0,0
90344,-62.5,4,2,69,70,0,1
105228,-62.5,4,2,69,50,0,0
127553,-62.5,4,2,69,70,0,1
157321,-62.5,4,2,69,50,0,0
172204,-62.5,4,2,69,70,0,1
187088,-62.5,4,2,69,70,0,0

[Colours]
Combo1 : 255,255,128
Combo2 : 128,180,0
Combo3 : 128,185,255
Combo4 : 255,128,128

[HitObjects]
172,130,111,5,0,1:0:0:0:
288,289,343,1,0,3:0:0:0:
265,66,576,1,0,1:0:0:0:
104,241,808,1,0,3:0:0:0:
293,171,1041,6,0,B|384:163|340:223|442:209,2,160,4|0|0,3:2|1:0|3:0,0:0:0:0:
150,265,2204,1,0,0:0:0:0:
228,304,2437,2,0,P|233:264|226:225,1,80,0|0,1:0|0:0,0:0:0:0:
131,110,2902,6,0,B|112:210|166:175|150:265,1,160,0|0,3:0|1:0,0:0:0:0:
19,354,3599,2,0,B|64:329|64:329|169:352,1,160,0|0,0:0|0:0,0:0:0:0:
334,255,4297,2,0,B|255:272,1,80,0|0,1:0|0:0,0:0:0:0:
428,345,4762,6,0,P|459:275|416:212,1,160,0|0,3:0|1:0,0:0:0:0:
315,100,5460,2,0,B|295:199|349:164|333:254,1,160,0|0,0:0|0:0,0:0:0:0:
230,142,6157,1,0,1:0:0:0:
385,51,6390,1,0,0:0:0:0:
231,34,6623,6,0,L|72:55,1,160,0|0,3:0|1:0,0:0:0:0:
15,199,7320,1,0,0:0:0:0:
219,241,7553,2,0,P|226:202|218:163,1,80,0|0,3:0|3:0,0:0:0:0:
146,127,7902,1,0,3:0:0:0:
146,127,8018,2,0,L|66:137,1,80,0|0,1:0|3:0,0:0:0:0:
15,199,8367,1,0,3:0:0:0:
15,199,8483,6,0,B|45:244|45:244|27:348,1,160,0|0,3:0|1:0,0:0:0:0:
229,322,9181,2,0,L|149:311,1,80,0|0,0:0|3:0,0:0:0:0:
336,329,9646,1,0,0:0:0:0:
376,250,9878,1,0,1:0:0:0:
327,175,10111,1,0,0:0:0:0:
157,333,10344,6,0,B|254:316|202:368|311:345,1,160,0|0,3:0|1:0,0:0:0:0:
455,260,11041,2,0,P|415:254|375:249,1,80,0|0,0:0|3:0,0:0:0:0:
192,153,11506,1,0,0:0:0:0:
269,111,11739,2,0,P|279:149|275:189,1,80,0|0,1:0|0:0,0:0:0:0:
120,273,12204,6,0,P|103:195|114:116,1,160,0|0,3:0|1:0,0:0:0:0:
259,22,12902,2,0,L|179:31,1,80,0|0,0:0|3:0,0:0:0:0:
354,179,13367,2,0,L|274:188,1,80,0|0,0:0|1:0,0:0:0:0:
187,201,13832,1,0,0:0:0:0:
427,261,14064,6,0,B|439:170|375:217|398:110,1,160,0|0,3:0|1:0,0:0:0:0:
485,32,14762,1,0,0:0:0:0:
306,80,14995,2,0,L|226:90,1,80,0|0,3:0|3:0,0:0:0:0:
232,10,15344,1,0,3:0:0:0:
232,10,15460,2,0,L|152:20,1,80,0|0,1:0|3:0,0:0:0:0:
79,53,15809,1,0,3:0:0:0:
78,53,15925,6,0,P|71:92|83:129,1,80,4|0,3:2|0:0,0:0:0:0:
275,197,16390,2,0,L|155:189,1,120,0|0,1:0|0:0,0:0:0:0:
80,217,16855,2,0,L|85:296,1,80,0|0,3:0|0:0,0:0:0:0:
217,378,17320,2,0,L|222:298,1,80,0|0,1:0|0:0,0:0:0:0:
343,141,17786,6,0,B|363:180|363:180|349:255,1,120,0|0,3:0|0:0,0:0:0:0:
306,322,18251,1,0,1:0:0:0:
159,180,18483,1,0,0:0:0:0:
159,180,18599,2,0,L|238:185,2,80,0|0|0,0:0|0:0|0:0,0:0:0:0:
83,156,19181,2,0,B|97:119|97:119|89:79,1,80,0|0,1:0|0:0,0:0:0:0:
17,229,19646,6,0,L|31:348,1,120,0|0,3:0|0:0,0:0:0:0:
109,370,20111,1,0,1:0:0:0:
111,350,20227,1,0,0:0:0:0:
113,330,20344,1,0,0:0:0:0:
261,73,20576,2,0,P|233:125|238:184,1,120,0|0,3:0|0:0,0:0:0:0:
302,231,21041,1,0,1:0:0:0:
390,118,21274,1,0,0:0:0:0:
502,342,21506,6,0,L|422:332,1,80,0|0,3:0|0:0,0:0:0:0:
302,231,21971,2,0,L|222:221,1,80,0|0,1:0|0:0,0:0:0:0:
401,352,22437,2,0,L|481:362,1,80,0|0,3:0|0:0,0:0:0:0:
201,241,22902,2,0,L|281:251,1,80,0|0,1:0|0:0,0:0:0:0:
396,167,23367,5,0,3:0:0:0:
278,342,23599,1,0,0:0:0:0:
147,155,23832,2,0,L|226:145,1,80,0|0,1:0|0:0,0:0:0:0:
336,8,24297,2,0,B|314:45|314:45|330:120,1,120,0|0,3:0|0:0,0:0:0:0:
396,167,24762,1,0,1:0:0:0:
226,145,24995,1,0,0:0:0:0:
226,145,25111,1,0,0:0:0:0:
226,145,25227,6,0,L|147:155,1,80,0|0,3:0|0:0,0:0:0:0:
318,268,25692,2,0,L|238:277,1,80,0|0,1:0|0:0,0:0:0:0:
7,265,26158,2,0,P|66:264|114:229,1,120,0|0,3:0|0:0,0:0:0:0:
147,155,26623,1,0,1:0:0:0:
36,33,26855,1,0,0:0:0:0:
36,33,26971,1,0,0:0:0:0:
36,33,27088,6,0,P|41:73|48:113,1,80,0|0,3:0|0:0,0:0:0:0:
225,206,27553,2,0,P|231:166|237:126,1,80,0|0,1:0|0:0,0:0:0:0:
373,53,28018,2,0,B|359:146|410:109|391:208,1,160,0|0,3:0|1:0,0:0:0:0:
315,350,28716,1,0,0:0:0:0:
462,267,28948,6,0,P|384:247|306:227,1,160,0|0,3:0|1:0,0:0:0:0:
96,283,29646,1,0,0:0:0:0:
231,356,29878,1,0,3:0:0:0:
231,356,29995,1,0,3:0:0:0:
231,356,30111,1,0,1:0:0:0:
199,202,30344,1,0,1:0:0:0:
167,48,30576,1,0,3:0:0:0:
167,48,30692,1,0,3:0:0:0:
167,48,30809,6,0,L|87:44,1,80,4|0,3:2|0:0,0:0:0:0:
278,115,31274,2,0,L|397:109,1,120,0|0,1:0|0:0,0:0:0:0:
431,183,31739,2,0,L|351:186,1,80,0|0,3:0|0:0,0:0:0:0:
177,282,32204,2,0,L|97:285,1,80,0|0,1:0|0:0,0:0:0:0:
281,363,32669,6,0,B|294:274|236:307|254:211,1,160,0|0,3:0|1:0,0:0:0:0:
314,94,33367,1,0,0:0:0:0:
128,35,33599,2,0,P|141:113|156:192,1,160,0|0,3:0|1:0,0:0:0:0:
35,330,34297,1,0,0:0:0:0:
35,330,34413,1,0,0:0:0:0:
35,329,34530,6,0,P|109:305|179:338,2,160,0|0|0,3:0|1:0|3:0,0:0:0:0:
251,272,35692,1,0,0:0:0:0:
320,325,35925,2,0,L|405:316,1,80,0|0,1:0|0:0,0:0:0:0:
251,182,36390,6,0,L|336:173,1,80,0|0,3:0|0:0,0:0:0:0:
251,272,36855,1,0,1:0:0:0:
115,119,37088,1,0,0:0:0:0:
115,119,37204,1,0,0:0:0:0:
115,119,37320,2,0,L|126:238,1,120,0|0,3:0|3:0,0:0:0:0:
135,319,37785,1,0,1:0:0:0:
251,182,38018,1,0,3:0:0:0:
251,182,38134,1,0,1:0:0:0:
251,182,38251,6,0,L|260:97,1,80,0|0,3:0|0:0,0:0:0:0:
371,255,38716,2,0,L|380:170,1,80,0|0,1:0|0:0,0:0:0:0:
240,296,39181,2,0,B|323:291|300:351|387:346,1,160,0|0,3:0|1:0,0:0:0:0:
480,223,39878,1,0,0:0:0:0:
287,161,40111,6,0,B|204:156|227:216|139:211,1,160,0|0,3:0|1:0,0:0:0:0:
40,24,40809,2,0,B|75:73|75:73|62:171,1,160,0|0,0:0|0:0,0:0:0:0:
22,380,41506,2,0,B|11:300,1,80,0|0,1:0|0:0,0:0:0:0:
190,120,41971,6,0,P|229:188|227:267,1,160,0|0,3:0|1:0,0:0:0:0:
165,328,42669,1,0,0:0:0:0:
380,368,42902,2,0,P|340:299|342:220,1,160,0|0,3:0|1:0,0:0:0:0:
427,109,43599,6,0,L|466:116,2,40,0|0|0,0:0|0:0|3:0,0:0:0:0:
234,74,44064,1,0,0:0:0:0:
312,35,44297,2,0,P|319:74|315:113,1,80,0|0,1:0|0:0,0:0:0:0:
115,93,44762,1,0,1:3:0:0:
145,88,44878,1,0,1:3:0:0:
174,83,44995,1,0,3:3:0:0:
204,78,45111,1,0,3:3:0:0:
234,74,45228,1,0,1:3:0:0:
372,225,45460,1,0,3:0:0:0:
342,219,45576,1,0,3:0:0:0:
311,215,45692,6,0,P|305:254|310:293,1,80,4|0,3:2|0:0,0:0:0:0:
160,382,46157,2,0,P|164:342|158:303,1,80,0|0,1:0|0:0,0:0:0:0:
0,153,46623,2,0,B|81:165|62:107|151:118,1,160,0|0,3:0|1:0,0:0:0:0:
245,6,47320,6,0,P|237:45|231:84,1,80,0|0,0:0|3:0,0:0:0:0:
373,200,47785,2,0,P|367:160|359:121,1,80,0|0,0:0|1:0,0:0:0:0:
491,314,48251,1,0,0:0:0:0:
509,63,48483,2,0,P|498:142|492:222,1,160,0|0,3:0|1:0,0:0:0:0:
350,374,49181,1,0,0:0:0:0:
491,314,49413,6,0,P|453:305|413:299,1,80,0|0,3:0|0:0,0:0:0:0:
191,368,49878,2,0,P|229:358|269:352,1,80,0|0,1:0|0:0,0:0:0:0:
377,149,50344,2,0,B|365:229|428:210|412:298,1,160,0|0,3:0|1:0,0:0:0:0:
272,196,51041,6,0,P|239:175|202:159,1,80,0|0,0:0|3:0,0:0:0:0:
394,79,51506,2,0,P|427:57|464:41,1,80,0|0,0:0|1:0,0:0:0:0:
469,197,51971,1,0,0:0:0:0:
291,110,52204,2,0,B|282:72|282:72|285:32,1,80,0|0,3:0|3:0,0:0:0:0:
359,0,52553,1,0,3:0:0:0:
359,0,52669,1,0,1:0:0:0:
110,111,52902,1,0,3:0:0:0:
110,111,53018,1,0,3:0:0:0:
110,111,53134,6,0,L|30:118,1,80,4|0,3:2|0:0,0:0:0:0:
220,309,53599,2,0,L|140:316,1,80,0|0,1:0|0:0,0:0:0:0:
310,177,54064,2,0,L|150:192,1,160,0|0,3:0|1:0,0:0:0:0:
369,371,54762,6,0,P|374:332|364:293,1,80,0|0,0:0|3:0,0:0:0:0:
424,45,55227,2,0,P|418:84|428:123,1,80,0|0,0:0|1:0,0:0:0:0:
507,262,55692,1,0,0:0:0:0:
270,294,55925,2,0,L|110:278,1,160,0|0,3:0|1:0,0:0:0:0:
369,371,56623,1,0,0:0:0:0:
292,159,56855,6,0,P|285:120|282:80,1,80,0|0,3:0|0:0,0:0:0:0:
470,264,57320,2,0,P|430:266|390:274,1,80,0|0,1:0|0:0,0:0:0:0:
145,212,57785,2,0,B|244:207|192:169|293:159,1,160,0|0,3:0|1:0,0:0:0:0:
391,274,58483,1,0,0:0:0:0:
203,376,58716,6,0,L|194:296,1,80,0|0,3:0|0:0,0:0:0:0:
24,186,59181,2,0,L|33:266,1,80,0|0,1:0|0:0,0:0:0:0:
219,46,59646,1,0,1:0:0:0:
145,212,59878,1,0,3:0:0:0:
99,92,60111,1,0,1:0:0:0:
265,166,60344,1,0,3:0:0:0:
104,289,60576,5,0,1:0:0:0:
340,99,63832,5,0,1:0:0:0:
351,85,64297,6,0,L|337:244,1,160,12|0,3:2|1:0,0:0:0:0:
276,307,64995,1,0,0:0:0:0:
348,357,65227,2,0,P|386:347|425:339,1,80,0|0,3:0|0:0,0:0:0:0:
204,257,65692,2,0,P|165:247|126:239,1,80,0|0,1:0|0:0,0:0:0:0:
23,111,66157,6,0,P|101:107|163:58,1,160,0|0,3:0|1:0,0:0:0:0:
215,172,66855,1,0,0:0:0:0:
336,21,67088,2,0,L|325:100,1,80,0|0,3:0|3:0,0:0:0:0:
313,180,67437,1,0,3:0:0:0:
313,180,67553,1,0,1:0:0:0:
116,167,67785,1,0,1:0:0:0:
116,167,67902,1,0,1:0:0:0:
116,167,68018,5,0,3:0:0:0:
234,342,68251,1,0,0:0:0:0:
365,155,68483,2,0,L|286:145,1,80,0|0,1:0|0:0,0:0:0:0:
169,0,68948,2,0,B|191:37|191:37|175:112,1,120,0|0,3:0|0:0,0:0:0:0:
116,167,69413,1,0,1:0:0:0:
286,145,69646,1,0,0:0:0:0:
286,145,69762,1,0,0:0:0:0:
286,145,69878,6,0,L|365:155,1,80,0|0,3:0|0:0,0:0:0:0:
194,268,70344,2,0,L|274:277,1,80,0|0,1:0|0:0,0:0:0:0:
506,252,70809,2,0,B|401:259|457:210|354:216,1,160,0|0,3:0|1:0,0:0:0:0:
476,33,71506,1,0,0:0:0:0:
476,33,71623,1,0,0:0:0:0:
476,33,71739,6,0,P|471:73|464:113,1,80,0|0,3:0|0:0,0:0:0:0:
287,206,72204,2,0,P|281:166|275:126,1,80,0|0,1:0|0:0,0:0:0:0:
246,305,72669,1,0,3:0:0:0:
121,208,72902,2,0,B|102:109|153:146|139:53,1,160,0|0,0:0|0:0,0:0:0:0:
50,267,73600,6,0,P|128:247|206:227,1,160,0|0,3:0|1:0,0:0:0:0:
416,283,74297,1,0,0:0:0:0:
281,356,74530,1,0,3:0:0:0:
281,356,74646,1,0,0:0:0:0:
281,356,74762,1,0,1:0:0:0:
313,202,74995,1,0,1:0:0:0:
345,48,75227,1,0,3:0:0:0:
345,48,75344,1,0,3:0:0:0:
345,48,75460,6,0,B|406:41|406:41|444:61|444:61|499:54,2,160,4|0|0,3:2|1:0|3:0,0:0:0:0:
207,160,76623,1,0,0:0:0:0:
313,204,76855,2,0,B|320:164|320:164|314:125,1,80,0|0,1:0|0:0,0:0:0:0:
72,111,77320,6,0,P|129:164|207:160,1,160,0|0,3:0|1:0,0:0:0:0:
39,232,78018,1,0,0:0:0:0:
261,85,78251,2,0,P|246:163|232:242,1,160,0|0,3:0|1:0,0:0:0:0:
379,340,78948,1,0,0:0:0:0:
379,340,79064,1,0,0:0:0:0:
379,339,79181,6,0,P|305:315|235:348,2,160,0|0|0,3:0|1:0|3:0,0:0:0:0:
104,344,80344,1,0,0:0:0:0:
157,275,80576,2,0,L|148:190,1,80,0|0,1:0|0:0,0:0:0:0:
337,84,81041,6,0,L|328:163,1,80,0|0,3:0|0:0,0:0:0:0:
251,272,81506,1,0,1:0:0:0:
115,119,81739,1,0,0:0:0:0:
115,119,81855,1,0,0:0:0:0:
115,119,81972,2,0,L|126:238,1,120,0|0,3:0|0:0,0:0:0:0:
135,319,82437,1,0,1:0:0:0:
251,182,82669,1,0,1:0:0:0:
251,182,82785,1,0,1:0:0:0:
251,182,82902,6,0,L|260:97,1,80,0|0,3:0|0:0,0:0:0:0:
371,255,83367,2,0,L|380:170,1,80,0|0,1:0|0:0,0:0:0:0:
299,342,83832,2,0,B|382:347|359:287|446:292,1,160,0|0,3:0|1:0,0:0:0:0:
494,365,84530,1,0,0:0:0:0:
277,260,84762,6,0,B|194:255|217:315|129:310,1,160,0|0,3:0|1:0,0:0:0:0:
39,88,85460,2,0,P|88:148|88:226,1,160,0|0,3:0|3:0,0:0:0:0:
22,380,86157,2,0,B|11:300,1,80,0|0,1:0|0:0,0:0:0:0:
187,171,86623,6,0,B|282:169|226:234|326:230,1,160,0|0,3:0|1:0,0:0:0:0:
165,328,87320,1,0,0:0:0:0:
369,313,87553,2,0,B|380:259|380:259|366:206|366:206|375:157,1,160,0|0,3:0|1:0,0:0:0:0:
472,11,88251,6,0,L|511:18,2,40,0|0|0,0:0|0:0|3:0,0:0:0:0:
234,74,88716,1,0,0:0:0:0:
312,35,88948,2,0,P|319:74|315:113,1,80,0|0,1:0|0:0,0:0:0:0:
115,93,89413,1,0,1:0:0:0:
145,88,89530,1,0,1:0:0:0:
174,83,89646,1,0,3:0:0:0:
204,78,89762,1,0,3:0:0:0:
234,74,89878,1,0,1:0:0:0:
461,181,90111,1,0,3:0:0:0:
431,176,90227,1,0,3:0:0:0:
400,171,90344,6,0,P|394:210|399:249,1,80,4|0,3:2|0:0,0:0:0:0:
243,384,90809,2,0,P|247:344|241:305,1,80,0|0,1:0|0:0,0:0:0:0:
15,165,91274,2,0,B|50:198|50:198|170:176,1,160,0|0,3:0|1:0,0:0:0:0:
253,33,91971,6,0,P|245:72|239:111,1,80,0|0,0:0|3:0,0:0:0:0:
400,200,92437,2,0,P|394:160|386:121,1,80,0|0,0:0|1:0,0:0:0:0:
277,289,92902,1,0,0:0:0:0:
512,94,93134,2,0,P|501:173|495:253,1,160,0|0,3:0|1:0,0:0:0:0:
298,375,93832,1,0,0:0:0:0:
510,374,94064,6,0,P|472:365|432:359,1,80,0|0,3:0|0:0,0:0:0:0:
198,305,94530,2,0,P|236:295|276:289,1,80,0|0,1:0|0:0,0:0:0:0:
360,116,94995,2,0,B|348:196|411:177|395:265,1,160,0|0,3:0|1:0,0:0:0:0:
229,196,95692,6,0,P|196:175|159:159,1,80,0|0,0:0|3:0,0:0:0:0:
394,79,96157,2,0,P|427:57|464:41,1,80,0|0,0:0|1:0,0:0:0:0:
415,240,96623,1,0,0:0:0:0:
291,110,96855,2,0,B|282:72|282:72|285:32,1,80,0|0,3:0|3:0,0:0:0:0:
359,0,97204,1,0,3:0:0:0:
359,0,97320,1,0,1:0:0:0:
122,117,97553,1,0,3:0:0:0:
122,117,97669,1,0,3:0:0:0:
122,117,97785,6,0,L|42:124,1,80,4|0,3:2|0:0,0:0:0:0:
270,294,98251,2,0,L|190:301,1,80,0|0,1:0|0:0,0:0:0:0:
0,213,98716,2,0,L|160:198,1,160,0|0,3:0|1:0,0:0:0:0:
355,328,99413,6,0,P|360:289|350:250,1,80,0|0,0:0|3:0,0:0:0:0:
395,22,99878,2,0,P|389:61|399:100,1,80,0|0,0:0|1:0,0:0:0:0:
512,286,100344,1,0,0:0:0:0:
270,294,100576,2,0,L|110:278,1,160,0|0,3:0|1:0,0:0:0:0:
355,327,101274,1,0,0:0:0:0:
292,159,101506,6,0,P|285:120|282:80,1,80,0|0,3:0|0:0,0:0:0:0:
494,185,101971,2,0,P|454:187|414:195,1,80,0|0,1:0|0:0,0:0:0:0:
135,132,102437,2,0,B|234:127|182:89|283:79,1,160,0|0,3:0|1:0,0:0:0:0:
388,278,103134,1,0,0:0:0:0:
203,376,103367,6,0,L|194:296,1,80,0|0,3:0|0:0,0:0:0:0:
33,266,103832,2,0,L|24:186,1,80,0|0,1:0|0:0,0:0:0:0:
215,67,104297,1,0,1:0:0:0:
190,83,104413,1,0,1:0:0:0:
161,90,104530,1,0,3:0:0:0:
132,88,104646,1,0,3:0:0:0:
104,78,104762,1,0,1:0:0:0:
293,171,104995,1,0,3:0:0:0:
293,171,105111,1,0,3:0:0:0:
293,171,105227,6,0,B|384:163|340:223|442:209,2,160,4|0|0,1:2|1:0|3:0,0:0:0:0:
150,265,106390,1,0,0:0:0:0:
228,304,106623,2,0,P|233:264|226:225,1,80,0|0,1:0|0:0,0:0:0:0:
143,106,107088,2,0,P|138:185|150:265,1,160,0|0,3:0|1:0,0:0:0:0:
440,344,107785,2,0,B|395:319|395:319|290:342,1,160,0|0,0:0|0:0,0:0:0:0:
149,264,108483,2,0,B|228:247,1,80,0|0,1:0|0:0,0:0:0:0:
415,211,108948,6,0,P|458:274|428:345,1,160,0|0,3:0|1:0,0:0:0:0:
333,254,109646,2,0,B|349:164|295:199|315:100,1,160,0|0,0:0|0:0,0:0:0:0:
415,211,110344,1,0,1:0:0:0:
227,247,110576,1,0,0:0:0:0:
245,43,110809,6,0,L|404:64,1,160,0|0,3:0|1:0,0:0:0:0:
472,194,111506,1,0,0:0:0:0:
352,348,111739,2,0,P|359:309|351:270,1,80,0|0,3:0|3:0,0:0:0:0:
213,159,112204,2,0,L|133:169,1,80,0|0,1:0|3:0,0:0:0:0:
0,192,112669,5,0,3:0:0:0:
44,163,125692,5,0,3:0:0:0:
50,203,125809,1,0,3:0:0:0:
57,242,125925,1,0,1:0:0:0:
91,261,126041,1,0,1:0:0:0:
131,262,126157,1,0,1:0:0:0:
166,245,126274,1,0,1:0:0:0:
190,213,126390,5,0,3:0:0:0:
196,173,126506,1,0,3:0:0:0:
203,134,126623,1,0,1:0:0:0:
237,114,126739,1,0,1:0:0:0:
277,113,126855,1,0,1:0:0:0:
312,131,126971,1,0,1:0:0:0:
335,163,127088,5,0,3:0:0:0:
342,106,127204,1,0,1:0:0:0:
396,91,127320,1,0,1:0:0:0:
432,135,127437,1,0,1:0:0:0:
405,185,127553,6,0,P|399:224|404:263,1,80,4|0,3:2|0:0,0:0:0:0:
214,355,128018,2,0,P|218:315|212:276,1,80,0|0,1:0|0:0,0:0:0:0:
6,177,128483,2,0,B|87:189|68:131|157:142,1,160,0|0,3:0|1:0,0:0:0:0:
359,277,129181,6,0,P|351:316|345:355,1,80,0|0,0:0|3:0,0:0:0:0:
251,176,129646,2,0,P|245:136|237:97,1,80,0|0,0:0|1:0,0:0:0:0:
451,160,130111,1,0,0:0:0:0:
235,269,130344,2,0,P|155:257|76:252,1,160,0|0,3:0|1:0,0:0:0:0:
326,347,131041,1,0,0:0:0:0:
361,152,131274,6,0,P|352:190|346:230,1,80,0|0,3:0|0:0,0:0:0:0:
247,362,131739,2,0,P|285:352|325:346,1,80,0|0,1:0|0:0,0:0:0:0:
451,160,132204,2,0,B|439:240|502:221|486:309,1,160,0|0,3:0|1:0,0:0:0:0:
272,196,132902,6,0,P|239:175|202:159,1,80,0|0,0:0|3:0,0:0:0:0:
394,79,133367,2,0,P|427:57|464:41,1,80,0|0,0:0|1:0,0:0:0:0:
425,220,133832,1,0,0:0:0:0:
291,110,134065,2,0,B|282:72|282:72|285:32,1,80,0|0,3:0|3:0,0:0:0:0:
359,0,134413,1,0,3:0:0:0:
359,0,134530,1,0,1:0:0:0:
93,88,134762,1,0,3:0:0:0:
93,88,134878,1,0,3:0:0:0:
93,88,134995,6,0,L|13:95,1,80,4|0,3:2|0:0,0:0:0:0:
112,280,135460,2,0,L|192:273,1,80,0|0,1:0|0:0,0:0:0:0:
220,32,135925,2,0,B|208:125|264:88|247:184,1,160,0|0,3:0|1:0,0:0:0:0:
358,364,136623,6,0,P|363:325|353:286,1,80,0|0,0:0|3:0,0:0:0:0:
404,28,137088,2,0,P|398:67|408:106,1,80,0|0,0:0|1:0,0:0:0:0:
510,275,137553,1,0,0:0:0:0:
270,294,137785,2,0,L|110:278,1,160,0|0,3:0|1:0,0:0:0:0:
447,246,138483,1,0,0:0:0:0:
281,79,138716,6,0,P|284:119|292:159,1,80,0|0,3:0|0:0,0:0:0:0:
447,246,139181,2,0,P|407:248|367:256,1,80,0|0,1:0|0:0,0:0:0:0:
141,194,139646,2,0,P|220:194|291:158,1,160,0|0,3:0|1:0,0:0:0:0:
391,274,140344,1,0,0:0:0:0:
203,376,140576,6,0,L|194:296,1,80,0|0,3:0|0:0,0:0:0:0:
33,266,141041,2,0,L|24:186,1,80,0|0,1:0|0:0,0:0:0:0:
219,46,141506,1,0,1:0:0:0:
145,212,141739,1,0,3:0:0:0:
145,212,141855,1,0,3:0:0:0:
145,212,141971,1,0,1:0:0:0:
376,122,142204,1,0,3:0:0:0:
376,122,142320,1,0,3:0:0:0:
376,122,142437,6,0,P|370:83|375:44,1,80,4|0,3:2|0:0,0:0:0:0:
295,236,142902,2,0,P|299:276|293:315,1,80,0|0,1:0|0:0,0:0:0:0:
48,228,143367,2,0,B|129:216|110:274|199:263,1,160,0|0,3:0|1:0,0:0:0:0:
358,107,144064,6,0,P|350:68|344:29,1,80,0|0,0:0|3:0,0:0:0:0:
438,245,144530,2,0,P|398:239|359:231,1,80,0|0,0:0|1:0,0:0:0:0:
152,290,144995,1,0,0:0:0:0:
234,115,145227,2,0,P|154:126|75:131,1,160,0|0,3:0|1:0,0:0:0:0:
341,37,145925,1,0,0:0:0:0:
360,232,146157,6,0,P|351:194|345:154,1,80,0|0,3:0|0:0,0:0:0:0:
182,26,146623,2,0,P|220:36|260:42,1,80,0|0,1:0|0:0,0:0:0:0:
482,217,147088,2,0,B|445:163|445:163|462:70,1,160,0|0,3:0|1:0,0:0:0:0:
289,153,147785,6,0,P|256:174|219:190,1,80,0|0,0:0|3:0,0:0:0:0:
393,305,148251,2,0,P|426:327|463:343,1,80,0|0,0:0|1:0,0:0:0:0:
424,164,148716,1,0,0:0:0:0:
272,264,148948,2,0,B|263:302|263:302|266:342,1,80,0|0,3:0|3:0,0:0:0:0:
343,376,149297,1,0,3:0:0:0:
343,376,149413,1,0,1:0:0:0:
114,280,149646,1,0,3:0:0:0:
114,280,149762,1,0,3:0:0:0:
114,280,149878,6,0,L|34:273,1,80,4|0,3:2|0:0,0:0:0:0:
226,108,150344,2,0,L|146:101,1,80,0|0,1:0|0:0,0:0:0:0:
231,346,150809,2,0,B|219:252|275:289|258:193,1,160,0|0,3:0|1:0,0:0:0:0:
354,57,151506,6,0,P|359:96|349:135,1,80,0|0,0:0|3:0,0:0:0:0:
423,339,151971,2,0,P|417:300|427:261,1,80,0|0,0:0|1:0,0:0:0:0:
504,134,152437,1,0,0:0:0:0:
275,51,152669,2,0,B|172:36|172:36|121:60,1,160,0|0,3:0|1:0,0:0:0:0:
367,128,153367,1,0,0:0:0:0:
203,294,153599,6,0,P|205:254|213:214,1,80,0|0,3:0|0:0,0:0:0:0:
446,138,154064,2,0,P|406:136|366:128,1,80,0|0,1:0|0:0,0:0:0:0:
140,189,154530,2,0,P|219:188|289:225,1,160,0|0,3:0|1:0,0:0:0:0:
390,110,155227,1,0,0:0:0:0:
139,85,155460,5,0,3:0:0:0:
275,8,155692,1,0,1:0:0:0:
253,41,155809,1,0,1:0:0:0:
240,79,155925,1,0,1:0:0:0:
237,119,156041,1,0,1:0:0:0:
245,158,156157,1,0,3:0:0:0:
484,292,156390,5,0,1:0:0:0:
456,265,156506,1,0,1:0:0:0:
417,259,156623,1,0,3:0:0:0:
382,277,156739,1,0,3:0:0:0:
363,311,156855,1,0,1:0:0:0:
334,338,156971,1,0,1:0:0:0:
295,344,157088,1,0,3:0:0:0:
260,326,157204,1,0,3:0:0:0:
241,292,157320,6,0,L|253:132,2,160,4|0|0,3:2|1:0|3:0,0:0:0:0:
161,170,158483,1,0,0:0:0:0:
333,191,158716,1,0,1:0:0:0:
157,302,158948,6,0,P|117:293|78:285,1,80,0|0,0:0|3:0,0:0:0:0:
355,302,159413,2,0,P|394:293|433:285,1,80,0|0,0:0|1:0,0:0:0:0:
256,239,159878,1,0,0:0:0:0:
365,104,160111,2,0,P|356:142|351:182,1,80,0|0,3:0|0:0,0:0:0:0:
160,182,160576,2,0,P|155:142|146:104,1,80,0|0,1:0|0:0,0:0:0:0:
255,6,161041,6,0,B|240:86|287:70|263:163,1,160,0|0,3:0|1:0,0:0:0:0:
157,277,161739,1,0,0:0:0:0:
87,176,161971,2,0,P|126:174|166:172,1,80,0|0,3:0|0:0,0:0:0:0:
327,319,162437,1,0,1:0:0:0:
173,369,162669,6,0,B|116:361|116:361|86:326|86:326|30:316,2,160,0|0|0,0:0|0:0|0:0,0:0:0:0:
349,242,163832,1,0,3:0:0:0:
280,364,164064,1,0,3:0:0:0:
280,364,164181,1,0,3:0:0:0:
280,364,164297,1,0,1:0:0:0:
220,187,164530,1,0,3:0:0:0:
220,187,164646,1,0,3:0:0:0:
220,187,164762,6,0,P|258:196|297:208,1,80,0|0,3:0|0:0,0:0:0:0:
466,107,165227,2,0,P|427:116|388:128,1,80,0|0,1:0|0:0,0:0:0:0:
426,294,165692,2,0,P|435:256|424:218,2,80,0|0|0,3:0|0:0|1:0,0:0:0:0:
280,364,166390,6,0,L|200:358,1,80,0|0,0:0|3:0,0:0:0:0:
127,201,166855,2,0,L|47:195,1,80,0|0,0:0|1:0,0:0:0:0:
229,263,167320,1,0,0:0:0:0:
200,71,167553,2,0,L|120:65,1,80,0|0,3:0|0:0,0:0:0:0:
283,170,168018,2,0,L|362:175,1,80,0|0,1:0|0:0,0:0:0:0:
200,312,168483,6,0,B|103:319|164:258|51:276,1,160,0|0,3:0|1:0,0:0:0:0:
231,174,169181,1,0,0:0:0:0:
40,296,169413,2,0,B|152:277|91:338|188:331,1,160,0|0,3:0|1:0,0:0:0:0:
349,279,170111,1,0,0:0:0:0:
152,104,170344,6,0,P|167:140|181:178,1,80,0|0,3:0|0:0,0:0:0:0:
330,178,170809,2,0,P|344:140|360:104,1,80,0|0,1:0|0:0,0:0:0:0:
250,57,171274,1,0,3:0:0:0:
138,262,171506,1,0,3:0:0:0:
138,262,171623,1,0,3:0:0:0:
138,262,171739,1,0,1:0:0:0:
366,179,171971,1,0,3:0:0:0:
366,179,172088,1,0,3:0:0:0:
366,179,172204,6,0,P|360:218|365:257,1,80,4|0,3:2|0:0,0:0:0:0:
191,381,172669,2,0,P|195:341|189:302,1,80,0|0,1:0|0:0,0:0:0:0:
6,177,173134,2,0,B|87:189|68:131|157:142,1,160,0|0,3:0|1:0,0:0:0:0:
282,1,173832,6,0,P|274:40|268:79,1,80,0|0,0:0|3:0,0:0:0:0:
390,258,174297,2,0,P|384:218|376:179,1,80,0|0,0:0|1:0,0:0:0:0:
495,337,174762,1,0,0:0:0:0:
509,63,174995,2,0,P|498:142|492:222,1,160,0|0,3:0|1:0,0:0:0:0:
326,347,175692,1,0,0:0:0:0:
491,314,175925,6,0,P|453:305|413:299,1,80,0|0,3:0|0:0,0:0:0:0:
200,244,176390,2,0,P|238:234|278:228,1,80,0|0,1:0|0:0,0:0:0:0:
496,181,176855,2,0,B|406:197|425:134|345:146,1,160,0|0,3:0|1:0,0:0:0:0:
129,206,177553,6,0,P|165:221|199:243,1,80,0|0,0:0|3:0,0:0:0:0:
319,118,178018,2,0,P|352:96|389:80,1,80,0|0,0:0|1:0,0:0:0:0:
469,197,178483,1,0,0:0:0:0:
299,346,178716,2,0,B|290:308|290:308|293:268,1,80,0|0,3:0|3:0,0:0:0:0:
367,236,179064,1,0,3:0:0:0:
367,236,179181,1,0,1:0:0:0:
162,107,179413,1,0,3:0:0:0:
162,107,179530,1,0,3:0:0:0:
162,107,179646,6,0,L|82:114,1,80,4|0,3:2|0:0,0:0:0:0:
19,288,180111,2,0,L|99:281,1,80,0|0,1:0|0:0,0:0:0:0:
307,179,180576,2,0,L|147:194,1,160,0|0,3:0|1:0,0:0:0:0:
355,327,181274,6,0,P|360:288|350:249,1,80,0|0,0:0|3:0,0:0:0:0:
424,45,181739,2,0,P|418:84|428:123,1,80,0|0,0:0|1:0,0:0:0:0:
505,250,182204,1,0,0:0:0:0:
270,294,182437,2,0,L|110:278,1,160,0|0,3:0|1:0,0:0:0:0:
351,345,183134,1,0,0:0:0:0:
292,159,183367,6,0,P|285:120|282:80,1,80,0|0,3:0|0:0,0:0:0:0:
473,260,183832,2,0,P|433:258|393:250,1,80,0|0,1:0|0:0,0:0:0:0:
145,212,184297,2,0,B|244:207|192:169|293:159,1,160,0|0,3:0|1:0,0:0:0:0:
391,274,184995,1,0,0:0:0:0:
203,376,185227,6,0,L|194:296,1,80,0|0,3:0|0:0,0:0:0:0:
351,186,185692,2,0,L|342:106,1,80,0|0,1:0|0:0,0:0:0:0:
79,52,186157,1,0,1:0:0:0:
153,218,186390,1,0,3:0:0:0:
199,98,186623,1,0,1:0:0:0:
33,172,186855,1,0,3:0:0:0:
194,295,187088,5,12,1:2:0:0:
