osu file format v14

[General]
AudioFilename: My Love.mp3
AudioLeadIn: 500
PreviewTime: 53498
Countdown: 0
SampleSet: Soft
StackLeniency: 0.3
Mode: 0
LetterboxInBreaks: 0
WidescreenStoryboard: 0

[Editor]
Bookmarks: 23732,39670,46701,69670,84670,150060,152170,159670,223420,227170
DistanceSpacing: 1.1
BeatDivisor: 4
GridSize: 8
TimelineZoom: 1.5

[Metadata]
Title:My Love
TitleUnicode:My Love
Artist:Kuba Oms
ArtistUnicode:Kuba Oms
Creator:negusver
Version:yup
Source:ADHD
Tags:
BeatmapID:1965762
BeatmapSetID:941315

[Difficulty]
HPDrainRate:6
CircleSize:4
OverallDifficulty:7
ApproachRate:8
SliderMultiplier:2
SliderTickRate:1

[Events]
//Background and Video events
0,0,"bg.jpg",0,0
//Break Periods
2,152170,158920
//Storyboard Layer 0 (Background)
//Storyboard Layer 1 (Fail)
//Storyboard Layer 2 (Pass)
//Storyboard Layer 3 (Foreground)
//Storyboard Sound Samples

[TimingPoints]
2170,468.75,4,2,0,40,1,0
2170,-500,4,2,0,40,0,0
3107,-200,4,2,0,40,0,0
4045,-500,4,2,0,40,0,0
4982,-200,4,2,0,40,0,0
5920,-500,4,2,0,40,0,0
6857,-200,4,2,0,40,0,0
7795,-333.333333333333,4,2,0,40,0,0
8498,-250,4,2,0,40,0,0
8966,-200,4,2,0,40,0,0
15763,-166.666666666667,4,2,0,40,0,0
16232,-142.857142857143,4,2,0,40,0,0
16701,-125,4,2,0,40,0,0
17170,-200,4,2,0,40,0,0
24670,-125,4,2,0,40,0,0
37560,-1000,4,2,0,40,0,0
38966,-250,4,2,0,40,0,0
39670,-111.111111111111,4,2,0,40,0,0
54201,-249.999999999999,4,2,0,40,0,0
54670,-125,4,2,0,40,0,0
68146,-125,4,2,0,5,0,0
68263,-125,4,2,0,40,0,0
68380,-125,4,2,0,5,0,0
68498,-125,4,2,0,40,0,0
68615,-125,4,2,0,5,0,0
68732,-125,4,2,0,40,0,0
68849,-125,4,2,0,5,0,0
68966,-125,4,2,0,40,0,0
69084,-125,4,2,0,5,0,0
69201,-125,4,2,0,40,0,0
69435,-200,4,2,0,40,0,0
75646,-200,4,2,0,5,0,0
75763,-166.666666666667,4,2,0,40,0,0
76115,-166.666666666667,4,2,0,5,0,0
76232,-142.857142857143,4,2,0,40,0,0
76584,-142.857142857143,4,2,0,5,0,0
76701,-125,4,2,0,40,0,0
77170,-200,4,2,0,40,0,0
82795,-200,4,2,0,40,0,0
84670,-125,4,2,0,40,0,0
97795,-333.333333333333,4,2,0,40,0,0
99670,-111.111111111111,4,2,0,40,0,0
113146,-111.111111111111,4,2,0,5,0,0
113263,-111.111111111111,4,2,0,40,0,0
113380,-111.111111111111,4,2,0,5,0,0
113498,-111.111111111111,4,2,0,40,0,0
114201,-249.999999999999,4,2,0,40,0,0
114670,-125,4,2,0,40,0,0
129435,-200,4,2,0,40,0,0
131545,-333.333333333333,4,2,0,40,0,0
133185,-166.666666666667,4,2,0,40,0,0
135295,-333.333333333333,4,2,0,40,0,0
136935,-166.666666666667,4,2,0,40,0,0
139045,-333.333333333333,4,2,0,40,0,0
140685,-166.666666666667,4,2,0,40,0,0
142795,-333.333333333334,4,2,0,40,0,0
144670,-166.666666666667,4,2,0,40,0,0
147482,-111.111111111111,4,2,0,40,0,0
148420,-83.3333333333334,4,2,0,40,0,0
149826,-333.333333333333,4,2,0,40,0,0
160138,-285.714285714286,4,2,0,40,0,0
160607,-250,4,2,0,40,0,0
161076,-222.222222222222,4,2,0,40,0,0
161545,-200,4,2,0,40,0,0
162013,-181.818181818182,4,2,0,40,0,0
162482,-166.666666666667,4,2,0,40,0,0
162951,-153.846153846154,4,2,0,40,0,0
163420,-142.857142857143,4,2,0,40,0,0
163537,-142.857142857143,4,2,0,5,0,0
163654,-142.857142857143,4,2,0,40,0,0
163771,-142.857142857143,4,2,0,5,0,0
163888,-133.333333333333,4,2,0,40,0,0
164005,-133.333333333333,4,2,0,5,0,0
164123,-133.333333333333,4,2,0,40,0,0
164240,-133.333333333333,4,2,0,5,0,0
164357,-125,4,2,0,40,0,0
164474,-125,4,2,0,5,0,0
164591,-125,4,2,0,40,0,0
164709,-125,4,2,0,5,0,0
164826,-117.647058823529,4,2,0,5,0,0
164943,-117.647058823529,4,2,0,5,0,0
165060,-117.647058823529,4,2,0,40,0,0
165177,-117.647058823529,4,2,0,5,0,0
165295,-111.111111111111,4,2,0,40,0,0
165412,-111.111111111111,4,2,0,5,0,0
165529,-111.111111111111,4,2,0,40,0,0
165646,-111.111111111111,4,2,0,5,0,0
165763,-100,4,2,0,40,0,0
165880,-100,4,2,0,5,0,0
165998,-100,4,2,0,40,0,0
167170,-125,4,2,0,40,0,0
180646,-125,4,2,0,5,0,0
180763,-125,4,2,0,40,0,0
180880,-125,4,2,0,5,0,0
180998,-125,4,2,0,40,0,0
197170,-83.3333333333333,4,2,0,40,0,0
218029,-100,4,2,0,40,0,0
218263,-125,4,2,0,40,0,0
218498,-142.857142857143,4,2,0,40,0,0
218732,-166.666666666667,4,2,0,40,0,0

[Colours]
Combo1 : 17,254,176
Combo2 : 173,255,95
Combo3 : 255,88,100
Combo4 : 255,94,55

[HitObjects]
256,192,295,12,0,1701,0:0:0:0:
128,144,2170,6,0,L|120:188,1,40,0|0,0:0|0:0,0:0:0:0:
188,231,2873,1,0,0:0:0:0:
201,235,3107,2,0,L|258:219,1,50,0|0,0:0|0:0,0:0:0:0:
320,113,3576,2,0,L|305:170,1,50,0|0,0:0|0:0,0:0:0:0:
425,275,4045,6,0,L|413:229,1,40,0|0,0:0|0:0,0:0:0:0:
463,137,4748,1,0,0:0:0:0:
456,149,4982,2,0,L|405:160,1,50,0|0,0:0|0:0,0:0:0:0:
352,51,5451,2,0,L|399:72,1,50,0|0,0:0|0:0,0:0:0:0:
317,215,5920,6,0,L|321:171,1,40,0|0,0:0|0:0,0:0:0:0:
236,281,6623,1,0,0:0:0:0:
249,275,6857,2,0,L|298:290,1,50,0|0,0:0|0:0,0:0:0:0:
180,340,7326,2,0,L|131:355,1,50,0|0,0:0|0:0,0:0:0:0:
19,215,7795,6,0,L|26:165,1,44.999998626709,0|0,0:0|0:0,0:0:0:0:
130,91,8263,1,0,0:0:0:0:
128,103,8498,2,0,L|95:128,1,40,0|0,0:0|0:0,0:0:0:0:
6,58,8966,2,0,L|58:46,1,50,0|0,0:0|0:0,0:0:0:0:
128,103,9435,1,0,0:0:0:0:
250,3,9670,5,0,0:0:0:0:
212,73,10138,1,0,0:0:0:0:
256,139,10607,1,0,0:0:0:0:
293,68,11076,1,0,0:0:0:0:
191,190,11545,5,0,0:0:0:0:
246,246,12013,1,0,0:0:0:0:
271,170,12482,1,0,0:0:0:0:
325,229,12951,1,0,0:0:0:0:
170,264,13420,5,0,0:0:0:0:
105,216,13888,1,0,0:0:0:0:
179,186,14357,1,0,0:0:0:0:
243,234,14826,1,0,0:0:0:0:
98,174,15295,2,0,L|122:84,1,75,0|0,0:0|0:0,0:0:0:0:
94,15,15763,2,0,L|121:112,1,89.9999972534181,0|0,0:0|0:0,0:0:0:0:
222,109,16232,2,0,L|116:101,1,104.999996795654,0|0,0:0|0:0,0:0:0:0:
238,30,16701,2,0,L|219:120,1,80,0|0,0:0|0:0,0:0:0:0:
284,277,17170,5,0,0:0:0:0:
323,207,17638,1,0,0:0:0:0:
362,276,18107,1,0,0:0:0:0:
322,345,18576,1,0,0:0:0:0:
436,238,19045,5,0,0:0:0:0:
371,190,19513,1,0,0:0:0:0:
292,203,19982,1,0,0:0:0:0:
241,264,20451,1,0,0:0:0:0:
374,116,20920,5,0,0:0:0:0:
296,98,21388,1,0,0:0:0:0:
320,174,21857,1,0,0:0:0:0:
374,116,22326,1,0,0:0:0:0:
253,204,22795,5,0,0:0:0:0:
246,217,23263,1,0,0:0:0:0:
239,229,23732,2,0,L|177:246,1,50,0|0,0:0|0:0,0:0:0:0:
116,165,24201,1,0,0:0:0:0:
361,180,24435,1,0,0:0:0:0:
352,189,24552,1,0,0:0:0:0:
342,198,24670,6,0,L|327:106,1,80,0|0,0:0|0:0,0:0:0:0:
431,266,25021,1,0,0:0:0:0:
425,253,25138,2,0,L|447:194,1,40,0|0,0:0|0:0,0:0:0:0:
424,113,25373,1,0,0:0:0:0:
306,303,25607,1,0,0:0:0:0:
304,287,25724,1,0,0:0:0:0:
302,270,25841,2,0,P|326:269|355:276,1,40,0|0,0:0|0:0,0:0:0:0:
198,307,26076,2,0,P|157:311|115:294,1,80,0|0,0:0|0:0,0:0:0:0:
209,216,26427,1,0,0:0:0:0:
219,227,26545,6,0,L|211:164,1,40,0|0,0:0|0:0,0:0:0:0:
54,206,26779,2,0,L|101:215,1,40,0|0,0:0|0:0,0:0:0:0:
154,108,27013,1,0,0:0:0:0:
19,90,27248,1,0,0:0:0:0:
31,93,27365,1,0,0:0:0:0:
143,22,27599,1,0,0:0:0:0:
150,36,27716,2,0,L|141:80,1,40,0|0,0:0|0:0,0:0:0:0:
193,174,27951,1,0,0:0:0:0:
193,174,28185,2,0,L|232:160,2,26.6666666666667,0|0|0,0:0|0:0|0:0,0:0:0:0:
172,195,28420,6,0,L|113:183,1,40,0|0,0:0|0:0,0:0:0:0:
328,241,28654,1,0,0:0:0:0:
334,257,28771,1,0,0:0:0:0:
338,273,28888,2,0,P|331:298|315:316,1,40,0|0,0:0|0:0,0:0:0:0:
265,162,29123,2,0,P|289:171|306:188,1,40,0|0,0:0|0:0,0:0:0:0:
443,109,29357,1,0,0:0:0:0:
427,101,29474,2,0,P|391:137|383:171,1,80,0|0,0:0|0:0,0:0:0:0:
314,82,29826,2,0,L|304:16,1,40,0|0,0:0|0:0,0:0:0:0:
170,138,30060,2,0,L|149:153,2,26.6666666666667,0|0|0,0:0|0:0|0:0,0:0:0:0:
180,114,30295,6,0,L|92:109,1,80,0|0,0:0|0:0,0:0:0:0:
58,242,30646,1,0,0:0:0:0:
68,231,30763,2,0,L|58:175,1,40,0|0,0:0|0:0,0:0:0:0:
87,320,30998,2,0,L|143:328,1,40,0|0,0:0|0:0,0:0:0:0:
195,217,31232,1,0,0:0:0:0:
194,232,31349,1,0,0:0:0:0:
202,247,31466,1,0,0:0:0:0:
320,217,31701,1,0,0:0:0:0:
320,217,31935,2,0,L|335:175,2,26.6666666666667,0|0|0,0:0|0:0|0:0,0:0:0:0:
296,240,32170,6,0,L|403:254,1,80,0|0,0:0|0:0,0:0:0:0:
226,174,32521,1,0,0:0:0:0:
239,166,32638,2,0,L|245:124,1,40,0|0,0:0|0:0,0:0:0:0:
119,239,32873,1,0,0:0:0:0:
164,91,33107,1,0,0:0:0:0:
158,106,33224,1,0,0:0:0:0:
149,121,33341,2,0,L|103:111,1,40,0|0,0:0|0:0,0:0:0:0:
19,189,33576,2,0,P|37:238|28:280,1,80,0|0,0:0|0:0,0:0:0:0:
165,204,33927,1,0,0:0:0:0:
147,201,34045,6,0,P|129:221|122:243,1,40,0|0,0:0|0:0,0:0:0:0:
90,133,34279,2,0,L|83:92,1,40,0|0,0:0|0:0,0:0:0:0:
256,116,34513,1,0,0:0:0:0:
256,116,34748,2,0,L|320:127,1,40,0|0,0:0|0:0,0:0:0:0:
397,232,34982,1,0,0:0:0:0:
394,208,35099,1,0,0:0:0:0:
385,192,35216,1,0,0:0:0:0:
336,334,35451,6,0,P|302:291|269:278,1,80,0|0,0:0|0:0,0:0:0:0:
449,304,35802,1,0,0:0:0:0:
440,293,35920,2,0,P|458:272|493:256,1,40,0|0,0:0|0:0,0:0:0:0:
376,175,36154,2,0,L|361:230,1,40,0|0,0:0|0:0,0:0:0:0:
512,136,36388,2,0,P|466:119|420:129,1,80,0|0,0:0|0:0,0:0:0:0:
197,219,36857,1,0,0:0:0:0:
218,222,36974,1,0,0:0:0:0:
234,217,37091,1,0,0:0:0:0:
234,217,37326,2,0,L|218:281,1,40,0|0,0:0|0:0,0:0:0:0:
151,326,37560,6,0,L|154:353,1,25,0|0,0:0|0:0,0:0:0:0:
154,351,38966,2,0,L|116:351,1,20,0|0,0:0|0:0,0:0:0:0:
12,306,39201,2,0,P|43:297|82:313,1,60,0|0,0:0|0:0,0:0:0:0:
69,303,39670,6,0,P|120:272|179:282,1,89.9999972534181,0|0,0:0|0:0,0:0:0:0:
275,257,40021,1,0,0:0:0:0:
274,272,40138,2,0,P|246:260|228:241,1,44.999998626709,0|0,0:0|0:0,0:0:0:0:
149,272,40373,2,0,P|145:242|152:217,1,44.999998626709,0|0,0:0|0:0,0:0:0:0:
240,131,40607,2,0,P|231:159|214:179,1,44.999998626709,0|0,0:0|0:0,0:0:0:0:
131,88,40841,2,0,P|154:70|179:64,1,44.999998626709,0|0,0:0|0:0,0:0:0:0:
306,84,41076,2,0,P|330:101|355:105,1,44.999998626709,0|0,0:0|0:0,0:0:0:0:
414,220,41310,1,0,0:0:0:0:
430,209,41427,1,0,0:0:0:0:
439,196,41545,6,0,P|430:168|409:144,1,44.999998626709,0|0,0:0|0:0,0:0:0:0:
319,248,41779,2,0,P|341:265|372:272,1,44.999998626709,0|0,0:0|0:0,0:0:0:0:
457,335,42013,2,0,P|450:307|432:281,1,44.999998626709,0|0,0:0|0:0,0:0:0:0:
352,358,42248,2,0,P|326:344|294:342,1,44.999998626709,0|0,0:0|0:0,0:0:0:0:
178,366,42482,2,0,P|202:351|234:348,1,44.999998626709,0|0,0:0|0:0,0:0:0:0:
223,215,42716,2,0,P|218:243|200:269,1,44.999998626709,0|0,0:0|0:0,0:0:0:0:
122,305,42951,2,0,P|93:302|65:287,1,44.999998626709,0|0,0:0|0:0,0:0:0:0:
0,196,43185,1,0,0:0:0:0:
5,179,43302,1,0,0:0:0:0:
18,168,43420,6,0,P|40:192|48:225,1,44.999998626709,0|0,0:0|0:0,0:0:0:0:
148,187,43654,2,0,P|162:157|191:140,1,44.999998626709,0|0,0:0|0:0,0:0:0:0:
60,57,43888,2,0,P|80:65|96:81,1,44.999998626709,0|0,0:0|0:0,0:0:0:0:
243,103,44123,2,0,P|273:94|296:69,1,44.999998626709,0|0,0:0|0:0,0:0:0:0:
187,0,44357,2,0,P|171:29|175:62,1,44.999998626709,0|0,0:0|0:0,0:0:0:0:
139,164,44591,2,0,P|159:138|163:105,1,44.999998626709,0|0,0:0|0:0,0:0:0:0:
268,179,44826,2,0,P|288:204|320:214,1,44.999998626709,0|0,0:0|0:0,0:0:0:0:
374,312,45060,1,0,0:0:0:0:
388,299,45177,1,0,0:0:0:0:
396,285,45295,6,0,P|384:253|357:234,1,44.999998626709,0|0,0:0|0:0,0:0:0:0:
261,292,45529,2,0,P|258:326|275:354,1,44.999998626709,0|0,0:0|0:0,0:0:0:0:
299,209,45763,2,0,P|280:180|250:167,1,44.999998626709,0|0,0:0|0:0,0:0:0:0:
376,245,45998,2,0,P|409:250|439:236,1,44.999998626709,0|0,0:0|0:0,0:0:0:0:
437,132,46232,2,0,P|406:147|390:176,1,44.999998626709,0|0,0:0|0:0,0:0:0:0:
258,74,46466,2,0,P|284:96|316:99,1,44.999998626709,0|0,0:0|0:0,0:0:0:0:
393,46,46701,2,0,P|384:12|359:-8,1,44.999998626709,0|0,0:0|0:0,0:0:0:0:
293,180,46935,1,0,0:0:0:0:
305,190,47052,1,0,0:0:0:0:
321,190,47170,6,0,P|332:159|324:127,1,44.999998626709,0|0,0:0|0:0,0:0:0:0:
242,267,47404,2,0,P|256:295|286:311,1,44.999998626709,0|0,0:0|0:0,0:0:0:0:
388,305,47638,2,0,P|414:286|448:286,1,44.999998626709,0|0,0:0|0:0,0:0:0:0:
499,178,47873,2,0,P|493:209|470:234,1,44.999998626709,0|0,0:0|0:0,0:0:0:0:
376,118,48107,2,0,P|405:104|438:109,1,44.999998626709,0|0,0:0|0:0,0:0:0:0:
296,174,48341,2,0,P|264:167|240:144,1,44.999998626709,0|0,0:0|0:0,0:0:0:0:
144,62,48576,2,0,P|150:93|139:124,1,44.999998626709,0|0,0:0|0:0,0:0:0:0:
84,239,48810,1,0,0:0:0:0:
66,252,48927,1,0,0:0:0:0:
42,255,49045,6,0,P|70:268|89:295,1,44.999998626709,0|0,0:0|0:0,0:0:0:0:
27,164,49279,2,0,P|42:137|71:121,1,44.999998626709,0|0,0:0|0:0,0:0:0:0:
171,179,49513,2,0,P|173:209|159:239,1,44.999998626709,0|0,0:0|0:0,0:0:0:0:
231,304,49748,2,0,P|260:294|292:302,1,44.999998626709,0|0,0:0|0:0,0:0:0:0:
430,329,49982,2,0,P|447:303|450:270,1,44.999998626709,0|0,0:0|0:0,0:0:0:0:
393,164,50216,2,0,P|399:194|422:218,1,44.999998626709,0|0,0:0|0:0,0:0:0:0:
277,223,50451,2,0,P|308:222|336:239,1,44.999998626709,0|0,0:0|0:0,0:0:0:0:
309,98,50685,1,0,0:0:0:0:
330,97,50802,1,0,0:0:0:0:
352,88,50920,6,0,P|326:105|313:135,1,44.999998626709,0|0,0:0|0:0,0:0:0:0:
196,181,51154,2,0,P|190:151|167:126,1,44.999998626709,0|0,0:0|0:0,0:0:0:0:
74,254,51388,2,0,P|99:269|133:269,1,44.999998626709,0|0,0:0|0:0,0:0:0:0:
222,347,51623,2,0,P|210:318|183:299,1,44.999998626709,0|0,0:0|0:0,0:0:0:0:
250,211,51857,2,0,P|220:205|195:182,1,44.999998626709,0|0,0:0|0:0,0:0:0:0:
113,201,52091,2,0,P|113:170|131:141,1,44.999998626709,0|0,0:0|0:0,0:0:0:0:
324,178,52326,2,0,P|334:205|329:238,1,44.999998626709,0|0,0:0|0:0,0:0:0:0:
385,300,52560,2,0,P|359:315|325:315,1,44.999998626709,0|0,0:0|0:0,0:0:0:0:
460,223,52795,5,0,0:0:0:0:
352,111,53029,2,0,L|396:118,1,44.999998626709,0|0,0:0|0:0,0:0:0:0:
215,223,53263,2,0,L|259:216,1,44.999998626709,0|0,0:0|0:0,0:0:0:0:
120,146,53498,1,0,0:0:0:0:
120,146,54201,6,0,L|130:98,1,40,0|0,0:0|0:0,0:0:0:0:
129,107,54670,6,0,P|102:141|98:188,1,80,0|0,0:0|0:0,0:0:0:0:
225,183,55138,2,0,P|200:167|155:161,1,40,0|0,0:0|0:0,0:0:0:0:
167,243,55373,1,0,0:0:0:0:
304,155,55607,2,0,L|291:62,1,80,0|0,0:0|0:0,0:0:0:0:
409,43,56076,2,0,L|396:136,1,80,0|0,0:0|0:0,0:0:0:0:
158,66,56545,6,0,P|208:34|252:39,1,80,0|0,0:0|0:0,0:0:0:0:
203,155,57013,2,0,P|182:152|154:135,1,40,0|0,0:0|0:0,0:0:0:0:
270,112,57248,1,0,0:0:0:0:
174,239,57482,2,0,P|139:229|89:176,1,80,0|0,0:0|0:0,0:0:0:0:
319,171,57951,2,0,P|300:202|236:236,1,80,0|0,0:0|0:0,0:0:0:0:
216,384,58420,6,0,L|225:279,1,80,0|0,0:0|0:0,0:0:0:0:
378,233,58888,2,0,L|390:284,1,40,0|0,0:0|0:0,0:0:0:0:
345,342,59123,1,0,0:0:0:0:
265,227,59357,2,0,P|227:213|188:220,1,80,0|0,0:0|0:0,0:0:0:0:
337,149,59826,2,0,L|328:41,1,80,0|0,0:0|0:0,0:0:0:0:
125,125,60295,6,0,P|160:142|220:138,1,80,0|0,0:0|0:0,0:0:0:0:
146,0,60763,2,0,P|120:11|106:28,1,40,0|0,0:0|0:0,0:0:0:0:
179,67,60998,1,0,0:0:0:0:
316,13,61232,1,0,0:0:0:0:
464,82,61466,2,0,P|440:81|423:74,1,40,0|0,0:0|0:0,0:0:0:0:
346,89,61701,2,0,L|338:155,1,40,0|0,0:0|0:0,0:0:0:0:
434,167,61935,2,0,L|442:233,1,40,0|0,0:0|0:0,0:0:0:0:
386,301,62170,6,0,L|285:286,1,80,0|0,0:0|0:0,0:0:0:0:
155,252,62638,2,0,P|175:244|205:244,1,40,0|0,0:0|0:0,0:0:0:0:
189,328,62873,1,0,0:0:0:0:
64,287,63107,2,0,L|74:174,1,80,0|0,0:0|0:0,0:0:0:0:
213,137,63576,2,0,P|174:133|132:155,1,80,0|0,0:0|0:0,0:0:0:0:
206,294,64045,6,0,P|241:277|266:237,1,80,0|0,0:0|0:0,0:0:0:0:
300,355,64513,2,0,P|315:376|352:393,1,40,0|0,0:0|0:0,0:0:0:0:
369,305,64748,1,0,0:0:0:0:
206,294,64982,2,0,L|197:374,1,80,0|0,0:0|0:0,0:0:0:0:
294,236,65451,2,0,L|285:156,1,80,0|0,0:0|0:0,0:0:0:0:
88,108,65920,6,0,P|112:140|166:156,1,80,0|0,0:0|0:0,0:0:0:0:
208,62,66388,2,0,P|186:62|156:73,1,40,0|0,0:0|0:0,0:0:0:0:
277,124,66623,1,0,0:0:0:0:
427,70,66857,1,0,0:0:0:0:
283,6,67091,2,0,L|293:55,1,40,0|0,0:0|0:0,0:0:0:0:
401,145,67326,2,0,L|391:194,1,40,0|0,0:0|0:0,0:0:0:0:
313,301,67560,1,0,0:0:0:0:
329,287,67795,5,0,0:0:0:0:
223,338,68029,2,0,L|162:331,1,40,0|0,0:0|0:0,0:0:0:0:
123,254,68263,2,0,L|62:261,1,40,0|0,0:0|0:0,0:0:0:0:
274,154,68498,2,0,L|335:147,1,40,0|0,0:0|0:0,0:0:0:0:
160,63,68732,2,0,L|221:70,1,40,0|0,0:0|0:0,0:0:0:0:
251,256,68966,2,0,L|312:263,1,40,0|0,0:0|0:0,0:0:0:0:
443,120,69201,5,0,0:0:0:0:
349,72,69435,2,0,L|357:136,1,50,0|0,0:0|0:0,0:0:0:0:
409,191,70138,1,0,0:0:0:0:
487,173,70607,1,0,0:0:0:0:
430,116,71076,1,0,0:0:0:0:
466,248,71545,5,0,0:0:0:0:
388,268,72013,1,0,0:0:0:0:
316,231,72482,1,0,0:0:0:0:
383,188,72951,1,0,0:0:0:0:
310,304,73420,5,0,0:0:0:0:
276,231,73888,1,0,0:0:0:0:
224,292,74357,1,0,0:0:0:0:
254,366,74826,1,0,0:0:0:0:
357,235,75295,6,0,L|345:159,1,75,0|0,0:0|0:0,0:0:0:0:
268,216,75763,2,0,L|364:236,1,89.9999972534181,0|0,0:0|0:0,0:0:0:0:
315,122,76232,2,0,L|262:226,1,104.999996795654,0|0,0:0|0:0,0:0:0:0:
373,312,76701,2,0,L|354:228,1,80,0|0,0:0|0:0,0:0:0:0:
162,195,77170,5,0,0:0:0:0:
233,230,77638,1,0,0:0:0:0:
296,181,78107,1,0,0:0:0:0:
221,152,78576,1,0,0:0:0:0:
204,299,79045,5,0,0:0:0:0:
128,272,79513,1,0,0:0:0:0:
143,350,79982,1,0,0:0:0:0:
204,299,80451,1,0,0:0:0:0:
68,316,80920,5,0,0:0:0:0:
54,237,81388,1,0,0:0:0:0:
117,188,81857,1,0,0:0:0:0:
195,204,82326,1,0,0:0:0:0:
77,121,82795,6,0,L|93:16,1,100,0|0,0:0|0:0,0:0:0:0:
238,52,83498,1,0,0:0:0:0:
250,64,83732,2,0,L|252:113,1,50,0|0,0:0|0:0,0:0:0:0:
167,145,84201,2,0,L|164:95,1,50,0|0,0:0|0:0,0:0:0:0:
149,139,84670,6,0,P|116:172|73:189,1,80,0|0,0:0|0:0,0:0:0:0:
224,183,85021,1,0,0:0:0:0:
238,192,85138,2,0,L|242:249,1,40,0|0,0:0|0:0,0:0:0:0:
320,274,85373,2,0,L|324:216,1,40,0|0,0:0|0:0,0:0:0:0:
363,135,85607,1,0,0:0:0:0:
376,147,85724,1,0,0:0:0:0:
385,162,85841,1,0,0:0:0:0:
385,162,86076,2,0,L|283:147,1,80,0|0,0:0|0:0,0:0:0:0:
436,238,86427,1,0,0:0:0:0:
450,251,86545,6,0,L|455:180,1,40,0|0,0:0|0:0,0:0:0:0:
422,74,86779,1,0,0:0:0:0:
438,79,86896,1,0,0:0:0:0:
452,90,87013,1,0,0:0:0:0:
324,220,87248,2,0,L|314:166,1,40,0|0,0:0|0:0,0:0:0:0:
267,43,87482,1,0,0:0:0:0:
251,48,87599,2,0,L|241:101,1,40,0|0,0:0|0:0,0:0:0:0:
243,87,87951,2,0,P|208:53|155:32,1,80,0|0,0:0|0:0,0:0:0:0:
260,180,88302,1,0,0:0:0:0:
279,185,88420,6,0,L|310:129,1,40,0|0,0:0|0:0,0:0:0:0:
160,139,88654,2,0,L|179:173,1,40,0|0,0:0|0:0,0:0:0:0:
110,238,88888,2,0,L|71:226,1,40,0|0,0:0|0:0,0:0:0:0:
72,98,89123,2,0,L|63:137,1,40,0|0,0:0|0:0,0:0:0:0:
176,280,89357,1,0,0:0:0:0:
191,268,89474,2,0,P|248:268|280:288,1,80,0|0,0:0|0:0,0:0:0:0:
320,343,89826,1,0,0:0:0:0:
403,207,90060,2,0,L|416:167,2,26.6666666666667,0|0|0,0:0|0:0|0:0,0:0:0:0:
377,230,90295,6,0,L|358:86,1,120,0|0,0:0|0:0,0:0:0:0:
272,81,90763,2,0,L|262:129,1,40,0|0,0:0|0:0,0:0:0:0:
340,33,90998,1,0,0:0:0:0:
191,164,91232,1,0,0:0:0:0:
206,181,91349,1,0,0:0:0:0:
224,189,91466,1,0,0:0:0:0:
145,78,91701,1,0,0:0:0:0:
145,78,91935,2,0,L|158:38,2,26.6666666666667,0|0|0,0:0|0:0|0:0,0:0:0:0:
122,100,92170,6,0,L|137:214,1,80,0|0,0:0|0:0,0:0:0:0:
107,312,92521,1,0,0:0:0:0:
119,302,92638,2,0,L|64:284,1,40,0|0,0:0|0:0,0:0:0:0:
207,241,92873,2,0,L|220:298,1,40,0|0,0:0|0:0,0:0:0:0:
322,324,93107,1,0,0:0:0:0:
338,310,93224,1,0,0:0:0:0:
357,302,93341,1,0,0:0:0:0:
234,366,93576,2,0,P|178:359|143:331,1,80,0|0,0:0|0:0,0:0:0:0:
239,274,93927,1,0,0:0:0:0:
221,282,94045,6,0,L|246:154,1,120,0|0,0:0|0:0,0:0:0:0:
150,215,94513,2,0,L|87:206,1,40,0|0,0:0|0:0,0:0:0:0:
293,106,94748,1,0,0:0:0:0:
309,123,94865,1,0,0:0:0:0:
320,146,94982,2,0,L|329:92,1,40,0|0,0:0|0:0,0:0:0:0:
248,237,95216,2,0,L|239:183,1,40,0|0,0:0|0:0,0:0:0:0:
449,131,95451,2,0,L|428:228,1,80,0|0,0:0|0:0,0:0:0:0:
388,50,95802,1,0,0:0:0:0:
400,37,95920,6,0,L|451:60,1,40,0|0,0:0|0:0,0:0:0:0:
254,120,96154,1,0,0:0:0:0:
268,105,96271,1,0,0:0:0:0:
285,92,96388,2,0,L|223:74,1,40,0|0,0:0|0:0,0:0:0:0:
147,200,96623,2,0,L|209:182,1,40,0|0,0:0|0:0,0:0:0:0:
49,107,96857,2,0,L|111:125,1,40,0|0,0:0|0:0,0:0:0:0:
147,290,97091,2,0,L|108:278,1,40,0|0,0:0|0:0,0:0:0:0:
280,200,97326,1,0,0:0:0:0:
322,373,97560,1,0,0:0:0:0:
360,360,97677,1,0,0:0:0:0:
380,325,97795,6,0,P|328:297|263:323,1,119.999996337891,0|0,0:0|0:0,0:0:0:0:
184,352,98966,2,0,P|163:340|154:323,1,29.9999990844727,0|0,0:0|0:0,0:0:0:0:
160,335,99670,6,0,P|169:279|147:234,1,89.9999972534181,0|0,0:0|0:0,0:0:0:0:
63,255,100021,1,0,0:0:0:0:
53,265,100138,2,0,P|67:283|100:293,1,44.999998626709,0|0,0:0|0:0,0:0:0:0:
108,179,100373,2,0,P|85:175|53:190,1,44.999998626709,0|0,0:0|0:0,0:0:0:0:
157,248,100607,6,0,P|175:234|187:201,1,44.999998626709,0|0,0:0|0:0,0:0:0:0:
266,230,100841,2,0,P|269:207|254:175,1,44.999998626709,0|0,0:0|0:0,0:0:0:0:
301,103,101076,2,0,P|316:120|350:129,1,44.999998626709,0|0,0:0|0:0,0:0:0:0:
457,188,101310,1,0,0:0:0:0:
447,176,101427,1,0,0:0:0:0:
433,171,101545,6,0,P|406:183|393:196,1,44.999998626709,0|0,0:0|0:0,0:0:0:0:
421,274,101779,2,0,P|418:303|423:321,1,44.999998626709,0|0,0:0|0:0,0:0:0:0:
339,353,102013,2,0,P|323:327|309:316,1,44.999998626709,0|0,0:0|0:0,0:0:0:0:
231,243,102248,2,0,P|228:272|233:290,1,44.999998626709,0|0,0:0|0:0,0:0:0:0:
332,224,102482,6,0,P|312:201|296:192,1,44.999998626709,0|0,0:0|0:0,0:0:0:0:
184,132,102716,1,0,0:0:0:0:
197,140,102834,1,0,0:0:0:0:
203,153,102951,2,0,P|183:176|157:189,1,44.999998626709,0|0,0:0|0:0,0:0:0:0:
30,214,103185,1,0,0:0:0:0:
39,200,103302,1,0,0:0:0:0:
55,191,103420,6,0,P|75:218|79:235,1,44.999998626709,0|0,0:0|0:0,0:0:0:0:
139,289,103654,2,0,P|125:319|112:331,1,44.999998626709,0|0,0:0|0:0,0:0:0:0:
233,384,103888,2,0,P|225:351|228:334,1,44.999998626709,0|0,0:0|0:0,0:0:0:0:
309,292,104123,2,0,P|341:301|354:312,1,44.999998626709,0|0,0:0|0:0,0:0:0:0:
234,231,104357,2,0,P|258:207|274:201,1,44.999998626709,0|0,0:0|0:0,0:0:0:0:
394,202,104591,2,0,P|360:195|346:186,1,44.999998626709,0|0,0:0|0:0,0:0:0:0:
351,83,104826,2,0,P|382:71|400:72,1,44.999998626709,0|0,0:0|0:0,0:0:0:0:
212,88,105060,1,0,0:0:0:0:
221,74,105177,1,0,0:0:0:0:
237,65,105295,6,0,P|257:92|261:109,1,44.999998626709,0|0,0:0|0:0,0:0:0:0:
168,172,105529,2,0,P|148:199|144:216,1,44.999998626709,0|0,0:0|0:0,0:0:0:0:
256,300,105763,2,0,P|231:277|214:271,1,44.999998626709,0|0,0:0|0:0,0:0:0:0:
144,342,105998,2,0,P|148:375|158:390,1,44.999998626709,0|0,0:0|0:0,0:0:0:0:
77,256,106232,6,0,P|46:270|35:284,1,44.999998626709,0|0,0:0|0:0,0:0:0:0:
168,172,106466,2,0,P|139:153|122:150,1,44.999998626709,0|0,0:0|0:0,0:0:0:0:
291,165,106701,2,0,P|288:131|294:115,1,44.999998626709,0|0,0:0|0:0,0:0:0:0:
222,281,106935,1,0,0:0:0:0:
201,273,107052,1,0,0:0:0:0:
188,255,107170,6,0,P|210:240|257:247,1,44.999998626709,0|0,0:0|0:0,0:0:0:0:
88,315,107404,2,0,P|79:282|81:265,1,44.999998626709,0|0,0:0|0:0,0:0:0:0:
122,150,107638,2,0,P|147:171|164:176,1,44.999998626709,0|0,0:0|0:0,0:0:0:0:
289,143,107873,2,0,P|255:147|240:157,1,44.999998626709,0|0,0:0|0:0,0:0:0:0:
321,263,108107,6,0,P|344:239|351:223,1,44.999998626709,0|0,0:0|0:0,0:0:0:0:
444,141,108341,2,0,P|412:152|399:164,1,44.999998626709,0|0,0:0|0:0,0:0:0:0:
467,281,108576,2,0,P|444:255|428:248,1,44.999998626709,0|0,0:0|0:0,0:0:0:0:
321,263,108810,1,0,0:0:0:0:
305,279,108927,1,0,0:0:0:0:
284,289,109045,6,0,P|250:283|224:261,1,44.999998626709,0|0,0:0|0:0,0:0:0:0:
104,216,109279,1,0,0:0:0:0:
124,225,109396,1,0,0:0:0:0:
140,242,109514,6,0,P|144:275|131:306,1,44.999998626709,0|0,0:0|0:0,0:0:0:0:
220,194,109748,2,0,P|246:173|280:168,1,44.999998626709,0|0,0:0|0:0,0:0:0:0:
128,91,109982,2,0,P|142:121|140:155,1,44.999998626709,0|0,0:0|0:0,0:0:0:0:
7,115,110216,2,0,P|22:85|51:67,1,44.999998626709,0|0,0:0|0:0,0:0:0:0:
82,225,110451,6,0,P|67:194|69:160,1,44.999998626709,0|0,0:0|0:0,0:0:0:0:
0,300,110685,1,0,0:0:0:0:
19,300,110802,1,0,0:0:0:0:
37,312,110920,2,0,P|54:331|60:356,1,44.999998626709,0|0,0:0|0:0,0:0:0:0:
188,288,111154,2,0,P|163:282|143:265,1,44.999998626709,0|0,0:0|0:0,0:0:0:0:
257,375,111388,2,0,P|254:349|264:325,1,44.999998626709,0|0,0:0|0:0,0:0:0:0:
330,221,111623,2,0,P|310:237|285:244,1,44.999998626709,0|0,0:0|0:0,0:0:0:0:
269,104,111857,6,0,P|294:101|318:111,1,44.999998626709,0|0,0:0|0:0,0:0:0:0:
390,59,112091,2,0,P|404:79|408:105,1,44.999998626709,0|0,0:0|0:0,0:0:0:0:
201,154,112326,6,0,P|188:131|187:106,1,44.999998626709,0|0,0:0|0:0,0:0:0:0:
110,61,112560,2,0,P|122:38|144:25,1,44.999998626709,0|0,0:0|0:0,0:0:0:0:
225,41,112795,1,0,0:0:0:0:
102,149,113029,2,0,L|41:140,1,44.999998626709,0|0,0:0|0:0,0:0:0:0:
245,147,113263,2,0,L|184:156,1,44.999998626709,0|0,0:0|0:0,0:0:0:0:
354,167,113498,1,0,0:0:0:0:
444,134,113732,1,0,0:0:0:0:
444,134,114201,2,0,L|441:186,1,40,0|0,0:0|0:0,0:0:0:0:
441,173,114670,6,0,P|414:140|410:85,1,80,0|0,0:0|0:0,0:0:0:0:
344,22,115138,2,0,P|318:11|293:12,1,40,0|0,0:0|0:0,0:0:0:0:
303,96,115373,1,0,0:0:0:0:
487,89,115607,2,0,L|385:108,1,80,0|0,0:0|0:0,0:0:0:0:
325,200,116076,2,0,L|427:219,1,80,0|0,0:0|0:0,0:0:0:0:
288,113,116545,6,0,P|279:72|307:21,1,80,0|0,0:0|0:0,0:0:0:0:
211,177,117013,2,0,P|184:196|156:198,1,40,0|0,0:0|0:0,0:0:0:0:
152,119,117248,1,0,0:0:0:0:
297,171,117482,2,0,P|283:225|236:261,1,80,0|0,0:0|0:0,0:0:0:0:
114,282,117951,2,0,P|169:272|221:300,1,80,0|0,0:0|0:0,0:0:0:0:
93,194,118420,6,0,P|79:162|94:92,1,80,0|0,0:0|0:0,0:0:0:0:
242,165,118888,2,0,P|233:188|213:207,1,40,0|0,0:0|0:0,0:0:0:0:
160,143,119123,1,0,0:0:0:0:
320,71,119357,2,0,L|429:92,1,80,0|0,0:0|0:0,0:0:0:0:
242,165,119826,2,0,P|222:186|218:251,1,80,0|0,0:0|0:0,0:0:0:0:
142,119,120295,6,0,P|114:99|47:107,1,80,0|0,0:0|0:0,0:0:0:0:
87,242,120763,2,0,P|112:242|147:223,1,40,0|0,0:0|0:0,0:0:0:0:
91,171,120998,1,0,0:0:0:0:
238,250,121232,1,0,0:0:0:0:
364,177,121466,2,0,P|336:180|315:192,1,40,0|0,0:0|0:0,0:0:0:0:
378,298,121701,2,0,L|366:249,1,40,0|0,0:0|0:0,0:0:0:0:
446,156,121935,2,0,L|458:107,1,40,0|0,0:0|0:0,0:0:0:0:
333,20,122170,6,0,L|354:107,1,80,0|0,0:0|0:0,0:0:0:0:
189,161,122638,2,0,P|201:140|228:124,1,40,0|0,0:0|0:0,0:0:0:0:
262,198,122873,1,0,0:0:0:0:
88,222,123107,2,0,L|172:249,1,80,0|0,0:0|0:0,0:0:0:0:
336,180,123576,2,0,P|289:181|252:207,1,80,0|0,0:0|0:0,0:0:0:0:
310,96,124045,6,0,P|304:49|274:15,1,80,0|0,0:0|0:0,0:0:0:0:
163,134,124513,2,0,P|184:146|208:146,1,40,0|0,0:0|0:0,0:0:0:0:
208,66,124748,1,0,0:0:0:0:
89,170,124982,2,0,L|96:270,1,80,0|0,0:0|0:0,0:0:0:0:
13,141,125451,2,0,P|39:107|85:91,1,80,0|0,0:0|0:0,0:0:0:0:
234,164,125920,6,0,P|192:154|159:118,1,80,0|0,0:0|0:0,0:0:0:0:
175,251,126388,2,0,P|169:270|148:296,1,40,0|0,0:0|0:0,0:0:0:0:
91,228,126623,1,0,0:0:0:0:
181,370,126857,1,0,0:0:0:0:
261,276,127091,2,0,L|250:237,1,40,0|0,0:0|0:0,0:0:0:0:
165,129,127326,2,0,L|175:90,1,40,0|0,0:0|0:0,0:0:0:0:
288,7,127560,1,0,0:0:0:0:
277,24,127795,5,0,0:0:0:0:
425,25,128029,2,0,L|465:35,1,40,0|0,0:0|0:0,0:0:0:0:
350,120,128263,2,0,L|311:129,1,40,0|0,0:0|0:0,0:0:0:0:
142,49,128498,2,0,L|180:58,1,40,0|0,0:0|0:0,0:0:0:0:
274,216,128732,2,0,L|312:225,1,40,0|0,0:0|0:0,0:0:0:0:
134,141,128966,2,0,L|95:150,1,40,0|0,0:0|0:0,0:0:0:0:
0,326,129201,1,0,0:0:0:0:
87,272,129435,6,0,L|97:334,1,50,0|0,0:0|0:0,0:0:0:0:
167,357,130373,1,0,0:0:0:0:
238,328,131076,1,0,0:0:0:0:
428,366,131310,5,0,0:0:0:0:
478,304,131545,2,0,P|480:278|467:241,1,59.9999981689454,0|0,0:0|0:0,0:0:0:0:
455,254,132248,2,0,P|439:233|375:221,1,89.9999972534181,0|0,0:0|0:0,0:0:0:0:
368,238,133185,2,0,P|355:245|334:285,1,59.9999981689454,0|0,0:0|0:0,0:0:0:0:
451,211,134123,1,0,0:0:0:0:
512,266,134826,1,0,0:0:0:0:
362,93,135060,5,0,0:0:0:0:
433,118,135295,2,0,P|421:145|395:163,1,59.9999981689454,0|0,0:0|0:0,0:0:0:0:
400,179,135998,2,0,P|360:186|309:163,1,89.9999972534181,0|0,0:0|0:0,0:0:0:0:
307,184,136935,2,0,P|284:161|276:115,1,59.9999981689454,0|0,0:0|0:0,0:0:0:0:
397,208,137873,1,0,0:0:0:0:
474,171,138576,1,0,0:0:0:0:
188,245,138810,5,0,0:0:0:0:
155,316,139045,2,0,P|135:297|92:287,1,59.9999981689454,0|0,0:0|0:0,0:0:0:0:
106,274,139748,2,0,P|67:274|24:313,1,89.9999972534181,0|0,0:0|0:0,0:0:0:0:
36,321,140685,2,0,P|40:281|25:245,1,59.9999981689454,0|0,0:0|0:0,0:0:0:0:
111,348,141623,1,0,0:0:0:0:
192,321,142326,1,0,0:0:0:0:
264,112,142560,5,0,0:0:0:0:
188,84,142795,2,0,P|152:95|132:119,1,59.9999981689454,0|0,0:0|0:0,0:0:0:0:
111,107,143498,2,0,P|135:152|129:193,1,89.9999972534181,0|0,0:0|0:0,0:0:0:0:
130,189,144670,6,0,L|221:194,1,89.9999972534181,0|0,0:0|0:0,0:0:0:0:
57,228,145138,1,0,0:0:0:0:
183,206,145373,2,0,L|228:208,1,29.9999990844727,0|0,0:0|0:0,0:0:0:0:
315,259,145607,2,0,L|330:160,1,89.9999972534181,0|0,0:0|0:0,0:0:0:0:
371,324,146076,1,0,0:0:0:0:
341,158,146310,1,0,0:0:0:0:
351,148,146427,1,0,0:0:0:0:
361,137,146545,6,0,L|347:225,1,89.9999972534181,0|0,0:0|0:0,0:0:0:0:
430,269,147013,2,0,L|434:239,1,29.9999990844727,0|0,0:0|0:0,0:0:0:0:
366,353,147248,2,0,L|370:323,1,29.9999990844727,0|0,0:0|0:0,0:0:0:0:
489,156,147482,2,0,L|438:161,1,44.999998626709,0|0,0:0|0:0,0:0:0:0:
332,241,147716,2,0,L|281:246,1,44.999998626709,0|0,0:0|0:0,0:0:0:0:
134,144,147951,2,0,L|146:263,1,89.9999972534181,0|0,0:0|0:0,0:0:0:0:
108,71,148420,6,0,L|129:280,1,179.999994506836,0|0,0:0|0:0,0:0:0:0:
182,7,148888,1,0,0:0:0:0:
108,206,149123,2,0,L|118:310,1,59.9999981689454,0|0,0:0|0:0,0:0:0:0:
236,331,149357,2,0,L|229:271,1,59.9999981689454,0|0,0:0|0:0,0:0:0:0:
321,141,149591,2,0,L|327:200,1,59.9999981689454,0|0,0:0|0:0,0:0:0:0:
432,384,149826,6,0,L|425:324,1,59.9999981689454,0|0,0:0|0:0,0:0:0:0:
300,177,159670,6,0,L|299:209,1,29.9999990844727,0|0,0:0|0:0,0:0:0:0:
367,249,160138,2,0,L|365:287,1,34.9999989318848,0|0,0:0|0:0,0:0:0:0:
302,97,160607,2,0,L|244:92,1,40,0|0,0:0|0:0,0:0:0:0:
144,144,161076,2,0,L|202:149,1,44.999998626709,0|0,0:0|0:0,0:0:0:0:
275,238,161545,2,0,L|250:185,1,50,0|0,0:0|0:0,0:0:0:0:
169,295,162013,2,0,L|185:239,1,55.0000016784668,0|0,0:0|0:0,0:0:0:0:
402,172,162482,2,0,L|339:183,1,59.9999981689454,0|0,0:0|0:0,0:0:0:0:
254,331,162951,2,0,L|317:342,1,59.9999981689454,0|0,0:0|0:0,0:0:0:0:
468,213,163420,6,0,L|472:251,1,34.9999989318848,0|0,0:0|0:0,0:0:0:0:
387,154,163654,2,0,L|382:192,1,34.9999989318848,0|0,0:0|0:0,0:0:0:0:
484,110,163888,6,0,L|508:150,1,37.5000014305115,0|0,0:0|0:0,0:0:0:0:
325,93,164123,2,0,L|301:133,1,37.5000014305115,0|0,0:0|0:0,0:0:0:0:
508,39,164357,6,0,L|470:29,1,40,0|0,0:0|0:0,0:0:0:0:
250,36,164591,2,0,L|289:26,1,40,0|0,0:0|0:0,0:0:0:0:
362,316,164826,6,0,L|373:273,1,42.5000008106232,0|0,0:0|0:0,0:0:0:0:
163,224,165060,2,0,L|197:196,1,42.5000008106232,0|0,0:0|0:0,0:0:0:0:
70,43,165295,6,0,L|138:54,1,44.999998626709,0|0,0:0|0:0,0:0:0:0:
294,268,165529,2,0,L|269:203,1,44.999998626709,0|0,0:0|0:0,0:0:0:0:
463,37,165763,2,0,L|419:90,1,44.999998626709,0|0,0:0|0:0,0:0:0:0:
234,111,165998,5,0,0:0:0:0:
234,111,167170,6,0,P|191:103|136:128,1,80,0|0,0:0|0:0,0:0:0:0:
230,243,167638,2,0,P|257:224|270:196,1,40,0|0,0:0|0:0,0:0:0:0:
150,222,167873,1,0,0:0:0:0:
306,307,168107,2,0,P|269:316|236:360,1,80,0|0,0:0|0:0,0:0:0:0:
122,292,168576,2,0,P|146:262|146:207,1,80,0|0,0:0|0:0,0:0:0:0:
366,129,169045,6,0,L|278:149,1,80,0|0,0:0|0:0,0:0:0:0:
408,270,169513,2,0,L|458:278,1,40,0|0,0:0|0:0,0:0:0:0:
424,189,169748,1,0,0:0:0:0:
284,253,169982,2,0,P|324:280|334:330,1,80,0|0,0:0|0:0,0:0:0:0:
343,167,170451,2,0,P|366:123|414:109,1,80,0|0,0:0|0:0,0:0:0:0:
512,30,170920,6,0,L|420:15,1,80,0|0,0:0|0:0,0:0:0:0:
276,89,171388,2,0,P|294:85|317:67,1,40,0|0,0:0|0:0,0:0:0:0:
252,15,171623,1,0,0:0:0:0:
217,157,171857,2,0,P|254:174|307:168,1,80,0|0,0:0|0:0,0:0:0:0:
129,211,172326,2,0,P|95:234|73:283,1,80,0|0,0:0|0:0,0:0:0:0:
35,138,172795,6,0,L|42:31,1,80,0|0,0:0|0:0,0:0:0:0:
183,79,173263,2,0,P|180:98|168:120,1,40,0|0,0:0|0:0,0:0:0:0:
122,25,173498,1,0,0:0:0:0:
277,92,173732,1,0,0:0:0:0:
441,43,173966,2,0,P|421:61|410:97,1,40,0|0,0:0|0:0,0:0:0:0:
356,192,174201,2,0,L|345:149,1,40,0|0,0:0|0:0,0:0:0:0:
255,206,174435,2,0,L|245:244,1,40,0|0,0:0|0:0,0:0:0:0:
141,341,174670,6,0,L|239:326,1,80,0|0,0:0|0:0,0:0:0:0:
424,291,175138,2,0,P|413:314|391:330,1,40,0|0,0:0|0:0,0:0:0:0:
316,312,175373,1,0,0:0:0:0:
499,230,175607,2,0,L|512:323,1,80,0|0,0:0|0:0,0:0:0:0:
427,157,176076,2,0,L|440:64,1,80,0|0,0:0|0:0,0:0:0:0:
320,202,176545,6,0,P|281:209|230:181,1,80,0|0,0:0|0:0,0:0:0:0:
278,44,177013,2,0,P|297:48|315:56,1,40,0|0,0:0|0:0,0:0:0:0:
349,129,177248,1,0,0:0:0:0:
196,127,177482,2,0,P|158:163|158:222,1,80,0|0,0:0|0:0,0:0:0:0:
102,76,177951,2,0,P|75:44|30:33,1,80,0|0,0:0|0:0,0:0:0:0:
115,201,178420,6,0,P|143:193|172:166,1,40,0|0,0:0|0:0,0:0:0:0:
50,143,178654,1,0,0:0:0:0:
229,198,178888,1,0,0:0:0:0:
400,148,179123,2,0,P|373:149|344:160,1,40,0|0,0:0|0:0,0:0:0:0:
314,248,179357,6,0,L|321:304,1,40,0|0,0:0|0:0,0:0:0:0:
226,110,179591,2,0,L|233:54,1,40,0|0,0:0|0:0,0:0:0:0:
41,215,179826,1,0,0:0:0:0:
179,190,180060,1,0,0:0:0:0:
157,183,180295,5,0,0:0:0:0:
279,295,180529,2,0,L|336:283,1,40,0|0,0:0|0:0,0:0:0:0:
473,202,180763,2,0,L|512:209,1,40,0|0,0:0|0:0,0:0:0:0:
383,154,180998,1,0,0:0:0:0:
268,218,181232,1,0,0:0:0:0:
165,183,181466,1,0,0:0:0:0:
86,227,181701,1,0,0:0:0:0:
20,199,181935,1,0,0:0:0:0:
20,199,182170,6,0,L|33:100,1,80,0|0,0:0|0:0,0:0:0:0:
197,68,182638,2,0,P|178:89|158:96,1,40,0|0,0:0|0:0,0:0:0:0:
131,21,182873,1,0,0:0:0:0:
241,143,183107,2,0,P|257:194|248:228,1,80,0|0,0:0|0:0,0:0:0:0:
332,103,183576,2,0,P|371:66|406:62,1,80,0|0,0:0|0:0,0:0:0:0:
484,232,184045,6,0,L|488:126,1,80,0|0,0:0|0:0,0:0:0:0:
329,205,184513,2,0,P|339:222|355:235,1,40,0|0,0:0|0:0,0:0:0:0:
404,172,184748,1,0,0:0:0:0:
295,303,184982,2,0,L|202:289,1,80,0|0,0:0|0:0,0:0:0:0:
126,200,185451,2,0,L|219:186,1,80,0|0,0:0|0:0,0:0:0:0:
103,117,185920,6,0,P|91:93|103:27,1,80,0|0,0:0|0:0,0:0:0:0:
278,98,186388,2,0,P|261:121|238:132,1,40,0|0,0:0|0:0,0:0:0:0:
261,23,186623,1,0,0:0:0:0:
411,150,186857,2,0,L|382:264,1,80,0|0,0:0|0:0,0:0:0:0:
250,126,187326,2,0,P|280:129|322:168,1,80,0|0,0:0|0:0,0:0:0:0:
463,284,187795,6,0,P|486:282|533:234,1,80,0|0,0:0|0:0,0:0:0:0:
322,293,188263,2,0,P|339:313|362:322,1,40,0|0,0:0|0:0,0:0:0:0:
385,248,188498,1,0,0:0:0:0:
235,306,188732,1,0,0:0:0:0:
67,286,188966,2,0,P|92:272|132:267,1,40,0|0,0:0|0:0,0:0:0:0:
126,384,189201,2,0,L|115:325,1,40,0|0,0:0|0:0,0:0:0:0:
201,210,189435,2,0,L|211:151,1,40,0|0,0:0|0:0,0:0:0:0:
352,62,189670,6,0,L|247:79,1,80,0|0,0:0|0:0,0:0:0:0:
384,214,190138,2,0,P|389:192|383:164,1,40,0|0,0:0|0:0,0:0:0:0:
306,193,190373,1,0,0:0:0:0:
367,310,190607,2,0,P|337:285|272:286,1,80,0|0,0:0|0:0,0:0:0:0:
133,338,191076,2,0,P|171:332|214:283,1,80,0|0,0:0|0:0,0:0:0:0:
223,130,191545,6,0,L|228:235,1,80,0|0,0:0|0:0,0:0:0:0:
95,147,192013,2,0,P|119:151|147:181,1,40,0|0,0:0|0:0,0:0:0:0:
73,224,192248,1,0,0:0:0:0:
26,68,192482,2,0,L|8:166,1,80,0|0,0:0|0:0,0:0:0:0:
160,252,192951,2,0,L|145:173,1,80,0|0,0:0|0:0,0:0:0:0:
74,329,193420,6,0,P|32:333|-18:288,1,80,0|0,0:0|0:0,0:0:0:0:
187,221,193888,2,0,P|181:250|157:281,1,40,0|0,0:0|0:0,0:0:0:0:
106,214,194123,1,0,0:0:0:0:
264,262,194357,1,0,0:0:0:0:
419,216,194591,2,0,P|398:209|357:217,1,40,0|0,0:0|0:0,0:0:0:0:
472,284,194826,2,0,L|483:359,1,40,0|0,0:0|0:0,0:0:0:0:
279,225,195060,1,0,0:0:0:0:
297,210,195295,5,0,0:0:0:0:
140,259,195529,1,0,0:0:0:0:
125,264,195646,1,0,0:0:0:0:
105,264,195763,1,0,0:0:0:0:
82,256,195880,1,0,0:0:0:0:
53,256,195998,1,0,0:0:0:0:
25,271,196115,1,0,0:0:0:0:
9,307,196232,1,0,0:0:0:0:
25,347,196349,1,0,0:0:0:0:
76,360,196466,1,0,0:0:0:0:
119,339,196584,1,0,0:0:0:0:
139,337,196701,5,0,0:0:0:0:
76,379,196818,1,0,0:0:0:0:
7,355,196936,1,0,0:0:0:0:
0,281,197053,1,0,0:0:0:0:
64,245,197170,6,0,B|106:261|152:247|152:247|191:200|169:139,1,179.999994506836,0|0,0:0|0:0,0:0:0:0:
239,282,197638,2,0,P|287:305|362:312,1,119.999996337891,0|0,0:0|0:0,0:0:0:0:
90,339,198107,1,0,0:0:0:0:
146,283,198341,2,0,P|148:246|137:217,1,59.9999981689454,0|0,0:0|0:0,0:0:0:0:
130,116,198576,2,0,P|94:162|24:173,1,119.999996337891,0|0,0:0|0:0,0:0:0:0:
280,139,199045,1,0,0:0:0:0:
213,199,199279,6,0,L|204:139,1,59.9999981689454,0|0,0:0|0:0,0:0:0:0:
349,183,199513,2,0,L|340:242,1,59.9999981689454,0|0,0:0|0:0,0:0:0:0:
454,300,199748,2,0,L|440:241,1,59.9999981689454,0|0,0:0|0:0,0:0:0:0:
250,326,199982,2,0,L|308:340,1,59.9999981689454,0|0,0:0|0:0,0:0:0:0:
145,261,200216,2,0,L|86:275,1,59.9999981689454,0|0,0:0|0:0,0:0:0:0:
48,83,200451,2,0,L|33:236,1,119.999996337891,0|0,0:0|0:0,0:0:0:0:
164,76,200920,6,0,B|186:57|220:56|220:56|255:66|267:93,1,119.999996337891,0|0,0:0|0:0,0:0:0:0:
336,352,201388,2,0,P|349:272|379:218,1,119.999996337891,0|0,0:0|0:0,0:0:0:0:
221,326,201740,2,0,B|179:351|133:332|133:332|89:313|47:338,1,179.999994506836,0|0,0:0|0:0,0:0:0:0:
206,150,202326,2,0,P|249:185|241:276,1,119.999996337891,0|0,0:0|0:0,0:0:0:0:
286,95,202795,5,0,0:0:0:0:
163,46,203029,2,0,L|233:34,1,59.9999981689454,0|0,0:0|0:0,0:0:0:0:
92,142,203263,2,0,L|22:130,1,59.9999981689454,0|0,0:0|0:0,0:0:0:0:
174,244,203498,2,0,L|185:314,1,59.9999981689454,0|0,0:0|0:0,0:0:0:0:
355,122,203732,2,0,L|367:51,1,59.9999981689454,0|0,0:0|0:0,0:0:0:0:
468,239,203966,2,0,L|391:251,1,59.9999981689454,0|0,0:0|0:0,0:0:0:0:
250,354,204201,2,0,L|371:371,1,119.999996337891,0|0,0:0|0:0,0:0:0:0:
135,175,204670,6,0,B|86:159|45:173|45:173|13:208|23:258,1,179.999994506836,0|0,0:0|0:0,0:0:0:0:
110,73,205138,2,0,P|44:40|-13:31,1,119.999996337891,0|0,0:0|0:0,0:0:0:0:
250,114,205607,1,0,0:0:0:0:
323,77,205841,2,0,P|328:55|322:17,1,59.9999981689454,0|0,0:0|0:0,0:0:0:0:
324,172,206076,2,0,P|380:212|443:225,1,119.999996337891,0|0,0:0|0:0,0:0:0:0:
171,261,206545,5,0,0:0:0:0:
245,182,206779,2,0,L|251:264,1,59.9999981689454,0|0,0:0|0:0,0:0:0:0:
125,110,207013,2,0,L|131:28,1,59.9999981689454,0|0,0:0|0:0,0:0:0:0:
20,262,207248,2,0,L|100:279,1,59.9999981689454,0|0,0:0|0:0,0:0:0:0:
271,100,207482,2,0,L|182:113,1,59.9999981689454,0|0,0:0|0:0,0:0:0:0:
366,267,207716,2,0,L|377:189,1,59.9999981689454,0|0,0:0|0:0,0:0:0:0:
485,46,207951,2,0,L|499:195,1,119.999996337891,0|0,0:0|0:0,0:0:0:0:
294,319,208420,6,0,B|261:310|243:287|243:287|233:255|259:214,1,119.999996337891,0|0,0:0|0:0,0:0:0:0:
426,104,208888,2,0,P|354:125|296:112,1,119.999996337891,0|0,0:0|0:0,0:0:0:0:
510,188,209240,2,0,P|495:309|445:348,1,179.999994506836,0|0,0:0|0:0,0:0:0:0:
138,196,209826,2,0,P|191:190|256:259,1,119.999996337891,0|0,0:0|0:0,0:0:0:0:
176,91,210295,5,0,0:0:0:0:
312,108,210529,2,0,L|236:122,1,59.9999981689454,0|0,0:0|0:0,0:0:0:0:
410,27,210763,2,0,L|486:41,1,59.9999981689454,0|0,0:0|0:0,0:0:0:0:
389,230,210998,2,0,L|373:154,1,59.9999981689454,0|0,0:0|0:0,0:0:0:0:
176,52,211232,5,0,0:0:0:0:
202,52,211349,1,0,0:0:0:0:
223,61,211466,1,0,0:0:0:0:
236,80,211584,1,0,0:0:0:0:
258,76,211701,5,0,0:0:0:0:
234,47,211818,1,0,0:0:0:0:
203,34,211935,1,0,0:0:0:0:
165,38,212052,1,0,0:0:0:0:
132,57,212170,6,0,B|103:91|111:143|111:143|142:185|201:184,1,179.999994506836,0|0,0:0|0:0,0:0:0:0:
352,146,212638,2,0,P|313:187|308:268,1,119.999996337891,0|0,0:0|0:0,0:0:0:0:
469,103,213107,1,0,0:0:0:0:
432,183,213341,2,0,P|446:213|477:239,1,59.9999981689454,0|0,0:0|0:0,0:0:0:0:
512,323,213576,2,0,P|448:321|359:343,1,119.999996337891,0|0,0:0|0:0,0:0:0:0:
164,259,214045,5,0,0:0:0:0:
261,239,214279,2,0,L|251:301,1,59.9999981689454,0|0,0:0|0:0,0:0:0:0:
101,187,214513,2,0,L|91:124,1,59.9999981689454,0|0,0:0|0:0,0:0:0:0:
246,23,214748,2,0,L|308:30,1,59.9999981689454,0|0,0:0|0:0,0:0:0:0:
355,208,214982,2,0,L|330:150,1,59.9999981689454,0|0,0:0|0:0,0:0:0:0:
119,320,215216,2,0,L|180:332,1,59.9999981689454,0|0,0:0|0:0,0:0:0:0:
423,283,215451,2,0,L|279:306,1,119.999996337891,0|0,0:0|0:0,0:0:0:0:
431,145,215920,6,0,B|415:117|388:101|388:101|353:94|320:113,1,119.999996337891,0|0,0:0|0:0,0:0:0:0:
83,102,216388,2,0,P|130:135|208:150,1,119.999996337891,0|0,0:0|0:0,0:0:0:0:
48,205,216740,2,0,B|23:249|44:295|44:295|65:340|41:384,1,179.999994506836,0|0,0:0|0:0,0:0:0:0:
198,245,217326,2,0,P|256:226|328:247,1,119.999996337891,0|0,0:0|0:0,0:0:0:0:
150,169,217795,5,0,0:0:0:0:
254,114,218029,2,0,L|183:109,1,50,0|0,0:0|0:0,0:0:0:0:
341,167,218263,2,0,L|412:162,1,40,0|0,0:0|0:0,0:0:0:0:
448,72,218498,2,0,L|423:123,1,34.9999989318848,0|0,0:0|0:0,0:0:0:0:
495,169,218732,1,0,0:0:0:0:
415,251,218966,5,0,0:0:0:0:
411,274,219084,1,0,0:0:0:0:
415,295,219201,2,0,P|432:305|456:309,1,29.9999990844727,0|0,0:0|0:0,0:0:0:0:
334,338,219435,5,0,0:0:0:0:
325,343,219552,1,0,0:0:0:0:
318,347,219670,1,0,0:0:0:0:
256,192,219787,12,0,223420,0:0:0:0:
