osu file format v14

[General]
AudioFilename: audio.mp3
AudioLeadIn: 0
PreviewTime: 53510
Countdown: 1
SampleSet: Normal
StackLeniency: 0.7
Mode: 1
LetterboxInBreaks: 0
WidescreenStoryboard: 0

[Editor]
DistanceSpacing: 0.8
BeatDivisor: 4
GridSize: 32
TimelineZoom: 1.5

[Metadata]
Title:My Love
TitleUnicode:My Love
Artist:Kuba Oms
ArtistUnicode:Kuba Oms
Creator:duski
Version:Oni
Source:osu!
Tags:fa featured artist ADHD english pop mg mpg mappers guild idealism yuki_momoiro722 vulkin
BeatmapID:2364974
BeatmapSetID:1132237

[Difficulty]
HPDrainRate:6
CircleSize:5.5
OverallDifficulty:5
ApproachRate:5.5
SliderMultiplier:1.4
SliderTickRate:1

[Events]
//Background and Video events
0,0,"kubba.jpg",0,0
//Break Periods
2,152382,158482
//Storyboard Layer 0 (Background)
//Storyboard Layer 1 (Fail)
//Storyboard Layer 2 (Pass)
//Storyboard Layer 3 (Foreground)
//Storyboard Layer 4 (Overlay)
//Storyboard Sound Samples

[TimingPoints]
2182,468.75,4,1,0,70,1,0
9447,-95.2380952380952,4,1,0,70,0,0
9682,-90.9090909090909,4,1,0,80,0,0
24447,-88.4955752212389,4,1,0,80,0,0
24564,-87.719298245614,4,1,0,80,0,0
24682,-86.9565217391304,4,1,0,80,0,0
39682,-83.3333333333333,4,1,0,85,0,0
54682,-80,4,1,0,90,0,1
69682,-83.3333333333333,4,1,0,80,0,0
69916,-86.9565217391304,4,1,0,80,0,0
70150,-90.9090909090909,4,1,0,80,0,0
84447,-89.2857142857143,4,1,0,80,0,0
84682,-86.9565217391304,4,1,0,80,0,0
99682,-83.3333333333333,4,1,0,85,0,0
114682,-80,4,1,0,90,0,1
129682,-80,4,1,0,70,0,0
130385,-86.9565217391304,4,1,0,70,0,0
131088,-95.2380952380952,4,1,0,50,0,0
133432,-100,4,1,0,50,0,0
144682,-95.2380952380952,4,1,0,70,0,0
150307,-95.2380952380952,4,1,0,40,0,0
159682,-111.111111111111,4,1,0,50,0,0
159916,-109.89010989011,4,1,0,50,0,0
160150,-108.695652173913,4,1,0,50,0,0
160385,-107.52688172043,4,1,0,50,0,0
160619,-106.382978723404,4,1,0,50,0,0
160853,-105.263157894737,4,1,0,50,0,0
161088,-104.166666666667,4,1,0,50,0,0
161322,-103.092783505155,4,1,0,50,0,0
161557,-102.040816326531,4,1,0,50,0,0
161791,-101.010101010101,4,1,0,50,0,0
162025,-100,4,1,0,50,0,0
162260,-99.009900990099,4,1,0,50,0,0
162494,-98.0392156862745,4,1,0,50,0,0
162728,-97.0873786407767,4,1,0,50,0,0
162963,-96.1538461538461,4,1,0,50,0,0
163197,-95.2380952380952,4,1,0,50,0,0
163432,-94.3396226415094,4,1,0,50,0,0
163666,-93.4579439252336,4,1,0,50,0,0
163900,-92.5925925925926,4,1,0,50,0,0
164135,-91.743119266055,4,1,0,50,0,0
164369,-90.9090909090909,4,1,0,50,0,0
164603,-90.0900900900901,4,1,0,50,0,0
164838,-89.2857142857143,4,1,0,50,0,0
165072,-88.4955752212389,4,1,0,50,0,0
165307,-87.719298245614,4,1,0,50,0,0
165541,-86.9565217391304,4,1,0,50,0,0
165775,-86.2068965517241,4,1,0,50,0,0
166010,-85.4700854700855,4,1,0,70,0,0
167182,-80,4,1,0,90,0,1
197182,-80,4,1,0,90,0,0
219740,-83.3333333333333,4,1,0,70,0,0
221615,-86.9565217391304,4,1,0,50,0,0
222377,-86.9565217391304,4,1,0,40,0,0
223373,-90.9090909090909,4,1,0,30,0,0
224369,-90.9090909090909,4,1,0,20,0,0
225307,-90.9090909090909,4,1,0,10,0,0

[HitObjects]
256,192,1010,5,8,0:0:0:0:
256,192,1244,1,0,0:0:0:0:
256,192,1478,1,0,0:0:0:0:
256,192,1713,1,8,0:0:0:0:
256,192,1947,1,0,0:0:0:0:
256,192,2182,1,12,0:0:0:0:
256,192,2885,1,8,0:0:0:0:
256,192,3119,1,8,0:0:0:0:
256,192,3353,1,0,0:0:0:0:
256,192,3588,1,8,0:0:0:0:
256,192,3822,1,0,0:0:0:0:
256,192,4057,1,8,0:0:0:0:
256,192,4760,1,0,0:0:0:0:
256,192,4994,1,8,0:0:0:0:
256,192,5228,1,8,0:0:0:0:
256,192,5463,1,0,0:0:0:0:
256,192,5697,1,0,0:0:0:0:
256,192,5932,1,8,0:0:0:0:
256,192,6635,1,8,0:0:0:0:
256,192,6869,1,0,0:0:0:0:
256,192,7103,1,0,0:0:0:0:
256,192,7338,1,8,0:0:0:0:
256,192,7572,1,8,0:0:0:0:
256,192,7807,1,0,0:0:0:0:
256,192,8275,1,8,0:0:0:0:
256,192,8510,1,8,0:0:0:0:
256,192,8978,1,8,0:0:0:0:
256,192,9447,1,8,0:0:0:0:
256,192,9682,1,0,0:0:0:0:
256,192,9916,1,0,0:0:0:0:
256,192,10150,1,8,0:0:0:0:
256,192,10385,1,0,0:0:0:0:
256,192,10502,1,8,0:0:0:0:
256,192,10971,1,8,0:0:0:0:
256,192,11088,1,0,0:0:0:0:
256,192,11322,1,8,0:0:0:0:
256,192,11557,1,0,0:0:0:0:
256,192,11791,1,8,0:0:0:0:
256,192,11908,1,8,0:0:0:0:
256,192,12025,1,0,0:0:0:0:
256,192,12260,1,0,0:0:0:0:
256,192,12377,1,8,0:0:0:0:
256,192,12728,1,0,0:0:0:0:
256,192,12963,1,8,0:0:0:0:
256,192,13197,1,0,0:0:0:0:
256,192,13432,1,8,0:0:0:0:
256,192,13666,1,8,0:0:0:0:
256,192,13900,1,0,0:0:0:0:
256,192,14135,1,8,0:0:0:0:
256,192,14369,1,0,0:0:0:0:
256,192,14603,1,8,0:0:0:0:
256,192,14721,1,8,0:0:0:0:
256,192,14838,1,0,0:0:0:0:
256,192,15072,1,8,0:0:0:0:
256,192,15307,1,0,0:0:0:0:
256,192,15775,1,0,0:0:0:0:
256,192,16244,1,0,0:0:0:0:
256,192,16713,1,8,0:0:0:0:
256,192,16947,1,0,0:0:0:0:
256,192,17182,1,0,0:0:0:0:
256,192,17299,1,0,0:0:0:0:
256,192,17416,1,8,0:0:0:0:
256,192,17650,1,0,0:0:0:0:
256,192,17885,1,8,0:0:0:0:
256,192,18002,1,0,0:0:0:0:
256,192,18353,1,8,0:0:0:0:
256,192,18588,1,8,0:0:0:0:
256,192,18705,1,8,0:0:0:0:
256,192,18822,1,0,0:0:0:0:
256,192,18939,1,8,0:0:0:0:
256,192,19174,1,0,0:0:0:0:
256,192,19291,1,8,0:0:0:0:
256,192,19525,1,0,0:0:0:0:
256,192,19642,1,0,0:0:0:0:
256,192,19760,1,8,0:0:0:0:
256,192,19877,1,0,0:0:0:0:
256,192,20228,1,8,0:0:0:0:
256,192,20463,1,0,0:0:0:0:
256,192,20580,1,0,0:0:0:0:
256,192,20697,1,8,0:0:0:0:
256,192,20932,1,0,0:0:0:0:
256,192,21166,1,8,0:0:0:0:
256,192,21400,1,0,0:0:0:0:
256,192,21869,1,0,0:0:0:0:
256,192,22103,1,8,0:0:0:0:
256,192,22338,1,0,0:0:0:0:
256,192,22455,1,0,0:0:0:0:
256,192,22572,1,8,0:0:0:0:
256,192,22807,1,0,0:0:0:0:
256,192,23275,1,0,0:0:0:0:
256,192,23744,1,0,0:0:0:0:
256,192,24213,1,0,0:0:0:0:
256,192,24447,1,8,0:0:0:0:
256,192,24564,1,8,0:0:0:0:
256,192,24682,1,0,0:0:0:0:
256,192,25033,1,8,0:0:0:0:
256,192,25150,1,0,0:0:0:0:
256,192,25385,1,8,0:0:0:0:
256,192,25619,1,0,0:0:0:0:
256,192,25736,1,8,0:0:0:0:
256,192,25853,1,8,0:0:0:0:
256,192,26088,1,0,0:0:0:0:
256,192,26322,1,8,0:0:0:0:
256,192,26439,1,8,0:0:0:0:
256,192,26557,1,0,0:0:0:0:
256,192,26908,1,8,0:0:0:0:
256,192,27025,1,0,0:0:0:0:
256,192,27260,1,8,0:0:0:0:
256,192,27494,1,0,0:0:0:0:
256,192,27611,1,0,0:0:0:0:
256,192,27728,1,8,0:0:0:0:
256,192,27963,1,0,0:0:0:0:
256,192,28197,1,8,0:0:0:0:
256,192,28314,1,8,0:0:0:0:
256,192,28432,1,0,0:0:0:0:
256,192,28783,1,8,0:0:0:0:
256,192,28900,1,0,0:0:0:0:
256,192,29135,1,8,0:0:0:0:
256,192,29369,1,0,0:0:0:0:
256,192,29486,1,0,0:0:0:0:
256,192,29603,1,8,0:0:0:0:
256,192,29838,1,0,0:0:0:0:
256,192,30072,1,8,0:0:0:0:
256,192,30189,1,8,0:0:0:0:
256,192,30307,1,0,0:0:0:0:
256,192,30658,1,8,0:0:0:0:
256,192,30775,1,0,0:0:0:0:
256,192,31010,1,8,0:0:0:0:
256,192,31244,1,0,0:0:0:0:
256,192,31361,1,0,0:0:0:0:
256,192,31478,1,8,0:0:0:0:
256,192,31596,1,8,0:0:0:0:
256,192,31713,1,0,0:0:0:0:
256,192,31947,1,8,0:0:0:0:
256,192,32064,1,8,0:0:0:0:
256,192,32182,1,0,0:0:0:0:
256,192,32533,1,8,0:0:0:0:
256,192,32650,1,0,0:0:0:0:
256,192,32885,1,8,0:0:0:0:
256,192,33119,1,0,0:0:0:0:
256,192,33236,1,8,0:0:0:0:
256,192,33353,1,8,0:0:0:0:
256,192,33588,1,0,0:0:0:0:
256,192,33822,1,8,0:0:0:0:
256,192,34057,1,0,0:0:0:0:
256,192,34291,1,8,0:0:0:0:
256,192,34408,1,8,0:0:0:0:
256,192,34525,1,0,0:0:0:0:
256,192,34760,1,8,0:0:0:0:
256,192,34994,1,0,0:0:0:0:
256,192,35111,1,0,0:0:0:0:
256,192,35228,1,8,0:0:0:0:
256,192,35463,1,0,0:0:0:0:
256,192,35697,1,8,0:0:0:0:
256,192,35814,1,8,0:0:0:0:
256,192,35932,1,0,0:0:0:0:
256,192,36283,1,8,0:0:0:0:
256,192,36400,1,0,0:0:0:0:
256,192,36635,1,8,0:0:0:0:
256,192,36869,1,0,0:0:0:0:
256,192,36986,1,8,0:0:0:0:
256,192,37103,1,8,0:0:0:0:
256,192,37338,1,0,0:0:0:0:
256,192,37572,1,8,0:0:0:0:
256,192,38978,1,0,0:0:0:0:
256,192,39213,1,8,0:0:0:0:
256,192,39682,1,4,0:0:0:0:
256,192,39916,1,0,0:0:0:0:
256,192,40150,1,8,0:0:0:0:
256,192,40385,1,0,0:0:0:0:
256,192,40502,1,8,0:0:0:0:
256,192,40619,1,0,0:0:0:0:
256,192,40853,1,0,0:0:0:0:
256,192,41088,1,8,0:0:0:0:
256,192,41557,1,0,0:0:0:0:
256,192,41791,1,0,0:0:0:0:
256,192,42025,1,8,0:0:0:0:
256,192,42260,1,8,0:0:0:0:
256,192,42377,1,8,0:0:0:0:
256,192,42494,1,0,0:0:0:0:
256,192,42728,1,0,0:0:0:0:
256,192,42963,1,8,0:0:0:0:
256,192,43197,1,0,0:0:0:0:
256,192,43314,1,8,0:0:0:0:
256,192,43432,1,0,0:0:0:0:
256,192,43900,1,8,0:0:0:0:
256,192,44135,1,8,0:0:0:0:
256,192,44252,1,8,0:0:0:0:
256,192,44369,1,0,0:0:0:0:
256,192,44603,1,0,0:0:0:0:
256,192,44838,1,8,0:0:0:0:
256,192,45307,1,0,0:0:0:0:
256,192,45541,1,0,0:0:0:0:
256,192,45775,1,8,0:0:0:0:
256,192,46010,1,0,0:0:0:0:
256,192,46127,1,0,0:0:0:0:
256,192,46244,1,8,0:0:0:0:
256,192,46478,1,0,0:0:0:0:
256,192,46713,1,8,0:0:0:0:
256,192,47182,1,0,0:0:0:0:
256,192,47650,1,8,0:0:0:0:
256,192,47885,1,8,0:0:0:0:
256,192,48002,1,8,0:0:0:0:
256,192,48119,1,0,0:0:0:0:
256,192,48353,1,0,0:0:0:0:
256,192,48588,1,8,0:0:0:0:
256,192,49057,1,0,0:0:0:0:
256,192,49291,1,0,0:0:0:0:
256,192,49525,1,8,0:0:0:0:
256,192,49760,1,0,0:0:0:0:
256,192,49877,1,0,0:0:0:0:
256,192,49994,1,8,0:0:0:0:
256,192,50228,1,0,0:0:0:0:
256,192,50463,1,8,0:0:0:0:
256,192,50697,1,0,0:0:0:0:
256,192,50814,1,0,0:0:0:0:
256,192,50932,1,8,0:0:0:0:
256,192,51283,1,0,0:0:0:0:
256,192,51400,1,8,0:0:0:0:
256,192,51635,1,0,0:0:0:0:
256,192,51869,1,8,0:0:0:0:
256,192,52103,1,0,0:0:0:0:
256,192,52221,1,0,0:0:0:0:
256,192,52338,1,8,0:0:0:0:
256,192,52572,1,8,0:0:0:0:
256,192,52807,1,0,0:0:0:0:
256,192,53041,1,0,0:0:0:0:
256,192,53275,1,8,0:0:0:0:
256,192,54213,1,0,0:0:0:0:
256,192,54682,1,12,0:0:0:0:
256,192,54916,1,0,0:0:0:0:
256,192,55150,1,8,0:0:0:0:
256,192,55385,1,0,0:0:0:0:
256,192,55502,1,8,0:0:0:0:
256,192,55619,1,0,0:0:0:0:
256,192,55853,1,0,0:0:0:0:
256,192,56088,1,8,0:0:0:0:
256,192,56322,1,8,0:0:0:0:
256,192,56439,1,8,0:0:0:0:
256,192,56557,1,0,0:0:0:0:
256,192,57025,1,8,0:0:0:0:
256,192,57260,1,0,0:0:0:0:
256,192,57494,1,0,0:0:0:0:
256,192,57728,1,0,0:0:0:0:
256,192,57846,1,0,0:0:0:0:
256,192,57963,1,8,0:0:0:0:
256,192,58197,1,0,0:0:0:0:
256,192,58432,1,0,0:0:0:0:
256,192,58900,1,8,0:0:0:0:
256,192,59135,1,8,0:0:0:0:
256,192,59369,1,0,0:0:0:0:
256,192,59603,1,8,0:0:0:0:
256,192,59721,1,0,0:0:0:0:
256,192,59838,1,8,0:0:0:0:
256,192,60072,1,8,0:0:0:0:
256,192,60307,1,0,0:0:0:0:
256,192,60775,1,8,0:0:0:0:
256,192,61010,1,8,0:0:0:0:
256,192,61127,1,8,0:0:0:0:
256,192,61244,1,0,0:0:0:0:
256,192,61478,1,0,0:0:0:0:
256,192,61713,1,8,0:0:0:0:
256,192,61947,1,8,0:0:0:0:
256,192,62182,1,0,0:0:0:0:
256,192,62650,1,8,0:0:0:0:
256,192,62885,1,0,0:0:0:0:
256,192,63002,1,8,0:0:0:0:
256,192,63119,1,0,0:0:0:0:
256,192,63353,1,0,0:0:0:0:
256,192,63588,1,8,0:0:0:0:
256,192,63822,1,8,0:0:0:0:
256,192,64057,1,0,0:0:0:0:
256,192,64525,1,8,0:0:0:0:
256,192,64760,1,8,0:0:0:0:
256,192,64877,1,8,0:0:0:0:
256,192,64994,1,0,0:0:0:0:
256,192,65228,1,0,0:0:0:0:
256,192,65463,1,8,0:0:0:0:
256,192,65697,1,0,0:0:0:0:
256,192,65932,1,0,0:0:0:0:
256,192,66400,1,0,0:0:0:0:
256,192,66635,1,0,0:0:0:0:
256,192,66869,1,8,0:0:0:0:
256,192,67103,1,0,0:0:0:0:
256,192,67221,1,0,0:0:0:0:
256,192,67338,1,8,0:0:0:0:
256,192,67572,1,0,0:0:0:0:
256,192,67807,1,0,0:0:0:0:
256,192,68041,1,8,0:0:0:0:
256,192,68275,1,8,0:0:0:0:
256,192,68510,1,0,0:0:0:0:
256,192,68627,1,0,0:0:0:0:
256,192,68744,1,8,0:0:0:0:
256,192,68978,1,0,0:0:0:0:
256,192,69213,1,8,0:0:0:0:
256,192,69447,1,8,0:0:0:0:
256,192,69682,1,0,0:0:0:0:
256,192,69916,1,0,0:0:0:0:
256,192,70150,1,8,0:0:0:0:
256,192,70385,1,0,0:0:0:0:
256,192,70502,1,8,0:0:0:0:
256,192,70853,1,0,0:0:0:0:
256,192,70971,1,0,0:0:0:0:
256,192,71088,1,8,0:0:0:0:
256,192,71322,1,8,0:0:0:0:
256,192,71439,1,0,0:0:0:0:
256,192,71791,1,8,0:0:0:0:
256,192,71908,1,8,0:0:0:0:
256,192,72025,1,0,0:0:0:0:
256,192,72260,1,0,0:0:0:0:
256,192,72377,1,8,0:0:0:0:
256,192,72728,1,0,0:0:0:0:
256,192,72963,1,8,0:0:0:0:
256,192,73197,1,0,0:0:0:0:
256,192,73432,1,8,0:0:0:0:
256,192,73666,1,8,0:0:0:0:
256,192,73900,1,0,0:0:0:0:
256,192,74135,1,8,0:0:0:0:
256,192,74369,1,0,0:0:0:0:
256,192,74603,1,8,0:0:0:0:
256,192,74721,1,8,0:0:0:0:
256,192,74838,1,0,0:0:0:0:
256,192,75072,1,8,0:0:0:0:
256,192,75307,1,0,0:0:0:0:
256,192,75775,1,0,0:0:0:0:
256,192,76244,1,0,0:0:0:0:
256,192,76713,1,8,0:0:0:0:
256,192,76947,1,0,0:0:0:0:
256,192,77182,1,0,0:0:0:0:
256,192,77299,1,0,0:0:0:0:
256,192,77416,1,8,0:0:0:0:
256,192,77650,1,0,0:0:0:0:
256,192,77885,1,8,0:0:0:0:
256,192,78002,1,0,0:0:0:0:
256,192,78353,1,8,0:0:0:0:
256,192,78588,1,8,0:0:0:0:
256,192,78705,1,8,0:0:0:0:
256,192,78822,1,0,0:0:0:0:
256,192,78939,1,8,0:0:0:0:
256,192,79174,1,0,0:0:0:0:
256,192,79291,1,8,0:0:0:0:
256,192,79525,1,0,0:0:0:0:
256,192,79760,1,0,0:0:0:0:
256,192,79994,1,8,0:0:0:0:
256,192,80228,1,0,0:0:0:0:
256,192,80932,1,0,0:0:0:0:
256,192,81166,1,0,0:0:0:0:
256,192,81400,1,8,0:0:0:0:
256,192,81635,1,8,0:0:0:0:
256,192,81869,1,0,0:0:0:0:
256,192,82103,1,8,0:0:0:0:
256,192,82338,1,0,0:0:0:0:
256,192,82455,1,0,0:0:0:0:
256,192,82572,1,8,0:0:0:0:
256,192,82807,1,0,0:0:0:0:
256,192,83275,1,0,0:0:0:0:
256,192,83744,1,0,0:0:0:0:
256,192,84213,1,0,0:0:0:0:
256,192,84447,1,8,0:0:0:0:
256,192,84682,1,0,0:0:0:0:
256,192,85033,1,8,0:0:0:0:
256,192,85150,1,0,0:0:0:0:
256,192,85385,1,8,0:0:0:0:
256,192,85619,1,0,0:0:0:0:
256,192,85736,1,8,0:0:0:0:
256,192,85853,1,8,0:0:0:0:
256,192,86088,1,0,0:0:0:0:
256,192,86322,1,8,0:0:0:0:
256,192,86439,1,8,0:0:0:0:
256,192,86557,1,0,0:0:0:0:
256,192,86908,1,8,0:0:0:0:
256,192,87025,1,0,0:0:0:0:
256,192,87260,1,8,0:0:0:0:
256,192,87494,1,0,0:0:0:0:
256,192,87611,1,0,0:0:0:0:
256,192,87728,1,8,0:0:0:0:
256,192,87963,1,0,0:0:0:0:
256,192,88197,1,8,0:0:0:0:
256,192,88314,1,8,0:0:0:0:
256,192,88432,1,0,0:0:0:0:
256,192,88783,1,8,0:0:0:0:
256,192,88900,1,0,0:0:0:0:
256,192,89135,1,8,0:0:0:0:
256,192,89369,1,0,0:0:0:0:
256,192,89486,1,8,0:0:0:0:
256,192,89603,1,8,0:0:0:0:
256,192,89838,1,0,0:0:0:0:
256,192,90072,1,8,0:0:0:0:
256,192,90189,1,8,0:0:0:0:
256,192,90307,1,0,0:0:0:0:
256,192,90658,1,8,0:0:0:0:
256,192,90775,1,0,0:0:0:0:
256,192,91010,1,8,0:0:0:0:
256,192,91244,1,0,0:0:0:0:
256,192,91361,1,0,0:0:0:0:
256,192,91478,1,8,0:0:0:0:
256,192,91596,1,8,0:0:0:0:
256,192,91713,1,0,0:0:0:0:
256,192,91947,1,8,0:0:0:0:
256,192,92064,1,8,0:0:0:0:
256,192,92182,1,0,0:0:0:0:
256,192,92533,1,8,0:0:0:0:
256,192,92650,1,0,0:0:0:0:
256,192,92885,1,8,0:0:0:0:
256,192,93119,1,0,0:0:0:0:
256,192,93236,1,8,0:0:0:0:
256,192,93353,1,8,0:0:0:0:
256,192,93588,1,0,0:0:0:0:
256,192,93822,1,8,0:0:0:0:
256,192,94057,1,0,0:0:0:0:
256,192,94291,1,8,0:0:0:0:
256,192,94408,1,8,0:0:0:0:
256,192,94525,1,0,0:0:0:0:
256,192,94760,1,8,0:0:0:0:
256,192,94994,1,0,0:0:0:0:
256,192,95111,1,0,0:0:0:0:
256,192,95228,1,8,0:0:0:0:
256,192,95463,1,0,0:0:0:0:
256,192,95697,1,8,0:0:0:0:
256,192,95814,1,8,0:0:0:0:
256,192,95932,1,0,0:0:0:0:
256,192,96283,1,8,0:0:0:0:
256,192,96400,1,0,0:0:0:0:
256,192,96635,1,8,0:0:0:0:
256,192,96869,1,0,0:0:0:0:
256,192,96986,1,8,0:0:0:0:
256,192,97103,1,8,0:0:0:0:
256,192,97338,1,0,0:0:0:0:
256,192,97572,1,8,0:0:0:0:
256,192,97689,1,8,0:0:0:0:
256,192,97807,1,0,0:0:0:0:
256,192,98978,1,0,0:0:0:0:
256,192,99213,1,8,0:0:0:0:
256,192,99682,1,4,0:0:0:0:
256,192,99916,1,0,0:0:0:0:
256,192,100150,1,8,0:0:0:0:
256,192,100385,1,0,0:0:0:0:
256,192,100502,1,8,0:0:0:0:
256,192,100619,1,0,0:0:0:0:
256,192,100853,1,0,0:0:0:0:
256,192,101088,1,8,0:0:0:0:
256,192,101557,1,0,0:0:0:0:
256,192,101791,1,0,0:0:0:0:
256,192,102025,1,8,0:0:0:0:
256,192,102260,1,8,0:0:0:0:
256,192,102377,1,8,0:0:0:0:
256,192,102494,1,0,0:0:0:0:
256,192,102728,1,0,0:0:0:0:
256,192,102963,1,8,0:0:0:0:
256,192,103197,1,0,0:0:0:0:
256,192,103314,1,8,0:0:0:0:
256,192,103432,1,0,0:0:0:0:
256,192,103900,1,8,0:0:0:0:
256,192,104135,1,8,0:0:0:0:
256,192,104252,1,8,0:0:0:0:
256,192,104369,1,0,0:0:0:0:
256,192,104603,1,0,0:0:0:0:
256,192,104838,1,8,0:0:0:0:
256,192,105307,1,0,0:0:0:0:
256,192,105541,1,0,0:0:0:0:
256,192,105775,1,8,0:0:0:0:
256,192,106010,1,0,0:0:0:0:
256,192,106127,1,0,0:0:0:0:
256,192,106244,1,8,0:0:0:0:
256,192,106478,1,0,0:0:0:0:
256,192,106713,1,8,0:0:0:0:
256,192,106947,1,0,0:0:0:0:
256,192,107182,1,0,0:0:0:0:
256,192,107650,1,8,0:0:0:0:
256,192,107885,1,8,0:0:0:0:
256,192,108002,1,8,0:0:0:0:
256,192,108119,1,0,0:0:0:0:
256,192,108353,1,0,0:0:0:0:
256,192,108588,1,8,0:0:0:0:
256,192,109057,1,0,0:0:0:0:
256,192,109291,1,0,0:0:0:0:
256,192,109525,1,8,0:0:0:0:
256,192,109760,1,0,0:0:0:0:
256,192,109877,1,0,0:0:0:0:
256,192,109994,1,0,0:0:0:0:
256,192,110228,1,0,0:0:0:0:
256,192,110463,1,8,0:0:0:0:
256,192,110697,1,0,0:0:0:0:
256,192,110814,1,0,0:0:0:0:
256,192,110932,1,8,0:0:0:0:
256,192,111283,1,0,0:0:0:0:
256,192,111400,1,8,0:0:0:0:
256,192,111635,1,0,0:0:0:0:
256,192,111869,1,8,0:0:0:0:
256,192,112103,1,0,0:0:0:0:
256,192,112221,1,0,0:0:0:0:
256,192,112338,1,8,0:0:0:0:
256,192,112572,1,8,0:0:0:0:
256,192,112807,1,0,0:0:0:0:
256,192,113041,1,0,0:0:0:0:
256,192,113275,1,8,0:0:0:0:
256,192,113744,1,8,0:0:0:0:
256,192,114213,1,0,0:0:0:0:
256,192,114682,1,12,0:0:0:0:
256,192,114916,1,0,0:0:0:0:
256,192,115150,1,8,0:0:0:0:
256,192,115385,1,0,0:0:0:0:
256,192,115502,1,8,0:0:0:0:
256,192,115619,1,0,0:0:0:0:
256,192,115853,1,0,0:0:0:0:
256,192,116088,1,8,0:0:0:0:
256,192,116322,1,8,0:0:0:0:
256,192,116439,1,8,0:0:0:0:
256,192,116557,1,0,0:0:0:0:
256,192,117025,1,8,0:0:0:0:
256,192,117260,1,0,0:0:0:0:
256,192,117494,1,0,0:0:0:0:
256,192,117728,1,0,0:0:0:0:
256,192,117846,1,0,0:0:0:0:
256,192,117963,1,8,0:0:0:0:
256,192,118197,1,0,0:0:0:0:
256,192,118432,1,0,0:0:0:0:
256,192,118900,1,8,0:0:0:0:
256,192,119135,1,8,0:0:0:0:
256,192,119369,1,0,0:0:0:0:
256,192,119603,1,8,0:0:0:0:
256,192,119721,1,0,0:0:0:0:
256,192,119838,1,8,0:0:0:0:
256,192,120072,1,8,0:0:0:0:
256,192,120307,1,0,0:0:0:0:
256,192,120775,1,8,0:0:0:0:
256,192,121010,1,8,0:0:0:0:
256,192,121127,1,8,0:0:0:0:
256,192,121244,1,0,0:0:0:0:
256,192,121478,1,0,0:0:0:0:
256,192,121713,1,8,0:0:0:0:
256,192,121947,1,8,0:0:0:0:
256,192,122182,1,0,0:0:0:0:
256,192,122650,1,8,0:0:0:0:
256,192,122885,1,0,0:0:0:0:
256,192,123002,1,8,0:0:0:0:
256,192,123119,1,0,0:0:0:0:
256,192,123353,1,0,0:0:0:0:
256,192,123588,1,8,0:0:0:0:
256,192,123822,1,8,0:0:0:0:
256,192,124057,1,0,0:0:0:0:
256,192,124525,1,8,0:0:0:0:
256,192,124760,1,8,0:0:0:0:
256,192,124877,1,8,0:0:0:0:
256,192,124994,1,0,0:0:0:0:
256,192,125228,1,0,0:0:0:0:
256,192,125463,1,8,0:0:0:0:
256,192,125697,1,0,0:0:0:0:
256,192,125932,1,0,0:0:0:0:
256,192,126400,1,0,0:0:0:0:
256,192,126635,1,0,0:0:0:0:
256,192,126869,1,8,0:0:0:0:
256,192,127103,1,0,0:0:0:0:
256,192,127221,1,0,0:0:0:0:
256,192,127338,1,8,0:0:0:0:
256,192,127572,1,0,0:0:0:0:
256,192,127807,1,0,0:0:0:0:
256,192,128041,1,8,0:0:0:0:
256,192,128275,1,8,0:0:0:0:
256,192,128510,1,0,0:0:0:0:
256,192,128627,1,0,0:0:0:0:
256,192,128744,1,8,0:0:0:0:
256,192,128978,1,0,0:0:0:0:
256,192,129213,1,8,0:0:0:0:
256,192,129447,1,8,0:0:0:0:
256,192,129682,1,0,0:0:0:0:
256,192,130385,1,8,0:0:0:0:
256,192,131088,1,8,0:0:0:0:
256,192,133432,1,8,0:0:0:0:
256,192,134135,1,0,0:0:0:0:
256,192,134838,1,0,0:0:0:0:
256,192,135307,1,8,0:0:0:0:
256,192,137182,1,0,0:0:0:0:
256,192,137885,1,8,0:0:0:0:
256,192,138588,1,8,0:0:0:0:
256,192,140932,1,8,0:0:0:0:
256,192,141635,1,0,0:0:0:0:
256,192,142338,1,0,0:0:0:0:
256,192,142807,1,8,0:0:0:0:
256,192,144682,1,0,0:0:0:0:
256,192,145150,1,0,0:0:0:0:
256,192,145385,1,8,0:0:0:0:
256,192,145619,1,0,0:0:0:0:
256,192,146088,1,0,0:0:0:0:
256,192,146322,1,8,0:0:0:0:
256,192,146439,1,8,0:0:0:0:
256,192,146557,1,0,0:0:0:0:
256,192,147025,1,0,0:0:0:0:
256,192,147260,1,8,0:0:0:0:
256,192,147494,1,0,0:0:0:0:
256,192,147728,1,8,0:0:0:0:
256,192,147963,1,0,0:0:0:0:
256,192,148432,1,0,0:0:0:0:
256,192,148900,1,0,0:0:0:0:
256,192,149135,1,8,0:0:0:0:
256,192,149369,1,0,0:0:0:0:
256,192,149603,1,0,0:0:0:0:
256,192,149838,1,8,0:0:0:0:
256,192,150072,1,0,0:0:0:0:
256,192,150307,12,0,152182,0:0:0:0:
256,192,159682,5,0,0:0:0:0:
256,192,159916,1,0,0:0:0:0:
256,192,160150,1,0,0:0:0:0:
256,192,160385,1,0,0:0:0:0:
256,192,160619,1,8,0:0:0:0:
256,192,160853,1,0,0:0:0:0:
256,192,161088,1,8,0:0:0:0:
256,192,161322,1,0,0:0:0:0:
256,192,161557,1,0,0:0:0:0:
256,192,161791,1,8,0:0:0:0:
256,192,162025,1,8,0:0:0:0:
256,192,162260,1,0,0:0:0:0:
256,192,162494,1,8,0:0:0:0:
256,192,162728,1,8,0:0:0:0:
256,192,162963,1,0,0:0:0:0:
256,192,163197,1,0,0:0:0:0:
256,192,163432,1,8,0:0:0:0:
256,192,163666,1,0,0:0:0:0:
256,192,163900,1,0,0:0:0:0:
256,192,164135,1,8,0:0:0:0:
256,192,164369,1,8,0:0:0:0:
256,192,164603,1,0,0:0:0:0:
256,192,164838,1,8,0:0:0:0:
256,192,165072,1,0,0:0:0:0:
256,192,165307,1,0,0:0:0:0:
256,192,165541,1,0,0:0:0:0:
256,192,165775,1,0,0:0:0:0:
256,192,166010,1,8,0:0:0:0:
256,192,167182,1,12,0:0:0:0:
256,192,167416,1,0,0:0:0:0:
256,192,167650,1,8,0:0:0:0:
256,192,167885,1,0,0:0:0:0:
256,192,168002,1,8,0:0:0:0:
256,192,168119,1,0,0:0:0:0:
256,192,168353,1,0,0:0:0:0:
256,192,168588,1,8,0:0:0:0:
256,192,168822,1,8,0:0:0:0:
256,192,168939,1,8,0:0:0:0:
256,192,169057,1,0,0:0:0:0:
256,192,169525,1,8,0:0:0:0:
256,192,169760,1,0,0:0:0:0:
256,192,169994,1,0,0:0:0:0:
256,192,170228,1,0,0:0:0:0:
256,192,170346,1,0,0:0:0:0:
256,192,170463,1,8,0:0:0:0:
256,192,170697,1,0,0:0:0:0:
256,192,170932,1,0,0:0:0:0:
256,192,171400,1,8,0:0:0:0:
256,192,171635,1,8,0:0:0:0:
256,192,171869,1,0,0:0:0:0:
256,192,172103,1,8,0:0:0:0:
256,192,172221,1,0,0:0:0:0:
256,192,172338,1,8,0:0:0:0:
256,192,172572,1,8,0:0:0:0:
256,192,172807,1,0,0:0:0:0:
256,192,173275,1,8,0:0:0:0:
256,192,173510,1,8,0:0:0:0:
256,192,173627,1,8,0:0:0:0:
256,192,173744,1,0,0:0:0:0:
256,192,173978,1,0,0:0:0:0:
256,192,174213,1,8,0:0:0:0:
256,192,174447,1,8,0:0:0:0:
256,192,174682,1,0,0:0:0:0:
256,192,175150,1,8,0:0:0:0:
256,192,175385,1,0,0:0:0:0:
256,192,175502,1,8,0:0:0:0:
256,192,175619,1,0,0:0:0:0:
256,192,175853,1,0,0:0:0:0:
256,192,176088,1,8,0:0:0:0:
256,192,176322,1,8,0:0:0:0:
256,192,176557,1,0,0:0:0:0:
256,192,177025,1,8,0:0:0:0:
256,192,177260,1,8,0:0:0:0:
256,192,177377,1,8,0:0:0:0:
256,192,177494,1,0,0:0:0:0:
256,192,177728,1,0,0:0:0:0:
256,192,177963,1,8,0:0:0:0:
256,192,178197,1,0,0:0:0:0:
256,192,178432,1,0,0:0:0:0:
256,192,178900,1,0,0:0:0:0:
256,192,179135,1,0,0:0:0:0:
256,192,179369,1,8,0:0:0:0:
256,192,179603,1,0,0:0:0:0:
256,192,179721,1,0,0:0:0:0:
256,192,179838,1,8,0:0:0:0:
256,192,180072,1,0,0:0:0:0:
256,192,180307,1,0,0:0:0:0:
256,192,180541,1,8,0:0:0:0:
256,192,180775,1,8,0:0:0:0:
256,192,181010,1,0,0:0:0:0:
256,192,181127,1,0,0:0:0:0:
256,192,181244,1,8,0:0:0:0:
256,192,181478,1,0,0:0:0:0:
256,192,181713,1,8,0:0:0:0:
256,192,182182,1,12,0:0:0:0:
256,192,182416,1,0,0:0:0:0:
256,192,182650,1,8,0:0:0:0:
256,192,182885,1,0,0:0:0:0:
256,192,183002,1,8,0:0:0:0:
256,192,183119,1,0,0:0:0:0:
256,192,183353,1,0,0:0:0:0:
256,192,183588,1,8,0:0:0:0:
256,192,183822,1,8,0:0:0:0:
256,192,183939,1,8,0:0:0:0:
256,192,184057,1,0,0:0:0:0:
256,192,184525,1,8,0:0:0:0:
256,192,184760,1,0,0:0:0:0:
256,192,184994,1,0,0:0:0:0:
256,192,185228,1,0,0:0:0:0:
256,192,185346,1,0,0:0:0:0:
256,192,185463,1,8,0:0:0:0:
256,192,185697,1,0,0:0:0:0:
256,192,185932,1,0,0:0:0:0:
256,192,186400,1,8,0:0:0:0:
256,192,186635,1,8,0:0:0:0:
256,192,186869,1,0,0:0:0:0:
256,192,187103,1,8,0:0:0:0:
256,192,187221,1,0,0:0:0:0:
256,192,187338,1,8,0:0:0:0:
256,192,187572,1,8,0:0:0:0:
256,192,187807,1,0,0:0:0:0:
256,192,188275,1,8,0:0:0:0:
256,192,188510,1,8,0:0:0:0:
256,192,188627,1,8,0:0:0:0:
256,192,188744,1,0,0:0:0:0:
256,192,188978,1,0,0:0:0:0:
256,192,189213,1,8,0:0:0:0:
256,192,189447,1,8,0:0:0:0:
256,192,189682,1,0,0:0:0:0:
256,192,190150,1,8,0:0:0:0:
256,192,190385,1,0,0:0:0:0:
256,192,190502,1,8,0:0:0:0:
256,192,190619,1,0,0:0:0:0:
256,192,190853,1,0,0:0:0:0:
256,192,191088,1,8,0:0:0:0:
256,192,191322,1,8,0:0:0:0:
256,192,191557,1,0,0:0:0:0:
256,192,192025,1,8,0:0:0:0:
256,192,192260,1,8,0:0:0:0:
256,192,192377,1,8,0:0:0:0:
256,192,192494,1,0,0:0:0:0:
256,192,192728,1,0,0:0:0:0:
256,192,192963,1,8,0:0:0:0:
256,192,193197,1,0,0:0:0:0:
256,192,193432,1,0,0:0:0:0:
256,192,193900,1,0,0:0:0:0:
256,192,194135,1,0,0:0:0:0:
256,192,194369,1,8,0:0:0:0:
256,192,194603,1,0,0:0:0:0:
256,192,194721,1,0,0:0:0:0:
256,192,194838,1,8,0:0:0:0:
256,192,195072,1,0,0:0:0:0:
256,192,195307,1,0,0:0:0:0:
256,192,195541,1,8,0:0:0:0:
256,192,195775,1,8,0:0:0:0:
256,192,195892,1,8,0:0:0:0:
256,192,196010,1,0,0:0:0:0:
256,192,196127,1,0,0:0:0:0:
256,192,196244,1,8,0:0:0:0:
256,192,196478,1,0,0:0:0:0:
256,192,196596,1,0,0:0:0:0:
256,192,196713,1,8,0:0:0:0:
256,192,196947,1,8,0:0:0:0:
256,192,197182,1,4,0:0:0:0:
256,192,197650,1,8,0:0:0:0:
256,192,197885,1,8,0:0:0:0:
256,192,198119,1,0,0:0:0:0:
256,192,198353,1,0,0:0:0:0:
256,192,198471,1,0,0:0:0:0:
256,192,198588,1,8,0:0:0:0:
256,192,199057,1,0,0:0:0:0:
256,192,199291,1,0,0:0:0:0:
256,192,199525,1,8,0:0:0:0:
256,192,199760,1,8,0:0:0:0:
256,192,199877,1,8,0:0:0:0:
256,192,199994,1,0,0:0:0:0:
256,192,200228,1,0,0:0:0:0:
256,192,200463,1,8,0:0:0:0:
256,192,200932,1,8,0:0:0:0:
256,192,201166,1,8,0:0:0:0:
256,192,201283,1,8,0:0:0:0:
256,192,201400,1,8,0:0:0:0:
256,192,201635,1,8,0:0:0:0:
256,192,201869,1,0,0:0:0:0:
256,192,202103,1,0,0:0:0:0:
256,192,202338,1,8,0:0:0:0:
256,192,202807,1,0,0:0:0:0:
256,192,203041,1,0,0:0:0:0:
256,192,203275,1,8,0:0:0:0:
256,192,203510,1,0,0:0:0:0:
256,192,203627,1,8,0:0:0:0:
256,192,203744,1,0,0:0:0:0:
256,192,203978,1,0,0:0:0:0:
256,192,204213,1,8,0:0:0:0:
256,192,204447,1,0,0:0:0:0:
256,192,204682,1,4,0:0:0:0:
256,192,205150,1,8,0:0:0:0:
256,192,205385,1,8,0:0:0:0:
256,192,205619,1,0,0:0:0:0:
256,192,205853,1,0,0:0:0:0:
256,192,205971,1,0,0:0:0:0:
256,192,206088,1,8,0:0:0:0:
256,192,206557,1,0,0:0:0:0:
256,192,206791,1,0,0:0:0:0:
256,192,207025,1,8,0:0:0:0:
256,192,207260,1,8,0:0:0:0:
256,192,207377,1,8,0:0:0:0:
256,192,207494,1,0,0:0:0:0:
256,192,207728,1,0,0:0:0:0:
256,192,207963,1,8,0:0:0:0:
256,192,208432,1,0,0:0:0:0:
256,192,208666,1,0,0:0:0:0:
256,192,208900,1,8,0:0:0:0:
256,192,209135,1,8,0:0:0:0:
256,192,209252,1,8,0:0:0:0:
256,192,209369,1,8,0:0:0:0:
256,192,209603,1,0,0:0:0:0:
256,192,209838,1,8,0:0:0:0:
256,192,210307,1,0,0:0:0:0:
256,192,210541,1,0,0:0:0:0:
256,192,210775,1,8,0:0:0:0:
256,192,211010,1,0,0:0:0:0:
256,192,211244,1,8,0:0:0:0:
256,192,211361,1,8,0:0:0:0:
256,192,211478,1,8,0:0:0:0:
256,192,211596,1,8,0:0:0:0:
256,192,211713,1,0,0:0:0:0:
256,192,211947,1,0,0:0:0:0:
256,192,212182,1,4,0:0:0:0:
256,192,212650,1,8,0:0:0:0:
256,192,212885,1,8,0:0:0:0:
256,192,213119,1,0,0:0:0:0:
256,192,213353,1,0,0:0:0:0:
256,192,213471,1,0,0:0:0:0:
256,192,213588,1,8,0:0:0:0:
256,192,214057,1,0,0:0:0:0:
256,192,214291,1,0,0:0:0:0:
256,192,214525,1,12,0:0:0:0:
256,192,214760,1,8,0:0:0:0:
256,192,214994,1,0,0:0:0:0:
256,192,215463,1,8,0:0:0:0:
256,192,215932,1,0,0:0:0:0:
256,192,216166,1,0,0:0:0:0:
256,192,216400,1,8,0:0:0:0:
256,192,216635,1,0,0:0:0:0:
256,192,216752,1,8,0:0:0:0:
256,192,216869,1,0,0:0:0:0:
256,192,217103,1,0,0:0:0:0:
256,192,217338,1,8,0:0:0:0:
256,192,217807,1,0,0:0:0:0:
256,192,218041,1,0,0:0:0:0:
256,192,218275,1,8,0:0:0:0:
256,192,218510,1,8,0:0:0:0:
256,192,218627,1,8,0:0:0:0:
256,192,218744,1,0,0:0:0:0:
256,192,218978,1,8,0:0:0:0:
256,192,219096,1,8,0:0:0:0:
256,192,219213,1,8,0:0:0:0:
256,192,219447,1,8,0:0:0:0:
256,192,219682,1,4,0:0:0:0:
256,192,220150,1,8,0:0:0:0:
256,192,220619,1,0,0:0:0:0:
256,192,220853,1,0,0:0:0:0:
256,192,221088,1,8,0:0:0:0:
256,192,221557,1,0,0:0:0:0:
256,192,222025,1,8,0:0:0:0:
256,192,222494,1,0,0:0:0:0:
256,192,222728,1,8,0:0:0:0:
256,192,222963,1,8,0:0:0:0:
256,192,223432,12,8,226713,0:0:0:0:
