osu file format v14

[General]
AudioFilename: audio.mp3
AudioLeadIn: 0
PreviewTime: 53510
Countdown: 1
SampleSet: Normal
StackLeniency: 0.7
Mode: 1
LetterboxInBreaks: 0
WidescreenStoryboard: 1

[Editor]
DistanceSpacing: 0.8
BeatDivisor: 2
GridSize: 32
TimelineZoom: 1.2

[Metadata]
Title:My Love
TitleUnicode:My Love
Artist:Kuba Oms
ArtistUnicode:Kuba Oms
Creator:duski
Version:Momo's Futsuu
Source:osu!
Tags:fa featured artist ADHD english pop mg mpg mappers guild idealism yuki_momoiro722 vulkin
BeatmapID:2367625
BeatmapSetID:1132237

[Difficulty]
HPDrainRate:7
CircleSize:2
OverallDifficulty:4
ApproachRate:10
SliderMultiplier:1.4
SliderTickRate:1

[Events]
//Background and Video events
0,0,"kubba.jpg",0,0
//Break Periods
2,152382,159232
//Storyboard Layer 0 (Background)
//Storyboard Layer 1 (Fail)
//Storyboard Layer 2 (Pass)
//Storyboard Layer 3 (Foreground)
//Storyboard Layer 4 (Overlay)
//Storyboard Sound Samples

[TimingPoints]
2182,468.75,4,1,0,90,1,0
9447,-100,4,1,0,90,0,0
9682,-100,4,1,0,90,0,0
24447,-100,4,1,0,90,0,0
39682,-100,4,1,0,90,0,0
54682,-100,4,1,0,90,0,1
69682,-100,4,1,0,90,0,0
84447,-100,4,1,0,90,0,0
84682,-100,4,1,0,90,0,0
99682,-100,4,1,0,90,0,0
114682,-100,4,1,0,90,0,1
129682,-100,4,1,0,90,0,0
130385,-100,4,1,0,90,0,0
131088,-100,4,1,0,90,0,0
133432,-100,4,1,0,90,0,0
144682,-100,4,1,0,90,0,0
150307,-100,4,1,0,50,0,0
159682,-100,4,1,0,50,0,0
166010,-100,4,1,0,50,0,0
167182,-100,4,1,0,90,0,1
197182,-100,4,1,0,90,0,0
219740,-100,4,1,0,70,0,0
221615,-100,4,1,0,50,0,0
223432,-100,4,1,0,20,0,0

[HitObjects]
256,192,2182,5,4,0:0:0:0:
256,192,3588,5,8,0:0:0:0:
256,192,4057,5,0,0:0:0:0:
256,192,5463,5,8,0:0:0:0:
256,192,5932,5,0,0:0:0:0:
256,192,6869,5,8,0:0:0:0:
256,192,7807,5,0,0:0:0:0:
256,192,8510,5,8,0:0:0:0:
256,192,8978,5,8,0:0:0:0:
256,192,9447,5,8,0:0:0:0:
256,192,9682,5,0,0:0:0:0:
256,192,10150,5,8,0:0:0:0:
256,192,10853,5,0,0:0:0:0:
256,192,11088,5,8,0:0:0:0:
256,192,11557,5,0,0:0:0:0:
256,192,12025,5,8,0:0:0:0:
256,192,12494,5,0,0:0:0:0:
256,192,12728,5,0,0:0:0:0:
256,192,12963,5,8,0:0:0:0:
256,192,13432,5,8,0:0:0:0:
256,192,14369,5,0,0:0:0:0:
256,192,14603,5,8,0:0:0:0:
256,192,15072,5,8,0:0:0:0:
256,192,15307,5,0,0:0:0:0:
256,192,15775,5,0,0:0:0:0:
256,192,16244,5,8,0:0:0:0:
256,192,16713,5,8,0:0:0:0:
256,192,16947,5,0,0:0:0:0:
256,192,17182,5,0,0:0:0:0:
256,192,17650,5,8,0:0:0:0:
256,192,18353,5,0,0:0:0:0:
256,192,18588,5,8,0:0:0:0:
256,192,19057,5,0,0:0:0:0:
256,192,19525,5,8,0:0:0:0:
256,192,19994,5,0,0:0:0:0:
256,192,20228,5,0,0:0:0:0:
256,192,20463,5,8,0:0:0:0:
256,192,20932,5,8,0:0:0:0:
256,192,21869,5,0,0:0:0:0:
256,192,22103,5,8,0:0:0:0:
256,192,22338,5,0,0:0:0:0:
256,192,22572,5,8,0:0:0:0:
256,192,22807,5,8,0:0:0:0:
256,192,23275,5,0,0:0:0:0:
256,192,23744,5,8,0:0:0:0:
256,192,24213,5,8,0:0:0:0:
256,192,24447,5,0,0:0:0:0:
256,192,24682,5,4,0:0:0:0:
256,192,25150,5,8,0:0:0:0:
256,192,25385,5,8,0:0:0:0:
256,192,25853,5,0,0:0:0:0:
256,192,26088,5,8,0:0:0:0:
256,192,26557,5,0,0:0:0:0:
256,192,27025,5,8,0:0:0:0:
256,192,27260,5,0,0:0:0:0:
256,192,27728,5,0,0:0:0:0:
256,192,27963,5,8,0:0:0:0:
256,192,28666,5,0,0:0:0:0:
256,192,28900,5,0,0:0:0:0:
256,192,29369,5,0,0:0:0:0:
256,192,29838,5,8,0:0:0:0:
256,192,30072,5,0,0:0:0:0:
256,192,30775,5,8,0:0:0:0:
256,192,31244,5,8,0:0:0:0:
256,192,31713,5,0,0:0:0:0:
256,192,31947,5,8,0:0:0:0:
256,192,32182,5,0,0:0:0:0:
256,192,32650,5,8,0:0:0:0:
256,192,32885,5,0,0:0:0:0:
256,192,33353,5,0,0:0:0:0:
256,192,33588,5,8,0:0:0:0:
256,192,34057,5,0,0:0:0:0:
256,192,34525,5,8,0:0:0:0:
256,192,34994,5,0,0:0:0:0:
256,192,35228,5,0,0:0:0:0:
256,192,35463,5,8,0:0:0:0:
256,192,35932,5,0,0:0:0:0:
256,192,36400,5,8,0:0:0:0:
256,192,36869,5,0,0:0:0:0:
256,192,37103,5,8,0:0:0:0:
256,192,37572,5,0,0:0:0:0:
256,192,38978,5,0,0:0:0:0:
256,192,39213,5,8,0:0:0:0:
256,192,39682,5,4,0:0:0:0:
256,192,40150,5,8,0:0:0:0:
256,192,40385,5,8,0:0:0:0:
256,192,40619,5,0,0:0:0:0:
256,192,41088,5,8,0:0:0:0:
256,192,42025,5,8,0:0:0:0:
256,192,42494,5,0,0:0:0:0:
256,192,42728,5,0,0:0:0:0:
256,192,42963,5,8,0:0:0:0:
256,192,43197,5,0,0:0:0:0:
256,192,43432,5,0,0:0:0:0:
256,192,44135,5,0,0:0:0:0:
256,192,44369,5,8,0:0:0:0:
256,192,44603,5,0,0:0:0:0:
256,192,44838,5,8,0:0:0:0:
256,192,45541,5,0,0:0:0:0:
256,192,45775,5,8,0:0:0:0:
256,192,46244,5,8,0:0:0:0:
256,192,46478,5,0,0:0:0:0:
256,192,46713,5,8,0:0:0:0:
256,192,47182,5,0,0:0:0:0:
256,192,47885,5,0,0:0:0:0:
256,192,48119,5,8,0:0:0:0:
256,192,48588,5,0,0:0:0:0:
256,192,49291,5,0,0:0:0:0:
256,192,49525,5,8,0:0:0:0:
256,192,49994,5,0,0:0:0:0:
256,192,50463,5,8,0:0:0:0:
256,192,50932,5,8,0:0:0:0:
256,192,51635,5,0,0:0:0:0:
256,192,51869,5,8,0:0:0:0:
256,192,52338,5,8,0:0:0:0:
256,192,52572,5,0,0:0:0:0:
256,192,53510,5,8,0:0:0:0:
256,192,53744,5,8,0:0:0:0:
256,192,54213,5,8,0:0:0:0:
256,192,54682,5,4,0:0:0:0:
256,192,55150,5,0,0:0:0:0:
256,192,55385,5,8,0:0:0:0:
256,192,55619,5,0,0:0:0:0:
256,192,55853,5,8,0:0:0:0:
256,192,56088,5,8,0:0:0:0:
256,192,56557,5,0,0:0:0:0:
256,192,57260,5,8,0:0:0:0:
256,192,57494,5,8,0:0:0:0:
256,192,57728,5,0,0:0:0:0:
256,192,57963,5,0,0:0:0:0:
256,192,58197,5,8,0:0:0:0:
256,192,58432,5,0,0:0:0:0:
256,192,59135,5,0,0:0:0:0:
256,192,59369,5,8,0:0:0:0:
256,192,59838,5,8,0:0:0:0:
256,192,60072,5,8,0:0:0:0:
256,192,60307,5,0,0:0:0:0:
256,192,60775,5,0,0:0:0:0:
256,192,61010,5,8,0:0:0:0:
256,192,61478,5,8,0:0:0:0:
256,192,61947,5,0,0:0:0:0:
256,192,62885,5,0,0:0:0:0:
256,192,63119,5,8,0:0:0:0:
256,192,63588,5,8,0:0:0:0:
256,192,64057,5,0,0:0:0:0:
256,192,64760,5,0,0:0:0:0:
256,192,64994,5,8,0:0:0:0:
256,192,65463,5,8,0:0:0:0:
256,192,65697,5,8,0:0:0:0:
256,192,65932,5,0,0:0:0:0:
256,192,66869,5,8,0:0:0:0:
256,192,67338,5,0,0:0:0:0:
256,192,67572,5,8,0:0:0:0:
256,192,68275,5,8,0:0:0:0:
256,192,68744,5,8,0:0:0:0:
256,192,69213,5,0,0:0:0:0:
256,192,69682,5,0,0:0:0:0:
256,192,70619,5,8,0:0:0:0:
256,192,71088,5,8,0:0:0:0:
256,192,71557,5,0,0:0:0:0:
256,192,72494,5,8,0:0:0:0:
256,192,72963,5,0,0:0:0:0:
256,192,73432,5,8,0:0:0:0:
256,192,74135,5,0,0:0:0:0:
256,192,74369,5,8,0:0:0:0:
256,192,74838,5,0,0:0:0:0:
256,192,75307,5,8,0:0:0:0:
256,192,76244,5,0,0:0:0:0:
256,192,76713,5,8,0:0:0:0:
256,192,76947,5,0,0:0:0:0:
256,192,77182,5,8,0:0:0:0:
256,192,78119,5,0,0:0:0:0:
256,192,78588,5,0,0:0:0:0:
256,192,79057,5,8,0:0:0:0:
256,192,79994,5,0,0:0:0:0:
256,192,80932,5,0,0:0:0:0:
256,192,81400,5,8,0:0:0:0:
256,192,81869,5,0,0:0:0:0:
256,192,82338,5,8,0:0:0:0:
256,192,82572,5,8,0:0:0:0:
256,192,83275,5,0,0:0:0:0:
256,192,84213,5,8,0:0:0:0:
256,192,84682,5,4,0:0:0:0:
256,192,85150,5,8,0:0:0:0:
256,192,85385,5,8,0:0:0:0:
256,192,85853,5,0,0:0:0:0:
256,192,86088,5,8,0:0:0:0:
256,192,86557,5,0,0:0:0:0:
256,192,87025,5,8,0:0:0:0:
256,192,87260,5,0,0:0:0:0:
256,192,87728,5,0,0:0:0:0:
256,192,87963,5,8,0:0:0:0:
256,192,88666,5,0,0:0:0:0:
256,192,88900,5,0,0:0:0:0:
256,192,89369,5,0,0:0:0:0:
256,192,89838,5,8,0:0:0:0:
256,192,90072,5,0,0:0:0:0:
256,192,90775,5,8,0:0:0:0:
256,192,91244,5,8,0:0:0:0:
256,192,91713,5,0,0:0:0:0:
256,192,91947,5,8,0:0:0:0:
256,192,92182,5,0,0:0:0:0:
256,192,92650,5,8,0:0:0:0:
256,192,92885,5,0,0:0:0:0:
256,192,93353,5,0,0:0:0:0:
256,192,93588,5,8,0:0:0:0:
256,192,94057,5,0,0:0:0:0:
256,192,94525,5,8,0:0:0:0:
256,192,94994,5,0,0:0:0:0:
256,192,95228,5,0,0:0:0:0:
256,192,95463,5,8,0:0:0:0:
256,192,95932,5,0,0:0:0:0:
256,192,96400,5,8,0:0:0:0:
256,192,96869,5,0,0:0:0:0:
256,192,97103,5,8,0:0:0:0:
256,192,97572,5,0,0:0:0:0:
256,192,98978,5,0,0:0:0:0:
256,192,99213,5,8,0:0:0:0:
256,192,99682,5,4,0:0:0:0:
256,192,100150,5,8,0:0:0:0:
256,192,100385,5,8,0:0:0:0:
256,192,100619,5,0,0:0:0:0:
256,192,101088,5,8,0:0:0:0:
256,192,102025,5,8,0:0:0:0:
256,192,102494,5,0,0:0:0:0:
256,192,102728,5,0,0:0:0:0:
256,192,102963,5,8,0:0:0:0:
256,192,103197,5,0,0:0:0:0:
256,192,103432,5,0,0:0:0:0:
256,192,104135,5,0,0:0:0:0:
256,192,104369,5,8,0:0:0:0:
256,192,104603,5,0,0:0:0:0:
256,192,104838,5,8,0:0:0:0:
256,192,105541,5,0,0:0:0:0:
256,192,105775,5,8,0:0:0:0:
256,192,106244,5,8,0:0:0:0:
256,192,106478,5,0,0:0:0:0:
256,192,106713,5,8,0:0:0:0:
256,192,107182,5,0,0:0:0:0:
256,192,107885,5,0,0:0:0:0:
256,192,108119,5,8,0:0:0:0:
256,192,108588,5,0,0:0:0:0:
256,192,109291,5,0,0:0:0:0:
256,192,109525,5,8,0:0:0:0:
256,192,109994,5,0,0:0:0:0:
256,192,110463,5,8,0:0:0:0:
256,192,110932,5,8,0:0:0:0:
256,192,111635,5,0,0:0:0:0:
256,192,111869,5,8,0:0:0:0:
256,192,112338,5,8,0:0:0:0:
256,192,112572,5,0,0:0:0:0:
256,192,113510,5,8,0:0:0:0:
256,192,113744,5,8,0:0:0:0:
256,192,114213,5,8,0:0:0:0:
256,192,114682,5,4,0:0:0:0:
256,192,115150,5,8,0:0:0:0:
256,192,115385,5,8,0:0:0:0:
256,192,115619,5,0,0:0:0:0:
256,192,115853,5,0,0:0:0:0:
256,192,116088,5,8,0:0:0:0:
256,192,116557,5,0,0:0:0:0:
256,192,117260,5,0,0:0:0:0:
256,192,117494,5,0,0:0:0:0:
256,192,117728,5,8,0:0:0:0:
256,192,117963,5,8,0:0:0:0:
256,192,118197,5,0,0:0:0:0:
256,192,118432,5,0,0:0:0:0:
256,192,119135,5,0,0:0:0:0:
256,192,119369,5,8,0:0:0:0:
256,192,119838,5,0,0:0:0:0:
256,192,120072,5,8,0:0:0:0:
256,192,120307,5,0,0:0:0:0:
256,192,120775,5,8,0:0:0:0:
256,192,121010,5,0,0:0:0:0:
256,192,121478,5,8,0:0:0:0:
256,192,121947,5,0,0:0:0:0:
256,192,122885,5,8,0:0:0:0:
256,192,123119,5,8,0:0:0:0:
256,192,123588,5,8,0:0:0:0:
256,192,124057,5,0,0:0:0:0:
256,192,124760,5,8,0:0:0:0:
256,192,124994,5,8,0:0:0:0:
256,192,125463,5,0,0:0:0:0:
256,192,125697,5,8,0:0:0:0:
256,192,125932,5,0,0:0:0:0:
256,192,126869,5,8,0:0:0:0:
256,192,127338,5,0,0:0:0:0:
256,192,127572,5,8,0:0:0:0:
256,192,128275,5,8,0:0:0:0:
256,192,128510,5,0,0:0:0:0:
256,192,128744,5,8,0:0:0:0:
256,192,129213,5,0,0:0:0:0:
256,192,129682,5,0,0:0:0:0:
256,192,130385,5,8,0:0:0:0:
256,192,131088,5,0,0:0:0:0:
256,192,133432,5,0,0:0:0:0:
256,192,134135,5,8,0:0:0:0:
256,192,134838,5,0,0:0:0:0:
256,192,135307,5,8,0:0:0:0:
256,192,136244,5,8,0:0:0:0:
256,192,137182,5,0,0:0:0:0:
256,192,137885,5,8,0:0:0:0:
256,192,138588,5,0,0:0:0:0:
256,192,139057,5,8,0:0:0:0:
256,192,140932,5,8,0:0:0:0:
256,192,141635,5,0,0:0:0:0:
256,192,142338,5,8,0:0:0:0:
256,192,142807,5,0,0:0:0:0:
256,192,144213,5,8,0:0:0:0:
256,192,144682,5,0,0:0:0:0:
256,192,145619,5,0,0:0:0:0:
256,192,146088,5,8,0:0:0:0:
256,192,146557,5,0,0:0:0:0:
256,192,147494,5,0,0:0:0:0:
256,192,147963,5,8,0:0:0:0:
256,192,148432,5,8,0:0:0:0:
256,192,149135,5,0,0:0:0:0:
256,192,149838,5,8,0:0:0:0:
256,192,150307,12,0,152182,0:0:0:0:
256,192,159682,5,0,0:0:0:0:
256,192,160619,5,0,0:0:0:0:
256,192,161088,5,0,0:0:0:0:
256,192,161557,5,0,0:0:0:0:
256,192,162494,5,0,0:0:0:0:
256,192,162963,5,0,0:0:0:0:
256,192,163432,5,0,0:0:0:0:
256,192,164135,5,8,0:0:0:0:
256,192,164369,5,8,0:0:0:0:
256,192,164838,5,8,0:0:0:0:
256,192,165541,5,0,0:0:0:0:
256,192,165775,5,0,0:0:0:0:
256,192,166010,5,8,0:0:0:0:
256,192,167182,5,4,0:0:0:0:
256,192,167650,5,0,0:0:0:0:
256,192,167885,5,8,0:0:0:0:
256,192,168119,5,0,0:0:0:0:
256,192,168353,5,8,0:0:0:0:
256,192,168588,5,8,0:0:0:0:
256,192,169057,5,0,0:0:0:0:
256,192,169760,5,8,0:0:0:0:
256,192,169994,5,8,0:0:0:0:
256,192,170228,5,0,0:0:0:0:
256,192,170463,5,0,0:0:0:0:
256,192,170697,5,8,0:0:0:0:
256,192,170932,5,0,0:0:0:0:
256,192,171635,5,0,0:0:0:0:
256,192,171869,5,8,0:0:0:0:
256,192,172338,5,8,0:0:0:0:
256,192,172572,5,8,0:0:0:0:
256,192,172807,5,0,0:0:0:0:
256,192,173275,5,0,0:0:0:0:
256,192,173510,5,8,0:0:0:0:
256,192,173978,5,8,0:0:0:0:
256,192,174447,5,0,0:0:0:0:
256,192,175385,5,0,0:0:0:0:
256,192,175619,5,8,0:0:0:0:
256,192,176088,5,8,0:0:0:0:
256,192,176557,5,0,0:0:0:0:
256,192,177260,5,0,0:0:0:0:
256,192,177494,5,8,0:0:0:0:
256,192,177963,5,8,0:0:0:0:
256,192,178197,5,8,0:0:0:0:
256,192,178432,5,0,0:0:0:0:
256,192,179369,5,8,0:0:0:0:
256,192,179838,5,0,0:0:0:0:
256,192,180072,5,8,0:0:0:0:
256,192,180775,5,8,0:0:0:0:
256,192,181244,5,8,0:0:0:0:
256,192,181713,5,0,0:0:0:0:
256,192,181947,5,8,0:0:0:0:
256,192,182182,5,4,0:0:0:0:
256,192,182650,5,0,0:0:0:0:
256,192,182885,5,8,0:0:0:0:
256,192,183119,5,0,0:0:0:0:
256,192,183353,5,8,0:0:0:0:
256,192,183588,5,8,0:0:0:0:
256,192,184057,5,0,0:0:0:0:
256,192,184760,5,0,0:0:0:0:
256,192,184994,5,8,0:0:0:0:
256,192,185228,5,0,0:0:0:0:
256,192,185463,5,8,0:0:0:0:
256,192,185697,5,8,0:0:0:0:
256,192,185932,5,0,0:0:0:0:
256,192,186400,5,0,0:0:0:0:
256,192,186635,5,0,0:0:0:0:
256,192,186869,5,8,0:0:0:0:
256,192,187103,5,0,0:0:0:0:
256,192,187338,5,8,0:0:0:0:
256,192,187572,5,8,0:0:0:0:
256,192,187807,5,0,0:0:0:0:
256,192,188275,5,0,0:0:0:0:
256,192,188510,5,8,0:0:0:0:
256,192,188978,5,8,0:0:0:0:
256,192,189447,5,0,0:0:0:0:
256,192,190150,5,0,0:0:0:0:
256,192,190385,5,0,0:0:0:0:
256,192,190619,5,8,0:0:0:0:
256,192,190853,5,0,0:0:0:0:
256,192,191088,5,8,0:0:0:0:
256,192,191557,5,0,0:0:0:0:
256,192,192025,5,0,0:0:0:0:
256,192,192260,5,8,0:0:0:0:
256,192,192494,5,8,0:0:0:0:
256,192,192728,5,0,0:0:0:0:
256,192,192963,5,8,0:0:0:0:
256,192,193197,5,8,0:0:0:0:
256,192,193432,5,0,0:0:0:0:
256,192,194135,5,0,0:0:0:0:
256,192,194369,5,8,0:0:0:0:
256,192,194603,5,0,0:0:0:0:
256,192,194838,5,0,0:0:0:0:
256,192,195072,5,8,0:0:0:0:
256,192,195541,5,0,0:0:0:0:
256,192,195775,5,8,0:0:0:0:
256,192,196244,5,8,0:0:0:0:
256,192,196478,5,8,0:0:0:0:
256,192,196713,5,0,0:0:0:0:
256,192,197182,5,4,0:0:0:0:
256,192,197650,5,8,0:0:0:0:
256,192,198353,5,0,0:0:0:0:
256,192,198588,5,8,0:0:0:0:
256,192,199057,5,0,0:0:0:0:
256,192,199525,5,8,0:0:0:0:
256,192,199760,5,8,0:0:0:0:
256,192,200228,5,8,0:0:0:0:
256,192,200463,5,0,0:0:0:0:
256,192,200932,5,8,0:0:0:0:
256,192,201635,5,0,0:0:0:0:
256,192,202103,5,0,0:0:0:0:
256,192,202338,5,8,0:0:0:0:
256,192,202807,5,0,0:0:0:0:
256,192,203275,5,8,0:0:0:0:
256,192,203510,5,8,0:0:0:0:
256,192,203978,5,0,0:0:0:0:
256,192,204213,5,8,0:0:0:0:
256,192,204447,5,8,0:0:0:0:
256,192,204682,5,4,0:0:0:0:
256,192,205150,5,8,0:0:0:0:
256,192,205853,5,0,0:0:0:0:
256,192,206088,5,8,0:0:0:0:
256,192,206557,5,0,0:0:0:0:
256,192,207025,5,8,0:0:0:0:
256,192,207260,5,8,0:0:0:0:
256,192,207728,5,8,0:0:0:0:
256,192,207963,5,0,0:0:0:0:
256,192,208432,5,8,0:0:0:0:
256,192,209135,5,0,0:0:0:0:
256,192,209603,5,0,0:0:0:0:
256,192,209838,5,8,0:0:0:0:
256,192,210307,5,0,0:0:0:0:
256,192,210775,5,8,0:0:0:0:
256,192,211244,5,0,0:0:0:0:
256,192,211478,5,0,0:0:0:0:
256,192,211713,5,8,0:0:0:0:
256,192,211947,5,0,0:0:0:0:
256,192,212182,5,8,0:0:0:0:
256,192,212650,5,8,0:0:0:0:
256,192,213353,5,0,0:0:0:0:
256,192,213588,5,8,0:0:0:0:
256,192,213822,5,0,0:0:0:0:
256,192,214057,5,0,0:0:0:0:
256,192,214525,5,12,0:0:0:0:
256,192,214760,5,12,0:0:0:0:
256,192,215228,5,8,0:0:0:0:
256,192,215463,5,0,0:0:0:0:
256,192,215932,5,8,0:0:0:0:
256,192,216635,5,0,0:0:0:0:
256,192,217103,5,0,0:0:0:0:
256,192,217338,5,8,0:0:0:0:
256,192,217807,5,0,0:0:0:0:
256,192,218275,5,8,0:0:0:0:
256,192,218510,5,8,0:0:0:0:
256,192,218978,5,0,0:0:0:0:
256,192,219213,5,8,0:0:0:0:
256,192,219447,5,0,0:0:0:0:
256,192,219682,5,4,0:0:0:0:
256,192,220150,5,0,0:0:0:0:
256,192,220853,5,0,0:0:0:0:
256,192,221088,5,8,0:0:0:0:
256,192,221557,5,0,0:0:0:0:
256,192,222025,5,8,0:0:0:0:
256,192,222260,5,0,0:0:0:0:
256,192,222728,5,0,0:0:0:0:
256,192,222963,5,8,0:0:0:0:
256,192,223432,12,0,226713,0:0:0:0:
