osu file format v14

[General]
AudioFilename: audio.mp3
AudioLeadIn: 0
PreviewTime: 53510
Countdown: 1
SampleSet: Normal
StackLeniency: 0.7
Mode: 1
LetterboxInBreaks: 0
WidescreenStoryboard: 1

[Editor]
DistanceSpacing: 0.8
BeatDivisor: 2
GridSize: 32
TimelineZoom: 0.6999997

[Metadata]
Title:My Love
TitleUnicode:My Love
Artist:Kuba Oms
ArtistUnicode:Kuba Oms
Creator:duski
Version:Idealism's Kantan
Source:osu!
Tags:fa featured artist ADHD english pop mg mpg mappers guild idealism yuki_momoiro722 vulkin
BeatmapID:2381230
BeatmapSetID:1132237

[Difficulty]
HPDrainRate:8
CircleSize:2
OverallDifficulty:3
ApproachRate:10
SliderMultiplier:1.4
SliderTickRate:1

[Events]
//Background and Video events
0,0,"kubba.jpg",0,0
//Break Periods
2,152382,159232
//Storyboard Layer 0 (Background)
//Storyboard Layer 1 (Fail)
//Storyboard Layer 2 (Pass)
//Storyboard Layer 3 (Foreground)
//Storyboard Layer 4 (Overlay)
//Storyboard Sound Samples

[TimingPoints]
2182,468.75,4,1,0,90,1,0
9447,-100,4,1,0,90,0,0
9682,-100,4,1,0,90,0,0
24447,-100,4,1,0,90,0,0
39682,-100,4,1,0,90,0,0
54682,-100,4,1,0,90,0,1
69682,-100,4,1,0,90,0,0
84447,-100,4,1,0,90,0,0
84682,-100,4,1,0,90,0,0
99682,-100,4,1,0,90,0,0
114682,-100,4,1,0,90,0,1
129682,-100,4,1,0,90,0,0
130385,-100,4,1,0,90,0,0
131088,-100,4,1,0,90,0,0
133432,-100,4,1,0,90,0,0
144682,-100,4,1,0,90,0,0
150307,-100,4,1,0,50,0,0
159682,-100,4,1,0,50,0,0
166010,-100,4,1,0,50,0,0
167182,-100,4,1,0,90,0,1
197182,-100,4,1,0,90,0,0
219740,-100,4,1,0,70,0,0
221615,-100,4,1,0,50,0,0
223432,-100,4,1,0,20,0,0

[HitObjects]
255,188,2182,5,4,0:0:0:0:
256,193,3588,1,0,0:0:0:0:
255,188,4057,1,8,0:0:0:0:
255,188,5932,1,0,0:0:0:0:
256,190,7338,1,0,0:0:0:0:
255,188,7807,1,8,0:0:0:0:
255,188,9682,1,0,0:0:0:0:
255,188,10150,1,0,0:0:0:0:
255,188,10619,1,8,0:0:0:0:
255,188,11557,1,8,0:0:0:0:
255,188,12025,1,0,0:0:0:0:
255,188,12494,1,8,0:0:0:0:
255,188,13432,1,8,0:0:0:0:
255,188,14369,1,0,0:0:0:0:
255,186,14838,1,8,0:0:0:0:
255,186,15307,1,0,0:0:0:0:
255,186,16244,1,8,0:0:0:0:
255,186,16713,1,8,0:0:0:0:
255,186,17182,1,0,0:0:0:0:
255,186,18588,1,0,0:0:0:0:
255,186,19057,1,8,0:0:0:0:
255,186,19994,1,8,0:0:0:0:
255,186,20463,1,0,0:0:0:0:
255,186,20932,1,8,0:0:0:0:
255,186,21869,1,0,0:0:0:0:
254,189,22338,1,0,0:0:0:0:
254,189,22807,1,8,0:0:0:0:
254,189,24682,1,4,0:0:0:0:
254,189,25619,1,8,0:0:0:0:
254,189,26088,1,0,0:0:0:0:
254,189,26557,1,8,0:0:0:0:
254,189,27494,1,0,0:0:0:0:
251,185,27963,1,8,0:0:0:0:
251,185,28432,1,0,0:0:0:0:
251,185,29369,1,0,0:0:0:0:
251,185,29838,1,0,0:0:0:0:
251,185,30307,1,8,0:0:0:0:
251,185,30775,1,8,0:0:0:0:
251,185,31244,1,0,0:0:0:0:
251,185,32182,1,0,0:0:0:0:
251,185,33588,1,8,0:0:0:0:
251,185,34057,1,0,0:0:0:0:
251,185,34994,1,0,0:0:0:0:
251,185,35463,1,8,0:0:0:0:
251,185,35932,1,0,0:0:0:0:
251,185,36869,1,8,0:0:0:0:
251,185,37572,1,8,0:0:0:0:
257,192,39682,1,4,0:0:0:0:
257,192,40619,1,8,0:0:0:0:
257,192,41088,1,0,0:0:0:0:
257,192,42025,1,8,0:0:0:0:
257,192,42494,1,0,0:0:0:0:
257,192,42963,1,0,0:0:0:0:
257,192,43432,1,8,0:0:0:0:
257,192,44369,1,8,0:0:0:0:
257,192,44838,1,0,0:0:0:0:
257,192,45775,1,0,0:0:0:0:
257,192,46244,1,8,0:0:0:0:
266,192,47182,1,0,0:0:0:0:
266,192,48119,1,8,0:0:0:0:
266,192,48588,1,0,0:0:0:0:
266,192,49525,1,0,0:0:0:0:
266,192,49994,1,8,0:0:0:0:
266,192,50932,1,8,0:0:0:0:
266,192,51869,1,8,0:0:0:0:
266,192,52572,1,8,0:0:0:0:
262,192,54682,1,4,0:0:0:0:
262,192,55619,1,0,0:0:0:0:
262,192,56088,1,8,0:0:0:0:
262,192,56557,1,0,0:0:0:0:
262,192,57494,1,8,0:0:0:0:
262,192,57963,1,8,0:0:0:0:
262,192,58432,1,0,0:0:0:0:
262,192,59369,1,8,0:0:0:0:
262,192,59838,1,0,0:0:0:0:
262,192,60307,1,0,0:0:0:0:
262,192,61010,1,8,0:0:0:0:
262,192,61947,1,0,0:0:0:0:
255,188,63119,1,8,0:0:0:0:
255,188,63588,1,0,0:0:0:0:
255,188,64057,1,8,0:0:0:0:
255,188,64994,1,8,0:0:0:0:
255,188,65463,1,8,0:0:0:0:
255,188,65932,1,0,0:0:0:0:
255,188,66869,1,8,0:0:0:0:
255,188,67572,1,8,0:0:0:0:
255,188,68275,1,0,0:0:0:0:
255,188,68744,1,0,0:0:0:0:
255,188,69682,1,8,0:0:0:0:
256,188,71088,1,0,0:0:0:0:
256,188,71557,1,8,0:0:0:0:
256,188,72494,1,0,0:0:0:0:
256,188,72963,1,8,0:0:0:0:
256,188,73432,1,0,0:0:0:0:
256,188,74369,1,8,0:0:0:0:
256,188,74838,1,8,0:0:0:0:
256,188,75307,1,0,0:0:0:0:
245,190,76244,1,0,0:0:0:0:
245,190,76713,1,8,0:0:0:0:
245,190,77182,1,0,0:0:0:0:
253,180,78588,1,0,0:0:0:0:
253,180,79057,1,8,0:0:0:0:
253,180,79994,1,8,0:0:0:0:
253,180,80463,1,0,0:0:0:0:
253,180,80932,1,8,0:0:0:0:
253,180,81869,1,8,0:0:0:0:
253,180,82338,1,8,0:0:0:0:
253,180,82807,1,0,0:0:0:0:
256,183,84682,1,4,0:0:0:0:
256,183,85619,1,0,0:0:0:0:
256,183,86088,1,8,0:0:0:0:
256,183,86557,1,0,0:0:0:0:
256,183,87494,1,8,0:0:0:0:
256,183,87963,1,8,0:0:0:0:
256,183,88432,1,0,0:0:0:0:
256,183,89369,1,8,0:0:0:0:
256,183,89838,1,8,0:0:0:0:
256,183,90307,1,0,0:0:0:0:
256,183,90775,1,0,0:0:0:0:
256,183,91244,1,8,0:0:0:0:
256,183,92182,1,0,0:0:0:0:
258,182,93588,1,8,0:0:0:0:
258,182,94057,1,0,0:0:0:0:
258,182,94994,1,0,0:0:0:0:
258,182,95463,1,8,0:0:0:0:
258,182,95932,1,0,0:0:0:0:
258,182,96869,1,8,0:0:0:0:
258,182,97338,1,8,0:0:0:0:
258,182,97807,1,0,0:0:0:0:
258,182,99682,1,4,0:0:0:0:
258,182,100619,1,8,0:0:0:0:
258,182,101088,1,0,0:0:0:0:
258,182,102025,1,8,0:0:0:0:
258,182,102494,1,0,0:0:0:0:
258,182,102963,1,0,0:0:0:0:
258,182,103432,1,8,0:0:0:0:
258,182,104369,1,8,0:0:0:0:
258,182,104838,1,0,0:0:0:0:
258,182,105775,1,0,0:0:0:0:
258,182,106244,1,8,0:0:0:0:
258,182,107182,1,8,0:0:0:0:
258,182,108119,1,8,0:0:0:0:
258,182,108588,1,0,0:0:0:0:
258,182,109525,1,0,0:0:0:0:
258,182,109994,1,8,0:0:0:0:
258,182,110932,1,8,0:0:0:0:
258,182,111869,1,8,0:0:0:0:
258,182,112572,1,8,0:0:0:0:
256,180,114682,1,4,0:0:0:0:
262,192,115619,1,0,0:0:0:0:
262,192,116088,1,8,0:0:0:0:
262,192,116557,1,0,0:0:0:0:
262,192,117494,1,8,0:0:0:0:
262,192,117963,1,8,0:0:0:0:
262,192,118432,1,0,0:0:0:0:
262,192,119369,1,8,0:0:0:0:
262,192,119838,1,0,0:0:0:0:
262,192,120307,1,0,0:0:0:0:
262,192,121010,1,8,0:0:0:0:
262,192,121947,1,0,0:0:0:0:
255,188,123119,1,8,0:0:0:0:
255,188,123588,1,0,0:0:0:0:
255,188,124057,1,8,0:0:0:0:
255,188,124994,1,8,0:0:0:0:
255,188,125463,1,8,0:0:0:0:
255,188,125932,1,0,0:0:0:0:
255,188,126869,1,8,0:0:0:0:
255,188,127572,1,8,0:0:0:0:
255,188,128275,1,0,0:0:0:0:
255,188,128744,1,0,0:0:0:0:
255,188,129682,1,8,0:0:0:0:
255,190,131557,1,0,0:0:0:0:
255,190,133432,1,8,0:0:0:0:
255,190,135307,1,0,0:0:0:0:
255,190,137182,1,8,0:0:0:0:
255,190,139057,1,0,0:0:0:0:
255,197,140932,1,8,0:0:0:0:
255,197,142807,1,0,0:0:0:0:
255,197,144682,1,0,0:0:0:0:
255,197,145150,1,8,0:0:0:0:
255,197,145619,1,0,0:0:0:0:
255,197,146088,1,8,0:0:0:0:
255,197,146557,1,0,0:0:0:0:
255,197,147494,1,8,0:0:0:0:
255,197,147963,1,8,0:0:0:0:
255,197,148432,1,0,0:0:0:0:
255,197,149369,1,0,0:0:0:0:
255,197,149838,1,8,0:0:0:0:
255,197,150307,1,0,0:0:0:0:
253,176,152182,1,0,0:0:0:0:
255,197,159682,5,4,0:0:0:0:
255,197,160619,1,8,0:0:0:0:
255,197,161088,1,0,0:0:0:0:
255,197,162025,1,8,0:0:0:0:
255,197,162494,1,0,0:0:0:0:
255,197,162963,1,8,0:0:0:0:
255,197,163432,1,0,0:0:0:0:
256,192,164369,12,8,166244,0:0:0:0:
249,189,167182,5,4,0:0:0:0:
262,192,168119,1,0,0:0:0:0:
262,192,168588,1,8,0:0:0:0:
262,192,169057,1,0,0:0:0:0:
262,192,169994,1,8,0:0:0:0:
262,192,170463,1,8,0:0:0:0:
262,192,170932,1,0,0:0:0:0:
262,192,171869,1,8,0:0:0:0:
262,192,172338,1,0,0:0:0:0:
262,192,172807,1,0,0:0:0:0:
262,192,173510,1,8,0:0:0:0:
262,192,174447,1,0,0:0:0:0:
255,188,175619,1,8,0:0:0:0:
255,188,176088,1,0,0:0:0:0:
255,188,176557,1,8,0:0:0:0:
255,188,177494,1,8,0:0:0:0:
255,188,177963,1,8,0:0:0:0:
255,188,178432,1,0,0:0:0:0:
255,188,179369,1,8,0:0:0:0:
255,188,180072,1,8,0:0:0:0:
255,188,180775,1,0,0:0:0:0:
255,188,181244,1,0,0:0:0:0:
255,188,182182,1,4,0:0:0:0:
262,192,183119,1,0,0:0:0:0:
262,192,183588,1,8,0:0:0:0:
262,192,184057,1,0,0:0:0:0:
262,192,184994,1,8,0:0:0:0:
262,192,185463,1,8,0:0:0:0:
262,192,185932,1,0,0:0:0:0:
262,192,186869,1,8,0:0:0:0:
262,192,187338,1,0,0:0:0:0:
262,192,187807,1,0,0:0:0:0:
262,192,188510,1,8,0:0:0:0:
262,192,189447,1,0,0:0:0:0:
255,188,190619,1,8,0:0:0:0:
255,188,191088,1,0,0:0:0:0:
255,188,191557,1,8,0:0:0:0:
255,188,192494,1,8,0:0:0:0:
255,188,192963,1,8,0:0:0:0:
255,188,193432,1,0,0:0:0:0:
255,188,194369,1,8,0:0:0:0:
255,188,195072,1,8,0:0:0:0:
255,188,195775,1,0,0:0:0:0:
255,188,196244,1,0,0:0:0:0:
255,188,196713,1,0,0:0:0:0:
255,188,197182,1,12,0:0:0:0:
247,191,198588,1,0,0:0:0:0:
247,191,199057,1,8,0:0:0:0:
247,191,199525,1,8,0:0:0:0:
247,191,199994,1,0,0:0:0:0:
247,191,200932,1,8,0:0:0:0:
247,191,201869,1,8,0:0:0:0:
247,191,202338,1,8,0:0:0:0:
247,191,202807,1,0,0:0:0:0:
247,191,203744,1,0,0:0:0:0:
247,191,204213,1,0,0:0:0:0:
247,191,204682,1,8,0:0:0:0:
247,191,206088,1,8,0:0:0:0:
247,191,206557,1,0,0:0:0:0:
247,191,207025,1,0,0:0:0:0:
247,191,207494,1,8,0:0:0:0:
247,191,208432,1,8,0:0:0:0:
247,191,209369,1,8,0:0:0:0:
247,191,209838,1,0,0:0:0:0:
247,191,210307,1,0,0:0:0:0:
247,191,211244,1,8,0:0:0:0:
247,191,211713,1,0,0:0:0:0:
255,188,212182,1,12,0:0:0:0:
247,191,213588,1,0,0:0:0:0:
247,191,214057,1,8,0:0:0:0:
247,191,214525,1,8,0:0:0:0:
247,191,214994,1,0,0:0:0:0:
247,191,215932,1,8,0:0:0:0:
247,191,216869,1,8,0:0:0:0:
247,191,217338,1,8,0:0:0:0:
247,191,217807,1,0,0:0:0:0:
247,191,218744,1,0,0:0:0:0:
247,191,219213,1,0,0:0:0:0:
247,191,219682,1,8,0:0:0:0:
247,191,221088,1,8,0:0:0:0:
247,191,221557,1,0,0:0:0:0:
247,191,222025,1,0,0:0:0:0:
247,191,222494,1,8,0:0:0:0:
256,192,223432,12,0,226713,0:0:0:0:
