osu file format v14

[General]
AudioFilename: audio.mp3
AudioLeadIn: 0
PreviewTime: 237917
Countdown: 0
SampleSet: Soft
StackLeniency: 0.3
Mode: 0
LetterboxInBreaks: 0
EpilepsyWarning: 1
WidescreenStoryboard: 1

[Editor]
Bookmarks: 1799,41329,76623,87917,121799,147211,158505,169799,181094,203682,214976,226270,238976,261564,272858,295447,306741
DistanceSpacing: 1.8
BeatDivisor: 8
GridSize: 32
TimelineZoom: 1.9

[Metadata]
Title:My Love (XenjeS' remix)
TitleUnicode:My Love (XenjeS' remix)
Artist:Kuba Oms
ArtistUnicode:Kuba Oms
Creator:XenjeS
Version:Will You be Lonely with Me?
Source:
Tags:a Labour of Love alol labor contest adioni PantyDev Delette Maruoko Lovers english pop electronic kubaoms dnb drum and bass edm hardcore trance hardtek
BeatmapID:2867851
BeatmapSetID:1388590

[Difficulty]
HPDrainRate:5
CircleSize:4
OverallDifficulty:9
ApproachRate:9.3
SliderMultiplier:1.8
SliderTickRate:1

[Events]
//Background and Video events
0,0,"bg.jpg",0,0
//Break Periods
//Storyboard Layer 0 (Background)
//Storyboard Layer 1 (Fail)
//Storyboard Layer 2 (Pass)
//Storyboard Layer 3 (Foreground)
//Storyboard Layer 4 (Overlay)
//Storyboard Sound Samples

[TimingPoints]
1800,352.941176470588,4,2,1,100,1,0
2152,-200,4,2,1,100,0,0
3035,-100,4,2,1,100,0,0
4976,-200,4,2,1,100,0,0
6035,-100,4,2,1,100,0,0
7094,-66.6666666666667,4,2,1,100,0,0
7799,-200,4,2,1,100,0,0
8682,-100,4,2,1,100,0,0
10623,-200,4,2,1,100,0,0
11329,-66.6666666666667,4,2,1,100,0,0
11505,-200,4,2,1,100,0,0
11682,-100,4,2,1,100,0,0
13094,-285.714285714286,4,2,1,100,0,0
24035,-333.333333333333,4,2,1,100,0,0
24917,-100,4,2,1,100,0,0
41329,-66.6666666666667,4,2,1,100,0,0
42035,-142.857142857143,4,2,1,100,0,0
42741,-83.3333333333333,4,2,1,100,0,0
43094,-166.666666666667,4,2,1,100,0,0
44152,-111.111111111111,4,2,1,100,0,0
45564,-83.3333333333333,4,2,1,100,0,0
46270,-100,4,2,1,100,0,0
46623,-333.333333333333,4,2,1,100,0,0
46976,-58.8235294117647,4,2,1,100,0,0
48388,-333.333333333334,4,2,1,100,0,0
48741,-250,4,2,1,100,0,0
49094,-200,4,2,1,100,0,0
49447,-166.666666666667,4,2,1,100,0,0
51211,-83.3333333333333,4,2,1,100,0,0
52623,-50,4,2,1,100,0,0
54211,-66.6666666666667,4,2,1,100,0,0
56152,-125,4,2,1,100,0,0
56505,-66.6666666666667,4,2,1,100,0,0
57211,-125,4,2,1,100,0,0
57564,-66.6666666666667,4,2,1,100,0,0
57917,-100,4,2,1,100,0,0
58270,-66.6666666666667,4,2,1,100,0,0
60035,-200,4,2,1,100,0,0
60388,-66.6666666666667,4,2,1,100,0,0
61094,-100,4,2,1,100,0,0
61447,-66.6666666666667,4,2,1,100,0,0
62152,-100,4,2,1,100,0,0
62505,-66.6666666666667,4,2,1,100,0,0
63211,-100,4,2,1,100,0,0
63564,-66.6666666666667,4,2,1,100,0,0
65329,-50,4,2,1,100,0,1
65682,-100,4,2,1,100,0,1
66035,-66.6666666666667,4,2,1,100,0,1
66388,-133.333333333333,4,2,1,100,0,1
66917,-117.647058823529,4,2,1,100,0,1
67094,-105.263157894737,4,2,1,100,0,1
67270,-95.2380952380951,4,2,1,100,0,1
67447,-86.9565217391304,4,2,1,100,0,1
67799,-166.666666666667,4,2,1,100,0,1
68152,-50,4,2,1,100,0,1
68505,-100,4,2,1,100,0,1
68858,-66.6666666666667,4,2,1,100,0,1
69211,-100,4,2,1,100,0,1
69564,-133.333333333333,4,2,1,100,0,1
69741,-117.647058823529,4,2,1,100,0,1
69917,-105.263157894737,4,2,1,100,0,1
70094,-95.2380952380951,4,2,1,100,0,1
70270,-86.9565217391304,4,2,1,100,0,1
70623,-166.666666666667,4,2,1,100,0,1
70976,-50,4,2,1,100,0,1
71329,-100,4,2,1,100,0,1
71682,-66.6666666666667,4,2,1,100,0,1
72035,-100,4,2,1,100,0,1
72388,-133.333333333333,4,2,1,100,0,1
72564,-117.647058823529,4,2,1,100,0,1
72741,-105.263157894737,4,2,1,100,0,1
72917,-95.2380952380951,4,2,1,100,0,1
73094,-86.9565217391304,4,2,1,100,0,1
73447,-100,4,2,1,100,0,1
73799,-50,4,2,1,100,0,1
74152,-100,4,2,1,100,0,1
74505,-66.6666666666667,4,2,1,100,0,1
74858,-100,4,2,1,100,0,1
75741,-83.3333333333333,4,2,1,100,0,1
76094,-71.4285714285714,4,2,1,100,0,1
76447,-62.5,4,2,1,100,0,1
76623,-66.6666666666667,4,2,1,100,0,0
76976,-100,4,2,1,100,0,0
78035,-66.6666666666667,4,2,1,100,0,0
78564,-100,4,2,1,100,0,0
79447,-66.6666666666667,4,2,1,100,0,0
79799,-100,4,2,1,100,0,0
80858,-50,4,2,1,100,0,0
81388,-66.6666666666667,4,2,1,100,0,0
81564,-100,4,2,1,100,0,0
81741,-50,4,2,1,100,0,0
82270,-66.6666666666667,4,2,1,100,0,0
82623,-100,4,2,1,100,0,0
85094,-66.6666666666667,4,2,1,100,0,0
85447,-100,4,2,1,100,0,0
87917,-200,4,2,1,60,0,0
88447,-400,4,2,1,60,0,0
91623,-400,4,2,1,60,0,0
91711,-400,4,2,1,60,0,0
91799,-400,4,2,1,60,0,0
91888,-400,4,2,1,60,0,0
99211,-100,4,2,1,100,0,0
102035,-200,4,2,1,100,0,0
103447,-90.9090909090909,4,2,1,100,0,0
104858,-100,4,2,1,100,0,0
107682,-200,4,2,1,100,0,0
109799,-133.333333333333,4,2,1,100,0,0
110152,-200,4,2,1,100,0,0
110505,-100,4,2,1,100,0,0
111564,-80,4,2,1,100,0,0
111917,-100,4,2,1,100,0,0
112976,-80,4,2,1,100,0,0
113329,-100,4,2,1,100,0,0
114741,-80,4,2,1,100,0,0
116152,-100,4,2,1,100,0,0
117211,-80,4,2,1,100,0,0
117564,-100,4,2,1,100,0,0
118623,-80,4,2,1,100,0,0
118976,-100,4,2,1,100,0,0
120388,-80,4,2,1,100,0,0
121799,-100,4,2,1,80,0,0
132564,-500,4,2,1,80,0,0
133094,-500,4,2,1,5,0,0
134505,-500,4,2,1,5,0,0
134682,-500,4,2,1,80,0,0
134770,-500,4,2,1,80,0,0
134858,-500,4,2,1,80,0,0
134947,-500,4,2,1,80,0,0
135035,-500,4,2,1,80,0,0
135123,-500,4,2,1,80,0,0
135211,-500,4,2,1,80,0,0
135299,-500,4,2,1,80,0,0
135388,-500,4,2,1,80,0,0
135476,-500,4,2,1,80,0,0
135564,-500,4,2,1,80,0,0
135652,-500,4,2,1,80,0,0
135741,-500,4,2,1,80,0,0
135917,-62.5,4,2,1,100,0,1
136447,-83.3333333333333,4,2,1,100,0,1
137329,-62.5,4,2,1,100,0,1
137858,-83.3333333333333,4,2,1,100,0,1
138388,-71.4285714285714,4,2,1,100,0,1
138741,-62.5,4,2,1,100,0,1
139270,-83.3333333333333,4,2,1,100,0,1
140152,-62.5,4,2,1,100,0,1
140682,-83.3333333333333,4,2,1,100,0,1
141035,-71.4285714285714,4,2,1,100,0,1
141564,-62.5,4,2,1,100,0,1
142094,-83.3333333333333,4,2,1,100,0,1
142976,-62.5,4,2,1,100,0,1
143505,-83.3333333333333,4,2,1,100,0,1
144388,-62.5,4,2,1,100,0,1
145799,-83.3333333333333,4,2,1,100,0,0
146858,-62.5,4,2,1,100,0,0
147211,-62.5,4,2,1,100,0,1
147741,-83.3333333333333,4,2,1,100,0,1
148623,-62.5,4,2,1,100,0,1
149152,-83.3333333333333,4,2,1,100,0,1
150035,-55.5555555555556,4,2,1,100,0,1
150564,-83.3333333333333,4,2,1,100,0,1
151447,-62.5,4,2,1,100,0,1
151799,-83.3333333333333,4,2,1,100,0,1
152858,-62.5,4,2,1,100,0,1
153388,-83.3333333333333,4,2,1,100,0,1
154270,-62.5,4,2,1,100,0,1
154799,-83.3333333333333,4,2,1,100,0,1
155682,-62.5,4,2,1,100,0,1
156388,-83.3333333333333,4,2,1,100,0,1
157094,-71.4285714285714,4,2,1,100,0,0
157447,-76.9230769230769,4,2,1,100,0,0
157799,-66.6666666666667,4,2,1,100,0,0
157976,-62.5,4,2,1,100,0,0
158152,-58.8235294117647,4,2,1,100,0,0
158505,-33.3333333333333,4,2,1,100,0,1
158947,-50,4,2,1,100,0,1
159564,-100,4,2,1,100,0,1
159741,-40,4,2,1,100,0,1
159917,-33.3333333333333,4,2,1,100,0,1
160270,-100,4,2,1,100,0,1
160535,-50,4,2,1,100,0,1
161064,-40,4,2,1,100,0,1
161329,-33.3333333333333,4,2,1,100,0,1
161770,-50,4,2,1,100,0,1
162211,-100,4,2,1,100,0,1
162476,-50,4,2,1,100,0,1
162741,-33.3333333333333,4,2,1,100,0,1
163799,-142.857142857143,4,2,1,100,0,1
164152,-33.3333333333333,4,2,1,100,0,1
164594,-50,4,2,1,100,0,1
165211,-100,4,2,1,100,0,1
165388,-50,4,2,1,100,0,1
165564,-33.3333333333333,4,2,1,100,0,1
165917,-100,4,2,1,100,0,1
166182,-50,4,2,1,100,0,1
166711,-40,4,2,1,100,0,1
166976,-33.3333333333333,4,2,1,100,0,1
167417,-50,4,2,1,100,0,1
168388,-50,4,2,1,100,0,0
169005,-100,4,2,1,100,0,0
169270,-50,4,2,1,100,0,0
169623,-100,4,2,1,100,0,0
169799,-31.055900621118,4,2,1,100,0,1
170152,-43.859649122807,4,2,1,100,0,1
171211,-31.055900621118,4,2,1,100,0,1
171564,-43.859649122807,4,2,1,100,0,1
172623,-31.055900621118,4,2,1,100,0,1
172976,-43.859649122807,4,2,1,100,0,1
175094,-75.187969924812,4,2,1,100,0,1
175447,-31.055900621118,4,2,1,100,0,1
175799,-43.859649122807,4,2,1,100,0,1
176858,-31.055900621118,4,2,1,100,0,1
177211,-43.859649122807,4,2,1,100,0,1
178270,-31.055900621118,4,2,1,100,0,1
178623,-43.859649122807,4,2,1,100,0,1
181094,-1000,4,2,1,100,0,0
181184,-1000,4,2,1,30,0,0
183741,-1000,4,2,1,5,0,0
183917,-1000,4,2,1,30,0,0
187976,-1000,4,2,1,5,0,0
188152,-1000,4,2,1,30,0,0
189388,-1000,4,2,1,5,0,0
189564,-1000,4,2,1,30,0,0
192388,-50,4,2,1,100,0,0
203682,-43.859649122807,4,2,1,100,0,0
204035,-50,4,2,1,100,0,0
209329,-43.859649122807,4,2,1,100,0,0
209682,-50,4,2,1,100,0,0
214976,-50,4,2,1,80,0,0
215682,-166.666666666667,4,2,1,80,0,0
224152,-125,4,2,1,80,0,0
225211,-125,4,2,1,100,0,0
226270,-100,4,2,2,100,0,0
236152,-58.8235294117647,4,2,2,100,0,0
237564,-76.9230769230769,4,2,2,100,0,0
238094,-166.666666666667,4,2,2,100,0,0
238976,-43.4782608695652,4,2,1,100,0,1
239329,-50,4,2,1,100,0,1
239858,-66.6666666666667,4,2,1,100,0,1
240211,-100,4,2,1,100,0,1
240388,-50,4,2,1,100,0,1
241270,-66.6666666666667,4,2,1,100,0,1
241623,-100,4,2,1,100,0,1
241799,-50,4,2,1,100,0,1
242682,-66.6666666666667,4,2,1,100,0,1
243035,-100,4,2,1,100,0,1
243211,-50,4,2,1,100,0,1
244447,-100,4,2,1,100,0,1
244623,-50,4,2,1,100,0,1
245505,-66.6666666666667,4,2,1,100,0,1
245858,-100,4,2,1,100,0,1
246035,-50,4,2,1,100,0,1
246917,-66.6666666666667,4,2,1,100,0,1
247270,-100,4,2,1,100,0,1
247447,-50,4,2,1,100,0,1
248329,-66.6666666666667,4,2,1,100,0,1
248858,-50,4,2,1,100,0,1
250262,-50,4,3,1,80,0,1
250270,-83.3333333333333,4,3,1,80,0,0
255917,-66.6666666666667,4,3,1,80,0,0
261564,-58.8235294117647,4,2,1,100,0,1
262094,-76.9230769230769,4,2,1,100,0,1
262976,-66.6666666666667,4,2,1,100,0,1
263505,-76.9230769230769,4,2,1,100,0,1
264388,-66.6666666666667,4,2,1,100,0,1
265094,-76.9230769230769,4,2,1,100,0,1
265799,-66.6666666666667,4,2,1,100,0,1
267211,-58.8235294117647,4,2,1,100,0,1
267564,-66.6666666666667,4,2,1,100,0,1
267917,-58.8235294117647,4,2,1,100,0,1
268270,-66.6666666666667,4,2,1,100,0,1
270035,-76.9230769230769,4,2,1,100,0,1
270917,-83.3333333333333,4,2,1,100,0,1
272329,-90.9090909090909,4,2,1,100,0,0
272858,-33.3333333333333,4,2,1,100,0,1
273741,-50,4,2,1,100,0,1
274094,-33.3333333333333,4,2,1,100,0,1
274976,-50,4,2,1,100,0,1
275329,-40,4,2,1,100,0,1
275682,-33.3333333333333,4,2,1,100,0,1
276564,-50,4,2,1,100,0,1
277094,-33.3333333333333,4,2,1,100,0,1
277799,-50,4,2,1,100,0,1
278152,-40,4,2,1,100,0,1
278505,-33.3333333333333,4,2,1,100,0,1
278858,-50,4,2,1,100,0,1
279741,-33.3333333333333,4,2,1,100,0,1
280623,-50,4,2,1,100,0,1
281329,-33.3333333333333,4,2,1,100,0,1
281682,-50,4,2,1,100,0,1
282741,-33.3333333333333,4,2,1,100,0,1
284152,-100,4,2,1,100,0,0
295447,-133.333333333333,4,2,1,100,0,0

[Colours]
Combo1 : 184,116,114
Combo2 : 233,84,67

[HitObjects]
26,243,1800,6,0,L|179:254,1,135,4|0,0:2|0:0,0:0:0:0:
169,245,2152,2,0,L|92:239,1,67.5,12|0,0:1|0:0,0:0:0:0:
174,353,2505,1,4,0:1:0:0:
174,353,2682,1,0,0:0:0:0:
269,296,2858,1,12,0:1:0:0:
269,296,3035,2,0,P|282:263|285:237,1,45
236,139,3211,6,0,L|289:147,1,45,4|0,0:1|0:0,0:0:0:0:
351,201,3388,2,0,L|395:194,1,45
512,165,3564,2,0,P|475:222|470:264,1,90,12|0,0:1|0:0,0:0:0:0:
480,326,3829,1,0,0:0:0:0:
480,326,3917,2,0,L|378:309,1,90,4|0,0:1|0:0,0:0:0:0:
352,190,4270,2,0,L|453:173,1,90,12|0,0:1|0:0,0:0:0:0:
512,71,4623,6,0,B|469:53|443:80|444:81|445:83|421:107|367:88,1,135,4|0,0:1|0:0,0:0:0:0:
335,37,4976,2,0,P|353:24|402:20,1,67.5,12|0,0:1|0:0,0:0:0:0:
311,113,5329,1,4,0:1:0:0:
311,113,5505,1,0,0:0:0:0:
221,52,5682,1,12,0:1:0:0:
221,52,5858,1,0,0:0:0:0:
214,161,6035,6,0,P|229:141|240:106,1,45,4|0,0:1|0:0,0:0:0:0:
160,105,6211,2,0,P|150:82|125:54,1,45
50,53,6388,2,0,L|148:59,1,90,12|0,0:1|0:0,0:0:0:0:
43,165,6652,1,0,0:0:0:0:
30,167,6741,2,0,L|18:104,1,45,4|0,0:1|0:0,0:0:0:0:
137,181,6917,2,0,L|128:225,1,45
0,256,7094,2,0,B|62:233|89:293|86:295|84:298|113:353|202:323,1,202.500007724762,12|0,0:1|0:0,0:0:0:0:
187,294,7447,6,0,B|143:243|90:281|92:285|92:288|39:321|-22:251,1,202.500007724762,4|0,0:1|0:0,0:0:0:0:
255,257,7799,2,0,P|287:272|328:269,1,67.5,12|0,0:1|0:0,0:0:0:0:
390,221,8152,1,4,0:1:0:0:
390,221,8329,1,0,0:0:0:0:
448,311,8505,1,12,0:1:0:0:
448,311,8682,2,0,P|418:304|380:308,1,45
370,377,8858,6,0,L|427:381,1,45,4|0,0:1|0:0,0:0:0:0:
503,301,9035,2,0,L|446:305,1,45
309,209,9211,2,0,P|333:162|368:142,1,90,12|0,0:1|0:0,0:0:0:0:
452,128,9476,1,0,0:0:0:0:
457,146,9564,2,0,L|345:135,1,90,4|0,0:1|0:0,0:0:0:0:
234,58,9917,2,0,L|324:67,1,90,12|0,0:1|0:0,0:0:0:0:
227,43,10270,6,0,B|216:108|216:108|217:115|217:115|205:194,1,135,4|0,0:1|0:0,0:0:0:0:
116,209,10623,2,0,L|104:137,1,67.5,12|0,0:1|0:0,0:0:0:0:
126,40,10976,1,4,0:1:0:0:
126,40,11152,1,0,0:0:0:0:
8,152,11329,2,0,L|19:218,1,67.5,12|0,0:1|0:0,0:0:0:0:
33,293,11505,2,0,L|38:326,1,22.5
165,354,11682,6,0,L|181:256,1,90,4|0,0:2|0:0,0:0:0:0:
180,265,12211,5,0,0:0:0:0:
180,265,12564,1,0,0:0:0:0:
180,265,12917,1,0,0:0:0:0:
245,177,13094,6,0,B|293:163|345:192|365:246|365:246|396:330|479:343|563:255|480:171|411:188|365:250|365:250|361:258,1,488.249985099793,8|0,0:2|0:0,0:0:0:0:
308,297,15917,6,0,B|174:331|82:214|129:77|222:42|305:65|305:65|299:102,1,488.249985099793,8|0,0:2|0:0,0:0:0:0:
289,164,18741,6,0,B|276:236|276:236|271:244|271:244|247:380|247:380|177:392|80:318|70:254|65:213,1,488.249985099793,8|0,0:2|0:0,0:0:0:0:
64,136,21564,6,0,B|83:56|151:13|151:13|185:42|201:79|201:79|155:109|141:158|146:193,1,362.249988945008,8|0,0:2|0:0,0:0:0:0:
173,260,23682,5,8,0:2:0:0:
173,260,24035,2,0,P|187:274|210:288,1,40.4999987640381,8|0,0:2|0:0,0:0:0:0:
290,310,24388,5,4,0:2:0:0:
364,191,24564,1,2,0:2:0:0:
364,191,24652,1,0,0:0:0:0:
364,191,24741,1,8,0:1:0:0:
475,281,24917,2,0,L|368:265,1,90,2|0,0:2|0:0,0:0:0:0:
285,96,25270,1,4,0:1:0:0:
480,60,25447,2,0,L|373:76,1,90,8|2,0:1|0:2,0:0:0:0:
285,96,25710,5,0,0:0:0:0:
285,96,25799,2,0,L|276:44,1,45,4|0,0:1|0:0,0:0:0:0:
210,14,25976,1,2,0:2:0:0:
158,219,26152,1,8,0:1:0:0:
83,137,26329,2,0,P|126:112|181:108,1,90,2|0,0:2|0:0,0:0:0:0:
0,0,26682,1,4,0:1:0:0:
0,194,26858,2,0,P|0:144|23:94,1,90,8|2,0:1|0:2,0:0:0:0:
173,224,27211,6,0,P|178:286|139:360,1,135,4|0,0:1|0:0,0:0:0:0:
65,317,27564,2,0,P|69:265|101:221,1,90,8|2,0:1|0:2,0:0:0:0:
263,155,27917,1,0,0:0:0:0:
274,260,28094,1,4,0:1:0:0:
285,365,28270,1,8,0:1:0:0:
285,365,28447,1,2,0:2:0:0:
455,240,28623,6,0,L|339:251,1,90,4|2,0:1|0:2,0:0:0:0:
454,347,28976,1,8,0:1:0:0:
465,242,29153,1,2,0:2:0:0:
264,266,29329,1,0,0:0:0:0:
253,161,29506,1,4,0:1:0:0:
479,144,29682,1,8,0:1:0:0:
253,161,29858,1,8,0:1:0:0:
411,21,30035,6,0,L|398:133,1,90,4|2,0:1|0:2,0:0:0:0:
266,166,30388,2,0,L|276:76,1,90,12|2,0:1|0:2,0:0:0:0:
148,8,30741,2,0,L|135:120,1,90,4|2,0:1|0:2,0:0:0:0:
3,153,31094,2,0,L|20:6,1,135,12|0,0:1|0:0,0:0:0:0:
30,20,31447,5,4,0:1:0:0:
126,100,31623,1,2,0:2:0:0:
6,254,31799,2,0,P|36:229|97:220,1,90,12|2,0:1|0:2,0:0:0:0:
136,334,32064,1,0,0:0:0:0:
136,334,32152,2,0,P|106:359|45:368,1,90,4|2,0:1|0:2,0:0:0:0:
84,218,32505,2,0,B|122:217|146:243|146:243|166:269|220:265,1,135,12|0,0:1|0:0,0:0:0:0:
257,193,32858,6,0,L|187:187,1,45,4|0,0:1|0:0,0:0:0:0:
284,280,33035,1,2,0:2:0:0:
284,280,33123,1,0,0:0:0:0:
284,280,33211,1,12,0:1:0:0:
370,193,33388,1,2,0:2:0:0:
409,369,33564,2,0,L|293:359,1,90,4|2,0:1|0:2,0:0:0:0:
441,271,33917,1,12,0:1:0:0:
512,349,34094,1,2,0:2:0:0:
490,125,34270,6,0,L|501:229,1,90,4|2,0:1|0:2,0:0:0:0:
298,93,34623,2,0,L|288:182,1,90,8|2,0:1|0:2,0:0:0:0:
390,16,34976,1,8,0:1:0:0:
195,10,35152,1,8,0:1:0:0:
195,10,35241,1,8,0:1:0:0:
279,262,35505,1,4,0:1:0:0:
84,268,35681,5,4,0:2:0:0:
84,268,36917,6,0,L|90:217,1,45,4|0,0:1|0:0,0:0:0:0:
98,147,37094,1,4,0:2:0:0:
232,208,38505,5,4,0:2:0:0:
356,167,38682,1,2,0:2:0:0:
356,378,38858,1,8,0:1:0:0:
231,338,39035,5,2,0:2:0:0:
232,208,39211,1,2,0:2:0:0:
432,273,39388,5,4,0:1:0:0:
225,341,39564,1,8,0:1:0:0:
359,384,39741,1,2,0:2:0:0:
359,157,39917,5,4,0:2:0:0:
233,51,40799,5,4,0:1:0:0:
113,123,40976,1,4,0:1:0:0:
117,109,41329,6,0,B|99:76|65:72|65:72|126:63|176:88|144:115|201:147|254:135,1,270.000010299683,4|4,0:2|0:1,0:0:0:0:
322,269,41858,1,0,0:0:0:0:
322,269,41947,1,0,0:0:0:0:
322,269,42035,6,0,P|330:219|335:193,1,62.9999980773926,4|0,0:1|0:0,0:0:0:0:
250,136,42388,2,0,P|244:167|239:198,1,62.9999980773926,4|0,0:1|0:0,0:0:0:0:
512,106,42741,2,0,B|417:97|463:46|367:42,1,161.999995056153,4|0,0:1|0:0,0:0:0:0:
369,42,43094,6,0,P|390:15|434:25,1,80.9999975280763,4|0,0:1|0:0,0:0:0:0:
372,131,43447,1,4,0:1:0:0:
283,92,43623,1,0,0:0:0:0:
205,150,43799,1,4,0:1:0:0:
220,246,43976,1,0,0:0:0:0:
121,343,44152,6,0,P|78:278|0:282,1,161.999995056153,4|4,0:1|0:1,0:0:0:0:
1,282,44682,1,0,0:0:0:0:
92,194,44858,2,0,B|113:204|116:228|116:228|85:273,1,80.9999975280763,4|0,0:1|0:0,0:0:0:0:
24,95,45211,6,0,P|82:80|143:74,1,121.499996292114,4|0,0:1|0:0,0:0:0:0:
143,74,45564,2,0,P|160:106|116:93,1,107.999996704102,4|0,0:1|0:0,0:0:0:0:
74,5,45917,1,4,0:1:0:0:
24,95,46094,1,0,0:0:0:0:
221,18,46270,2,0,P|280:29|337:49,1,90,4|0,0:1|0:0,0:0:0:0:
309,39,46623,2,0,P|312:19|319:0,1,40.4999987640381,4|0,0:1|0:0,0:0:0:0:
294,168,46976,6,0,B|311:190|368:233|461:204|506:132|423:72|346:118|409:250,1,306.000005836487,12|12,0:1|0:1,0:0:0:0:
120,294,47682,6,0,B|103:316|46:359|-47:330|-92:258|-9:198|68:244|5:376,1,306.000005836487,12|12,0:1|0:1,0:0:0:0:
19,338,48211,1,0,0:0:0:0:
192,329,48388,6,0,P|189:341|188:359,1,26.9999991760254,12|0,0:1|0:0,0:0:0:0:
268,368,48741,2,0,P|271:346|276:324,1,36,12|0,0:1|0:0,0:0:0:0:
0,129,49094,6,0,P|5:153|8:178,1,45,12|0,0:1|0:0,0:0:0:0:
104,158,49447,2,0,P|100:131|94:104,1,53.9999983520508,12|0,0:1|0:0,0:0:0:0:
324,19,49799,5,12,0:1:0:0:
301,102,49976,1,8,0:1:0:0:
360,163,50152,1,12,0:1:0:0:
442,142,50329,1,8,0:1:0:0:
501,202,50505,1,12,0:1:0:0:
478,283,50682,1,8,0:1:0:0:
396,303,50858,1,12,0:1:0:0:
337,241,51035,1,8,0:1:0:0:
360,163,51211,6,0,P|354:127|324:109,1,53.9999983520508,12|8,0:1|0:1,0:0:0:0:
277,23,51388,2,0,P|260:43|259:70,1,53.9999983520508,8|8,0:1|0:1,0:0:0:0:
253,219,51564,2,0,P|259:183|289:165,1,53.9999983520508,12|8,0:1|0:1,0:0:0:0:
381,40,51741,2,0,P|406:44|439:48,1,53.9999983520508,8|8,0:1|0:1,0:0:0:0:
190,122,51917,2,0,P|163:119|136:114,1,53.9999983520508,12|8,0:1|0:1,0:0:0:0:
413,250,52094,2,0,P|386:252|359:257,1,53.9999983520508,8|8,0:1|0:1,0:0:0:0:
71,260,52270,5,12,0:1:0:0:
90,234,52358,1,8,0:1:0:0:
119,221,52446,1,8,0:1:0:0:
151,223,52534,1,8,0:1:0:0:
141,302,52623,6,0,B|173:321|171:358|171:358|184:247|184:247|178:245|178:245|190:123|190:123|187:166|212:188,1,360,4|0,0:2|0:0,0:0:0:0:
199,173,54035,5,4,0:2:0:0:
199,173,54211,2,0,P|242:162|304:159,1,67.5000025749208
387,55,54388,5,4,0:1:0:0:
387,55,54564,2,0,P|420:59|452:68,1,67.5000025749208
339,320,54741,6,0,P|314:280|342:191,1,135.000005149842,4|0,0:1|0:0,0:0:0:0:
421,341,55094,2,0,B|441:348|444:367|444:367|426:354|392:357,1,67.5000025749208,4|0,0:1|0:0,0:0:0:0:
273,369,55270,1,0,0:0:0:0:
506,245,55447,6,0,B|514:221|541:218|541:218|459:206|502:283|363:252,1,202.500007724762,4|0,0:1|0:0,0:0:0:0:
333,198,55799,2,0,P|307:172|255:188,1,67.5000025749208,4|0,0:1|0:0,0:0:0:0:
206,215,55976,1,0,0:0:0:0:
322,21,56152,6,0,P|325:60|333:105,1,72,4|0,0:1|0:0,0:0:0:0:
136,144,56505,6,0,P|143:99|147:53,1,67.5000025749208,4|0,0:1|0:0,0:0:0:0:
232,90,56682,1,0,0:0:0:0:
15,187,56858,6,0,B|5:196|-18:195|-18:195|84:218|84:218|123:237|114:293,1,202.500007724762,4|0,0:1|0:0,0:0:0:0:
170,333,57211,2,0,B|177:363|165:372|165:372|160:353|138:342,1,72,4|0,0:1|0:0,0:0:0:0:
412,137,57564,6,0,B|443:133|445:101|445:101|414:144|427:204,1,135.000005149842,4|0,0:1|0:0,0:0:0:0:
350,324,57917,2,0,P|354:342|360:376,2,45,4|0|0,0:1|0:0|0:0,0:0:0:0:
94,241,58270,6,0,B|127:253|127:253|185:226,1,67.5000025749208,4|0,0:1|0:0,0:0:0:0:
274,153,58447,6,0,B|241:141|241:141|183:168,1,67.5000025749208
90,234,58623,1,4,0:1:0:0:
224,380,58799,2,0,P|233:314|247:233,1,135.000005149842,0|4,0:0|0:1,0:0:0:0:
281,9,59152,5,4,0:1:0:0:
337,59,59329,1,4,0:1:0:0:
264,81,59505,1,0,0:0:0:0:
55,37,59682,6,0,B|52:12|13:0|13:0|81:12|81:12|82:18|82:18|182:38,1,202.500007724762,4|0,0:1|0:0,0:0:0:0:
148,31,60035,2,0,P|144:55|142:83,1,45,4|0,0:1|0:0,0:0:0:0:
160,152,60299,1,0,0:0:0:0:
223,96,60388,6,0,P|289:82|356:76,1,135.000005149842,4|0,0:1|0:0,0:0:0:0:
427,122,60652,1,0,0:0:0:0:
427,122,60741,2,0,P|390:156|355:143,1,67.5000025749208,4|0,0:1|0:0,0:0:0:0:
243,174,60917,2,0,P|275:179|293:207,1,67.5000025749208
365,356,61094,6,0,P|368:314|376:248,1,90,4|0,0:1|0:0,0:0:0:0:
447,211,61358,1,0,0:0:0:0:
497,278,61447,2,0,P|493:311|491:345,1,67.5000025749208,4|0,0:1|0:0,0:0:0:0:
261,306,61623,2,0,P|292:320|328:300,1,67.5000025749208
193,252,61799,6,0,P|133:224|31:276,1,135.000005149842,4|0,0:1|0:0,0:0:0:0:
19,150,62064,1,0,0:0:0:0:
19,150,62152,2,0,L|28:95,1,45,4|0,0:1|0:0,0:0:0:0:
82,44,62329,1,0,0:0:0:0:
248,67,62505,6,0,B|249:103|222:120|222:120|103:101,2,135.000005149842,4|0|4,0:1|0:0|0:1,0:0:0:0:
290,222,63035,1,0,0:0:0:0:
349,125,63211,2,0,P|353:162|360:200,1,45,4|0,0:1|0:0,0:0:0:0:
442,267,63388,2,0,P|444:289|447:311,1,45
477,200,63564,2,0,B|396:201|443:263|322:265,1,135.000005149842,4|0,0:1|0:0,0:0:0:0:
32,271,63917,5,4,0:1:0:0:
105,200,64094,1,2,0:2:0:0:
177,348,64270,1,8,0:1:0:0:
177,348,64447,1,2,0:2:0:0:
115,282,64623,5,2,0:2:0:0:
194,248,64800,1,4,0:1:0:0:
77,362,64976,1,8,0:1:0:0:
77,362,65153,1,2,0:2:0:0:
65,26,65329,6,0,P|93:118|106:208,1,180,4|2,0:2|0:2,0:0:0:0:
51,255,65682,2,0,P|24:230|22:179,1,90,12|2,0:1|0:2,0:0:0:0:
120,102,65947,1,0,0:0:0:0:
136,118,66035,2,0,P|103:224|88:328,1,202.500007724762,4|0,0:1|0:0,0:0:0:0:
130,384,66388,2,0,P|155:363|164:331,1,67.5000025749208,12|2,0:1|0:2,0:0:0:0:
21,179,66741,6,0,L|81:169,1,33.7500012874604,4|0,0:1|0:0,0:0:0:0:
191,250,66917,2,0,L|244:258,1,38.2500007295609,2|0,0:2|0:0,0:0:0:0:
281,117,67094,6,0,L|227:108,1,42.7499988584519,12|0,0:1|0:0,0:0:0:0:
123,308,67270,2,0,L|72:316,1,47.2499985580445,2|0,0:2|0:0,0:0:0:0:
0,73,67447,6,0,L|68:61,1,51.7500009870529,4|0,0:1|0:0,0:0:0:0:
213,349,67623,1,2,0:2:0:0:
345,162,67799,6,0,L|349:189,1,26.9999991760254,12|0,0:1|0:0,0:0:0:0:
475,292,67976,2,0,L|471:318,1,26.9999991760254,2|0,0:2|0:0,0:0:0:0:
409,240,68152,6,0,B|419:212|453:205|453:205|301:229|301:229|271:257|295:302,1,270,4|0,0:1|0:0,0:0:0:0:
213,349,68505,2,0,P|206:303|195:254,1,90,12|2,0:1|0:2,0:0:0:0:
174,120,68770,1,0,0:0:0:0:
169,134,68858,2,0,B|186:153|219:157|219:157|112:148|174:198|18:184,1,202.500007724762,4|0,0:1|0:0,0:0:0:0:
6,129,69211,2,0,P|18:89|64:116,1,90,12|2,0:1|0:2,0:0:0:0:
244,24,69564,6,0,P|242:44|235:83,1,33.7500012874604,4|0,0:1|0:0,0:0:0:0:
359,122,69741,2,0,P|361:101|363:80,1,38.2500007295609,2|0,0:2|0:0,0:0:0:0:
189,251,69917,6,0,P|214:247|240:244,1,42.7499988584519,12|0,0:1|0:0,0:0:0:0:
416,337,70094,2,0,P|390:339|365:343,1,47.2499985580445,2|0,0:2|0:0,0:0:0:0:
87,366,70270,6,0,P|91:340|94:314,1,51.7500009870529,4|0,0:1|0:0,0:0:0:0:
33,151,70447,1,2,0:2:0:0:
189,251,70623,6,0,P|204:248|227:248,1,26.9999991760254,12|0,0:1|0:0,0:0:0:0:
359,122,70799,2,0,P|374:125|397:125,1,26.9999991760254,4|0,0:1|0:0,0:0:0:0:
374,353,70976,6,0,B|291:364|291:364|275:332|283:304|283:304|332:237|265:163,1,270,4|0,0:1|0:0,0:0:0:0:
203,54,71329,2,0,P|190:96|211:135,1,90,12|2,0:1|0:2,0:0:0:0:
473,83,71594,1,0,0:0:0:0:
457,98,71682,2,0,B|402:49|402:49|376:83|335:92|335:92|306:78|243:86,1,202.500007724762,4|0,0:1|0:0,0:0:0:0:
203,54,72035,2,0,P|160:67|111:67,1,90,12|2,0:1|0:2,0:0:0:0:
36,215,72388,6,0,P|55:254|58:274,1,33.7500012874604,4|0,0:1|0:0,0:0:0:0:
128,364,72564,2,0,P|147:325|150:305,1,38.2500007295609,2|0,0:2|0:0,0:0:0:0:
195,150,72741,6,0,P|242:140|268:146,1,42.7499988584519,12|0,0:1|0:0,0:0:0:0:
321,366,72917,2,0,P|368:376|394:370,1,47.2499985580445,2|0,0:2|0:0,0:0:0:0:
444,147,73094,6,0,P|471:153|509:158,2,51.7500009870529,4|0|2,0:1|0:0|0:2,0:0:0:0:
335,9,73447,2,0,P|363:51|351:105,1,90,12|2,0:1|0:2,0:0:0:0:
327,273,73799,6,0,B|267:232|140:243|137:339|273:340|222:223,1,270,4|0,0:1|0:0,0:0:0:0:
162,169,74152,2,0,P|197:143|242:145,1,90,12|2,0:1|0:2,0:0:0:0:
250,384,74417,1,0,0:0:0:0:
237,381,74505,2,0,P|150:374|120:245,1,202.500007724762,4|0,0:1|0:0,0:0:0:0:
56,221,74858,2,0,P|53:182|74:215,1,90,12|2,0:1|0:2,0:0:0:0:
32,359,75211,5,4,0:1:0:0:
32,359,75388,2,0,P|29:327|27:306,1,45,2|0,0:2|0:0,0:0:0:0:
166,125,75564,5,12,0:1:0:0:
166,125,75741,2,0,P|163:153|160:182,1,53.9999983520508,2|0,0:2|0:0,0:0:0:0:
331,301,75917,5,4,0:1:0:0:
331,301,76094,2,0,P|366:297|401:294,1,62.9999980773926,2|8,0:2|0:1,0:0:0:0:
456,68,76270,5,12,0:1:0:0:
456,68,76447,2,0,P|419:64|382:61,1,72,12|0,0:1|0:0,0:0:0:0:
189,49,76623,6,0,B|134:25|93:76|95:80|96:84|60:134|-13:91,1,202.500007724762,4|0,0:2|0:0,0:0:0:0:
35,24,76976,2,0,L|18:117,1,90,12|0,0:1|0:0,0:0:0:0:
171,222,77241,1,0,0:0:0:0:
182,213,77329,2,0,L|165:124,1,90,4|0,0:1|0:0,0:0:0:0:
15,198,77682,1,12,0:1:0:0:
145,293,77858,2,0,P|178:298|197:292,1,45
70,340,78035,6,0,B|59:280|59:280|199:292,1,202.500007724762,4|0,0:1|0:0,0:0:0:0:
273,298,78388,1,12,0:1:0:0:
445,384,78564,2,0,P|420:349|417:326,1,45
417,261,78741,2,0,P|433:223|480:188,1,90,4|0,0:1|0:0,0:0:0:0:
497,333,79094,1,12,0:1:0:0:
342,309,79270,2,0,L|281:300,1,45
270,378,79447,6,0,B|324:370|324:370|343:219,1,202.500007724762,4|0,0:1|0:0,0:0:0:0:
458,102,79799,2,0,L|472:212,1,90,12|0,0:1|0:0,0:0:0:0:
273,195,80064,1,0,0:0:0:0:
273,179,80152,2,0,P|310:148|354:141,1,90,4|0,0:1|0:0,0:0:0:0:
478,202,80505,1,12,0:1:0:0:
425,20,80682,2,0,P|396:27|370:22,1,45
263,52,80858,6,0,B|225:58|225:58|238:144|238:144|234:150|234:150|249:241|249:241|198:252,1,270,4|0,0:1|0:0,0:0:0:0:
133,267,81211,1,12,0:1:0:0:
11,196,81388,6,0,L|90:183,1,67.5000025749208
124,275,81564,2,0,L|133:331,1,45,4|0,0:1|0:0,0:0:0:0:
151,124,81741,6,0,B|141:59|141:59|26:74,1,180,0|12,0:0|0:1,0:0:0:0:
51,290,82094,2,0,L|66:394,1,90
60,370,82270,6,0,B|109:331|152:369|153:372|151:376|194:405|249:367,1,202.500007724762,4|0,0:1|0:0,0:0:0:0:
200,264,82623,2,0,L|196:315,1,45,12|0,0:1|0:0,0:0:0:0:
275,297,82799,1,0,0:0:0:0:
297,298,82887,1,0,0:0:0:0:
319,300,82976,2,0,L|326:209,1,90,4|0,0:1|0:0,0:0:0:0:
339,27,83329,1,12,0:1:0:0:
223,64,83505,1,0,0:0:0:0:
245,65,83593,1,0,0:0:0:0:
267,67,83682,5,4,0:1:0:0:
457,88,83858,1,0,0:0:0:0:
456,109,83946,1,0,0:0:0:0:
454,132,84035,2,0,L|450:191,1,45,12|0,0:1|0:0,0:0:0:0:
326,210,84211,1,0,0:0:0:0:
327,189,84299,1,0,0:0:0:0:
329,166,84388,2,0,L|333:107,1,45,4|0,0:1|0:0,0:0:0:0:
339,39,84564,1,0,0:0:0:0:
423,24,84741,1,12,0:1:0:0:
507,9,84917,1,0,0:0:0:0:
507,270,85094,6,0,B|427:279|427:279|403:302|403:302|304:313,1,202.500007724762,4|0,0:1|0:0,0:0:0:0:
308,301,85447,2,0,L|406:292,1,90,12|0,0:1|0:0,0:0:0:0:
244,384,85799,2,0,L|145:374,1,90,4|0,0:1|0:0,0:0:0:0:
223,197,86152,1,12,0:1:0:0:
114,307,86329,6,0,P|82:340|76:353,1,45
67,364,86505,2,0,P|77:300|42:240,1,135,4|0,0:1|0:0,0:0:0:0:
7,123,86858,2,0,P|-2:188|30:245,1,135,12|0,0:1|0:0,0:0:0:0:
132,166,87211,2,0,L|69:168,1,45,4|0,0:1|0:0,0:0:0:0:
84,83,87388,2,0,L|176:79,1,90,0|12,0:0|0:1,0:0:0:0:
178,84,87741,1,0,0:0:0:0:
410,108,87917,6,0,P|386:149|342:144,1,90,4|0,0:2|0:0,0:0:0:0:
257,107,88447,2,0,B|299:96|361:123|312:155|356:191|404:190,1,180
419,288,90741,5,0,0:0:0:0:
367,298,90917,1,0,0:0:0:0:
377,349,91094,1,0,0:0:0:0:
429,340,91270,2,0,P|472:343|494:348,2,56.25
429,340,92858,1,0,0:0:0:0:
72,308,93564,5,0,0:0:0:0:
102,263,93741,1,0,0:0:0:0:
151,278,93917,1,0,0:0:0:0:
151,330,94094,1,0,0:0:0:0:
101,346,94270,1,0,0:0:0:0:
101,346,94976,1,0,0:0:0:0:
79,118,96388,5,0,0:0:0:0:
163,124,96564,1,0,0:0:0:0:
101,111,96741,1,0,0:0:0:0:
137,137,96917,1,0,0:0:0:0:
137,137,97799,1,0,0:0:0:0:
480,160,98505,5,0,0:0:0:0:
352,64,98858,5,0,0:0:0:0:
224,224,99211,6,0,P|150:222|129:245,1,90,4|0,0:2|0:0,0:0:0:0:
265,306,99565,1,0,0:0:0:0:
265,306,99741,2,0,P|321:255|281:151,1,180
224,224,100270,2,0,P|183:241|141:228,1,90
16,86,100623,6,0,B|63:63|121:94|83:116|130:148|178:134,1,180
249,20,101152,1,0,0:0:0:0:
249,20,101329,1,0,0:0:0:0:
249,20,101505,2,0,P|330:32|433:41,1,180
339,45,102035,6,0,L|343:16,1,22.5
264,122,102212,2,0,L|285:114,1,22.5
373,126,102388,2,0,L|396:143,1,22.5
346,233,102564,6,0,P|309:222|279:224,1,67.5
205,251,102917,6,0,L|201:222,1,22.5
153,345,103094,2,0,L|170:331,1,22.5
258,319,103271,2,0,L|278:327,1,22.5
367,380,103447,6,0,B|448:369|448:369|452:373|452:373|535:361,1,148.50000453186
512,355,103799,2,0,B|451:363|451:363|447:359|447:359|366:370,1,148.50000453186
381,257,104152,2,0,L|436:269,1,49.5000015106202
469,199,104329,2,0,L|345:262,1,99.0000030212403
379,58,104682,2,0,L|386:131,1,49.5000015106202
396,129,104858,6,0,L|385:20,1,90
248,0,105211,1,0,0:0:0:0:
248,0,105388,2,0,P|149:46|168:125,1,180
236,185,105917,2,0,L|246:76,1,90
46,68,106270,6,0,L|64:254,1,180
159,343,106799,1,0,0:0:0:0:
159,343,106976,1,0,0:0:0:0:
159,343,107152,2,0,B|278:320|278:320|293:356|328:372,1,180
354,291,107682,6,0,L|356:269,1,22.5
475,259,107858,2,0,L|473:236,1,22.5
395,191,108035,2,0,L|396:168,1,22.5
482,151,108211,6,0,L|476:83,1,67.5
406,41,108564,6,0,L|372:43,1,22.5
312,89,108741,2,0,L|278:86,1,22.5
221,18,108917,2,0,L|187:20,1,22.5
97,101,109094,5,0,0:0:0:0:
113,97,109182,1,0,0:0:0:0:
129,101,109270,1,0,0:0:0:0:
142,111,109358,1,0,0:0:0:0:
149,127,109447,1,0,0:0:0:0:
146,160,109535,1,0,0:0:0:0:
160,190,109623,1,0,0:0:0:0:
188,209,109711,1,0,0:0:0:0:
221,211,109799,2,0,L|230:169,3,33.7500012874604
292,106,110152,2,0,L|301:147,3,22.5
380,194,110505,6,0,L|545:232,1,135,4|0,0:1|0:0,0:0:0:0:
494,208,110858,2,0,L|411:227,1,45,4|0,0:1|0:0,0:0:0:0:
317,120,111035,1,0,0:0:0:0:
307,124,111123,1,0,0:0:0:0:
298,128,111211,1,4,0:1:0:0:
222,102,111388,1,0,0:0:0:0:
146,240,111564,2,0,B|102:231|52:266|98:285|48:322|4:317,1,168.75,4|0,0:1|0:0,0:0:0:0:
0,293,111917,6,0,L|77:300,1,45,4|0,0:1|0:0,0:0:0:0:
224,232,112094,1,0,0:0:0:0:
225,221,112182,1,0,0:0:0:0:
219,212,112270,1,4,0:1:0:0:
155,159,112447,1,0,0:0:0:0:
305,202,112623,1,4,0:1:0:0:
192,311,112799,1,0,0:0:0:0:
339,111,112976,2,0,P|388:137|394:246,1,168.75,4|0,0:1|0:0,0:0:0:0:
381,228,113329,6,0,L|466:216,1,45,4|0,0:1|0:0,0:0:0:0:
508,143,113505,1,0,0:0:0:0:
435,231,113682,1,4,0:1:0:0:
503,324,113858,1,0,0:0:0:0:
501,335,113947,1,0,0:0:0:0:
499,346,114035,2,0,P|472:340|444:339,1,45,4|0,0:1|0:0,0:0:0:0:
382,307,114211,2,0,P|355:315|330:328,1,45
256,383,114388,1,4,0:1:0:0:
182,350,114564,1,0,0:0:0:0:
242,198,114741,6,0,B|293:177|293:177|316:129|316:129|372:105,1,168.75,4|0,0:1|0:0,0:0:0:0:
376,123,115094,2,0,B|319:121|319:121|279:83|279:83|218:80,1,168.75,4|0,0:1|0:0,0:0:0:0:
149,148,115447,2,0,L|86:158,1,56.25,4|0,0:1|0:0,0:0:0:0:
63,176,115623,2,0,L|177:155,1,112.5,0|4,0:0|0:1,0:0:0:0:
485,56,115976,2,0,L|430:46,1,56.25
414,30,116152,6,0,L|462:39,1,45,4|0,0:1|0:0,0:0:0:0:
501,143,116329,1,0,0:0:0:0:
495,154,116417,1,0,0:0:0:0:
496,166,116505,1,4,0:1:0:0:
396,143,116682,1,0,0:0:0:0:
322,278,116858,1,4,0:1:0:0:
426,254,117035,1,0,0:0:0:0:
271,175,117211,2,0,B|221:157|171:196|212:217|161:250|113:238,1,168.75,4|0,0:1|0:0,0:0:0:0:
113,256,117564,6,0,L|181:263,1,45,4|0,0:1|0:0,0:0:0:0:
233,351,117741,1,0,0:0:0:0:
243,345,117829,1,0,0:0:0:0:
254,343,117917,1,4,0:1:0:0:
328,247,118094,1,0,0:0:0:0:
328,262,118182,1,0,0:0:0:0:
322,278,118270,1,4,0:1:0:0:
360,384,118447,1,0,0:0:0:0:
207,227,118623,2,0,P|184:171|269:100,1,168.75,4|0,0:1|0:0,0:0:0:0:
268,89,118976,6,0,L|332:96,1,45,4|0,0:1|0:0,0:0:0:0:
236,13,119152,1,0,0:0:0:0:
154,2,119329,1,4,0:1:0:0:
103,67,119505,1,0,0:0:0:0:
245,0,119682,1,4,0:1:0:0:
340,124,119859,2,0,B|387:118|387:118|393:121|393:121|455:114,1,90,0|4,0:0|0:1,0:0:0:0:
410,32,120211,1,0,0:0:0:0:
275,234,120388,6,0,B|216:175|216:175|134:207,1,168.75,4|0,0:1|0:0,0:0:0:0:
122,287,120741,2,0,B|181:346|181:346|262:313,1,168.75,4|0,0:1|0:0,0:0:0:0:
347,283,121094,2,0,L|402:293,1,56.25,4|0,0:1|0:0,0:0:0:0:
400,309,121270,2,0,L|319:294,1,56.25
325,41,121447,2,0,P|385:76|391:174,1,168.75,4|0,0:1|0:0,0:0:0:0:
252,149,121799,6,0,P|257:86|340:63,1,135,4|0,0:2|0:0,0:0:0:0:
350,169,122152,2,0,P|298:177|259:131,1,90
186,50,122417,1,0,0:0:0:0:
186,50,122505,2,0,P|148:27|105:37,2,90
134,133,123035,5,0,0:0:0:0:
45,0,123211,2,0,B|66:29|66:29|44:140,1,135
1,158,123564,2,0,B|31:141|31:141|45:78,1,90
133,132,123917,1,0,0:0:0:0:
61,233,124094,2,0,L|83:340,1,90
73,336,124447,1,0,0:0:0:0:
202,311,124623,6,0,P|241:318|304:384,1,135
293,380,124976,2,0,P|319:351|374:338,1,90
438,295,125241,1,0,0:0:0:0:
438,295,125329,2,0,P|476:303|514:344,2,90
300,300,125858,1,0,0:0:0:0:
359,174,126035,6,0,P|411:142|497:145,1,135
487,157,126388,2,0,B|493:112|493:112|496:109|496:109|502:58,1,90
382,11,126741,2,0,B|386:51|386:51|389:54|389:54|395:99,2,90
294,110,127270,5,0,0:0:0:0:
154,25,127447,2,0,P|172:14|281:42,1,135
294,110,127799,2,0,L|200:100,1,90
141,141,128064,1,0,0:0:0:0:
141,141,128152,1,0,0:0:0:0:
0,85,128329,2,0,L|94:75,1,90
51,214,128682,1,0,0:0:0:0:
252,228,128858,6,0,B|226:216|226:216|158:245|158:245|120:227,1,135
26,303,129211,2,0,B|70:289|70:289|119:314,1,90
210,368,129564,2,0,B|249:387|249:387|293:373,2,90
298,263,130094,1,0,0:0:0:0:
456,367,130270,5,0,0:0:0:0:
371,338,130447,1,0,0:0:0:0:
467,286,130623,1,0,0:0:0:0:
366,220,130799,1,0,0:0:0:0:
366,220,130888,1,0,0:0:0:0:
366,220,130976,1,0,0:0:0:0:
471,271,131152,1,0,0:0:0:0:
356,205,131329,1,0,0:0:0:0:
492,146,131505,1,0,0:0:0:0:
419,9,131682,6,0,B|411:64|411:64|415:74|415:74|405:142,1,135
260,122,132035,1,0,0:0:0:0:
320,39,132211,1,0,0:0:0:0:
172,60,132388,5,0,0:0:0:0:
200,205,132564,2,0,L|210:266,1,54
256,192,134505,12,0,135829,0:0:0:0:
500,150,135917,6,0,B|444:101|396:147|397:149|398:152|351:198|291:144,1,216,6|0,0:2|0:0,0:0:0:0:
251,90,136270,1,8,0:1:0:0:
138,282,136447,2,0,P|162:267|209:270,1,53.9999983520508,2|0,0:2|0:0,0:0:0:0:
247,314,136623,2,0,L|240:203,1,107.999996704102,2|4,0:2|0:1,0:0:0:0:
73,103,136976,6,0,L|70:157,1,53.9999983520508,8|0,0:1|0:0,0:0:0:0:
65,234,137152,1,2,0:2:0:0:
0,46,137329,6,0,B|55:32|83:-20|83:-20|101:36|174:67,1,216,4|0,0:1|0:0,0:0:0:0:
227,86,137682,1,8,0:1:0:0:
421,23,137858,2,0,P|373:29|351:41,1,53.9999983520508,2|0,0:2|0:0,0:0:0:0:
321,225,138035,1,2,0:1:0:0:
318,184,138123,1,0,0:0:0:0:
314,144,138211,2,0,L|309:72,1,53.9999983520508,6|0,0:1|0:0,0:0:0:0:
495,28,138388,2,0,P|422:12|350:30,1,125.999996154785,10|2,0:1|0:2,0:0:0:0:
208,255,138741,6,0,P|305:255|406:324,1,216,4|0,0:1|0:0,0:0:0:0:
448,383,139094,1,8,0:1:0:0:
443,156,139270,2,0,P|419:183|403:227,1,53.9999983520508,2|0,0:2|0:0,0:0:0:0:
306,362,139447,1,2,0:2:0:0:
281,347,139535,1,0,0:0:0:0:
255,340,139623,1,4,0:1:0:0:
512,268,139799,2,0,P|476:260|430:268,1,53.9999983520508,8|0,0:1|0:0,0:0:0:0:
429,159,139976,2,0,L|376:154,1,53.9999983520508,2|0,0:2|0:0,0:0:0:0:
52,107,140152,6,0,B|130:100|130:100|159:88|159:88|189:96|189:96|263:90,1,216,6|0,0:1|0:0,0:0:0:0:
343,82,140505,1,8,0:1:0:0:
171,227,140682,2,0,L|165:174,1,53.9999983520508,2|0,0:2|0:0,0:0:0:0:
326,39,140858,1,2,0:1:0:0:
285,14,140947,1,0,0:0:0:0:
238,15,141035,2,0,P|205:37|188:66,1,62.9999980773926,6|0,0:1|0:0,0:0:0:0:
223,315,141211,1,10,0:1:0:0:
192,55,141388,1,10,0:1:0:0:
223,315,141564,6,0,B|127:306|127:306|115:310|115:310|-11:299,1,216,6|0,0:1|0:0,0:0:0:0:
42,228,141917,1,8,0:1:0:0:
263,383,142094,2,0,P|285:364|300:334,1,53.9999983520508,2|0,0:2|0:0,0:0:0:0:
332,248,142270,2,0,L|224:236,1,107.999996704102,2|4,0:2|0:1,0:0:0:0:
115,173,142535,1,0,0:0:0:0:
115,173,142623,2,0,L|178:165,1,53.9999983520508,8|0,0:1|0:0,0:0:0:0:
257,155,142799,2,0,L|320:147,1,53.9999983520508,2|0,0:2|0:0,0:0:0:0:
512,64,142976,6,0,B|506:25|506:25|437:18|388:69|403:135,1,216,4|0,0:1|0:0,0:0:0:0:
483,138,143329,1,8,0:1:0:0:
256,144,143505,2,0,L|319:136,1,53.9999983520508,2|0,0:2|0:0,0:0:0:0:
426,318,143682,1,2,0:1:0:0:
423,292,143770,1,0,0:0:0:0:
420,266,143858,2,0,L|414:212,1,53.9999983520508,6|0,0:1|0:0,0:0:0:0:
395,52,144035,2,0,B|387:-2|387:-2|362:50,1,107.999996704102,10|2,0:1|0:2,0:0:0:0:
170,47,144388,6,0,B|215:75|215:75|314:26|314:26|359:54,1,216,6|0,0:1|0:0,0:0:0:0:
311,117,144741,1,8,0:1:0:0:
105,104,144917,1,2,0:2:0:0:
118,111,145005,1,0,0:0:0:0:
133,122,145093,1,2,0:2:0:0:
147,131,145181,1,0,0:0:0:0:
162,142,145269,1,4,0:1:0:0:
13,167,145447,1,8,0:1:0:0:
13,167,145623,1,2,0:2:0:0:
220,266,145799,6,0,P|169:227|60:234,1,161.999995056153,4|0,0:1|0:0,0:0:0:0:
27,291,146152,1,8,0:1:0:0:
188,384,146329,2,0,P|181:350|162:322,1,53.9999983520508,2|0,0:2|0:0,0:0:0:0:
141,115,146505,5,10,0:1:0:0:
159,84,146593,1,0,0:0:0:0:
188,63,146681,1,6,0:1:0:0:
222,53,146769,1,8,0:1:0:0:
258,57,146858,2,0,P|271:99|279:150,1,72,10|0,0:1|0:0,0:0:0:0:
501,241,147035,2,0,P|472:263|453:293,1,72,10|0,0:1|0:0,0:0:0:0:
343,377,147211,6,0,P|352:317|387:149,1,216,6|0,0:2|0:0,0:0:0:0:
440,105,147564,1,8,0:1:0:0:
249,204,147741,2,0,P|257:230|269:255,1,53.9999983520508,2|0,0:2|0:0,0:0:0:0:
443,292,147917,2,0,P|456:228|467:164,1,107.999996704102,2|4,0:2|0:1,0:0:0:0:
362,73,148270,2,0,P|343:69|360:79,1,53.9999983520508,8|0,0:1|0:0,0:0:0:0:
500,85,148447,2,0,P|473:91|447:97,1,53.9999983520508,2|0,0:2|0:0,0:0:0:0:
102,78,148623,6,0,B|117:194|117:194|114:196|114:196|129:304,1,216,4|0,0:1|0:0,0:0:0:0:
140,367,148976,1,8,0:1:0:0:
4,319,149152,2,0,P|33:324|62:341,1,53.9999983520508,2|0,0:2|0:0,0:0:0:0:
251,281,149329,1,2,0:1:0:0:
227,294,149417,1,0,0:0:0:0:
208,313,149505,1,6,0:1:0:0:
0,208,149682,2,0,P|23:224|46:248,1,53.9999983520508,10|0,0:1|0:0,0:0:0:0:
222,167,149858,2,0,P|205:190|191:221,1,53.9999983520508,2|0,0:2|0:0,0:0:0:0:
452,322,150035,6,0,B|515:314|515:314|405:298|405:298|402:300|402:300|330:291,1,242.999992584229,4|0,0:1|0:0,0:0:0:0:
251,281,150388,1,8,0:1:0:0:
472,218,150564,2,0,P|487:203|503:154,1,53.9999983520508,2|0,0:2|0:0,0:0:0:0:
435,115,150741,2,0,P|435:93|411:47,1,53.9999983520508,2|0,0:2|0:0,0:0:0:0:
337,48,150917,1,4,0:1:0:0:
207,157,151094,2,0,L|147:153,1,53.9999983520508,8|0,0:1|0:0,0:0:0:0:
114,63,151270,2,0,P|107:47|108:66,1,53.9999983520508,2|0,0:2|0:0,0:0:0:0:
65,320,151447,6,0,B|113:294|141:246|141:246|189:281|243:289,1,216,6|0,0:1|0:0,0:0:0:0:
165,354,151799,2,0,P|171:372|158:357,1,53.9999983520508,8|0,0:1|0:0,0:0:0:0:
129,170,151976,2,0,P|120:106|111:37,1,107.999996704102,2|2,0:2|0:1,0:0:0:0:
347,53,152329,5,6,0:1:0:0:
301,210,152505,1,10,0:1:0:0:
413,328,152682,1,10,0:1:0:0:
141,247,152858,6,0,P|74:233|85:107,1,216,6|0,0:1|0:0,0:0:0:0:
158,96,153211,1,8,0:1:0:0:
229,280,153388,2,0,P|222:305|215:341,1,53.9999983520508,2|0,0:2|0:0,0:0:0:0:
0,316,153564,2,0,P|16:255|33:168,1,107.999996704102,2|4,0:2|0:1,0:0:0:0:
115,25,153917,2,0,P|115:18|111:30,1,53.9999983520508,8|0,0:1|0:0,0:0:0:0:
219,89,154094,2,0,P|193:97|167:103,1,53.9999983520508,2|0,0:2|0:0,0:0:0:0:
9,323,154270,6,0,B|103:309|103:309|105:312|105:312|221:297,1,216,4|0,0:1|0:0,0:0:0:0:
263,232,154623,1,8,0:1:0:0:
347,332,154799,2,0,P|373:338|398:348,1,53.9999983520508,2|0,0:2|0:0,0:0:0:0:
480,205,154976,1,2,0:1:0:0:
457,219,155064,1,0,0:0:0:0:
432,230,155152,1,6,0:1:0:0:
271,222,155329,2,0,P|294:208|316:192,1,53.9999983520508,10|0,0:1|0:0,0:0:0:0:
414,62,155505,2,0,P|411:88|404:115,1,53.9999983520508,2|0,0:2|0:0,0:0:0:0:
232,336,155682,6,0,B|127:308|127:308|158:192,1,216,6|0,0:1|0:0,0:0:0:0:
181,126,156035,1,8,0:1:0:0:
263,232,156211,1,2,0:2:0:0:
37,230,156388,2,0,P|28:186|17:111,1,107.999996704102,2|4,0:2|0:1,0:0:0:0:
123,24,156741,1,8,0:1:0:0:
101,104,156917,1,2,0:2:0:0:
272,246,157094,6,0,B|372:235|372:235|388:248|388:248|459:241,1,188.999994232178,6|0,0:1|0:0,0:0:0:0:
512,188,157447,6,0,B|522:174|510:154|510:154|509:171|500:180,1,58.4999973220826
461,248,157623,2,0,B|432:250|432:250|430:253|430:253|396:255,1,58.4999973220826
310,153,157799,6,0,B|342:155|342:155|344:159|344:159|383:162,1,67.5000025749208,2|0,0:1|0:0,0:0:0:0:
263,74,157976,2,0,B|256:68|255:47|255:47|240:72|253:89,1,72,2|0,0:1|0:0,0:0:0:0:
76,187,158152,5,2,0:1:0:0:
83,177,158241,1,0,0:0:0:0:
86,165,158329,1,2,0:1:0:0:
86,153,158417,1,0,0:0:0:0:
82,140,158505,6,0,B|72:92|-39:74|-42:185|13:231|112:171|112:171|185:129|247:200,1,405.000015449525,6|0,0:2|0:0,0:0:0:0:
294,349,158858,1,8,0:1:0:0:
275,343,158947,2,0,P|278:276|368:319,1,180
178,356,159211,2,0,L|166:254,1,90,2|0,0:1|0:0,0:0:0:0:
165,248,159388,1,6,0:1:0:0:
140,31,159564,2,0,L|197:22,1,45,10|0,0:1|0:0,0:0:0:0:
257,27,159741,2,0,L|145:42,1,112.5,2|0,0:1|0:0,0:0:0:0:
499,168,159917,6,0,B|464:115|464:115|324:95|324:95|264:135,1,270.000010299683,6|2,0:1|0:2,0:0:0:0:
490,340,160270,2,0,L|445:346,1,45,8|0,0:1|0:0,0:0:0:0:
273,274,160447,1,2,0:2:0:0:
281,258,160535,2,0,B|305:221|305:221|400:207|400:207|442:237,1,180
343,372,160799,2,0,L|228:354,1,90,4|0,0:1|0:0,0:0:0:0:
63,242,160976,1,8,0:1:0:0:
67,224,161064,2,0,B|137:215|137:215|161:367,1,225
366,284,161329,6,0,B|376:265|396:255|396:255|318:156|227:229|229:234|231:238|150:311|53:185,1,405.000015449525,4|0,0:1|0:0,0:0:0:0:
93,15,161682,1,8,0:1:0:0:
78,15,161770,2,0,P|45:68|38:111,1,90,0|2,0:0|0:2,0:0:0:0:
273,99,161947,1,0,0:0:0:0:
280,85,162035,2,0,P|250:29|216:2,1,90,2|0,0:1|0:0,0:0:0:0:
148,111,162211,2,0,L|215:106,1,45,6|0,0:1|0:0,0:0:0:0:
370,117,162388,1,10,0:1:0:0:
365,97,162476,2,0,B|412:91|412:91|422:93|422:93|478:87,2,90,0|2|0,0:0|0:2|0:0,0:0:0:0:
243,276,162741,6,0,B|218:292|218:337|218:337|262:350|287:336,1,135.000005149842,4|0,0:1|0:0,0:0:0:0:
338,187,162917,2,0,B|303:172|296:138|296:138|300:172|265:196,1,135.000005149842,2|0,0:2|0:0,0:0:0:0:
369,314,163094,2,0,B|394:327|433:304|433:304|423:260|398:245,1,135.000005149842,8|0,0:1|0:0,0:0:0:0:
123,220,163270,1,2,0:2:0:0:
129,236,163358,1,0,0:0:0:0:
134,251,163447,2,0,B|262:235|262:235|270:241|270:241|420:225,1,270.000010299683,8|4,0:1|0:1,0:0:0:0:
504,82,163711,1,8,0:1:0:0:
488,76,163799,2,0,P|438:110|423:153,1,94.499997116089,8|0,0:1|0:0,0:0:0:0:
509,160,164152,6,0,B|387:148|387:148|368:116|325:101|325:101|293:134|248:130|248:130|121:114,1,405.000015449525,6|0,0:1|0:0,0:0:0:0:
0,327,164505,1,8,0:1:0:0:
11,349,164594,2,0,B|59:337|66:294|66:294|83:171,1,180
58,0,164858,2,0,L|45:107,1,90,2|0,0:1|0:0,0:0:0:0:
45,106,165035,1,6,0:1:0:0:
218,221,165211,2,0,L|166:215,1,45,10|0,0:1|0:0,0:0:0:0:
79,197,165388,2,0,B|46:179|46:179|117:187,1,90,2|0,0:1|0:0,0:0:0:0:
242,354,165564,6,0,B|252:221|252:221|256:215|256:215|269:62,1,270.000010299683,6|2,0:1|0:2,0:0:0:0:
379,227,165917,2,0,L|312:235,1,45,8|0,0:1|0:0,0:0:0:0:
511,134,166094,1,2,0:2:0:0:
512,115,166182,2,0,B|482:92|482:92|377:105|377:105|355:141,1,180
442,296,166447,2,0,P|477:255|482:209,1,90,4|0,0:1|0:0,0:0:0:0:
395,19,166623,1,8,0:1:0:0:
378,34,166711,2,0,P|379:93|522:81,1,225
256,46,166976,6,0,B|195:55|170:117|170:117|103:27|-31:18|-33:159|77:152|90:79,1,405.000015449525,4|0,0:1|0:0,0:0:0:0:
116,220,167329,1,8,0:1:0:0:
131,233,167417,2,0,B|185:262|224:235|188:208|174:239,1,90,0|2,0:0|0:2,0:0:0:0:
157,2,167594,1,0,0:0:0:0:
160,27,167682,2,0,L|171:135,1,90,2|0,0:1|0:0,0:0:0:0:
193,317,167858,2,0,L|183:227,1,90,6|0,0:1|0:0,0:0:0:0:
82,48,168035,1,10,0:1:0:0:
78,67,168123,2,0,B|26:58|5:107|40:101|37:75,2,90,0|2|0,0:0|0:2|0:0,0:0:0:0:
238,168,168388,6,0,B|277:174|277:174|281:172|281:172|327:179,1,90,4|0,0:1|0:0,0:0:0:0:
432,178,168564,2,0,B|408:209|408:209|408:214|408:214|380:250,1,90
326,341,168741,2,0,B|312:305|312:305|307:302|307:302|291:260,1,90
438,74,168917,1,0,0:0:0:0:
419,71,169005,2,0,L|317:57,1,90
211,37,169270,6,0,P|202:86|162:120,1,90
100,82,169447,2,0,P|109:33|149:-1,1,90
55,259,169623,2,0,L|-2:252,1,45
0,265,169799,6,0,B|192:286|192:286|195:290|195:290|429:316,1,434.7000006633,6|0,0:2|0:0,0:0:0:0:
482,240,170152,6,0,P|496:188|454:148,3,102.599998747559,12|0|2|0,0:1|0:0|0:2|0:0,0:0:0:0:
371,193,170505,2,0,P|332:154|277:171,3,102.599998747559,6|0|2|0,0:1|0:0|0:1|0:0,0:0:0:0:
274,265,170858,2,0,P|221:278|208:335,1,102.599998747559,14|0,0:1|0:0,0:0:0:0:
151,378,171035,2,0,B|37:363,1,102.599998747559,2|0,0:2|0:0,0:0:0:0:
0,181,171211,6,0,B|47:163|58:107|58:107|94:163|174:166,1,217.35000033165,6|0,0:1|0:0,0:0:0:0:
157,173,171388,2,0,B|91:179|91:179|87:185|87:185|4:193,1,144.9000002211,2|0,0:2|0:0,0:0:0:0:
188,10,171564,6,0,P|233:19|254:74,3,102.599998747559,12|0|2|0,0:1|0:0|0:2|0:0,0:0:0:0:
352,7,171917,2,0,P|366:54|335:93,3,102.599998747559,4|0|2|0,0:1|0:0|0:2|0:0,0:0:0:0:
436,147,172270,2,0,P|402:182|352:176,3,102.599998747559,12|0|2|0,0:1|0:0|0:2|0:0,0:0:0:0:
512,303,172623,6,0,B|320:282|320:282|317:278|317:278|83:252,1,434.7000006633,6|0,0:1|0:0,0:0:0:0:
0,261,172976,6,0,P|8:310|82:319,3,102.599998747559,12|0|2|0,0:1|0:0|0:2|0:0,0:0:0:0:
149,171,173329,2,0,P|102:153|57:213,3,102.599998747559,6|0|2|0,0:1|0:0|0:1|0:0,0:0:0:0:
151,346,173682,2,0,P|190:314|185:265,3,102.599998747559,14|0|2|0,0:1|0:0|0:2|0:0,0:0:0:0:
50,177,174035,6,0,B|46:127|46:127|41:124|41:124|34:55,1,102.599998747559,6|0,0:1|0:0,0:0:0:0:
62,180,174211,2,0,B|58:130|58:130|53:127|53:127|49:81,1,102.599998747559,2|0,0:2|0:0,0:0:0:0:
219,301,174388,5,12,0:1:0:0:
244,278,174476,1,0,0:0:0:0:
277,269,174564,1,2,0:2:0:0:
310,275,174652,1,0,0:0:0:0:
338,328,174741,5,6,0:1:0:0:
354,329,174829,1,0,0:0:0:0:
382,354,174917,5,6,0:1:0:0:
399,352,175005,1,0,0:0:0:0:
414,343,175094,6,0,P|473:328|456:225,1,179.549992602768,14|0,0:1|0:0,0:0:0:0:
512,101,175447,6,0,B|320:122|320:122|317:126|317:126|83:152,1,434.7000006633,6|0,0:1|0:0,0:0:0:0:
23,100,175799,6,0,P|43:67|118:67,3,102.599998747559,12|0|2|0,0:1|0:0|0:2|0:0,0:0:0:0:
181,0,176152,2,0,P|219:0|257:65,3,102.599998747559,4|0|2|0,0:1|0:0|0:2|0:0,0:0:0:0:
346,86,176505,2,0,P|364:119|327:184,1,102.599998747559,12|0,0:1|0:0,0:0:0:0:
371,253,176682,2,0,B|485:268,1,102.599998747559,2|0,0:2|0:0,0:0:0:0:
263,343,176858,6,0,B|161:352|161:352|155:361|155:361|28:373,1,217.35000033165,6|0,0:1|0:0,0:0:0:0:
39,361,177035,2,0,B|54:326|54:292|54:292|90:296|135:285,1,144.9000002211,2|0,0:2|0:0,0:0:0:0:
232,181,177211,6,0,P|268:191|290:259,3,102.599998747559,12|0|2|0,0:1|0:0|0:2|0:0,0:0:0:0:
397,166,177564,2,0,P|404:215|371:253,3,102.599998747559,6|0|2|0,0:1|0:0|0:1|0:0,0:0:0:0:
493,303,177917,2,0,P|453:333|404:322,3,102.599998747559,14|0|2|0,0:1|0:0|0:2|0:0,0:0:0:0:
64,258,178270,6,0,B|256:237|256:237|259:233|259:233|493:207,1,434.7000006633,6|0,0:1|0:0,0:0:0:0:
487,120,178623,6,0,P|444:93|397:108,3,102.599998747559,12|0|2|0,0:1|0:0|0:2|0:0,0:0:0:0:
282,57,178976,2,0,P|280:106|316:140,3,102.599998747559,6|0|2|0,0:1|0:0|0:1|0:0,0:0:0:0:
329,266,179329,2,0,P|373:242|383:194,3,102.599998747559,14|0|2|0,0:1|0:0|0:2|0:0,0:0:0:0:
277,47,179682,6,0,B|223:43|223:43|218:47|218:47|162:43,1,102.599998747559,6|0,0:1|0:0,0:0:0:0:
271,36,179858,2,0,B|217:32|217:32|212:36|212:36|156:32,1,102.599998747559,2|0,0:2|0:0,0:0:0:0:
18,160,180035,5,12,0:1:0:0:
42,116,180123,1,0,0:0:0:0:
90,99,180211,1,2,0:2:0:0:
136,119,180299,1,0,0:0:0:0:
186,175,180388,5,6,0:1:0:0:
181,188,180476,1,0,0:0:0:0:
133,240,180564,5,6,0:1:0:0:
138,253,180652,1,0,0:0:0:0:
103,315,180741,5,14,0:1:0:0:
127,359,180829,1,0,0:0:0:0:
175,376,180917,1,6,0:1:0:0:
221,356,181005,1,0,0:0:0:0:
224,344,181094,5,6,0:2:0:0:
97,155,182505,6,0,P|126:142|159:136,1,63
218,73,183917,2,0,P|247:85|286:91,1,72
361,86,186388,5,0,0:0:0:0:
361,86,186741,2,0,L|348:151,1,63
276,197,188152,2,0,L|288:262,1,63
360,304,189564,2,0,P|328:338|301:348,1,72
164,151,192035,5,0,0:0:0:0:
162,159,192388,6,0,B|218:125|254:160|253:163|253:165|294:202|346:165,1,180,4|2,0:2|0:2,0:0:0:0:
454,50,192652,1,0,0:0:0:0:
426,39,192740,1,12,0:1:0:0:
396,36,192828,1,0,0:0:0:0:
367,43,192917,2,0,P|328:65|303:102,1,90,2|0,0:2|0:0,0:0:0:0:
225,308,193094,2,0,P|224:263|205:223,1,90,4|0,0:1|0:0,0:0:0:0:
100,86,193270,1,2,0:2:0:0:
52,87,193358,1,0,0:0:0:0:
8,90,193447,2,0,B|33:267|33:267|141:250,1,270,12|0,0:1|0:0,0:0:0:0:
375,329,193799,6,0,B|342:294|342:294|199:316,1,180,4|2,0:1|0:2,0:0:0:0:
5,283,194064,1,0,0:0:0:0:
38,276,194152,2,0,L|126:261,1,90,12|0,0:1|0:0,0:0:0:0:
306,381,194329,5,2,0:2:0:0:
291,349,194417,1,0,0:0:0:0:
291,305,194505,1,4,0:1:0:0:
313,266,194594,1,0,0:0:0:0:
362,236,194682,1,2,0:2:0:0:
419,224,194770,1,0,0:0:0:0:
455,176,194858,2,0,B|436:143|429:90|429:90|401:136|351:153,1,180,12|2,0:1|0:2,0:0:0:0:
512,328,195211,6,0,B|473:340|445:386|445:386|438:333|419:300,1,180,4|2,0:1|0:2,0:0:0:0:
228,246,195476,2,0,P|278:244|322:259,1,90,0|12,0:0|0:1,0:0:0:0:
129,191,195652,1,0,0:0:0:0:
138,172,195741,2,0,P|180:145|225:136,1,90,2|0,0:2|0:0,0:0:0:0:
321,79,195917,2,0,P|245:52|222:129,1,180,4|2,0:1|0:2,0:0:0:0:
20,221,196182,2,0,P|85:179|93:257,1,180
256,343,196447,2,0,P|212:326|205:376,1,90,2|0,0:2|0:0,0:0:0:0:
71,367,196623,6,0,B|155:349|155:349|161:351|161:351|267:328,1,180,4|2,0:1|0:2,0:0:0:0:
409,289,196888,2,0,L|349:221,1,90,0|12,0:0|0:1,0:0:0:0:
236,83,197064,1,0,0:0:0:0:
230,101,197152,2,0,L|201:186,1,90,2|0,0:2|0:0,0:0:0:0:
447,202,197329,6,0,B|402:123|402:123|312:141,1,180,4|2,0:1|0:2,0:0:0:0:
149,24,197594,1,0,0:0:0:0:
155,49,197682,2,0,B|198:57|198:57|202:60|202:60|252:69,1,90,12|0,0:1|0:0,0:0:0:0:
420,0,197858,2,0,B|377:8|377:8|373:11|373:11|323:20,1,90,4|0,0:1|0:0,0:0:0:0:
120,137,198035,6,0,B|82:111|82:111|64:72|64:72|57:113|57:113|22:150,1,180,4|2,0:1|0:2,0:0:0:0:
103,384,198299,1,0,0:0:0:0:
99,352,198388,1,12,0:1:0:0:
95,321,198476,1,0,0:0:0:0:
91,290,198564,2,0,L|75:184,1,90,2|0,0:2|0:0,0:0:0:0:
298,269,198741,2,0,L|285:358,1,90,4|0,0:1|0:0,0:0:0:0:
189,192,198917,1,2,0:2:0:0:
193,236,199005,1,0,0:0:0:0:
231,212,199094,6,0,B|291:172|291:172|320:114|320:114|329:177|329:177|380:234,1,270,12|0,0:1|0:0,0:0:0:0:
496,280,199447,2,0,P|420:247|373:316,1,180,4|2,0:1|0:2,0:0:0:0:
500,125,199711,1,0,0:0:0:0:
488,97,199799,2,0,P|437:113|407:155,1,90,12|0,0:1|0:0,0:0:0:0:
168,42,199976,5,2,0:2:0:0:
192,16,200064,1,0,0:0:0:0:
233,1,200152,1,4,0:1:0:0:
277,8,200241,1,0,0:0:0:0:
323,44,200329,1,2,0:2:0:0:
336,103,200417,1,0,0:0:0:0:
310,157,200505,6,0,B|226:151|226:151|218:155|218:155|121:147,1,180,12|2,0:1|0:2,0:0:0:0:
24,35,200858,6,0,P|71:42|108:77,1,90,4|0,0:1|0:0,0:0:0:0:
131,147,201035,1,2,0:2:0:0:
10,262,201211,6,0,P|39:224|88:210,1,90,12|0,0:1|0:0,0:0:0:0:
160,225,201388,1,2,0:2:0:0:
99,384,201564,2,0,L|85:278,1,90,4|0,0:1|0:0,0:0:0:0:
362,193,201741,1,2,0:2:0:0:
356,237,201829,1,0,0:0:0:0:
350,282,201917,2,0,B|334:268|334:268|357:93,1,180,12|2,0:1|0:2,0:0:0:0:
290,346,202270,6,0,P|317:363|387:362,1,90,4|0,0:1|0:0,0:0:0:0:
497,206,202447,1,2,0:2:0:0:
497,206,202535,1,0,0:0:0:0:
497,206,202623,2,0,P|468:220|434:282,1,90,12|0,0:1|0:0,0:0:0:0:
489,372,202799,1,2,0:2:0:0:
257,230,202976,2,0,B|267:144|267:144|271:139|271:139|284:41,1,180,12|2,0:1|0:2,0:0:0:0:
393,12,203241,1,8,0:1:0:0:
393,12,203329,1,12,0:1:0:0:
372,128,203505,1,8,0:1:0:0:
171,310,203682,6,0,B|156:217|156:217|159:210|159:210|144:103,1,205.199997495117,4|2,0:2|0:2,0:0:0:0:
127,27,203947,1,0,0:0:0:0:
112,21,204035,2,0,P|66:42|59:82,1,90,12|0,0:1|0:0,0:0:0:0:
0,135,204211,2,0,P|-4:185|26:211,1,90,2|0,0:2|0:0,0:0:0:0:
220,369,204388,6,0,B|270:377|316:334|273:318|317:274|379:285,1,180,4|2,0:1|0:2,0:0:0:0:
409,216,204653,1,0,0:0:0:0:
418,205,204741,2,0,B|443:246|491:256|491:256|450:280|447:328,1,180,12|2,0:1|0:2,0:0:0:0:
372,371,205005,1,0,0:0:0:0:
363,381,205094,2,0,P|313:367|247:353,1,90,4|0,0:1|0:0,0:0:0:0:
34,164,205270,1,2,0:2:0:0:
37,128,205358,1,0,0:0:0:0:
64,109,205447,6,0,B|77:202|77:202|82:205|82:205|93:287,1,180,12|2,0:1|0:2,0:0:0:0:
171,301,205711,1,0,0:0:0:0:
183,310,205799,6,0,P|214:261|195:213,1,90,4|0,0:1|0:0,0:0:0:0:
257,165,205976,2,0,P|230:113|178:106,1,90,2|0,0:2|0:0,0:0:0:0:
37,362,206152,6,0,L|149:376,1,90,12|0,0:1|0:0,0:0:0:0:
385,234,206329,2,0,L|273:248,1,90,2|0,0:2|0:0,0:0:0:0:
54,38,206505,6,0,B|110:14|160:71|120:76|150:121|200:110,1,180,4|2,0:1|0:2,0:0:0:0:
278,84,206770,1,0,0:0:0:0:
289,91,206858,2,0,B|296:40|296:40|298:41|298:41|305:-9,1,90,12|0,0:1|0:0,0:0:0:0:
381,22,207035,2,0,B|375:57|375:57|373:56|373:56|366:107,1,90,2|0,0:2|0:0,0:0:0:0:
413,367,207211,6,0,P|444:333|434:277,1,90,4|0,0:1|0:0,0:0:0:0:
492,225,207388,2,0,P|478:181|424:161,1,90,2|0,0:2|0:0,0:0:0:0:
270,320,207564,6,0,B|171:313|171:313|166:316|166:316|78:310,1,180,12|2,0:1|0:2,0:0:0:0:
29,357,207829,1,0,0:0:0:0:
15,346,207917,2,0,P|7:294|32:256,1,90,4|0,0:1|0:0,0:0:0:0:
0,186,208094,2,0,P|41:153|86:155,1,90,2|0,0:2|0:0,0:0:0:0:
271,237,208270,6,0,P|316:212|297:152,1,90,12|0,0:1|0:0,0:0:0:0:
136,19,208447,2,0,B|142:54|142:54|144:53|144:53|151:104,1,90,2|0,0:2|0:0,0:0:0:0:
168,339,208623,6,0,P|123:314|142:254,1,90,4|0,0:1|0:0,0:0:0:0:
253,38,208799,2,0,B|247:73|247:73|245:72|245:72|238:123,1,90,2|0,0:2|0:0,0:0:0:0:
413,367,208976,5,12,0:1:0:0:
512,234,209152,1,4,0:1:0:0:
137,265,209329,6,0,B|261:282|261:282|263:284|263:284|340:294,1,205.199997495117,4|2,0:1|0:2,0:0:0:0:
395,232,209594,1,0,0:0:0:0:
408,221,209682,2,0,P|422:176|392:136,1,90,12|0,0:1|0:0,0:0:0:0:
309,158,209858,2,0,P|277:123|227:129,1,90,2|0,0:2|0:0,0:0:0:0:
152,359,210035,6,0,B|102:374|57:331|95:314|44:270|-14:297,1,180,4|2,0:1|0:2,0:0:0:0:
14,200,210299,1,0,0:0:0:0:
0,189,210388,2,0,P|-9:123|95:91,1,180,12|2,0:1|0:2,0:0:0:0:
128,169,210652,1,0,0:0:0:0:
139,181,210741,2,0,B|191:187|191:187|195:193|195:193|245:199,1,90,4|0,0:1|0:0,0:0:0:0:
417,86,210917,1,2,0:2:0:0:
439,48,211005,1,0,0:0:0:0:
425,7,211094,6,0,B|327:18|327:18|319:29|319:29|225:40,1,180,12|2,0:1|0:2,0:0:0:0:
128,17,211358,1,0,0:0:0:0:
135,1,211447,2,0,P|191:5|161:110,1,180,4|2,0:1|0:2,0:0:0:0:
0,227,211711,5,0,0:0:0:0:
10,242,211799,2,0,B|108:253|108:253|116:264|116:264|210:275,1,180,12|2,0:1|0:2,0:0:0:0:
339,297,212063,1,0,0:0:0:0:
332,281,212152,2,0,P|276:285|306:390,1,180,4|2,0:1|0:2,0:0:0:0:
403,370,212417,5,0,0:0:0:0:
414,383,212505,2,0,B|463:377|463:377|467:372|467:372|514:366,1,90,12|0,0:1|0:0,0:0:0:0:
508,283,212682,2,0,B|459:288|459:288|455:293|455:293|408:299,1,90,2|0,0:2|0:0,0:0:0:0:
187,256,212858,5,4,0:1:0:0:
173,213,212946,1,0,0:0:0:0:
181,169,213034,1,2,0:2:0:0:
209,135,213122,1,0,0:0:0:0:
250,118,213210,1,12,0:1:0:0:
294,123,213299,1,0,0:0:0:0:
330,149,213388,5,2,0:2:0:0:
361,159,213476,1,0,0:0:0:0:
394,153,213564,1,4,0:1:0:0:
419,132,213652,1,0,0:0:0:0:
431,101,213740,1,2,0:2:0:0:
426,68,213829,1,0,0:0:0:0:
405,42,213917,1,12,0:1:0:0:
374,30,214005,1,0,0:0:0:0:
341,34,214094,6,0,B|335:71|335:71|332:73|332:73|323:130,1,90,2|0,0:2|0:0,0:0:0:0:
257,284,214270,2,0,P|216:300|163:268,1,90,12|0,0:1|0:0,0:0:0:0:
72,124,214447,6,0,B|78:161|78:161|81:163|81:163|90:220,1,90,2|8,0:2|0:1,0:0:0:0:
175,292,214623,2,0,P|215:308|256:292,1,90,12|0,0:1|0:0,0:0:0:0:
332,127,214799,6,0,B|326:164|326:164|323:166|323:166|314:223,1,90,8|0,0:1|0:0,0:0:0:0:
216,384,214976,5,4,0:2:0:0:
119,369,215152,1,0,0:0:0:0:
119,369,215241,1,0,0:0:0:0:
0,232,215505,5,0,0:0:0:0:
97,217,215682,2,0,B|133:210|133:210|139:211|139:211|178:205,2,80.9999975280763
0,86,216388,5,0,0:0:0:0:
97,101,216564,1,0,0:0:0:0:
97,101,216653,1,0,0:0:0:0:
263,17,216917,1,0,0:0:0:0:
364,33,217094,2,0,B|327:26|327:26|321:27|321:27|282:21,2,80.9999975280763
489,93,217799,5,0,0:0:0:0:
374,171,217976,1,0,0:0:0:0:
374,171,218064,1,0,0:0:0:0:
374,171,218152,1,0,0:0:0:0:
499,231,218329,1,0,0:0:0:0:
489,93,218505,6,0,P|469:123|462:152,1,53.9999983520508
374,171,218770,2,0,P|394:201|401:230,1,53.9999983520508
439,288,219035,1,0,0:0:0:0:
344,377,219211,5,0,0:0:0:0:
257,280,219388,1,0,0:0:0:0:
268,280,219476,1,0,0:0:0:0:
279,281,219564,1,0,0:0:0:0:
291,282,219652,1,0,0:0:0:0:
303,283,219741,2,0,L|366:287,1,53.9999983520508
277,181,220094,1,0,0:0:0:0:
255,182,220182,1,0,0:0:0:0:
233,183,220270,2,0,L|170:187,1,53.9999983520508
208,38,220623,5,0,0:0:0:0:
107,17,220799,1,0,0:0:0:0:
107,17,220888,1,0,0:0:0:0:
4,171,221152,1,0,0:0:0:0:
105,150,221329,2,0,P|90:114|53:80,2,80.9999975280763
16,313,222035,5,0,0:0:0:0:
81,234,222211,1,0,0:0:0:0:
81,234,222299,1,0,0:0:0:0:
223,354,222564,1,0,0:0:0:0:
165,268,222741,2,0,P|136:296|120:333,2,80.9999975280763
324,344,223447,5,0,0:0:0:0:
415,293,223623,1,0,0:0:0:0:
415,293,223711,1,0,0:0:0:0:
415,293,223799,1,0,0:0:0:0:
486,367,223976,1,0,0:0:0:0:
318,354,224152,2,0,L|231:347,2,72
243,272,224682,1,0,0:0:0:0:
307,145,224858,2,0,B|357:150|357:150|365:148|365:148|428:154,1,108
414,152,225211,5,8,0:3:0:0:
406,93,225299,1,8,0:3:0:0:
361,55,225387,1,8,0:3:0:0:
303,56,225475,1,8,0:3:0:0:
143,173,225741,5,8,0:3:0:0:
15,203,225917,1,4,0:3:0:0:
18,185,226006,1,4,0:3:0:0:
21,167,226094,1,4,0:3:0:0:
24,149,226182,1,4,0:3:0:0:
27,131,226270,6,0,B|84:97|119:30|119:30|166:89|225:107,1,270,4|0,0:1|0:0,0:0:0:0:
99,178,226976,2,0,L|174:170,1,45
222,196,227152,1,4,0:1:0:0:
220,208,227329,1,4,0:1:0:0:
218,220,227505,1,4,0:1:0:0:
408,384,227682,6,0,P|484:349|435:194,1,270,4|0,0:1|0:0,0:0:0:0:
375,282,228388,2,0,P|367:237|342:194,1,90,4|0,0:1|0:0,0:0:0:0:
285,268,228741,1,0,0:0:0:0:
285,268,228917,1,0,0:0:0:0:
0,322,229094,6,0,B|132:338|132:338|136:344|136:344|268:361,1,270,4|0,0:1|0:0,0:0:0:0:
285,268,229799,2,0,L|186:257,1,90
103,291,230152,2,0,B|85:247|85:247|116:207,1,90,4|0,0:1|0:0,0:0:0:0:
281,68,230505,6,0,B|365:41|402:137|402:137|399:137|399:137|387:207|444:234,1,270,4|0,0:1|0:0,0:0:0:0:
306,149,231211,1,4,0:1:0:0:
294,151,231388,1,4,0:1:0:0:
282,153,231564,1,4,0:1:0:0:
281,68,231741,1,0,0:0:0:0:
373,288,231917,5,4,0:1:0:0:
373,288,232094,2,0,L|163:264,1,180
58,235,232623,2,0,P|102:230|136:201,2,90,4|0|0,0:1|0:0|0:0,0:0:0:0:
68,153,233152,1,0,0:0:0:0:
0,365,233329,5,4,0:1:0:0:
0,365,233505,2,0,B|90:355|90:355|94:358|94:358|208:346,1,180
296,296,234035,2,0,P|298:340|269:373,1,90,4|0,0:1|0:0,0:0:0:0:
183,355,234388,1,0,0:0:0:0:
183,355,234564,1,0,0:0:0:0:
45,239,234741,6,0,L|26:50,1,180,4|4,0:1|0:1,0:0:0:0:
109,0,235270,1,0,0:0:0:0:
109,0,235447,2,0,P|128:30|115:88,1,90,4|0,0:1|0:0,0:0:0:0:
153,172,235799,1,4,0:1:0:0:
252,192,235976,1,0,0:0:0:0:
323,127,236152,6,0,B|340:56|340:56|290:118|290:118|287:117|287:117|305:268,1,306.000005836487,4|4,0:1|0:1,0:0:0:0:
458,268,236682,2,0,B|441:271|441:271|438:276|438:276|385:287,1,76.5000014591217,4|0,0:1|0:0,0:0:0:0:
509,199,236858,2,0,P|473:185|435:185,1,76.5000014591217,4|0,0:1|0:0,0:0:0:0:
352,209,237035,2,0,P|322:232|305:267,1,76.5000014591217,4|0,0:1|0:0,0:0:0:0:
99,313,237211,2,0,B|148:257|148:257|150:263|150:263|223:313,1,153.000002918243,4|4,0:1|0:1,0:0:0:0:
388,302,237564,6,0,B|305:363|305:363|302:374|302:374|206:278,1,233.999989288331,4|0,0:1|0:0,0:0:0:0:
288,216,238094,6,0,P|301:249|307:287,2,53.9999983520508
221,179,238623,1,0,0:0:0:0:
221,179,238799,1,0,0:0:0:0:
24,209,238976,6,0,B|-9:123|-9:123|86:116|86:116|97:107|97:107|110:114|110:114|208:107,1,310.500005922318,4|0,0:2|0:0,0:0:0:0:
317,9,239329,2,0,B|395:41|395:41|331:234,1,270,12|0,0:1|0:0,0:0:0:0:
202,99,239682,2,0,L|306:90,1,90,4|0,0:1|0:0,0:0:0:0:
389,290,239858,2,0,B|328:317|328:317|269:281,1,135.000005149842,2|12,0:2|0:1,0:0:0:0:
428,198,240123,1,0,0:0:0:0:
429,210,240211,2,0,P|458:232|474:260,1,45,2|0,0:2|0:0,0:0:0:0:
269,267,240388,6,0,B|345:233|392:312|390:314|387:316|434:378|508:326,1,270,4|0,0:1|0:0,0:0:0:0:
197,225,240741,2,0,B|137:251|123:331|123:331|85:256|22:250,1,270,12|0,0:1|0:0,0:0:0:0:
93,98,241094,2,0,L|104:191,1,90,4|0,0:1|0:0,0:0:0:0:
25,45,241270,2,0,P|80:13|155:38,1,135.000005149842,2|12,0:2|0:1,0:0:0:0:
257,146,241535,1,0,0:0:0:0:
272,149,241623,2,0,P|302:151|331:141,1,45,2|0,0:2|0:0,0:0:0:0:
292,68,241799,6,0,B|169:60|169:60|163:64|163:64|2:54,1,270,4|0,0:1|0:0,0:0:0:0:
0,349,242152,2,0,B|53:346|53:346|65:179|65:179|127:176,1,270,12|0,0:1|0:0,0:0:0:0:
171,384,242505,2,0,B|170:343|170:343|168:336|168:336|166:283,1,90,4|0,0:1|0:0,0:0:0:0:
292,265,242682,2,0,B|276:285|276:285|150:280,1,135.000005149842,2|12,0:2|0:1,0:0:0:0:
213,172,242947,1,0,0:0:0:0:
230,172,243035,2,0,L|286:170,1,45,2|0,0:2|0:0,0:0:0:0:
450,239,243211,6,0,B|487:198|417:121|333:184|344:295|424:317,1,270,4|0,0:1|0:0,0:0:0:0:
495,372,243564,2,0,B|511:333|511:333|327:342|327:342|354:377,1,270,12|0,0:1|0:0,0:0:0:0:
366,375,243917,5,4,0:1:0:0:
274,170,244094,1,2,0:2:0:0:
479,78,244270,1,12,0:1:0:0:
485,87,244358,1,0,0:0:0:0:
489,97,244447,2,0,L|478:158,1,45,4|0,0:1|0:0,0:0:0:0:
274,170,244623,6,0,B|256:122|256:122|330:77|330:77|408:113|408:113|397:168,1,270,4|0,0:1|0:0,0:0:0:0:
132,196,244976,2,0,B|256:186|256:186|263:181|263:181|429:168,1,270,12|0,0:1|0:0,0:0:0:0:
347,299,245329,2,0,L|338:193,1,90,4|0,0:1|0:0,0:0:0:0:
184,271,245505,2,0,B|126:300|126:300|62:261,1,135.000005149842,2|12,0:2|0:1,0:0:0:0:
95,118,245770,1,0,0:0:0:0:
114,115,245858,2,0,L|175:111,1,45,2|0,0:2|0:0,0:0:0:0:
1,139,246035,6,0,B|15:112|15:112|178:102,1,180,4|2,0:1|0:2,0:0:0:0:
319,2,246299,1,0,0:0:0:0:
299,0,246388,2,0,B|254:8|237:57|237:57|208:18|158:19,1,180,12|2,0:1|0:2,0:0:0:0:
330,153,246652,1,0,0:0:0:0:
348,159,246741,2,0,P|382:134|401:85,1,90,4|0,0:1|0:0,0:0:0:0:
318,80,246917,2,0,L|278:224,1,135.000005149842,2|12,0:2|0:1,0:0:0:0:
232,381,247182,1,0,0:0:0:0:
238,365,247270,2,0,L|255:303,1,45,2|0,0:2|0:0,0:0:0:0:
502,319,247447,6,0,B|447:360|388:319|388:319|379:309|379:309|315:261|255:305,1,270,4|0,0:1|0:0,0:0:0:0:
88,266,247799,2,0,P|1:334|106:372,1,270,12|0,0:1|0:0,0:0:0:0:
101,188,248152,2,0,L|60:107,1,90,4|0,0:1|0:0,0:0:0:0:
248,129,248329,2,0,P|190:159|182:224,1,135.000005149842,2|12,0:2|0:1,0:0:0:0:
166,313,248594,1,0,0:0:0:0:
166,313,248682,1,2,0:2:0:0:
141,82,248858,6,0,B|135:27|135:27|196:-26|289:-6|310:74,1,270,4|0,0:1|0:0,0:0:0:0:
392,151,249211,2,0,B|408:117|444:104|444:104|238:122,1,270,12|0,0:1|0:0,0:0:0:0:
297,360,249564,1,4,0:1:0:0:
478,197,249741,1,4,0:1:0:0:
297,360,249917,1,12,0:1:0:0:
246,121,250094,1,4,0:1:0:0:
410,303,250270,6,0,P|391:276|347:245,3,53.9999983520508,4|0|2|0,0:2|0:0|0:2|0:0,0:0:0:0:
297,237,250623,2,0,P|264:239|215:262,3,53.9999983520508,8|0|2|0,0:1|0:0|0:2|0:0,0:0:0:0:
202,316,250976,2,0,L|139:321,1,53.9999983520508
89,379,251152,2,0,L|26:374,1,53.9999983520508,2|0,0:2|0:0,0:0:0:0:
11,296,251329,1,8,0:1:0:0:
9,285,251417,1,0,0:0:0:0:
7,274,251505,2,0,P|3:238|7:204,1,53.9999983520508,2|0,0:2|0:0,0:0:0:0:
72,176,251682,6,0,P|45:151|18:140,3,53.9999983520508,0|0|2|0,0:0|0:0|0:2|0:0,0:0:0:0:
88,86,252035,2,0,P|96:50|92:21,3,53.9999983520508,8|0|2|0,0:1|0:0|0:2|0:0,0:0:0:0:
175,44,252388,2,0,P|197:32|246:25,1,53.9999983520508
282,81,252564,2,0,P|307:81|352:100,1,53.9999983520508,2|0,0:2|0:0,0:0:0:0:
326,170,252741,1,8,0:1:0:0:
325,180,252829,1,0,0:0:0:0:
324,190,252917,2,0,L|317:267,1,53.9999983520508,2|0,0:2|0:0,0:0:0:0:
255,294,253094,6,0,P|283:309|306:333,3,53.9999983520508,0|0|2|0,0:0|0:0|0:2|0:0,0:0:0:0:
377,301,253447,2,0,P|397:283|421:270,3,53.9999983520508,8|0|2|0,0:1|0:0|0:2|0:0,0:0:0:0:
444,348,253799,2,0,L|507:356,1,53.9999983520508
487,271,253976,2,0,L|424:263,1,53.9999983520508,2|0,0:2|0:0,0:0:0:0:
399,192,254152,1,8,0:1:0:0:
408,186,254241,1,0,0:0:0:0:
418,181,254329,2,0,L|480:189,1,53.9999983520508,2|0,0:2|0:0,0:0:0:0:
463,107,254505,6,0,P|432:97|388:96,3,53.9999983520508,0|0|2|0,0:0|0:0|0:2|0:0,0:0:0:0:
331,75,254858,2,0,P|306:96|283:134,3,53.9999983520508,8|0|2|0,0:1|0:0|0:2|0:0,0:0:0:0:
237,173,255211,2,0,P|243:204|264:243,1,53.9999983520508
206,291,255388,2,0,P|199:322|178:361,1,53.9999983520508,2|0,0:2|0:0,0:0:0:0:
109,343,255564,1,8,0:1:0:0:
110,332,255652,1,0,0:0:0:0:
112,321,255741,2,0,P|117:294|127:269,1,53.9999983520508,2|0,0:2|0:0,0:0:0:0:
144,177,255917,6,0,L|75:184,2,67.5000025749208,8|0|2,0:1|0:0|0:2,0:0:0:0:
133,89,256182,1,0,0:0:0:0:
119,91,256270,2,0,L|50:98,2,67.5000025749208,8|0|2,0:1|0:0|0:2,0:0:0:0:
220,79,256535,1,0,0:0:0:0:
233,78,256623,2,0,L|300:71,1,67.5000025749208,8|0,0:1|0:0,0:0:0:0:
400,60,256799,2,0,L|467:53,1,67.5000025749208,2|0,0:2|0:0,0:0:0:0:
443,147,256976,1,8,0:1:0:0:
438,162,257064,1,0,0:0:0:0:
435,179,257152,1,2,0:2:0:0:
433,196,257241,1,0,0:0:0:0:
435,212,257329,6,0,P|441:245|457:275,1,67.5000025749208,8|0,0:1|0:0,0:0:0:0:
306,384,257505,1,2,0:2:0:0:
316,370,257594,1,0,0:0:0:0:
325,355,257682,6,0,P|340:325|346:291,1,67.5000025749208,8|0,0:1|0:0,0:0:0:0:
141,304,257858,1,2,0:2:0:0:
162,302,257947,1,0,0:0:0:0:
181,300,258035,6,0,L|275:291,1,67.5000025749208,8|0,0:1|0:0,0:0:0:0:
294,205,258211,2,0,L|200:196,1,67.5000025749208,2|0,0:2|0:0,0:0:0:0:
31,310,258388,1,8,0:1:0:0:
42,290,258476,1,0,0:0:0:0:
49,267,258564,1,2,0:2:0:0:
50,244,258652,1,0,0:0:0:0:
45,219,258741,6,0,P|32:186|37:132,1,67.5000025749208,8|0,0:1|0:0,0:0:0:0:
7,37,258917,2,0,P|42:42|86:73,1,67.5000025749208,8|0,0:1|0:0,0:0:0:0:
183,95,259094,2,0,P|160:122|111:145,1,67.5000025749208,8|0,0:1|0:0,0:0:0:0:
35,221,259270,6,0,P|24:186|33:129,1,67.5000025749208,8|0,0:1|0:0,0:0:0:0:
9,27,259446,2,0,P|45:35|89:72,1,67.5000025749208,8|0,0:1|0:0,0:0:0:0:
189,101,259623,2,0,P|164:129|111:149,1,67.5000025749208,8|0,0:1|0:0,0:0:0:0:
318,216,259799,2,0,P|306:180|315:124,1,67.5000025749208,8|0,0:1|0:0,0:0:0:0:
154,269,259976,2,0,P|190:277|234:313,1,67.5000025749208,8|0,0:1|0:0,0:0:0:0:
300,378,260152,5,8,0:1:0:0:
340,387,260240,1,8,0:1:0:0:
381,376,260328,1,8,0:1:0:0:
411,348,260416,1,8,0:1:0:0:
426,309,260504,1,8,0:1:0:0:
420,267,260593,1,8,0:1:0:0:
396,233,260681,1,8,0:1:0:0:
358,215,260769,1,8,0:1:0:0:
317,215,260857,1,8,0:1:0:0:
276,224,260946,1,8,0:1:0:0:
235,213,261034,1,8,0:1:0:0:
205,185,261122,1,8,0:1:0:0:
190,146,261210,1,8,0:1:0:0:
196,104,261299,1,8,0:1:0:0:
220,70,261387,1,8,0:1:0:0:
258,52,261475,1,8,0:1:0:0:
299,52,261564,6,0,P|282:143|260:283,1,229.500004377365,4|0,0:2|0:0,0:0:0:0:
250,356,261917,1,12,0:1:0:0:
124,216,262094,6,0,P|163:258|177:286,1,58.4999973220826,2|0,0:2|0:0,0:0:0:0:
407,260,262270,2,0,P|380:273|358:291,1,58.4999973220826,4|0,0:1|0:0,0:0:0:0:
271,138,262447,2,0,P|265:174|261:206,1,58.4999973220826,2|0,0:2|0:0,0:0:0:0:
259,362,262623,6,0,P|265:326|269:294,1,58.4999973220826,12|0,0:1|0:0,0:0:0:0:
180,94,262799,2,0,P|183:130|187:162,1,58.4999973220826,2|0,0:2|0:0,0:0:0:0:
80,378,262976,6,0,P|-6:335|19:221,1,202.500007724762,4|0,0:1|0:0,0:0:0:0:
54,185,263329,1,12,0:1:0:0:
130,302,263505,6,0,B|164:305|164:305|166:308|166:308|212:313,1,58.4999973220826,2|0,0:2|0:0,0:0:0:0:
327,191,263682,2,0,B|293:194|293:194|291:197|291:197|245:202,1,58.4999973220826,4|0,0:1|0:0,0:0:0:0:
125,311,263858,2,0,B|159:314|159:314|161:317|161:317|207:322,1,58.4999973220826,2|0,0:2|0:0,0:0:0:0:
388,241,264035,6,0,P|408:200|403:174,1,58.4999973220826,12|0,0:1|0:0,0:0:0:0:
211,145,264211,2,0,P|194:121|191:92,1,58.4999973220826,2|0,0:2|0:0,0:0:0:0:
308,325,264388,6,0,B|393:335|393:335|423:368|423:368|506:378,1,202.500007724762,4|0,0:1|0:0,0:0:0:0:
512,263,264741,2,0,B|446:257|446:257|442:259|442:259|361:251,1,135.000005149842,12|2,0:1|0:2,0:0:0:0:
441,25,265094,6,0,P|446:15|445:34,1,58.4999973220826,4|0,0:1|0:0,0:0:0:0:
378,81,265270,2,0,L|302:89,1,58.4999973220826,2|0,0:2|0:0,0:0:0:0:
79,13,265447,2,0,P|103:48|98:87,1,58.4999973220826,12|0,0:1|0:0,0:0:0:0:
26,141,265623,2,0,P|1:105|6:66,1,58.4999973220826,2|0,0:2|0:0,0:0:0:0:
165,206,265799,6,0,L|370:227,1,202.500007724762,4|0,0:1|0:0,0:0:0:0:
311,121,266152,2,0,L|243:114,1,67.5000025749208,12|0,0:1|0:0,0:0:0:0:
109,370,266329,6,0,P|70:333|85:256,1,135.000005149842,2|4,0:2|0:1,0:0:0:0:
205,384,266682,1,2,0:2:0:0:
461,287,266858,2,0,P|480:236|434:173,1,135.000005149842,12|4,0:1|0:1,0:0:0:0:
203,0,267211,6,0,P|228:99|262:248,1,229.500004377365,4|0,0:1|0:0,0:0:0:0:
301,289,267564,2,0,B|274:311|274:311|242:302,1,67.5000025749208,12|0,0:1|0:0,0:0:0:0:
227,129,267741,2,0,P|236:161|244:204,1,67.5000025749208,2|0,0:2|0:0,0:0:0:0:
73,294,267917,6,0,B|48:269|2:271|2:271|163:253,1,229.500004377365,4|0,0:1|0:0,0:0:0:0:
230,308,268270,2,0,P|221:340|213:383,1,67.5000025749208,12|0,0:1|0:0,0:0:0:0:
486,235,268447,2,0,B|495:203|495:203|472:176,1,67.5000025749208,2|0,0:2|0:0,0:0:0:0:
373,100,268623,2,0,B|350:126|350:126|359:158,1,67.5000025749208,4|0,0:1|0:0,0:0:0:0:
381,346,268799,5,2,0:2:0:0:
388,357,268888,1,0,0:0:0:0:
440,298,268976,2,0,P|375:270|307:365,1,202.500007724762,12|0,0:1|0:0,0:0:0:0:
223,316,269329,2,0,B|160:310|160:310|157:304|157:304|80:298,1,135.000005149842,4|2,0:1|0:2,0:0:0:0:
7,292,269594,1,0,0:0:0:0:
0,302,269682,1,12,0:1:0:0:
120,384,269858,1,2,0:2:0:0:
202,230,270035,6,0,P|212:170|241:48,1,175.499991966248,4|0,0:1|0:0,0:0:0:0:
301,10,270388,1,12,0:1:0:0:
120,123,270564,1,2,0:2:0:0:
308,223,270741,5,4,0:1:0:0:
120,123,270917,2,0,P|112:79|91:-8,1,107.999996704102,2|12,0:2|0:1,0:0:0:0:
97,17,271182,1,0,0:0:0:0:
97,17,271270,1,2,0:2:0:0:
16,95,271447,5,4,0:1:0:0:
205,51,271623,1,2,0:2:0:0:
205,51,271711,1,0,0:0:0:0:
205,51,271799,1,12,0:1:0:0:
16,95,271976,1,2,0:2:0:0:
149,237,272152,5,4,0:1:0:0:
97,17,272329,2,0,P|108:57|112:81,1,49.5000015106202,4|0,0:1|0:0,0:0:0:0:
149,237,272505,1,12,0:1:0:0:
149,237,272594,1,0,0:0:0:0:
149,237,272682,1,4,0:1:0:0:
230,162,272858,6,0,B|256:129|298:128|298:128|200:89|157:183|158:185|160:187|109:280|-1:201,1,405.000015449525,4|0,0:2|0:0,0:0:0:0:
155,333,273211,1,12,0:1:0:0:
181,319,273299,1,0,0:0:0:0:
211,315,273387,1,2,0:2:0:0:
240,319,273475,1,0,0:0:0:0:
268,331,273563,1,4,0:1:0:0:
290,351,273652,1,0,0:0:0:0:
306,376,273741,2,0,L|319:274,1,90,2|0,0:2|0:0,0:0:0:0:
293,209,273917,2,0,P|344:210|385:240,1,90,12|0,0:1|0:0,0:0:0:0:
487,270,274094,2,0,B|499:309|476:336|476:336|471:300|442:281,1,135.000005149842,2|0,0:2|0:0,0:0:0:0:
383,136,274270,6,0,B|426:117|434:52|434:52|419:191|419:191|414:199|414:199|396:357,1,405.000015449525,4|0,0:1|0:0,0:0:0:0:
230,162,274623,1,12,0:1:0:0:
226,132,274711,1,0,0:0:0:0:
223,103,274799,1,2,0:2:0:0:
220,74,274887,1,0,0:0:0:0:
217,45,274976,2,0,P|266:35|319:53,1,90,4|0,0:1|0:0,0:0:0:0:
93,95,275152,2,0,P|108:47|150:10,1,90,2|0,0:2|0:0,0:0:0:0:
55,176,275329,2,0,B|15:149|15:149|150:121|150:121|154:173,1,225,12|2,0:1|0:2,0:0:0:0:
82,320,275594,1,0,0:0:0:0:
64,326,275682,6,0,B|19:312|3:270|3:270|-18:366|94:362|94:362|163:294|249:332,1,405.000015449525,4|0,0:1|0:0,0:0:0:0:
404,228,276035,1,12,0:1:0:0:
386,252,276123,1,0,0:0:0:0:
361,269,276212,1,2,0:2:0:0:
332,276,276300,1,0,0:0:0:0:
302,274,276388,1,4,0:1:0:0:
275,262,276476,1,0,0:0:0:0:
253,243,276564,2,0,B|238:228|232:203|232:203|218:227|188:237,1,90,2|0,0:2|0:0,0:0:0:0:
329,368,276741,2,0,P|335:281|404:228,1,180,12|2,0:1|0:2,0:0:0:0:
503,210,277005,1,0,0:0:0:0:
512,197,277094,6,0,B|502:170|453:161|453:161|483:186|487:226,1,135.000005149842,4|0,0:1|0:0,0:0:0:0:
457,339,277270,2,0,P|416:308|431:359,1,135.000005149842,2|0,0:2|0:0,0:0:0:0:
374,152,277447,1,12,0:1:0:0:
359,125,277535,1,0,0:0:0:0:
336,107,277623,1,2,0:2:0:0:
307,100,277711,1,0,0:0:0:0:
278,103,277799,2,0,P|315:128|361:125,1,90,4|0,0:1|0:0,0:0:0:0:
451,4,277976,2,0,B|440:37|440:37|441:43|441:43|422:101,1,90,2|0,0:2|0:0,0:0:0:0:
131,11,278152,2,0,B|123:37|123:37|174:34|203:71|203:71|224:33|264:25|264:25|249:-10,1,225,12|4,0:1|0:1,0:0:0:0:
43,141,278417,1,0,0:0:0:0:
27,154,278505,6,0,B|-1:109|-1:109|131:121|131:121|135:118|135:118|132:121|132:121|191:167|201:256|138:313,1,405.000015449525,4|0,0:1|0:0,0:0:0:0:
99,384,278858,2,0,B|63:329|63:329|223:345|223:345|183:396,1,270,12|0,0:1|0:0,0:0:0:0:
11,232,279211,1,4,0:1:0:0:
31,230,279299,1,0,0:0:0:0:
52,228,279388,2,0,L|156:220,1,90,2|0,0:2|0:0,0:0:0:0:
304,256,279564,2,0,L|188:265,1,90,12|0,0:1|0:0,0:0:0:0:
324,111,279741,2,0,B|337:67|379:60|379:60|367:91|377:132,1,135.000005149842,2|0,0:2|0:0,0:0:0:0:
490,212,279917,6,0,B|509:157|509:157|395:97|301:172|301:172|284:241|215:250,1,405.000015449525,4|0,0:1|0:0,0:0:0:0:
66,142,280270,1,12,0:1:0:0:
80,118,280358,1,0,0:0:0:0:
102,101,280446,1,2,0:2:0:0:
129,93,280535,1,0,0:0:0:0:
153,94,280623,2,0,P|193:117|213:155,1,90,4|0,0:1|0:0,0:0:0:0:
274,334,280799,2,0,B|297:338|313:357|313:357|320:336|353:313,1,90,2|0,0:2|0:0,0:0:0:0:
485,335,280976,2,0,B|523:373|571:322|515:265|444:319|444:319|387:360|324:302,1,270,12|0,0:1|0:0,0:0:0:0:
350,61,281329,6,0,B|349:24|349:24|437:-14|437:-14|420:111|420:111|415:114|415:114|396:258,1,405.000015449525,4|0,0:1|0:0,0:0:0:0:
325,196,281682,2,0,B|323:155|323:155|414:124|414:124|491:178|491:178|480:219,1,270,12|0,0:1|0:0,0:0:0:0:
248,236,282035,1,4,0:1:0:0:
245,206,282123,1,0,0:0:0:0:
242,176,282212,2,0,L|232:71,1,90,2|0,0:2|0:0,0:0:0:0:
95,18,282388,2,0,B|102:98|102:98|106:104|106:104|118:217,1,180,12|2,0:1|0:2,0:0:0:0:
127,283,282741,6,0,P|148:303|124:283,1,135.000005149842,4|0,0:1|0:0,0:0:0:0:
154,76,282917,2,0,B|123:87|106:122|106:122|81:92|49:85,1,135.000005149842,2|0,0:2|0:0,0:0:0:0:
224,335,283094,1,12,0:1:0:0:
257,340,283182,1,0,0:0:0:0:
291,345,283270,1,2,0:2:0:0:
324,350,283358,1,0,0:0:0:0:
399,367,283447,5,4,0:1:0:0:
424,346,283535,1,0,0:0:0:0:
491,306,283623,5,4,0:1:0:0:
494,274,283711,1,0,0:0:0:0:
512,199,283799,5,12,0:1:0:0:
490,174,283887,1,0,0:0:0:0:
451,107,283975,5,4,0:1:0:0:
418,104,284063,1,0,0:0:0:0:
341,85,284152,6,0,P|298:124|282:208,1,135,4|0,0:2|0:0,0:0:0:0:
211,253,284505,2,0,P|193:212|158:184,1,90,12|2,0:1|0:2,0:0:0:0:
16,153,284858,1,4,0:1:0:0:
31,264,285035,2,0,L|132:259,1,90,2|12,0:2|0:1,0:0:0:0:
185,103,285388,2,0,P|154:100|125:107,1,45,2|0,0:2|0:0,0:0:0:0:
58,82,285564,2,0,L|204:91,1,135,4|0,0:1|0:0,0:0:0:0:
271,6,285917,2,0,P|287:38|339:72,1,90,12|2,0:1|0:2,0:0:0:0:
501,108,286270,1,4,0:1:0:0:
418,143,286447,2,0,P|453:145|509:117,1,90,2|12,0:2|0:1,0:0:0:0:
310,183,286799,2,0,L|320:243,1,45,2|0,0:2|0:0,0:0:0:0:
321,310,286976,6,0,P|340:257|312:177,1,135,4|0,0:1|0:0,0:0:0:0:
214,207,287329,2,0,P|206:253|220:300,1,90,12|2,0:1|0:2,0:0:0:0:
77,358,287682,1,4,0:1:0:0:
166,384,287858,2,0,L|269:380,1,90,2|12,0:2|0:1,0:0:0:0:
332,323,288211,2,0,L|391:325,1,45,2|0,0:2|0:0,0:0:0:0:
436,384,288388,6,0,B|412:359|412:359|431:258,1,135,4|0,0:1|0:0,0:0:0:0:
491,150,288741,2,0,L|513:257,1,90,12|2,0:1|0:2,0:0:0:0:
378,178,289094,1,4,0:1:0:0:
430,97,289270,2,0,P|466:72|513:72,1,90,2|12,0:2|0:1,0:0:0:0:
405,19,289623,2,0,L|354:25,1,45,2|0,0:2|0:0,0:0:0:0:
306,84,289799,6,0,B|268:69|236:87|236:92|237:97|205:114|160:92,1,135,4|0,0:1|0:0,0:0:0:0:
107,48,290152,2,0,P|145:20|202:18,1,90,12|2,0:1|0:2,0:0:0:0:
96,134,290505,1,4,0:1:0:0:
166,190,290682,2,0,P|128:218|71:220,1,90,2|12,0:2|0:1,0:0:0:0:
7,126,291035,2,0,L|17:188,1,45,2|0,0:2|0:0,0:0:0:0:
34,300,291211,6,0,P|92:311|148:376,1,135,4|0,0:1|0:0,0:0:0:0:
312,367,291564,2,0,B|268:363|268:363|264:360|264:360|209:356,1,90,12|2,0:1|0:2,0:0:0:0:
296,239,291917,1,4,0:1:0:0:
375,296,292094,2,0,B|418:292|418:292|423:289|423:289|478:285,1,90,2|12,0:2|0:1,0:0:0:0:
512,384,292447,2,0,L|461:381,1,45,2|0,0:2|0:0,0:0:0:0:
472,293,292623,6,0,L|484:147,1,135,4|0,0:1|0:0,0:0:0:0:
383,83,292976,2,0,L|391:176,1,90,12|2,0:1|0:2,0:0:0:0:
456,39,293329,1,4,0:1:0:0:
378,0,293505,2,0,P|334:14|302:51,1,90,2|12,0:2|0:1,0:0:0:0:
281,140,293858,2,0,P|270:120|247:101,1,45,2|0,0:2|0:0,0:0:0:0:
179,88,294035,5,4,0:2:0:0:
121,137,294388,5,0,0:0:0:0:
124,213,294741,1,0,0:0:0:0:
124,213,294917,1,0,0:0:0:0:
186,257,295270,5,0,0:0:0:0:
260,244,295447,6,0,P|305:288|304:325,1,101.250003862381,4|0,0:2|0:0,0:0:0:0:
234,346,295799,2,0,B|301:357|301:357|305:362|305:362|375:372,1,135.000005149842,12|4,0:1|0:1,0:0:0:0:
365,370,296329,1,0,0:0:0:0:
451,311,296505,2,0,L|462:235,1,67.5000025749208,12|0,0:1|0:0,0:0:0:0:
469,134,296858,6,0,L|451:254,1,101.250003862381,4|0,0:1|0:0,0:0:0:0:
379,257,297211,2,0,B|312:246|312:246|308:241|308:241|238:231,1,135.000005149842,12|4,0:1|0:1,0:0:0:0:
247,232,297741,1,0,0:0:0:0:
223,101,297917,2,0,P|244:121|253:160,1,67.5000025749208,12|0,0:1|0:0,0:0:0:0:
194,290,298270,6,0,L|81:311,1,101.250003862381,4|0,0:1|0:0,0:0:0:0:
28,266,298623,2,0,L|1:121,1,135.000005149842,12|4,0:1|0:1,0:0:0:0:
3,133,299152,1,0,0:0:0:0:
118,119,299329,2,0,L|130:52,1,67.5000025749208,12|0,0:1|0:0,0:0:0:0:
334,19,299682,6,0,P|367:55|355:112,1,101.250003862381,4|0,0:1|0:0,0:0:0:0:
291,141,300035,2,0,P|247:96|259:24,1,135.000005149842,12|4,0:1|0:1,0:0:0:0:
256,29,300564,1,0,0:0:0:0:
367,112,300741,2,0,L|441:123,1,67.5000025749208,12|0,0:1|0:0,0:0:0:0:
291,227,301094,6,0,B|232:233|232:233|218:254|218:254|160:262,2,135.000005149842,4|12|4,0:1|0:1|0:1,0:0:0:0:
291,227,301976,1,0,0:0:0:0:
362,190,302152,2,0,P|373:232|366:259,1,67.5000025749208,12|0,0:1|0:0,0:0:0:0:
300,370,302505,6,0,L|282:224,2,135.000005149842,4|12|4,0:1|0:1|0:1,0:0:0:0:
300,370,303388,1,0,0:0:0:0:
220,372,303564,2,0,L|209:289,1,67.5000025749208,12|0,0:1|0:0,0:0:0:0:
139,138,303917,6,0,P|198:157|201:224,2,135.000005149842,4|12|4,0:1|0:1|0:1,0:0:0:0:
139,138,304799,1,0,0:0:0:0:
95,204,304976,2,0,B|15:198,1,67.5000025749208,12|0,0:1|0:0,0:0:0:0:
0,49,305329,6,0,B|134:38,2,135.000005149842,4|12|4,0:1|0:1|0:1,0:0:0:0:
0,49,306211,1,0,0:0:0:0:
7,128,306388,2,0,B|12:195,1,67.5000025749208,12|0,0:1|0:0,0:0:0:0:
205,86,306741,5,4,0:2:0:0:
