osu file format v14

[General]
AudioFilename: audio.mp3
AudioLeadIn: 0
PreviewTime: 45720
Countdown: 0
SampleSet: Soft
StackLeniency: 0.2
Mode: 0
LetterboxInBreaks: 0
EpilepsyWarning: 1
WidescreenStoryboard: 1

[Editor]
Bookmarks: 2328,11470,20613,29756,46335,48042,66327,84613,102899,121185,139470,157756,166899,185185,203470,221756
DistanceSpacing: 0.8
BeatDivisor: 4
GridSize: 4
TimelineZoom: 1.3

[Metadata]
Title:My Love (Shadren Remix)
TitleUnicode:My Love (Shadren Remix)
Artist:Kuba Oms
ArtistUnicode:Kuba Oms
Creator:Shmiklak
Version:wajiklak's Hard
Source:
Tags:pop english retro synthpop retrowave a labour of love labor marvollo m_a_r_v_o_l_l_o wajinshu daycore storyboard collab collaboration kubaoms shadren
BeatmapID:2856193
BeatmapSetID:1382412

[Difficulty]
HPDrainRate:4.5
CircleSize:4.2
OverallDifficulty:6
ApproachRate:7
SliderMultiplier:1.6
SliderTickRate:1

[Events]
//Background and Video events
0,0,"schoolboy.jpg",0,0
//Break Periods
2,139677,166007
//Storyboard Layer 0 (Background)
//Storyboard Layer 1 (Fail)
//Storyboard Layer 2 (Pass)
//Storyboard Layer 3 (Foreground)
//Storyboard Layer 4 (Overlay)
//Storyboard Sound Samples

[TimingPoints]
2336,571.428571428571,4,2,1,60,1,0
29764,-83.3333333333333,4,2,1,65,0,0
45764,-83.3333333333333,4,2,1,55,0,0
45907,-83.3333333333333,4,2,1,54,0,0
46050,-83.3333333333333,4,2,1,53,0,0
46335,-83.3333333333333,4,2,1,52,0,0
46478,-83.3333333333333,4,2,1,51,0,0
46621,-83.3333333333333,4,2,1,50,0,0
46907,-83.3333333333333,4,2,1,49,0,0
47050,-83.3333333333333,4,2,1,48,0,0
47193,-83.3333333333333,4,2,1,47,0,0
47478,-83.3333333333333,4,2,1,46,0,0
47764,-83.3333333333333,4,2,1,45,0,0
48050,-71.4285714285714,4,2,1,75,0,1
66335,-100,4,2,1,60,0,0
74907,-100,4,2,1,50,0,0
75050,-100,4,2,1,55,0,0
75193,-100,4,2,1,60,0,0
75335,-100,4,2,1,65,0,0
75478,-100,4,2,1,70,0,0
76050,-100,4,2,1,60,0,0
102907,-83.3333333333333,4,2,1,65,0,0
121193,-71.4285714285714,4,2,1,75,0,1
138335,-142.857142857143,4,2,1,75,0,1
139478,-142.857142857143,4,2,1,75,0,0
166335,-142.857142857143,4,2,1,40,0,0
166907,-100,4,2,1,50,0,0
169193,-100,4,2,1,51,0,0
171478,-100,4,2,1,52,0,0
173764,-100,4,2,1,53,0,0
176050,-100,4,2,1,54,0,0
177193,-100,4,2,1,55,0,0
178335,-100,4,2,1,56,0,0
179478,-100,4,2,1,58,0,0
180621,-100,4,2,1,65,0,0
181193,-100,4,2,1,60,0,0
181764,-100,4,2,1,55,0,0
182335,-100,4,2,1,50,0,0
182907,-100,4,2,1,70,0,0
183193,-100,4,2,1,60,0,0
183478,-100,4,2,1,65,0,0
183764,-100,4,2,1,55,0,0
184050,-100,4,2,1,60,0,0
184335,-100,4,2,1,50,0,0
184621,-100,4,2,1,55,0,0
184907,-100,4,2,1,45,0,0
185193,-71.4285714285714,4,2,1,75,0,1
203478,-83.3333333333333,4,2,1,70,0,0
219478,-83.3333333333333,4,2,1,60,0,0

[Colours]
Combo1 : 234,77,202
Combo2 : 116,222,211
Combo3 : 218,58,51
Combo4 : 236,144,74
Combo5 : 236,144,219
Combo6 : 173,173,173
Combo7 : 136,134,134
Combo8 : 105,200,80

[HitObjects]
93,235,11478,117,4,3:2:0:0:
123,143,11764,2,0,L|113:76,1,40,2|0,0:0|0:0,0:0:0:0:
110,88,12050,1,10,0:0:0:0:
219,23,12335,1,2,0:0:0:0:
212,37,12478,2,0,P|203:86|200:136,1,80,2|0,0:0|0:0,0:0:0:0:
222,185,12907,2,0,L|262:175,1,40,2|0,0:0|0:0,0:0:0:0:
274,166,13193,2,0,L|372:175,1,80,10|0,0:0|0:0,0:0:0:0:
363,186,13621,1,2,0:0:0:0:
371,199,13764,1,0,3:0:0:0:
446,139,14050,6,0,P|436:109|435:80,1,40,2|0,0:0|0:0,0:0:0:0:
442,86,14335,1,10,0:0:0:0:
385,8,14621,1,2,0:0:0:0:
374,20,14764,2,0,P|336:33|296:38,1,80,2|0,0:0|0:0,0:0:0:0:
223,28,15193,1,2,0:0:0:0:
267,137,15478,1,8,0:0:0:0:
208,223,15764,1,2,0:0:0:0:
208,223,15907,1,0,0:0:0:0:
208,223,16050,2,0,B|293:199|260:254|340:287|347:213|287:187|266:213|274:240,1,160,2|8,3:2|0:0,0:0:0:0:
278,217,17193,102,0,P|259:270|260:311,1,80,2|2,3:2|0:0,0:0:0:0:
315,380,17764,1,10,0:0:0:0:
395,314,18050,1,2,0:0:0:0:
403,300,18193,1,0,0:0:0:0:
409,285,18335,2,0,P|388:226|375:108,1,160,0|8,3:2|0:0,0:0:0:0:
374,129,19478,5,8,3:3:0:0:
374,129,19621,1,8,0:3:0:0:
313,61,19907,101,8,0:3:0:0:
313,61,20050,1,8,0:0:0:0:
230,34,20335,5,8,0:3:0:0:
230,34,20478,1,8,0:3:0:0:
230,34,20621,1,0,3:0:0:0:
140,86,20907,102,0,P|143:132|152:174,1,80,2|10,0:0|0:0,0:0:0:0:
218,242,21478,1,2,0:0:0:0:
299,177,21764,1,2,3:2:0:0:
224,249,22050,1,2,0:0:0:0:
353,299,22335,2,0,L|434:279,1,80,10|0,0:0|0:0,0:0:0:0:
444,288,22764,1,0,0:0:0:0:
456,298,22907,1,0,3:0:0:0:
485,204,23193,6,0,L|470:152,1,40,2|0,0:0|0:0,0:0:0:0:
465,152,23478,2,0,L|360:144,1,80,10|2,0:0|0:0,0:0:0:0:
370,158,23907,1,2,0:0:0:0:
357,168,24050,2,0,L|252:176,1,80,0|2,3:2|0:0,0:0:0:0:
180,132,24621,2,0,L|199:222,1,80,10|0,0:0|0:0,0:0:0:0:
196,226,25050,1,0,0:0:0:0:
194,241,25193,1,0,3:0:0:0:
124,317,25478,102,0,L|79:313,1,40,2|2,0:0|0:0,0:0:0:0:
68,308,25764,1,10,0:0:0:0:
0,229,26050,1,2,0:0:0:0:
19,127,26335,2,0,P|72:136|102:154,1,80,2|0,3:2|0:0,0:0:0:0:
162,227,26907,1,10,0:0:0:0:
214,137,27193,5,2,0:0:0:0:
214,137,27335,1,2,0:0:0:0:
214,137,27478,2,0,L|200:56,1,80
200,58,28335,2,0,L|230:223,1,160,0|2,0:0|0:0,0:0:0:0:
287,302,29193,2,0,P|295:265|312:212,1,80,2|0,0:0|0:0,0:0:0:0:
392,59,29764,102,0,L|446:49,3,47.9999985351563,4|0|0|0,3:2|0:0|0:0|0:0,0:0:0:0:
456,40,30335,2,0,P|434:106|431:147,1,95.9999970703126,8|0,0:0|0:0,0:0:0:0:
437,150,30764,1,0,0:0:0:0:
443,168,30907,2,0,L|451:282,1,95.9999970703126,2|0,3:2|0:0,0:0:0:0:
355,351,31478,2,0,L|363:237,1,95.9999970703126,10|0,0:0|0:0,0:0:0:0:
349,240,31907,1,0,0:0:0:0:
334,227,32050,2,0,P|287:209|236:204,1,95.9999970703126,0|0,3:0|0:0,0:0:0:0:
131,263,32621,6,0,L|140:162,1,95.9999970703126,10|0,0:0|0:0,0:0:0:0:
133,149,33050,1,0,0:0:0:0:
123,132,33193,2,0,L|114:31,2,95.9999970703126,0|2|10,3:2|0:0|0:0,0:0:0:0:
208,223,34050,1,2,0:0:0:0:
299,138,34335,2,0,B|402:116|371:208|481:189,1,191.999994140625,2|8,3:2|0:0,0:0:0:0:
336,314,35193,101,2,0:0:0:0:
336,314,35335,1,0,0:0:0:0:
336,314,35478,2,0,P|318:263|322:212,1,95.9999970703126,2|2,3:2|0:0,0:0:0:0:
329,204,35907,1,0,0:0:0:0:
339,188,36050,2,0,P|357:137|353:86,1,95.9999970703126,10|0,0:0|0:0,0:0:0:0:
254,22,36621,1,0,3:0:0:0:
165,148,36907,6,0,L|268:131,2,95.9999970703126,2|10|2,0:0|0:0|0:0,0:0:0:0:
93,250,37764,1,2,3:2:0:0:
182,351,38050,1,2,0:0:0:0:
182,351,38193,1,0,0:0:0:0:
182,351,38335,2,0,B|244:354|244:354|254:350|254:350|336:354,1,143.999995605469,10|0,0:0|0:0,0:0:0:0:
389,309,38907,102,0,L|376:257,3,47.9999985351563,2|0|0|0,3:2|0:0|0:0|0:0,0:0:0:0:
360,252,39478,2,0,L|369:146,1,95.9999970703126,8|0,0:0|0:0,0:0:0:0:
356,140,39907,1,0,0:0:0:0:
339,129,40050,2,0,P|301:143|235:140,1,95.9999970703126,2|0,3:2|0:0,0:0:0:0:
144,68,40621,2,0,P|98:52|51:54,1,95.9999970703126,10|0,0:2|0:0,0:0:0:0:
33,62,41050,1,0,0:0:0:0:
18,74,41193,1,0,3:0:0:0:
2,202,41478,6,0,L|65:195,1,47.9999985351563
64,183,41764,2,0,L|171:189,1,95.9999970703126,10|0,0:2|0:0,0:0:0:0:
170,204,42193,1,0,0:0:0:0:
180,219,42335,2,0,P|234:203|309:195,1,95.9999970703126,2|0,3:2|0:0,0:0:0:0:
350,295,42907,2,0,P|296:279|221:271,1,95.9999970703126,10|0,0:0|0:0,0:0:0:0:
325,377,43478,102,0,B|428:399|397:307|507:326,1,191.999994140625,2|8,3:2|0:0,0:0:0:0:
436,217,44335,1,2,0:0:0:0:
498,109,44621,2,0,P|430:121|389:110,1,95.9999970703126,2|0,3:2|0:0,0:0:0:0:
386,109,45050,1,0,0:0:0:0:
369,99,45193,2,0,P|301:87|254:96,1,95.9999970703126,8|2,0:0|0:0,0:0:0:0:
75,144,45764,21,8,0:3:0:0:
71,115,45907,1,8,0:3:0:0:
67,86,46050,1,8,0:3:0:0:
154,174,46335,5,8,0:3:0:0:
149,150,46478,1,8,0:3:0:0:
145,126,46621,1,8,0:3:0:0:
234,203,46907,101,8,0:3:0:0:
231,184,47050,1,8,0:3:0:0:
228,164,47193,1,8,0:3:0:0:
311,235,47478,5,8,0:3:0:0:
311,235,47764,1,8,0:3:0:0:
311,235,48050,2,0,P|345:216|427:221,2,111.999996582031,6|0|8,3:2|0:0|0:0,0:0:0:0:
258,334,48907,2,0,L|190:320,1,55.9999982910157,2|0,0:0|0:0,0:0:0:0:
190,311,49193,2,0,L|79:329,1,111.999996582031,2|2,3:2|0:0,0:0:0:0:
7,212,49764,2,0,P|62:225|118:230,1,111.999996582031,10|2,0:0|0:0,0:0:0:0:
133,225,50193,1,0,0:0:0:0:
149,220,50335,102,0,P|204:206|260:202,1,111.999996582031,2|0,3:2|0:0,0:0:0:0:
417,272,50907,1,8,0:0:0:0:
410,165,51193,2,0,L|397:88,1,55.9999982910157,2|0,0:0|0:0,0:0:0:0:
408,94,51478,2,0,P|371:112|289:102,1,111.999996582031,2|2,3:2|0:0,0:0:0:0:
169,35,52050,1,10,0:0:0:0:
156,150,52335,1,2,0:0:0:0:
156,150,52478,1,0,0:0:0:0:
156,150,52621,6,0,P|157:218|172:271,2,111.999996582031,2|0|8,3:2|0:0|0:0,0:0:0:0:
206,47,53478,2,0,L|279:68,1,55.9999982910157,2|0,0:0|0:0,0:0:0:0:
272,73,53764,2,0,L|391:61,1,111.999996582031,2|2,3:2|0:0,0:0:0:0:
477,155,54335,2,0,L|365:143,1,111.999996582031,10|2,0:0|0:0,0:0:0:0:
353,155,54764,1,0,0:0:0:0:
342,168,54907,102,0,P|318:217|324:287,1,111.999996582031,2|0,3:2|0:0,0:0:0:0:
427,384,55478,1,10,0:0:0:0:
295,380,55764,2,0,L|162:364,1,111.999996582031,2|0,0:0|3:0,0:0:0:0:
37,284,56335,2,0,L|148:270,1,111.999996582031,2|8,0:0|0:0,0:0:0:0:
252,171,56907,1,2,0:0:0:0:
252,171,57050,1,0,0:0:0:0:
252,171,57193,6,0,B|298:192|298:192|381:159,2,111.999996582031,0|0|8,3:0|0:0|0:0,0:0:0:0:
158,109,58050,1,2,0:0:0:0:
253,50,58335,2,0,L|239:182,1,111.999996582031,2|2,3:2|0:0,0:0:0:0:
232,175,58764,1,0,0:0:0:0:
224,190,58907,2,0,L|238:322,1,111.999996582031,10|2,0:0|0:0,0:0:0:0:
302,384,59478,102,0,P|353:345|410:335,1,111.999996582031,2|0,3:2|0:0,0:0:0:0:
512,384,60050,1,8,0:0:0:0:
479,273,60335,1,2,0:0:0:0:
512,164,60621,2,0,L|491:47,1,111.999996582031,2|2,3:2|0:0,0:0:0:0:
480,41,61050,1,0,0:0:0:0:
465,31,61193,2,0,P|402:51|353:38,1,111.999996582031,10|2,0:0|0:0,0:0:0:0:
235,39,61764,6,0,P|180:38|124:82,1,111.999996582031,2|0,3:2|0:0,0:0:0:0:
123,81,62193,1,0,0:0:0:0:
115,95,62335,2,0,L|125:218,1,111.999996582031,8|2,0:0|0:0,0:0:0:0:
118,330,62907,2,0,P|177:316|234:312,1,111.999996582031,2|0,3:2|0:0,0:0:0:0:
241,321,63335,1,0,0:0:0:0:
253,331,63478,2,0,P|308:335|363:349,1,111.999996582031,8|2,0:0|0:0,0:0:0:0:
486,375,64050,101,8,0:3:0:0:
479,359,64193,1,8,0:3:0:0:
475,342,64335,2,0,P|481:311|495:274,1,55.9999982910157,8|0,0:3|0:0,0:0:0:0:
437,232,64621,5,8,0:3:0:0:
444,216,64764,1,8,0:3:0:0:
448,199,64907,2,0,P|442:168|428:131,1,55.9999982910157,8|0,0:3|0:0,0:0:0:0:
371,98,65193,101,8,0:3:0:0:
355,105,65336,1,8,0:3:0:0:
338,109,65478,2,0,P|307:103|270:89,1,55.9999982910157,8|0,0:3|0:0,0:0:0:0:
208,44,65764,5,8,0:3:0:0:
250,204,66050,1,8,0:3:0:0:
197,306,66335,69,4,3:2:0:0:
105,240,66621,2,0,L|42:254,1,40,2|0,0:0|0:0,0:0:0:0:
50,252,66907,1,10,0:0:0:0:
61,351,67192,1,0,0:0:0:0:
75,344,67335,2,0,P|113:350|152:361,1,80,2|0,0:0|0:0,0:0:0:0:
220,333,67764,2,0,L|210:293,1,40,2|2,0:0|0:0,0:0:0:0:
201,281,68050,2,0,L|210:183,1,80,8|2,0:0|0:0,0:0:0:0:
221,192,68478,1,2,0:0:0:0:
239,183,68621,1,0,3:0:0:0:
310,107,68907,54,0,L|369:118,1,40,2|2,0:0|0:0,0:0:0:0:
363,111,69192,1,8,0:0:0:0:
439,181,69478,1,2,0:0:0:0:
451,192,69621,2,0,P|464:230|469:270,1,80,2|0,0:0|0:0,0:0:0:0:
444,339,70050,1,2,0:0:0:0:
340,347,70335,1,10,0:0:0:0:
288,268,70621,1,2,0:0:0:0:
288,268,70764,1,0,0:0:0:0:
288,268,70907,2,0,P|332:250|370:253,2,80,2|2|8,3:2|0:0|0:0,0:0:0:0:
211,338,71764,1,2,0:0:0:0:
122,283,72050,2,0,L|115:199,1,80,2|0,3:2|0:0,0:0:0:0:
114,99,72621,1,10,0:0:0:0:
207,119,72907,1,2,0:0:0:0:
219,127,73050,1,0,0:0:0:0:
231,134,73193,54,0,B|314:128|290:188|406:162,1,160,0|8,3:0|0:0,0:0:0:0:
457,240,74050,1,0,0:0:0:0:
392,321,74335,2,0,P|388:277|378:235,1,80,0|0,3:0|0:0,0:0:0:0:
285,285,74907,1,8,0:3:0:0:
273,287,75050,1,8,0:3:0:0:
263,290,75193,2,0,P|231:301|206:311,1,40,8|8,0:3|0:3,0:0:0:0:
175,353,75478,21,8,0:1:0:0:
96,160,76050,1,8,0:0:0:0:
170,87,76335,1,2,0:0:0:0:
179,98,76478,2,0,P|195:62|223:20,1,80,2|2,0:0|0:0,0:0:0:0:
287,37,76907,2,0,P|319:42|341:42,1,40,2|0,0:0|0:0,0:0:0:0:
344,40,77193,1,10,0:0:0:0:
432,94,77478,1,0,0:0:0:0:
440,104,77621,1,2,0:0:0:0:
452,117,77764,2,0,P|439:165|430:212,1,80,0|2,3:0|0:0,0:0:0:0:
388,288,78335,1,10,0:0:0:0:
491,280,78621,1,2,0:0:0:0:
432,194,78907,2,0,P|368:200|335:204,1,80,2|2,3:2|0:0,0:0:0:0:
259,248,79478,1,8,0:0:0:0:
208,338,79764,5,0,0:0:0:0:
202,331,79907,1,0,0:0:0:0:
193,318,80050,2,0,P|257:324|290:328,1,80,0|2,3:0|0:0,0:0:0:0:
373,351,80621,1,10,0:0:0:0:
443,274,80907,1,2,0:0:0:0:
406,176,81193,2,0,L|417:84,1,80,2|2,3:2|0:0,0:0:0:0:
312,110,81764,1,10,0:0:0:0:
208,123,82050,101,2,0:0:0:0:
193,117,82193,1,0,0:0:0:0:
179,111,82335,2,0,P|229:128|241:245,1,160,0|8,3:0|0:0,0:0:0:0:
160,270,83193,1,2,0:0:0:0:
101,184,83478,2,0,L|186:191,1,80,0|0,3:0|0:0,0:0:0:0:
271,243,84050,1,0,3:0:0:0:
257,345,84335,1,0,0:0:0:0:
247,336,84478,1,0,0:0:0:0:
239,328,84621,1,4,3:2:0:0:
434,257,85193,86,0,P|419:306|418:349,1,80,8|2,0:0|0:0,0:0:0:0:
341,263,85764,2,0,L|353:173,1,80,2|2,3:2|0:0,0:0:0:0:
353,166,86193,1,0,0:0:0:0:
359,154,86335,1,8,0:0:0:0:
302,72,86621,1,0,0:0:0:0:
302,72,86764,1,0,0:0:0:0:
302,72,86907,1,0,3:2:0:0:
199,90,87193,70,0,L|146:97,1,40,2|2,0:0|0:0,0:0:0:0:
144,98,87478,2,0,L|55:82,1,80,10|2,0:0|0:0,0:0:0:0:
57,188,88050,2,0,L|149:182,1,80,2|2,3:2|0:0,0:0:0:0:
235,214,88621,2,0,P|226:266|214:311,1,80,10|0,0:0|0:0,0:0:0:0:
212,305,89050,1,0,0:0:0:0:
200,316,89193,1,0,3:0:0:0:
297,352,89478,37,2,0:0:0:0:
385,297,89764,2,0,P|437:286|493:282,1,80,10|2,0:0|0:0,0:0:0:0:
425,186,90335,2,0,P|435:120|467:6,1,160,2|10,3:2|0:0,0:0:0:0:
358,58,91193,1,2,0:0:0:0:
343,63,91335,1,0,0:0:0:0:
330,72,91478,2,0,P|276:80|227:82,1,80,0|2,3:0|0:0,0:0:0:0:
146,70,92050,69,8,0:0:0:0:
52,114,92335,1,0,0:0:0:0:
63,125,92478,1,0,0:0:0:0:
75,137,92621,2,0,L|60:226,1,80,0|0,3:0|0:0,0:0:0:0:
141,282,93193,1,8,0:3:0:0:
154,296,93335,1,8,0:3:0:0:
249,302,93621,1,8,0:3:0:0:
326,180,94050,38,0,P|321:148|316:122,1,40,2|2,0:0|0:0,0:0:0:0:
312,124,94335,2,0,L|393:137,1,80,10|2,0:0|0:0,0:0:0:0:
482,107,94907,1,0,3:0:0:0:
499,201,95193,1,2,0:0:0:0:
423,259,95478,2,0,P|440:306|451:349,1,80,10|0,0:0|0:0,0:0:0:0:
444,349,95907,1,0,0:0:0:0:
433,362,96050,1,0,3:0:0:0:
345,323,96335,70,0,P|308:328|289:332,1,40,2|0,0:0|0:0,0:0:0:0:
289,335,96621,1,10,0:0:0:0:
200,298,96907,1,2,0:0:0:0:
206,284,97050,2,0,P|219:220|230:175,1,80,2|0,0:0|0:0,0:0:0:0:
257,142,97478,2,0,P|249:106|244:90,1,40,2|0,0:0|0:0,0:0:0:0:
241,88,97764,1,10,0:0:0:0:
144,86,98050,1,0,0:0:0:0:
139,102,98193,1,0,0:0:0:0:
130,115,98335,1,0,3:0:0:0:
256,192,98478,12,10,101193,0:0:0:0:
283,233,101764,37,8,0:3:0:0:
283,233,101907,1,8,0:3:0:0:
192,183,102335,69,8,0:3:0:0:
192,183,102478,1,8,0:3:0:0:
121,282,102907,38,0,P|114:316|115:341,3,47.9999985351563,4|0|0|0,3:2|0:0|0:0|0:0,0:0:0:0:
105,346,103478,2,0,P|161:334|234:344,1,95.9999970703126,8|0,0:0|0:0,0:0:0:0:
218,339,103907,1,0,0:0:0:0:
235,345,104050,2,0,P|285:336|342:350,1,95.9999970703126,2|0,3:2|0:0,0:0:0:0:
415,254,104621,2,0,P|367:262|321:253,1,95.9999970703126,10|0,0:0|0:0,0:0:0:0:
302,246,105050,1,0,0:0:0:0:
288,231,105193,2,0,L|278:113,1,95.9999970703126,0|0,3:0|0:0,0:0:0:0:
372,51,105764,70,0,L|492:60,1,95.9999970703126,10|0,0:0|0:0,0:0:0:0:
483,69,106193,1,0,0:0:0:0:
489,87,106335,2,0,L|478:188,2,95.9999970703126,0|2|10,3:2|0:0|0:0,0:0:0:0:
375,138,107193,1,2,0:0:0:0:
282,221,107478,2,0,B|216:233|188:262|188:262|150:234|93:224,1,191.999994140625,2|8,3:2|0:0,0:0:0:0:
72,116,108336,37,2,0:0:0:0:
72,116,108478,1,0,0:0:0:0:
72,116,108621,2,0,P|126:108|174:102,1,95.9999970703126,2|2,3:2|0:0,0:0:0:0:
182,114,109050,1,0,0:0:0:0:
199,122,109193,2,0,P|251:130|326:100,1,95.9999970703126,10|0,0:0|0:0,0:0:0:0:
390,42,109764,1,0,3:0:0:0:
404,166,110050,70,0,L|507:149,2,95.9999970703126,2|10|2,0:0|0:0|0:0,0:0:0:0:
328,265,110907,1,2,3:2:0:0:
227,338,111193,1,2,0:0:0:0:
227,338,111336,1,0,0:0:0:0:
227,338,111478,2,0,P|201:288|210:233,1,95.9999970703126,10|0,0:0|0:0,0:0:0:0:
80,227,112050,38,0,L|93:175,3,47.9999985351563,2|0|0|0,3:2|0:0|0:0|0:0,0:0:0:0:
90,248,112621,2,0,L|104:354,1,95.9999970703126,8|0,0:0|0:0,0:0:0:0:
121,353,113050,1,0,0:0:0:0:
136,364,113193,2,0,P|198:339|250:340,1,95.9999970703126,2|0,3:2|0:0,0:0:0:0:
351,341,113764,2,0,L|363:244,1,95.9999970703126,10|0,0:2|0:0,0:0:0:0:
378,234,114193,1,0,0:0:0:0:
393,246,114336,1,0,3:0:0:0:
440,131,114621,70,0,P|397:122|369:117,1,47.9999985351563
374,125,114907,2,0,P|304:142|248:158,1,95.9999970703126,10|0,0:2|0:0,0:0:0:0:
262,144,115336,1,0,0:0:0:0:
243,135,115478,2,0,P|195:127|149:112,1,95.9999970703126,2|0,3:2|0:0,0:0:0:0:
42,47,116050,2,0,P|58:106|69:164,1,95.9999970703126,10|0,0:0|0:0,0:0:0:0:
39,262,116621,38,0,P|128:247|188:329,1,191.999994140625,2|8,3:2|0:0,0:0:0:0:
285,242,117478,1,2,0:0:0:0:
407,216,117764,2,0,P|398:273|388:314,1,95.9999970703126,2|0,3:2|0:0,0:0:0:0:
382,329,118193,1,0,0:0:0:0:
365,337,118335,2,0,P|314:349|263:373,1,95.9999970703126,8|2,0:0|0:0,0:0:0:0:
152,346,118907,69,8,0:3:0:0:
136,322,119050,1,8,0:3:0:0:
128,294,119193,1,8,0:3:0:0:
202,198,119478,37,8,0:3:0:0:
187,178,119621,1,8,0:3:0:0:
184,154,119764,1,8,0:3:0:0:
297,106,120050,69,8,0:3:0:0:
286,89,120193,1,8,0:3:0:0:
284,69,120336,1,8,0:3:0:0:
147,71,120621,37,8,0:3:0:0:
186,174,120907,1,8,0:3:0:0:
73,155,121193,22,0,P|61:92|43:40,2,111.999996582031,6|0|8,3:2|0:0|0:0,0:0:0:0:
77,267,122050,2,0,P|110:257|145:253,1,55.9999982910157,2|0,0:0|0:0,0:0:0:0:
147,259,122336,2,0,P|209:247|283:228,1,111.999996582031,2|2,3:2|0:0,0:0:0:0:
404,192,122907,2,0,P|390:246|380:301,1,111.999996582031,10|2,0:0|0:0,0:0:0:0:
383,318,123336,1,0,0:0:0:0:
386,332,123478,54,0,P|330:335|274:345,1,111.999996582031,2|0,3:2|0:0,0:0:0:0:
115,271,124050,1,8,0:0:0:0:
80,168,124335,2,0,P|70:134|69:98,1,55.9999982910157,2|0,0:0|0:0,0:0:0:0:
72,97,124621,2,0,L|188:113,1,111.999996582031,2|2,3:2|0:0,0:0:0:0:
298,20,125193,1,10,0:0:0:0:
353,112,125478,2,0,P|364:149|369:178,1,55.9999982910157,2|0,0:0|0:0,0:0:0:0:
370,182,125764,54,0,P|436:168|490:146,2,111.999996582031,2|0|8,3:2|0:0|0:0,0:0:0:0:
321,275,126621,2,0,P|372:284|401:293,1,55.9999982910157,2|0,0:0|0:0,0:0:0:0:
393,291,126907,2,0,P|381:222|363:162,1,111.999996582031,2|2,3:2|0:0,0:0:0:0:
256,113,127478,2,0,L|144:101,1,111.999996582031,10|2,0:0|0:0,0:0:0:0:
127,94,127907,1,0,0:0:0:0:
112,88,128050,54,0,P|88:137|94:207,1,111.999996582031,2|0,3:2|0:0,0:0:0:0:
131,334,128621,1,10,0:0:0:0:
260,257,128907,2,0,B|318:242|318:242|369:264,1,111.999996582031,2|0,0:0|3:0,0:0:0:0:
498,369,129478,2,0,B|477:322|477:322|492:264,1,111.999996582031,2|8,0:0|0:0,0:0:0:0:
456,152,130050,1,2,0:0:0:0:
456,152,130193,1,0,0:0:0:0:
456,152,130335,54,0,P|447:84|393:49,2,111.999996582031,0|0|8,3:0|0:0|0:0,0:0:0:0:
376,231,131193,1,2,0:0:0:0:
286,298,131478,2,0,L|165:314,1,111.999996582031,2|2,3:2|0:0,0:0:0:0:
161,304,131907,1,0,0:0:0:0:
148,293,132050,2,0,L|160:161,1,111.999996582031,10|2,0:0|0:0,0:0:0:0:
56,133,132621,54,0,P|100:95|126:19,1,111.999996582031,2|0,3:2|0:0,0:0:0:0:
263,0,133193,1,8,0:0:0:0:
313,84,133478,1,2,0:0:0:0:
366,182,133764,2,0,P|308:167|235:178,1,111.999996582031,2|2,3:2|0:0,0:0:0:0:
241,179,134193,1,0,0:0:0:0:
228,189,134335,2,0,P|246:243|235:307,1,111.999996582031,10|2,0:0|0:0,0:0:0:0:
344,336,134907,54,0,P|426:327|478:351,1,111.999996582031,2|0,3:2|0:0,0:0:0:0:
470,341,135336,1,0,0:0:0:0:
488,349,135478,2,0,P|480:278|474:220,1,111.999996582031,8|2,0:0|0:0,0:0:0:0:
473,125,136050,2,0,B|421:147|421:147|342:115,1,111.999996582031,2|0,3:2|0:0,0:0:0:0:
355,119,136478,1,0,0:0:0:0:
342,109,136621,2,0,L|217:126,1,111.999996582031,8|2,0:0|0:0,0:0:0:0:
212,120,137050,1,0,0:0:0:0:
195,113,137193,53,0,0:0:0:0:
101,174,137478,1,2,0:0:0:0:
110,192,137621,1,0,0:0:0:0:
120,211,137764,1,0,0:0:0:0:
212,274,138050,1,2,0:0:0:0:
221,292,138193,1,0,0:0:0:0:
230,307,138335,2,0,B|268:306|303:334|303:334|357:273|303:193,1,223.999993164063,0|2,0:0|0:0,0:0:0:0:
487,54,166907,102,0,L|480:148,1,80,6|0,3:2|0:0,0:0:0:0:
402,202,167478,2,0,L|396:122,1,80,0|0,3:0|0:0,0:0:0:0:
316,56,168050,2,0,L|309:150,1,80,0|0,3:0|0:0,0:0:0:0:
231,204,168621,2,0,L|225:124,1,80,0|0,3:0|0:0,0:0:0:0:
153,48,169193,6,0,P|100:44|61:57,1,80,0|0,3:0|0:0,0:0:0:0:
15,136,169764,2,0,P|68:132|107:145,1,80,0|0,3:0|0:0,0:0:0:0:
150,225,170335,2,0,P|97:221|58:234,1,80,0|0,3:0|0:0,0:0:0:0:
12,313,170907,2,0,P|65:309|104:322,1,80,0|0,3:0|0:0,0:0:0:0:
184,361,171478,102,0,B|221:377|221:377|262:353,1,80,0|0,3:0|0:0,0:0:0:0:
333,288,172050,2,0,B|349:251|349:251|325:210,1,80,0|0,3:0|0:0,0:0:0:0:
249,149,172621,2,0,B|212:133|212:133|171:157,1,80,0|0,3:0|0:0,0:0:0:0:
92,213,173193,2,0,B|55:229|55:229|14:205,1,80,0|0,3:0|0:0,0:0:0:0:
1,106,173764,6,0,P|43:72|78:74,1,80,0|0,3:0|0:0,0:0:0:0:
151,10,174335,2,0,P|185:51|183:86,1,80,0|0,3:0|0:0,0:0:0:0:
251,157,174907,2,0,P|209:191|174:189,1,80,0|0,3:0|0:0,0:0:0:0:
101,253,175478,2,0,P|67:211|69:176,1,80,0|0,3:0|0:0,0:0:0:0:
98,59,176050,101,0,3:0:0:0:
101,77,176335,1,0,3:0:0:0:
184,139,176621,2,0,L|277:120,1,80,0|0,3:0|3:0,0:0:0:0:
354,172,177193,1,2,3:2:0:0:
352,187,177478,1,0,3:0:0:0:
264,243,177764,2,0,P|252:283|245:336,1,80,2|0,3:2|3:0,0:0:0:0:
362,369,178335,5,0,3:0:0:0:
433,351,178621,1,2,3:2:0:0:
362,369,178907,1,2,3:2:0:0:
433,351,179193,1,0,3:0:0:0:
352,251,179478,101,2,3:2:0:0:
281,269,179764,1,2,3:2:0:0:
352,251,180050,1,2,3:2:0:0:
281,269,180336,1,0,3:0:0:0:
256,192,180621,12,2,182335,3:2:0:0:
405,107,182907,6,0,L|400:158,1,40,8|8,0:3|0:3,0:0:0:0:
385,174,183193,2,0,L|380:225,1,40,8|8,0:3|0:3,0:0:0:0:
359,237,183478,2,0,L|364:288,3,40,8|8|8|8,0:3|0:3|0:3|0:3,0:0:0:0:
343,302,184050,2,0,L|292:297,3,40,8|8|8|8,0:3|0:3|0:3|0:3,0:0:0:0:
280,321,184621,2,0,P|234:341|211:378,1,80,8|8,0:3|0:3,0:0:0:0:
100,321,185193,6,0,L|115:201,1,111.999996582031,6|0,3:2|0:0,0:0:0:0:
77,66,185764,1,8,0:0:0:0:
197,85,186050,2,0,P|233:83|265:73,1,55.9999982910157,2|0,0:0|0:0,0:0:0:0:
278,58,186335,2,0,P|327:47|395:46,1,111.999996582031,2|2,3:2|0:0,0:0:0:0:
494,152,186907,1,10,0:0:0:0:
406,219,187193,1,2,0:0:0:0:
406,219,187335,1,0,0:0:0:0:
406,219,187478,6,0,L|418:100,2,111.999996582031,2|0|8,3:2|0:0|0:0,0:0:0:0:
383,328,188335,1,2,0:0:0:0:
300,251,188621,1,2,3:2:0:0:
406,219,188907,1,2,0:0:0:0:
276,329,189193,2,0,P|212:334|159:309,1,111.999996582031,10|2,0:0|0:0,0:0:0:0:
76,186,189764,5,2,3:2:0:0:
96,75,190050,1,0,0:0:0:0:
193,210,190335,1,8,0:0:0:0:
295,153,190621,2,0,P|327:151|359:159,1,55.9999982910157,2|0,0:0|0:0,0:0:0:0:
374,171,190907,2,0,P|423:156|500:148,1,111.999996582031,2|2,3:2|0:0,0:0:0:0:
385,282,191478,2,0,P|329:275|275:259,1,111.999996582031,10|2,0:0|0:0,0:0:0:0:
257,246,191907,1,0,0:0:0:0:
238,233,192050,6,0,L|258:350,1,111.999996582031,2|0,3:2|0:0,0:0:0:0:
152,231,192621,1,10,0:0:0:0:
206,132,192907,1,2,0:0:0:0:
142,224,193193,1,0,3:0:0:0:
194,125,193478,2,0,P|182:92|173:63,1,55.9999982910157,2|0,0:0|0:0,0:0:0:0:
166,50,193764,1,8,0:0:0:0:
279,92,194050,1,2,0:0:0:0:
279,92,194193,1,0,0:0:0:0:
279,92,194335,6,0,P|345:98|391:83,1,111.999996582031,0|0,3:0|0:0,0:0:0:0:
512,174,194907,1,8,0:0:0:0:
443,264,195193,2,0,L|432:192,1,55.9999982910157,2|0,0:0|0:0,0:0:0:0:
418,193,195478,2,0,P|365:187|299:201,1,111.999996582031,2|2,3:2|0:0,0:0:0:0:
213,338,196050,1,10,0:0:0:0:
134,273,196335,1,2,0:0:0:0:
134,273,196478,1,0,0:0:0:0:
134,273,196621,54,0,L|146:161,1,111.999996582031,2|0,3:2|0:0,0:0:0:0:
35,41,197193,1,8,0:0:0:0:
60,149,197478,1,2,0:0:0:0:
146,78,197764,2,0,P|209:64|257:67,1,111.999996582031,2|2,3:2|0:0,0:0:0:0:
267,78,198193,1,0,0:0:0:0:
279,88,198335,2,0,L|398:68,1,111.999996582031,10|2,0:0|0:0,0:0:0:0:
510,162,198907,6,0,P|428:153|376:177,1,111.999996582031,2|0,3:2|0:0,0:0:0:0:
385,177,199336,1,0,0:0:0:0:
368,191,199478,2,0,P|297:183|239:177,1,111.999996582031,8|2,0:0|0:0,0:0:0:0:
130,271,200050,2,0,B|182:249|182:249|261:281,1,111.999996582031,2|0,3:2|0:0,0:0:0:0:
250,284,200478,1,0,0:0:0:0:
263,294,200621,2,0,L|388:277,1,111.999996582031,8|2,0:0|0:0,0:0:0:0:
444,270,201050,5,2,0:0:0:0:
451,287,201193,2,0,L|446:354,2,55.9999982910157,0|0|2,0:0|0:0|0:0,0:0:0:0:
402,186,201764,2,0,L|397:119,2,55.9999982910157,0|0|2,0:0|0:0|0:0,0:0:0:0:
343,74,202335,1,8,0:3:0:0:
343,74,202478,1,8,0:3:0:0:
271,215,202764,1,8,0:3:0:0:
472,130,203193,1,8,0:3:0:0:
341,41,203478,6,0,P|301:34|238:45,1,95.9999970703126,4|2,3:2|0:0,0:0:0:0:
230,53,203907,1,2,0:0:0:0:
214,64,204050,2,0,B|123:102|123:102|30:52,1,191.999994140625,8|0,0:0|3:0,0:0:0:0:
11,153,204907,1,0,0:0:0:0:
11,153,205050,1,0,0:0:0:0:
11,153,205193,2,0,P|33:211|35:254,1,95.9999970703126,10|0,0:0|0:0,0:0:0:0:
74,384,205764,6,0,P|79:336|98:292,1,95.9999970703126,0|0,3:0|0:0,0:0:0:0:
114,281,206193,1,0,0:0:0:0:
131,273,206335,2,0,P|178:278|222:297,1,95.9999970703126,8|0,0:0|0:0,0:0:0:0:
235,311,206764,1,0,0:0:0:0:
249,324,206907,2,0,P|296:318|340:299,1,95.9999970703126,0|0,3:0|0:0,0:0:0:0:
463,208,207478,2,0,P|415:202|371:183,1,95.9999970703126,8|0,0:0|0:0,0:0:0:0:
260,87,208050,102,0,L|155:101,1,95.9999970703126,2|0,3:2|0:0,0:0:0:0:
145,96,208478,1,0,0:0:0:0:
127,88,208621,2,0,P|138:131|65:87,1,191.999994140625,8|0,0:0|3:0,0:0:0:0:
94,16,209478,1,0,0:0:0:0:
94,16,209621,1,0,0:0:0:0:
94,16,209764,2,0,L|195:22,1,95.9999970703126,8|0,0:0|0:0,0:0:0:0:
333,9,210335,6,0,P|381:14|425:33,1,95.9999970703126,0|0,3:0|0:0,0:0:0:0:
436,49,210764,1,0,0:0:0:0:
444,66,210907,2,0,P|439:113|420:157,1,95.9999970703126,10|0,0:0|0:0,0:0:0:0:
406,170,211335,1,0,0:0:0:0:
393,184,211478,2,0,P|399:231|418:275,1,95.9999970703126,0|0,3:0|0:0,0:0:0:0:
512,384,212049,2,0,P|468:365|420:359,1,95.9999970703126,8|0,0:0|0:0,0:0:0:0:
273,359,212621,102,0,P|233:366|170:355,1,95.9999970703126,0|2,3:2|0:0,0:0:0:0:
161,348,213050,1,2,0:0:0:0:
150,332,213193,2,0,B|112:241|112:241|162:148,1,191.999994140625,8|0,0:0|3:0,0:0:0:0:
238,106,214050,1,0,0:0:0:0:
238,106,214193,1,0,0:0:0:0:
238,106,214336,2,0,P|296:84|339:82,1,95.9999970703126,10|0,0:0|0:0,0:0:0:0:
435,170,214907,6,0,P|430:218|411:262,1,95.9999970703126,0|0,3:0|0:0,0:0:0:0:
395,273,215336,1,0,0:0:0:0:
378,281,215478,2,0,P|331:276|287:257,1,95.9999970703126,8|0,0:0|0:0,0:0:0:0:
270,246,215907,1,0,0:0:0:0:
256,237,216050,2,0,P|209:243|165:262,1,95.9999970703126,0|0,3:0|0:0,0:0:0:0:
41,164,216621,2,0,P|84:182|132:188,1,95.9999970703126,8|0,0:0|0:0,0:0:0:0:
264,110,217193,102,0,L|369:96,1,95.9999970703126,2|0,3:2|0:0,0:0:0:0:
379,101,217621,1,0,0:0:0:0:
397,109,217764,2,0,P|386:66|459:110,1,191.999994140625,8|0,0:0|3:0,0:0:0:0:
430,181,218621,1,0,0:0:0:0:
430,181,218764,1,0,0:0:0:0:
430,181,218907,2,0,L|329:175,1,95.9999970703126,10|2,0:0|0:0,0:0:0:0:
218,243,219478,5,0,0:0:0:0:
157,168,219764,2,0,L|151:114,1,47.9999985351563,2|2,0:0|0:0,0:0:0:0:
206,253,220335,2,0,L|200:307,1,47.9999985351563,2|2,0:0|0:0,0:0:0:0:
82,217,220907,2,0,L|76:163,1,47.9999985351563,2|2,0:0|0:0,0:0:0:0:
118,307,221478,2,0,L|112:361,1,47.9999985351563,2|2,0:0|0:0,0:0:0:0:
112,374,221764,1,4,0:1:0:0:
