osu file format v14

[General]
AudioFilename: audio.mp3
AudioLeadIn: 0
PreviewTime: 45720
Countdown: 0
SampleSet: Soft
StackLeniency: 0.2
Mode: 0
LetterboxInBreaks: 0
EpilepsyWarning: 1
WidescreenStoryboard: 1

[Editor]
Bookmarks: 2328,11470,20613,29756,48042,66327,84613,102899,121185,139470,157756,166899,185185,203470,221756
DistanceSpacing: 0.8
BeatDivisor: 16
GridSize: 4
TimelineZoom: 2.1

[Metadata]
Title:My Love (Shadren Remix)
TitleUnicode:My Love (Shadren Remix)
Artist:Kuba Oms
ArtistUnicode:Kuba Oms
Creator:Shmiklak
Version:Daycore's Lover
Source:
Tags:pop english retro synthpop retrowave a labour of love labor marvollo m_a_r_v_o_l_l_o wajinshu daycore storyboard collab collaboration kubaoms shadren
BeatmapID:2856191
BeatmapSetID:1382412

[Difficulty]
HPDrainRate:5
CircleSize:4.4
OverallDifficulty:8.2
ApproachRate:9
SliderMultiplier:1.8
SliderTickRate:1

[Events]
//Background and Video events
0,0,"schoolboy.jpg",0,0
//Break Periods
2,139470,166307
//Storyboard Layer 0 (Background)
//Storyboard Layer 1 (Fail)
//Storyboard Layer 2 (Pass)
//Storyboard Layer 3 (Foreground)
//Storyboard Layer 4 (Overlay)
//Storyboard Sound Samples

[TimingPoints]
2336,571.428571428571,4,2,1,60,1,0
12764,-100,4,2,1,5,0,0
12907,-100,4,2,1,60,0,0
13050,-100,4,2,1,5,0,0
13193,-100,4,2,1,60,0,0
13907,-100,4,2,1,60,0,0
14050,-100,4,2,1,60,0,0
15050,-100,4,2,1,5,0,0
15193,-100,4,2,1,60,0,0
16193,-100,4,2,1,5,0,0
16335,-100,4,2,1,60,0,0
17335,-100,4,2,1,5,0,0
17473,-83.3333333333333,4,2,1,60,0,0
17621,-83.3333333333333,4,2,1,5,0,0
17764,-71.4285714285714,4,2,1,60,0,0
17907,-71.4285714285714,4,2,1,5,0,0
18050,-71.4285714285714,4,2,1,60,0,0
18335,-90.9090909090909,4,2,1,60,0,0
18478,-90.9090909090909,4,2,1,5,0,0
18621,-90.9090909090909,4,2,1,60,0,0
18764,-90.9090909090909,4,2,1,5,0,0
18907,-90.9090909090909,4,2,1,60,0,0
19764,-90.9090909090909,4,2,1,5,0,0
19907,-71.4285714285714,4,2,1,60,0,0
20193,-71.4285714285714,4,2,1,5,0,0
20335,-71.4285714285714,4,2,1,60,0,0
20621,-83.3333333333333,4,2,1,60,0,0
20764,-83.3333333333333,4,2,1,5,0,0
20907,-83.3333333333333,4,2,1,60,0,0
21621,-83.3333333333333,4,2,1,5,0,0
21764,-76.9230769230769,4,2,1,60,0,0
23050,-76.9230769230769,4,2,1,5,0,0
23193,-76.9230769230769,4,2,1,60,0,0
24193,-76.9230769230769,4,2,1,5,0,0
24335,-76.9230769230769,4,2,1,60,0,0
24478,-76.9230769230769,4,2,1,5,0,0
24621,-76.9230769230769,4,2,1,60,0,0
26335,-80,4,2,1,60,0,0
26764,-80,4,2,1,5,0,0
26907,-80,4,2,1,60,0,0
27050,-80,4,2,1,5,0,0
27193,-80,4,2,1,60,0,0
27907,-80,4,2,1,5,0,0
28907,-80,4,2,1,60,0,0
29193,-62.5,4,2,1,60,0,0
29621,-62.5,4,2,1,5,0,0
29764,-76.9230769230769,4,2,1,65,0,0
30193,-76.9230769230769,4,2,1,5,0,0
30335,-76.9230769230769,4,2,1,65,0,0
30764,-76.9230769230769,4,2,1,5,0,0
30907,-76.9230769230769,4,2,1,65,0,0
32193,-76.9230769230769,4,2,1,5,0,0
32335,-76.9230769230769,4,2,1,65,0,0
33907,-76.9230769230769,4,2,1,5,0,0
34050,-76.9230769230769,4,2,1,65,0,0
34907,-76.9230769230769,4,2,1,65,0,0
35478,-66.6666666666667,4,2,1,65,0,0
36764,-66.6666666666667,4,2,1,5,0,0
36907,-66.6666666666667,4,2,1,65,0,0
37907,-66.6666666666667,4,2,1,5,0,0
38050,-66.6666666666667,4,2,1,65,0,0
38335,-200,4,2,1,65,0,0
38907,-66.6666666666667,4,2,1,65,0,0
40621,-60.6060606060606,4,2,1,65,0,0
41478,-66.6666666666667,4,2,1,65,0,0
42907,-51.2820512820513,4,2,1,65,0,0
44335,-66.6666666666667,4,2,1,65,0,0
45335,-66.6666666666667,4,2,1,5,0,0
45478,-66.6666666666667,4,2,1,65,0,0
45764,-66.6666666666667,4,2,1,55,0,0
45835,-66.6666666666667,4,2,1,5,0,0
45907,-66.6666666666667,4,2,1,54,0,0
45978,-66.6666666666667,4,2,1,5,0,0
46050,-66.6666666666667,4,2,1,53,0,0
46121,-66.6666666666667,4,2,1,5,0,0
46335,-66.6666666666667,4,2,1,52,0,0
46407,-66.6666666666667,4,2,1,5,0,0
46478,-66.6666666666667,4,2,1,51,0,0
46550,-66.6666666666667,4,2,1,5,0,0
46621,-66.6666666666667,4,2,1,50,0,0
46693,-66.6666666666667,4,2,1,5,0,0
46907,-66.6666666666667,4,2,1,49,0,0
46978,-66.6666666666667,4,2,1,5,0,0
47050,-66.6666666666667,4,2,1,48,0,0
47121,-66.6666666666667,4,2,1,5,0,0
47193,-66.6666666666667,4,2,1,47,0,0
47264,-66.6666666666667,4,2,1,5,0,0
47478,-66.6666666666667,4,2,1,46,0,0
47550,-66.6666666666667,4,2,1,5,0,0
47764,-66.6666666666667,4,2,1,45,0,0
47835,-66.6666666666667,4,2,1,5,0,0
48050,-60.6060606060606,4,2,1,75,0,1
50335,-51.8134715025907,4,2,1,75,0,1
51193,-60.6060606060606,4,2,1,75,0,1
54907,-55.5555555555556,4,2,1,75,0,1
57193,-60.6060606060606,4,2,1,75,0,1
64121,-60.6060606060606,4,2,1,5,0,1
64193,-60.6060606060606,4,2,1,75,0,1
64264,-60.6060606060606,4,2,1,5,0,1
64335,-60.6060606060606,4,2,1,75,0,1
64407,-60.6060606060606,4,2,1,5,0,1
64621,-60.6060606060606,4,2,1,75,0,1
64693,-60.6060606060606,4,2,1,5,0,1
64764,-60.6060606060606,4,2,1,75,0,1
64835,-60.6060606060606,4,2,1,5,0,1
64907,-60.6060606060606,4,2,1,75,0,1
64978,-60.6060606060606,4,2,1,5,0,1
65193,-60.6060606060606,4,2,1,75,0,1
65264,-60.6060606060606,4,2,1,5,0,1
65335,-60.6060606060606,4,2,1,75,0,1
65407,-60.6060606060606,4,2,1,5,0,1
65478,-60.6060606060606,4,2,1,75,0,1
65550,-60.6060606060606,4,2,1,5,0,1
65764,-60.6060606060606,4,2,1,75,0,1
65835,-60.6060606060606,4,2,1,5,0,1
66050,-60.6060606060606,4,2,1,75,0,1
66121,-60.6060606060606,4,2,1,5,0,1
66335,-71.4285714285714,4,2,1,60,0,0
67193,-71.4285714285714,4,2,1,5,0,0
67335,-71.4285714285714,4,2,1,60,0,0
67621,-71.4285714285714,4,2,1,5,0,0
67764,-71.4285714285714,4,2,1,60,0,0
68764,-71.4285714285714,4,2,1,5,0,0
68907,-71.4285714285714,4,2,1,60,0,0
70478,-71.4285714285714,4,2,1,5,0,0
70621,-71.4285714285714,4,2,1,60,0,0
71050,-71.4285714285714,4,2,1,5,0,0
71193,-71.4285714285714,4,2,1,60,0,0
74907,-50,4,2,1,50,0,0
74978,-50,4,2,1,5,0,0
75050,-55.5555555555556,4,2,1,55,0,0
75121,-55.5555555555556,4,2,1,5,0,0
75193,-62.5,4,2,1,60,0,0
75264,-62.5,4,2,1,5,0,0
75335,-71.4285714285714,4,2,1,65,0,0
75407,-71.4285714285714,4,2,1,5,0,0
75478,-71.4285714285714,4,2,1,70,0,0
76050,-71.4285714285714,4,2,1,60,0,0
76335,-71.4285714285714,4,2,1,60,0,0
76478,-71.4285714285714,4,2,1,60,0,0
77050,-71.4285714285714,4,2,1,5,0,0
77193,-71.4285714285714,4,2,1,60,0,0
77907,-71.4285714285714,4,2,1,5,0,0
78050,-71.4285714285714,4,2,1,60,0,0
80478,-71.4285714285714,4,2,1,5,0,0
80621,-71.4285714285714,4,2,1,60,0,0
84621,-222.222222222221,4,2,1,60,0,0
85050,-222.222222222221,4,2,1,5,0,0
85193,-71.4285714285714,4,2,1,60,0,0
85907,-71.4285714285714,4,2,1,5,0,0
86050,-71.4285714285714,4,2,1,60,0,0
86193,-71.4285714285714,4,2,1,5,0,0
86335,-71.4285714285714,4,2,1,60,0,0
87383,-71.4285714285714,4,2,1,5,0,0
87478,-71.4285714285714,4,2,1,60,0,0
87907,-71.4285714285714,4,2,1,60,0,0
88050,-71.4285714285714,4,2,1,60,0,0
88478,-71.4285714285714,4,2,1,60,0,0
88621,-71.4285714285714,4,2,1,60,0,0
90335,-62.5,4,2,1,60,0,0
90764,-62.5,4,2,1,5,0,0
90907,-62.5,4,2,1,60,0,0
91050,-62.5,4,2,1,5,0,0
91193,-62.5,4,2,1,60,0,0
91621,-62.5,4,2,1,5,0,0
91764,-62.5,4,2,1,60,0,0
91907,-62.5,4,2,1,5,0,0
92050,-62.5,4,2,1,60,0,0
93264,-62.5,4,2,1,5,0,0
93335,-62.5,4,2,1,60,0,0
93407,-62.5,4,2,1,5,0,0
93621,-62.5,4,2,1,60,0,0
93693,-62.5,4,2,1,5,0,0
94050,-62.5,4,2,1,60,0,0
94478,-62.5,4,2,1,60,0,0
94621,-62.5,4,2,1,60,0,0
94764,-62.5,4,2,1,60,0,0
94907,-62.5,4,2,1,60,0,0
95050,-62.5,4,2,1,60,0,0
95193,-62.5,4,2,1,60,0,0
97335,-62.5,4,2,1,5,0,0
97478,-62.5,4,2,1,60,0,0
99050,-62.5,4,2,1,5,0,0
99193,-62.5,4,2,1,60,0,0
99621,-62.5,4,2,1,5,0,0
99764,-62.5,4,2,1,60,0,0
101621,-62.5,4,2,1,5,0,0
101764,-62.5,4,2,1,60,0,0
101835,-62.5,4,2,1,5,0,0
101907,-62.5,4,2,1,60,0,0
101978,-62.5,4,2,1,5,0,0
102335,-62.5,4,2,1,60,0,0
102407,-62.5,4,2,1,5,0,0
102478,-62.5,4,2,1,60,0,0
102550,-62.5,4,2,1,5,0,0
102907,-71.4285714285714,4,2,1,65,0,0
105335,-71.4285714285714,4,2,1,5,0,0
105478,-71.4285714285714,4,2,1,65,0,0
107050,-71.4285714285714,4,2,1,5,0,0
107193,-71.4285714285714,4,2,1,65,0,0
109907,-71.4285714285714,4,2,1,5,0,0
110050,-71.4285714285714,4,2,1,65,0,0
111050,-71.4285714285714,4,2,1,5,0,0
111193,-71.4285714285714,4,2,1,65,0,0
111478,-222.222222222222,4,2,1,65,0,0
112050,-71.4285714285714,4,2,1,65,0,0
113764,-62.5,4,2,1,65,0,0
114335,-71.4285714285714,4,2,1,65,0,0
115478,-66.6666666666667,4,2,1,65,0,0
116050,-58.8235294117647,4,2,1,65,0,0
116621,-55.5555555555556,4,2,1,65,0,0
118978,-55.5555555555556,4,2,1,5,0,0
119050,-55.5555555555556,4,2,1,65,0,0
119121,-55.5555555555556,4,2,1,5,0,0
119193,-55.5555555555556,4,2,1,65,0,0
119264,-55.5555555555556,4,2,1,5,0,0
119478,-55.5555555555556,4,2,1,65,0,0
119550,-55.5555555555556,4,2,1,5,0,0
119621,-55.5555555555556,4,2,1,65,0,0
119693,-55.5555555555556,4,2,1,5,0,0
119764,-55.5555555555556,4,2,1,65,0,0
119835,-55.5555555555556,4,2,1,5,0,0
120050,-55.5555555555556,4,2,1,65,0,0
120121,-55.5555555555556,4,2,1,5,0,0
120193,-55.5555555555556,4,2,1,65,0,0
120264,-55.5555555555556,4,2,1,5,0,0
120335,-55.5555555555556,4,2,1,65,0,0
120407,-55.5555555555556,4,2,1,5,0,0
120621,-55.5555555555556,4,2,1,65,0,0
120693,-55.5555555555556,4,2,1,5,0,0
120907,-55.5555555555556,4,2,1,65,0,0
120978,-55.5555555555556,4,2,1,5,0,0
121193,-55.5555555555556,4,2,1,75,0,1
128907,-50,4,2,1,75,0,1
130335,-55.5555555555556,4,2,1,75,0,1
136907,-66.6666666666667,4,2,1,75,0,1
139478,-66.6666666666667,4,2,1,75,0,0
166335,-66.6666666666667,4,2,1,40,0,0
166907,-500,4,2,1,50,0,0
168050,-400,4,2,1,50,0,0
169193,-333.333333333333,4,2,1,51,0,0
170335,-285.714285714286,4,2,1,51,0,0
171478,-250,4,2,1,52,0,0
172621,-222.222222222222,4,2,1,52,0,0
173764,-200,4,2,1,53,0,0
174907,-181.818181818182,4,2,1,53,0,0
176050,-166.666666666667,4,2,1,54,0,0
176621,-153.846153846154,4,2,1,54,0,0
177193,-142.857142857143,4,2,1,55,0,0
177764,-133.333333333333,4,2,1,55,0,0
178335,-125,4,2,1,56,0,0
178907,-117.647058823529,4,2,1,56,0,0
179478,-111.111111111111,4,2,1,58,0,0
180050,-105.263157894737,4,2,1,58,0,0
180621,-111.111111111111,4,2,1,65,0,0
180764,-105.263157894737,4,2,1,65,0,0
180907,-100,4,2,1,65,0,0
181050,-95.2380952380952,4,2,1,65,0,0
181193,-90.9090909090909,4,2,1,60,0,0
181335,-86.9565217391304,4,2,1,60,0,0
181478,-83.3333333333333,4,2,1,60,0,0
181621,-80,4,2,1,60,0,0
181764,-76.9230769230769,4,2,1,55,0,0
181907,-74.0740740740741,4,2,1,55,0,0
182050,-71.4285714285714,4,2,1,55,0,0
182193,-68.9655172413793,4,2,1,55,0,0
182335,-66.6666666666667,4,2,1,50,0,0
182478,-64.5161290322581,4,2,1,50,0,0
182621,-62.5,4,2,1,50,0,0
182764,-60.6060606060606,4,2,1,50,0,0
182907,-58.8235294117647,4,2,1,70,0,0
182978,-58.8235294117647,4,2,1,5,0,0
183050,-58.8235294117647,4,2,1,70,0,0
183121,-58.8235294117647,4,2,1,5,0,0
183193,-58.8235294117647,4,2,1,60,0,0
183264,-58.8235294117647,4,2,1,5,0,0
183335,-58.8235294117647,4,2,1,60,0,0
183407,-58.8235294117647,4,2,1,5,0,0
183478,-58.8235294117647,4,2,1,65,0,0
183550,-58.8235294117647,4,2,1,5,0,0
183621,-58.8235294117647,4,2,1,65,0,0
183693,-58.8235294117647,4,2,1,5,0,0
183764,-58.8235294117647,4,2,1,55,0,0
183835,-58.8235294117647,4,2,1,5,0,0
183907,-58.8235294117647,4,2,1,55,0,0
183978,-58.8235294117647,4,2,1,5,0,0
184050,-58.8235294117647,4,2,1,60,0,0
184121,-58.8235294117647,4,2,1,5,0,0
184193,-58.8235294117647,4,2,1,60,0,0
184264,-58.8235294117647,4,2,1,5,0,0
184335,-58.8235294117647,4,2,1,50,0,0
184407,-58.8235294117647,4,2,1,5,0,0
184478,-58.8235294117647,4,2,1,50,0,0
184550,-58.8235294117647,4,2,1,5,0,0
184621,-58.8235294117647,4,2,1,55,0,0
184693,-58.8235294117647,4,2,1,5,0,0
184764,-58.8235294117647,4,2,1,55,0,0
184835,-58.8235294117647,4,2,1,5,0,0
184907,-58.8235294117647,4,2,1,45,0,0
184978,-58.8235294117647,4,2,1,5,0,0
185050,-58.8235294117647,4,2,1,45,0,0
185121,-58.8235294117647,4,2,1,5,0,0
185193,-52.6315789473684,4,2,1,75,0,1
192050,-47.6190476190476,4,2,1,75,0,1
194335,-52.6315789473684,4,2,1,75,0,1
201193,-52.6315789473684,4,2,1,5,0,1
201478,-52.6315789473684,4,2,1,75,0,1
201764,-52.6315789473684,4,2,1,5,0,1
202050,-52.6315789473684,4,2,1,75,0,1
202407,-52.6315789473684,4,2,1,5,0,1
202478,-52.6315789473684,4,2,1,75,0,1
202550,-52.6315789473684,4,2,1,5,0,1
202764,-52.6315789473684,4,2,1,75,0,1
202835,-52.6315789473684,4,2,1,5,0,1
203193,-52.6315789473684,4,2,1,75,0,1
203264,-52.6315789473684,4,2,1,5,0,1
203478,-62.5,4,2,1,70,0,0
219478,-62.5,4,2,1,60,0,0
221764,-92.1658986175115,4,2,1,60,0,0
223478,-125,4,2,1,5,0,0

[Colours]
Combo1 : 234,77,202
Combo2 : 116,222,211
Combo3 : 218,58,51
Combo4 : 236,144,74
Combo5 : 236,144,219
Combo6 : 173,173,173
Combo7 : 136,134,134
Combo8 : 105,200,80

[HitObjects]
31,34,11478,117,4,3:2:0:0:
92,129,11764,1,2,0:0:0:0:
87,113,11907,1,0,0:0:0:0:
82,97,12050,6,0,B|118:87|118:87|126:81|126:81|172:68,1,90,10|2,0:0|0:0,0:0:0:0:
287,164,12479,2,0,B|246:152|246:152|238:146|238:146|202:136,1,90,2|0,0:0|0:0,0:0:0:0:
103,202,12907,2,0,B|148:192|101:197|148:185,1,45,2|0,0:0|0:0,0:0:0:0:
283,89,13193,1,10,0:0:0:0:
256,294,13478,101,0,0:0:0:0:
222,309,13621,1,2,0:0:0:0:
188,326,13764,2,0,P|215:358|230:364,1,45,0|2,3:0|0:0,0:0:0:0:
345,302,14050,2,0,L|252:293,1,90,2|10,0:0|0:0,0:0:0:0:
83,280,14621,1,2,0:0:0:0:
103,293,14764,2,0,B|92:262|92:262|92:244|92:244|74:195,1,90,2|0,0:0|0:0,0:0:0:0:
165,256,15193,1,2,0:0:0:0:
64,357,15478,6,0,P|114:374|157:361,1,90,8|2,0:0|0:0,0:0:0:0:
255,293,15907,1,0,0:0:0:0:
235,325,16050,102,0,L|314:336,1,45,2|0,3:2|0:0,0:0:0:0:
403,356,16335,2,0,P|358:338|349:279,1,90,0|8,0:0|0:0,0:0:0:0:
457,168,16907,1,0,0:0:0:0:
453,180,17050,1,0,0:0:0:0:
449,192,17193,2,0,B|450:173|440:159|440:159|441:168|433:186,1,45,2|0,3:2|0:0,0:0:0:0:
354,207,17478,2,0,B|352:187|363:173|363:173|362:182|370:200,1,53.9999983520508,2|0,0:0|0:0,0:0:0:0:
493,256,17764,2,0,P|468:268|424:266,1,62.9999980773926,10|0,0:0|0:0,0:0:0:0:
275,215,18050,1,2,0:0:0:0:
265,261,18193,1,0,0:0:0:0:
221,272,18335,6,0,B|190:266|190:266|201:264|207:254,1,49.5000015106202,0|0,3:2|0:0,0:0:0:0:
228,278,18621,2,0,L|150:265,1,49.5000015106202
82,197,18907,2,0,P|105:256|101:326,1,99.0000030212403,8|0,0:0|0:0,0:0:0:0:
14,372,19478,101,8,3:3:0:0:
2,298,19621,2,0,P|17:273|27:220,1,49.5000015106202,8|0,0:3|0:0,0:0:0:0:
14,372,19907,2,0,P|29:347|17:244,1,125.999996154785,8|0,0:3|0:0,0:0:0:0:
23,253,20335,1,8,0:3:0:0:
122,291,20478,1,8,0:3:0:0:
91,221,20621,6,0,P|105:211|93:222,1,53.9999983520508,0|0,3:0|0:0,0:0:0:0:
122,291,20907,2,0,P|147:231|200:169,1,107.999996704102,2|10,0:0|0:0,0:0:0:0:
61,137,21478,2,0,P|95:136|126:123,1,53.9999983520508,2|0,0:0|0:0,0:0:0:0:
181,28,21764,2,0,B|129:42|129:42|126:46|126:46|53:68,2,116.999994644165,2|2|10,3:2|0:0|0:0,0:0:0:0:
354,105,22621,1,0,0:0:0:0:
351,134,22764,1,0,0:0:0:0:
347,163,22907,102,0,L|340:229,1,58.4999973220826,0|0,3:0|0:0,0:0:0:0:
281,125,23193,2,0,P|286:63|346:33,1,116.999994644165,2|10,0:0|0:0,0:0:0:0:
420,145,23764,1,2,0:0:0:0:
420,145,23907,2,0,P|431:83|381:39,1,116.999994644165,2|0,0:0|0:0,0:0:0:0:
354,105,24335,2,0,L|347:167,1,58.4999973220826,2|0,0:0|0:0,0:0:0:0:
287,208,24621,2,0,P|360:237|403:213,1,116.999994644165,10|0,0:0|0:0,0:0:0:0:
420,145,25050,1,0,0:0:0:0:
474,210,25193,6,0,P|463:231|447:331,1,116.999994644165,0|2,3:0|0:0,0:0:0:0:
446,321,25620,1,2,0:0:0:0:
345,351,25764,2,0,B|317:343|306:359|256:361,1,58.4999973220826,10|0,0:0|0:0,0:0:0:0:
233,301,26049,1,2,0:0:0:0:
446,321,26335,102,0,B|389:307|345:351|345:351|311:341|304:366|261:354,1,168.75,2|0,3:2|0:0,0:0:0:0:
268,148,26907,2,0,P|293:172|314:206,1,56.25,10|0,0:0|0:0,0:0:0:0:
233,301,27193,2,0,P|203:201|153:304,1,281.25,2|0,0:0|0:0,0:0:0:0:
192,260,28907,1,2,0:0:0:0:
343,60,29193,6,0,B|322:28|280:33|256:64|256:64|213:131|121:96,1,216,2|0,0:0|0:0,0:0:0:0:
181,31,29764,102,0,P|283:91|301:153,1,175.499991966248,4|0,3:2|0:0,0:0:0:0:
158,106,30335,1,8,0:0:0:0:
223,278,30621,2,0,L|309:291,1,58.4999973220826
324,348,30907,2,0,P|314:291|373:237,1,116.999994644165,2|0,3:2|0:0,0:0:0:0:
384,310,31335,1,0,0:0:0:0:
421,373,31478,2,0,P|454:327|444:271,1,116.999994644165,10|0,0:0|0:0,0:0:0:0:
411,203,31907,1,0,0:0:0:0:
446,112,32050,6,0,P|452:83|461:55,1,58.4999973220826,0|0,3:0|0:0,0:0:0:0:
491,183,32335,1,0,0:0:0:0:
414,0,32621,2,0,P|434:55|446:112,1,116.999994644165,10|0,0:0|0:0,0:0:0:0:
299,145,33193,2,0,P|216:140|187:102,1,116.999994644165,0|2,3:2|0:0,0:0:0:0:
262,74,33621,1,0,0:0:0:0:
121,36,33764,102,0,P|125:68|126:105,1,58.4999973220826,10|0,0:0|0:0,0:0:0:0:
195,118,34050,2,0,P|191:150|190:187,1,58.4999973220826,2|0,0:0|0:0,0:0:0:0:
88,229,34335,2,0,P|37:160|113:160,1,175.499991966248,2|0,3:2|0:0,0:0:0:0:
166,244,34907,1,8,0:0:0:0:
206,380,35193,6,0,P|207:361|210:381,1,58.4999973220826,2|0,0:0|0:0,0:0:0:0:
295,269,35478,2,0,B|348:262|348:262|349:258|349:258|425:247,2,135.000005149842,2|2|10,3:2|0:0|0:0,0:0:0:0:
117,331,36335,1,0,0:0:0:0:
119,344,36478,1,0,0:0:0:0:
122,355,36621,102,0,P|97:337|121:333,1,67.5000025749208,0|0,3:0|0:0,0:0:0:0:
170,285,36907,1,2,0:0:0:0:
35,301,37193,2,0,L|170:285,1,135.000005149842,10|2,0:0|0:0,0:0:0:0:
23,163,37764,6,0,P|41:168|83:124,1,67.5000025749208,2|0,3:2|0:0,0:0:0:0:
41,31,38050,2,0,P|27:44|44:102,1,67.5000025749208,2|0,0:0|0:0,0:0:0:0:
146,110,38335,102,0,P|141:91|82:77,1,67.5000025749208,10|0,0:0|0:0,0:0:0:0:
143,188,38907,6,0,B|187:180|187:180|230:192|230:192|291:181,1,135.000005149842,2|0,3:2|0:0,0:0:0:0:
231,119,39335,1,0,0:0:0:0:
341,135,39478,2,0,P|351:214|313:256,1,135.000005149842,8|0,0:0|0:0,0:0:0:0:
52,336,40050,102,0,B|65:267|-9:255|69:199|115:246|130:280|66:268|54:330,1,202.500007724762,2|0,3:2|0:0,0:0:0:0:
135,349,40621,2,0,P|113:280|124:120,1,222.75000212431,10|0,0:2|0:0,0:0:0:0:
182,211,41193,5,0,3:0:0:0:
7,118,41478,102,0,P|4:99|10:119,1,67.5000025749208
14,215,41764,2,0,P|76:165|191:121,1,202.500007724762,10|0,0:2|0:0,0:0:0:0:
182,211,42335,2,0,P|120:161|5:117,1,202.500007724762,2|0,3:2|0:0,0:0:0:0:
64,279,42907,6,0,B|42:392|105:432|188:404|202:335|144:284|63:332|70:359,1,263.250001004219,10|0,0:0|0:0,0:0:0:0:
260,259,43478,2,0,P|167:213|127:35,1,263.250001004219,2|0,3:2|0:0,0:0:0:0:
180,27,44050,1,8,0:0:0:0:
372,19,44335,102,0,P|363:45|351:138,1,67.5000025749208,2|0,0:0|0:0,0:0:0:0:
500,180,44621,6,0,P|485:114|464:50,1,135.000005149842,2|0,3:2|0:0,0:0:0:0:
372,19,45050,1,0,0:0:0:0:
415,131,45193,2,0,P|427:174|431:211,1,67.5000025749208,8|0,0:0|0:0,0:0:0:0:
347,244,45478,1,2,0:0:0:0:
349,266,45621,1,0,0:0:0:0:
339,283,45764,6,0,L|296:279,1,33.7500012874604,8|0,0:3|0:0,0:0:0:0:
290,277,45907,2,0,L|247:273,1,33.7500012874604,8|0,0:3|0:0,0:0:0:0:
246,273,46050,2,0,L|203:269,1,33.7500012874604,8|0,0:3|0:0,0:0:0:0:
76,155,46335,6,0,P|86:143|131:133,1,33.7500012874604,8|0,0:3|0:0,0:0:0:0:
108,135,46478,2,0,P|113:149|99:193,1,33.7500012874604,8|0,0:3|0:0,0:0:0:0:
108,172,46621,2,0,P|92:169|61:135,1,33.7500012874604,8|0,0:3|0:0,0:0:0:0:
49,278,46907,102,0,P|43:289|51:280,1,33.7500012874604,8|0,0:3|0:0,0:0:0:0:
54,281,47050,2,0,P|57:293|56:281,1,33.7500012874604,8|0,0:3|0:0,0:0:0:0:
59,284,47193,6,0,P|70:290|61:282,1,33.7500012874604,8|0,0:3|0:0,0:0:0:0:
0,131,47478,102,0,P|-12:134|0:133,1,33.7500012874604,8|0,0:3|0:0,0:0:0:0:
120,22,47764,6,0,P|116:9|117:22,1,33.7500012874604,8|0,0:3|0:0,0:0:0:0:
255,25,48050,102,0,B|311:52|365:36|365:36|312:38|284:14,1,148.500001416206,6|0,3:2|0:0,0:0:0:0:
255,25,48478,1,0,0:0:0:0:
365,36,48621,2,0,P|356:81|357:126,1,74.2500007081032,8|0,0:0|0:0,0:0:0:0:
285,185,48908,6,0,P|283:147|275:111,1,74.2500007081032,2|0,0:0|0:0,0:0:0:0:
235,262,49193,2,0,P|272:263|308:271,1,74.2500007081032,2|0,3:2|0:0,0:0:0:0:
512,43,49478,102,0,P|474:41|438:33,1,74.2500007081032,2|0,0:0|0:0,0:0:0:0:
395,182,49764,1,10,0:0:0:0:
404,174,50050,5,2,0:0:0:0:
414,255,50193,1,0,0:0:0:0:
427,332,50335,102,0,B|394:231|457:278|412:152,2,173.699995825539,2|0|8,3:2|0:0|0:0,0:0:0:0:
495,130,51193,1,2,0:0:0:0:
426,154,51335,1,0,0:0:0:0:
368,113,51478,6,0,B|311:102|311:102|280:106|280:106|219:94,1,148.500001416206,2|2,3:2|0:0,0:0:0:0:
286,33,51907,1,0,0:0:0:0:
142,25,52050,2,0,L|160:172,1,148.500001416206,10|2,0:0|0:0,0:0:0:0:
50,137,52478,1,0,0:0:0:0:
231,202,52621,102,0,P|179:249|95:220,1,148.500001416206,2|0,3:2|0:0,0:0:0:0:
50,137,53050,1,0,0:0:0:0:
37,210,53193,2,0,P|35:253|56:287,1,74.2500007081032,8|0,0:0|0:0,0:0:0:0:
7,338,53478,6,0,P|46:354|85:346,1,74.2500007081032,2|0,0:0|0:0,0:0:0:0:
252,272,53764,2,0,P|215:248|175:249,1,74.2500007081032,2|0,3:2|0:0,0:0:0:0:
153,179,54050,102,0,P|118:205|106:243,1,74.2500007081032,2|0,0:0|0:0,0:0:0:0:
154,372,54335,6,0,L|322:347,1,148.500001416206,10|2,0:0|0:0,0:0:0:0:
300,350,54764,1,0,0:0:0:0:
497,322,54907,102,0,P|412:321|391:169,1,242.999992584229,2|0,3:2|0:0,0:0:0:0:
469,231,55478,2,0,P|454:255|463:224,1,80.9999975280763,10|0,0:0|0:0,0:0:0:0:
320,64,55764,6,0,B|412:40|397:165|510:136,1,161.999995056153,2|0,0:0|3:0,0:0:0:0:
192,192,56335,102,0,B|100:168|115:293|2:264,1,161.999995056153,2|8,0:0|0:0,0:0:0:0:
256,256,56907,1,2,0:0:0:0:
212,324,57050,1,0,0:0:0:0:
320,320,57193,6,0,B|412:344|397:219|510:248,1,148.500001416206,0|0,3:0|0:0,0:0:0:0:
476,323,57621,1,0,0:0:0:0:
378,185,57764,2,0,L|393:96,1,74.2500007081032,8|0,0:0|0:0,0:0:0:0:
256,184,58050,2,0,L|268:257,1,74.2500007081032,2|0,0:0|0:0,0:0:0:0:
318,95,58336,2,0,L|244:107,1,74.2500007081032,2|0,3:2|0:0,0:0:0:0:
320,320,58621,2,0,L|393:332,1,74.2500007081032,2|0,0:0|0:0,0:0:0:0:
484,175,58907,1,10,0:0:0:0:
256,192,59193,1,2,0:0:0:0:
28,208,59478,102,0,B|-32:118|8:38|117:60|108:168|20:169,1,222.75000212431,2|0,3:2|0:0,0:0:0:0:
28,208,60050,2,0,P|91:219|144:169,1,74.2500007081032,8|0,0:0|0:0,0:0:0:0:
167,79,60335,1,2,0:0:0:0:
172,86,60621,6,0,L|166:174,1,74.2500007081032,2|0,3:2|0:0,0:0:0:0:
236,302,60907,2,0,L|230:227,1,74.2500007081032,2|0,0:0|0:0,0:0:0:0:
248,43,61193,1,10,0:0:0:0:
423,133,61478,1,2,0:0:0:0:
404,337,61764,102,0,B|281:294|325:416|190:380,1,222.75000212431,2|0,3:2|0:0,0:0:0:0:
126,355,62335,2,0,P|147:333|157:255,1,74.2500007081032,8|0,0:0|0:0,0:0:0:0:
116,227,62621,1,2,0:0:0:0:
125,221,62907,6,0,B|187:206|187:206|111:191|111:191|106:187|106:187|99:189|99:189|-6:169,1,222.75000212431,2|0,3:2|0:0,0:0:0:0:
32,176,63478,1,8,0:0:0:0:
239,55,63764,2,0,L|264:192,1,74.2500007081032,2|0,0:0|0:0,0:0:0:0:
265,206,64050,102,0,L|299:234,1,37.1250003540516,8|0,0:3|0:0,0:0:0:0:
301,237,64193,2,0,L|294:281,1,37.1250003540516,8|0,0:3|0:0,0:0:0:0:
291,283,64335,2,0,L|249:298,1,37.1250003540516,8|0,0:3|0:0,0:0:0:0:
422,207,64621,6,0,B|424:227|424:227|425:227|425:227|429:273,1,37.1250003540516,8|0,0:3|0:0,0:0:0:0:
421,248,64764,2,0,B|436:260|436:260|437:260|437:260|472:289,1,37.1250003540516,8|0,0:3|0:0,0:0:0:0:
444,276,64907,2,0,B|464:274|464:274|464:273|464:273|510:269,1,37.1250003540516,8|0,0:3|0:0,0:0:0:0:
345,34,65193,102,0,P|351:45|342:36,1,37.1250003540516,8|0,0:3|0:0,0:0:0:0:
340,37,65336,2,0,P|336:49|337:37,1,37.1250003540516,8|0,0:3|0:0,0:0:0:0:
335,40,65479,6,0,P|322:46|332:37,1,37.1250003540516,8|0,0:3|0:0,0:0:0:0:
164,47,65764,102,0,P|162:61|161:47,1,37.1250003540516,8|0,0:3|0:0,0:0:0:0:
84,199,66050,6,0,P|96:205|84:202,1,37.1250003540516,8|0,0:3|0:0,0:0:0:0:
203,356,66335,69,4,3:2:0:0:
202,343,66621,1,2,0:0:0:0:
201,330,66906,1,10,0:0:0:0:
201,330,67050,2,0,L|250:232,1,62.9999980773926,2|0,0:0|0:0,0:0:0:0:
254,210,67335,2,0,B|229:195|194:210|194:210|185:178|155:162,1,125.999996154785,2|0,0:0|0:0,0:0:0:0:
91,285,67764,54,0,L|119:228,1,62.9999980773926,2|2,0:0|0:0,0:0:0:0:
127,355,68050,1,8,0:0:0:0:
272,342,68335,1,2,0:0:0:0:
223,347,68478,1,2,0:0:0:0:
201,330,68622,2,0,L|229:273,1,62.9999980773926,0|0,3:0|0:0,0:0:0:0:
348,211,68907,53,2,0:0:0:0:
350,223,69050,1,2,0:0:0:0:
353,235,69193,1,8,0:0:0:0:
357,248,69478,53,2,0:0:0:0:
357,248,69621,2,0,L|463:234,1,62.9999980773926,2|0,0:0|3:0,0:0:0:0:
512,291,70050,53,2,0:0:0:0:
376,165,70335,2,0,P|365:147|309:153,1,62.9999980773926,10|0,0:0|0:0,0:0:0:0:
241,173,70621,1,2,0:0:0:0:
229,168,70764,1,0,0:0:0:0:
216,134,70907,54,0,L|136:143,1,62.9999980773926,2|0,3:2|0:0,0:0:0:0:
90,120,71193,2,0,L|218:134,1,125.999996154785,2|8,0:0|0:0,0:0:0:0:
437,144,71764,1,2,0:0:0:0:
315,60,72050,2,0,P|324:114|333:202,1,125.999996154785,2|0,3:2|0:0,0:0:0:0:
287,330,72621,1,10,0:0:0:0:
373,246,72907,1,2,0:0:0:0:
334,262,73050,1,0,0:0:0:0:
310,256,73193,54,0,L|434:236,1,125.999996154785,0|0,3:0|0:0,0:0:0:0:
484,368,73764,1,8,0:0:0:0:
399,345,74050,1,0,0:0:0:0:
349,168,74335,1,0,3:0:0:0:
287,330,74621,1,0,0:0:0:0:
511,96,74907,22,0,P|496:111|488:153,1,45,8|0,0:3|0:0,0:0:0:0:
455,107,75050,6,0,P|455:128|479:163,1,40.4999987640381,8|0,0:3|0:0,0:0:0:0:
429,151,75193,102,0,P|444:166|486:174,1,36,8|0,0:3|0:0,0:0:0:0:
445,194,75335,6,0,P|459:194|484:177,1,31.4999990386963,8|0,0:3|0:0,0:0:0:0:
512,247,75478,1,8,0:1:0:0:
507,261,75764,101,2,0:0:0:0:
503,273,75907,1,2,0:0:0:0:
498,284,76050,2,0,P|442:277|364:271,1,125.999996154785,8|2,0:0|0:0,0:0:0:0:
216,212,76478,2,0,P|278:207|341:199,1,125.999996154785,2|2,0:0|0:0,0:0:0:0:
293,284,76907,2,0,P|287:313|285:370,1,62.9999980773926,2|0,0:0|0:0,0:0:0:0:
356,368,77193,1,10,0:0:0:0:
113,347,77478,1,0,0:0:0:0:
91,301,77621,1,2,0:0:0:0:
100,284,77764,6,0,L|116:198,1,62.9999980773926,0|0,3:0|0:0,0:0:0:0:
52,143,78050,1,2,0:0:0:0:
188,165,78335,1,10,0:0:0:0:
217,243,78621,1,2,0:0:0:0:
353,221,78906,1,2,3:2:0:0:
294,76,79193,2,0,P|282:144|282:215,1,125.999996154785,2|8,0:0|0:0,0:0:0:0:
398,308,79764,1,0,0:0:0:0:
408,315,79907,1,0,0:0:0:0:
448,305,80050,101,0,3:0:0:0:
443,186,80335,2,0,P|456:167|449:188,1,62.9999980773926,2|0,0:0|0:0,0:0:0:0:
504,247,80621,2,0,P|503:162|528:96,1,125.999996154785,10|2,0:0|0:0,0:0:0:0:
372,219,81193,2,0,P|394:137|387:66,1,125.999996154785,2|2,3:2|0:0,0:0:0:0:
463,66,81764,1,10,0:0:0:0:
433,272,82050,1,2,0:0:0:0:
463,303,82193,1,0,0:0:0:0:
456,320,82335,6,0,L|306:313,1,125.999996154785,0|0,3:0|0:0,0:0:0:0:
49,178,82907,2,0,P|137:170|169:102,1,125.999996154785,8|2,0:0|0:0,0:0:0:0:
337,23,83478,1,0,3:0:0:0:
338,35,84050,1,0,3:0:0:0:
340,47,84335,101,0,0:0:0:0:
342,59,84478,1,0,0:0:0:0:
345,73,84621,86,0,P|293:66|269:64,1,60.7499981460572,4|0,3:2|0:0,0:0:0:0:
223,101,85193,1,8,0:0:0:0:
154,71,85335,1,2,0:0:0:0:
102,125,85478,2,0,L|108:160,2,31.4999990386963,2|2|2,0:0|0:0|0:0,0:0:0:0:
178,165,85764,70,0,P|196:196|199:236,1,62.9999980773926,2|0,3:2|0:0,0:0:0:0:
63,261,86050,2,0,P|50:227|54:187,1,62.9999980773926,2|0,0:0|0:0,0:0:0:0:
52,280,86335,2,0,B|86:278|86:278|139:311|139:311|175:310,1,125.999996154785,8|0,0:0|0:0,0:0:0:0:
288,264,86764,1,0,0:0:0:0:
243,327,86907,37,0,3:2:0:0:
451,269,87193,1,2,0:0:0:0:
451,269,87288,2,0,P|437:224|435:196,1,41.9999987182618
460,161,87478,69,10,0:0:0:0:
372,310,87764,2,0,L|383:387,1,62.9999980773926,2|0,0:0|0:0,0:0:0:0:
288,264,88050,37,2,3:2:0:0:
200,115,88336,2,0,L|199:37,1,62.9999980773926,2|0,0:0|0:0,0:0:0:0:
353,82,88621,70,0,P|324:145|256:161,1,125.999996154785,10|0,0:0|0:0,0:0:0:0:
207,126,89050,1,0,0:0:0:0:
206,43,89193,1,0,3:0:0:0:
93,201,89478,38,0,P|97:179|97:201,1,62.9999980773926,2|0,0:0|0:0,0:0:0:0:
25,142,89764,2,0,P|17:226|52:268,1,125.999996154785,10|2,0:0|0:0,0:0:0:0:
204,337,90335,70,0,B|134:327|134:327|79:361|79:361|-3:350,1,216,2|0,3:2|0:0,0:0:0:0:
38,256,90907,2,0,P|12:211|17:160,1,72,10|0,0:0|0:0,0:0:0:0:
144,100,91193,2,0,B|136:122|139:147|139:147|146:148|146:148|139:147|139:147|143:170|145:203|125:231|75:233|57:164|115:156,1,216,2|0,0:0|0:0,0:0:0:0:
216,175,91764,2,0,B|262:175|241:214|294:212,1,72,2|0,0:0|0:0,0:0:0:0:
317,102,92050,37,8,0:0:0:0:
296,64,92335,1,0,0:0:0:0:
326,71,92621,69,0,3:0:0:0:
288,92,92906,1,0,0:0:0:0:
458,85,93193,38,0,P|446:111|442:144,1,36,8|0,0:3|0:0,0:0:0:0:
432,126,93335,2,0,P|441:152|462:179,1,36,8|0,0:3|0:0,0:0:0:0:
457,236,93621,70,0,P|483:226|510:205,1,36,8|0,0:3|0:0,0:0:0:0:
457,236,94050,37,2,0:0:0:0:
413,233,94193,1,2,0:0:0:0:
358,287,94335,2,0,P|298:281|285:312,1,72,10|0,0:0|0:0,0:0:0:0:
223,384,94621,2,0,L|230:307,1,72,2|0,0:0|0:0,0:0:0:0:
107,257,94907,2,0,P|167:261|174:294,1,72,0|0,3:0|0:0,0:0:0:0:
223,384,95193,1,2,0:0:0:0:
247,197,95478,2,0,B|297:145|329:76|273:-16|157:57|218:134,1,288,10|0,0:0|3:0,0:0:0:0:
213,127,96335,69,2,0:0:0:0:
427,110,96621,2,0,P|381:115|344:210,1,144,10|2,0:0|0:0,0:0:0:0:
378,310,97050,2,0,B|414:279|414:279|412:179,1,144,2|0,0:0|0:0,0:0:0:0:
427,110,97478,1,2,0:0:0:0:
361,379,97764,2,0,B|268:352|268:352|260:354|260:354|294:287|294:287|287:289|287:289|165:251,1,288,10|0,0:0|3:0,0:0:0:0:
254,359,98621,37,2,0:0:0:0:
288,150,98907,2,0,P|273:195|314:223,1,72,10|0,0:0|0:0,0:0:0:0:
359,242,99193,1,2,0:0:0:0:
278,136,99478,2,0,B|301:133|301:133|319:120|319:120|404:114,1,72,2|0,3:2|0:0,0:0:0:0:
425,34,99764,2,0,P|400:109|401:216,1,144,2|10,0:0|0:0,0:0:0:0:
478,309,100335,1,2,0:0:0:0:
439,328,100478,1,0,0:0:0:0:
370,262,100621,70,0,B|416:133|401:42|401:42|403:35|403:35|406:40|406:40|399:38|399:38|376:82|328:91|328:91|333:132|365:161|365:161|359:154|359:154|317:122|220:137,1,504,0|0,3:2|0:0,0:0:0:0:
326,238,101764,38,0,P|343:244|368:258,1,36,8|0,0:3|0:0,0:0:0:0:
370,262,101907,70,0,P|387:256|412:242,1,36,8|0,0:3|0:0,0:0:0:0:
186,146,102335,38,0,P|169:140|144:126,1,36,8|0,0:3|0:0,0:0:0:0:
142,122,102478,70,0,P|125:128|100:142,1,36,8|0,0:3|0:0,0:0:0:0:
511,2,102907,38,0,B|450:17|450:17|430:77|430:77|366:93,1,188.999994232178,4|0,3:2|0:0,0:0:0:0:
373,10,103478,1,8,0:0:0:0:
288,157,103764,2,0,P|290:110|269:68,1,62.9999980773926
230,205,104050,70,0,L|372:191,1,125.999996154785,2|0,3:2|0:0,0:0:0:0:
306,274,104478,1,0,0:0:0:0:
358,351,104621,38,0,L|233:339,1,125.999996154785,10|0,0:0|0:0,0:0:0:0:
186,271,105050,1,0,0:0:0:0:
119,313,105193,70,0,P|128:343|135:374,1,62.9999980773926,0|0,3:0|0:0,0:0:0:0:
117,236,105478,1,0,0:0:0:0:
358,351,105764,2,0,B|399:329|399:329|389:238,1,125.999996154785,10|0,0:0|0:0,0:0:0:0:
186,271,106335,2,0,P|190:211|143:163,1,125.999996154785,0|2,3:2|0:0,0:0:0:0:
70,169,106764,1,0,0:0:0:0:
184,97,106907,38,0,P|164:60|143:36,1,62.9999980773926,10|0,0:0|0:0,0:0:0:0:
70,169,107193,2,0,P|33:189|9:210,1,62.9999980773926,2|0,0:0|0:0,0:0:0:0:
116,312,107478,2,0,P|136:349|257:313,1,188.999994232178,2|0,3:2|0:0,0:0:0:0:
309,257,108050,1,8,0:0:0:0:
193,180,108335,70,0,B|184:163|184:163|186:146|186:146|195:162|195:162|193:180,1,62.9999980773926,2|0,0:0|0:0,0:0:0:0:
123,82,108621,2,0,B|155:81|179:106|179:106|197:69|234:61,2,125.999996154785,2|2|10,3:2|0:0|0:0,0:0:0:0:
324,88,109478,1,0,0:0:0:0:
342,84,109621,1,0,0:0:0:0:
360,81,109764,38,0,B|336:60|336:60|322:95,1,62.9999980773926,0|0,3:0|0:0,0:0:0:0:
360,163,110050,1,2,0:0:0:0:
219,275,110335,2,0,B|257:284|257:284|305:266|305:266|380:280,1,125.999996154785,10|2,0:0|0:0,0:0:0:0:
464,139,110907,70,0,P|454:182|448:237,1,62.9999980773926,2|0,3:2|0:0,0:0:0:0:
411,318,111193,2,0,P|434:355|468:398,1,62.9999980773926,2|0,0:0|0:0,0:0:0:0:
416,224,111478,38,0,P|422:258|434:300,1,60.7499981460572,10|0,0:0|0:0,0:0:0:0:
325,352,112050,70,0,B|267:316|254:388|177:345,1,125.999996154785,2|0,3:2|0:0,0:0:0:0:
145,299,112478,1,0,0:0:0:0:
233,170,112621,2,0,B|219:209|219:209|235:251|235:251|216:313,1,125.999996154785,8|0,0:0|0:0,0:0:0:0:
364,121,113193,38,0,B|340:99|303:98|303:98|273:71|286:35|286:35|337:45|323:100,1,188.999994232178,2|0,3:2|0:0,0:0:0:0:
307,185,113764,2,0,P|376:133|391:9,1,216,10|0,0:2|0:0,0:0:0:0:
479,55,114336,1,0,3:0:0:0:
388,267,114621,70,0,P|382:249|392:267,1,62.9999980773926
308,327,114907,2,0,B|354:332|384:376|384:376|412:332|490:328,1,188.999994232178,10|0,0:2|0:0,0:0:0:0:
498,245,115478,2,0,P|380:251|283:239,1,202.500007724762,2|0,3:2|0:0,0:0:0:0:
173,236,116050,38,0,B|257:192|230:107|172:63|144:118|147:155|182:113|211:174|159:234,1,229.500004377365,10|0,0:0|0:0,0:0:0:0:
26,200,116621,2,0,B|34:173|51:153|51:153|20:129|-18:158|-18:158|19:197|34:293,1,242.999992584229,2|0,3:2|0:0,0:0:0:0:
5,384,117193,1,8,0:0:0:0:
28,260,117478,70,0,P|36:220|48:182,1,80.9999975280763,2|0,0:0|0:0,0:0:0:0:
83,61,117764,38,0,B|119:23|168:71|137:110|137:110|114:137|120:185,1,161.999995056153,2|0,3:2|0:0,0:0:0:0:
116,231,118193,1,0,0:0:0:0:
48,181,118335,2,0,B|43:168|8:165|8:165|-42:159|-42:90|11:91,1,161.999995056153,8|2,0:0|0:0,0:0:0:0:
120,149,118764,1,0,0:0:0:0:
240,134,118907,70,0,L|298:127,1,40.4999987640381,8|0,0:3|0:0,0:0:0:0:
291,132,119050,2,0,L|349:125,1,40.4999987640381,8|0,0:3|0:0,0:0:0:0:
343,129,119193,2,0,L|401:122,1,40.4999987640381,8|0,0:3|0:0,0:0:0:0:
344,273,119478,38,0,P|351:248|383:222,1,40.4999987640381,8|0,0:3|0:0,0:0:0:0:
359,228,119621,2,0,P|381:215|422:219,1,40.4999987640381,8|0,0:3|0:0,0:0:0:0:
401,207,119764,2,0,P|425:214|451:246,1,40.4999987640381,8|0,0:3|0:0,0:0:0:0:
462,27,120050,70,0,B|447:39|447:39|425:34,1,40.4999987640381,8|0,0:3|0:0,0:0:0:0:
422,33,120193,2,0,B|401:28|401:28|386:40,1,40.4999987640381,8|0,0:3|0:0,0:0:0:0:
382,40,120335,38,0,L|321:40,1,40.4999987640381,8|0,0:3|0:0,0:0:0:0:
150,0,120621,70,0,L|149:42,1,40.4999987640381,8|0,0:3|0:0,0:0:0:0:
97,228,120907,38,0,L|139:228,1,40.4999987640381,8|0,0:3|0:0,0:0:0:0:
325,278,121193,22,0,L|325:102,1,161.999995056153,6|0,3:2|0:0,0:0:0:0:
251,150,121621,1,0,0:0:0:0:
397,187,121764,2,0,L|397:277,1,80.9999975280763,8|0,0:0|0:0,0:0:0:0:
251,312,122050,54,0,L|251:226,1,80.9999975280763,2|0,0:0|0:0,0:0:0:0:
171,220,122335,2,0,P|177:175|171:134,1,80.9999975280763,2|0,3:2|0:0,0:0:0:0:
324,22,122621,54,0,P|318:64|324:106,1,80.9999975280763,2|0,0:0|0:0,0:0:0:0:
247,144,122907,1,10,0:0:0:0:
244,137,123193,53,2,0:0:0:0:
171,135,123335,1,0,0:0:0:0:
98,126,123478,54,0,B|128:64|106:12|106:12|106:43|78:79,2,161.999995056153,2|0|8,3:2|0:0|0:0,0:0:0:0:
49,222,124335,1,2,0:0:0:0:
94,283,124478,1,0,0:0:0:0:
58,351,124621,54,0,B|145:380|130:310|234:333,1,161.999995056153,2|2,3:2|0:0,0:0:0:0:
277,276,125049,1,0,0:0:0:0:
370,359,125192,2,0,L|351:186,1,161.999995056153,10|2,0:0|0:0,0:0:0:0:
416,148,125620,1,0,0:0:0:0:
451,261,125764,54,0,P|443:165|499:126,1,161.999995056153,2|0,3:2|0:0,0:0:0:0:
512,207,126192,1,0,0:0:0:0:
455,363,126335,2,0,L|358:358,1,80.9999975280763,8|0,0:0|0:0,0:0:0:0:
289,229,126622,54,0,L|374:224,1,80.9999975280763,2|0,0:0|0:0,0:0:0:0:
308,303,126907,2,0,L|223:308,1,80.9999975280763,2|0,3:2|0:0,0:0:0:0:
107,209,127193,54,0,P|99:142|76:78,1,80.9999975280763,2|0,0:0|0:0,0:0:0:0:
145,53,127478,2,0,P|118:123|109:253,1,161.999995056153,10|2,0:0|0:0,0:0:0:0:
138,283,127906,1,0,0:0:0:0:
64,368,128050,54,0,B|20:381|13:335|13:335|40:221,1,161.999995056153,2|0,3:2|0:0,0:0:0:0:
107,210,128478,1,0,0:0:0:0:
43,128,128621,2,0,B|67:120|73:133|81:115|81:115|62:107|67:120|43:128,1,80.9999975280763,10|0,0:0|0:0,0:0:0:0:
42,38,128907,54,0,B|107:43|107:43|145:78|145:78|244:84,1,180,2|0,0:0|3:0,0:0:0:0:
208,302,129478,54,0,B|145:306|145:306|107:341|107:341|42:346,1,180,2|8,0:0|0:0,0:0:0:0:
42,346,130049,1,2,0:0:0:0:
79,270,130192,1,0,0:0:0:0:
176,376,130335,54,0,L|363:362,1,161.999995056153,0|0,3:0|0:0,0:0:0:0:
413,325,130763,1,0,0:0:0:0:
496,379,130907,2,0,P|497:338|511:290,1,80.9999975280763,8|0,0:0|0:0,0:0:0:0:
331,207,131193,54,0,P|342:248|343:290,1,80.9999975280763,2|0,0:0|0:0,0:0:0:0:
399,173,131478,2,0,P|400:130|411:89,1,80.9999975280763,2|0,3:2|0:0,0:0:0:0:
261,38,131764,2,0,P|272:79|273:121,1,80.9999975280763,2|0,0:0|0:0,0:0:0:0:
153,167,132049,1,10,0:0:0:0:
328,289,132335,1,2,0:0:0:0:
463,124,132621,54,0,B|513:39|506:-14|506:-14|463:-19|448:14|448:14|467:35|467:96,1,242.999992584229,2|0,3:2|0:0,0:0:0:0:
399,173,133193,2,0,P|442:204|499:197,1,80.9999975280763,8|0,0:0|0:0,0:0:0:0:
463,124,133477,1,2,0:0:0:0:
452,117,133764,54,0,B|424:92|424:92|352:98,1,80.9999975280763,2|0,3:2|0:0,0:0:0:0:
307,186,134050,2,0,L|322:276,1,80.9999975280763,2|0,0:0|0:0,0:0:0:0:
263,326,134335,1,10,0:0:0:0:
4,307,134620,1,2,0:0:0:0:
145,87,134907,54,0,B|136:32|203:-10|288:37|255:107|290:126|368:115,1,242.999992584229,2|0,3:2|0:0,0:0:0:0:
418,11,135478,2,0,B|394:31|394:31|405:114,1,80.9999975280763,8|0,0:0|0:0,0:0:0:0:
399,159,135764,1,2,0:0:0:0:
405,172,136050,54,0,B|416:154|435:155|462:138|497:155|506:202|522:234|497:275|443:301|416:263|411:278|381:236,1,242.999992584229,2|0,3:2|0:0,0:0:0:0:
342,217,136621,1,8,0:0:0:0:
383,366,136907,54,0,L|64:335,2,270.000010299683,2|2|2,0:0|0:0|0:0,0:0:0:0:
223,326,166907,38,0,L|215:360,1,36,6|0,3:2|3:0,0:0:0:0:
142,336,168050,2,0,L|98:350,1,45,0|0,3:0|3:0,0:0:0:0:
79,277,169193,2,0,L|38:240,1,53.9999983520508,0|0,3:0|3:0,0:0:0:0:
103,190,170335,2,0,L|116:126,1,62.9999980773926,0|0,3:0|3:0,0:0:0:0:
191,167,171478,6,0,L|259:144,1,72,0|0,3:0|3:0,0:0:0:0:
255,229,172621,2,0,L|319:286,1,80.9999975280763,0|0,3:0|3:0,0:0:0:0:
344,186,173764,2,0,L|427:141,1,90,0|0,3:0|3:0,0:0:0:0:
327,99,174907,2,0,L|330:-8,1,99.0000030212403,0|0,3:0|3:0,0:0:0:0:
330,0,176050,102,0,L|253:6,1,53.9999983520508,0|0,3:0|3:0,0:0:0:0:
190,76,176621,2,0,L|113:70,1,58.4999973220826,0|0,3:0|3:0,0:0:0:0:
336,8,177193,6,0,L|259:14,1,62.9999980773926,2|0,3:2|3:0,0:0:0:0:
152,156,177764,2,0,L|219:150,1,67.5000025749208,2|0,3:2|3:0,0:0:0:0:
343,17,178335,102,0,L|266:23,1,72,0|2,3:0|3:2,0:0:0:0:
270,238,178907,2,0,L|194:233,1,76.5000014591217,2|0,3:2|3:0,0:0:0:0:
351,27,179478,6,0,L|270:33,1,80.9999975280763,2|2,3:2|3:2,0:0:0:0:
321,308,180050,2,0,L|409:301,1,85.4999977169037,2|0,3:2|3:0,0:0:0:0:
477,60,180621,102,0,P|454:71|438:107,1,40.4999987640381,2|0,3:2|3:0,0:0:0:0:
484,203,180907,2,0,P|485:177|462:145,1,45,0|0,3:0|3:0,0:0:0:0:
356,79,181193,6,0,P|336:95|330:134,1,49.5000015106202,0|0,3:0|3:0,0:0:0:0:
403,227,181479,2,0,P|398:201|367:177,1,53.9999983520508,2|0,3:2|3:0,0:0:0:0:
228,114,181764,102,0,P|213:135|217:174,1,58.4999973220826,2|0,3:2|3:0,0:0:0:0:
328,268,182050,2,0,P|317:244|281:229,1,62.9999980773926,2|0,3:2|3:0,0:0:0:0:
130,207,182335,6,0,P|120:233|136:273,1,67.5000025749208,2|0,3:2|3:0,0:0:0:0:
280,342,182621,2,0,P|261:320|218:313,1,72,0|0,3:0|3:0,0:0:0:0:
37,250,182907,6,0,P|20:231|8:194,1,38.2500007295609,8|0,0:3|0:0,0:0:0:0:
3,216,183050,2,0,P|4:190|22:155,1,38.2500007295609,8|0,0:3|0:0,0:0:0:0:
6,167,183193,2,0,P|25:149|62:137,1,38.2500007295609,8|0,0:3|0:0,0:0:0:0:
40,133,183336,2,0,P|65:134|100:152,1,38.2500007295609,8|0,0:3|0:0,0:0:0:0:
88,140,183478,6,0,P|106:144|125:145,1,38.2500007295609,8|0,0:3|0:0,0:0:0:0:
129,134,183621,2,0,P|145:124|159:111,1,38.2500007295609,8|0,0:3|0:0,0:0:0:0:
157,100,183764,2,0,P|161:81|162:62,1,38.2500007295609,8|0,0:3|0:0,0:0:0:0:
151,58,183907,2,0,P|141:41|128:27,1,38.2500007295609,8|0,0:3|0:0,0:0:0:0:
117,22,184050,6,0,L|180:14,1,38.2500007295609,8|0,0:3|0:0,0:0:0:0:
166,18,184193,2,0,L|229:10,1,38.2500007295609,8|0,0:3|0:0,0:0:0:0:
215,14,184335,2,0,L|278:6,1,38.2500007295609,8|0,0:3|0:0,0:0:0:0:
264,10,184478,2,0,L|327:2,1,38.2500007295609,8|0,0:3|0:0,0:0:0:0:
312,10,184621,6,0,P|329:26|371:33,1,38.2500007295609,8|0,0:3|0:0,0:0:0:0:
353,30,184764,2,0,P|370:38|383:51,1,38.2500007295609,8|0,0:3|0:0,0:0:0:0:
392,58,184907,2,0,L|432:74,1,38.2500007295609,8|0,0:3|0:0,0:0:0:0:
437,66,185050,2,0,L|495:56,1,38.2500007295609,8|0,0:3|0:0,0:0:0:0:
484,51,185193,6,0,P|504:81|450:189,1,170.999995433807,6|0,3:2|0:0,0:0:0:0:
369,198,185621,1,0,0:0:0:0:
453,261,185764,2,0,P|431:309|424:359,1,85.4999977169037,8|0,0:0|0:0,0:0:0:0:
294,384,186050,54,0,P|284:342|265:304,1,85.4999977169037,2|0,0:0|0:0,0:0:0:0:
340,277,186335,2,0,P|349:235|368:197,1,85.4999977169037,2|0,3:2|0:0,0:0:0:0:
196,247,186621,6,0,P|177:285|168:327,1,85.4999977169037,2|0,0:0|0:0,0:0:0:0:
294,384,186907,1,10,0:0:0:0:
76,353,187193,1,2,0:0:0:0:
68,271,187335,1,0,0:0:0:0:
58,191,187478,6,0,B|50:231|50:231|86:311|86:311|75:356,2,170.999995433807,2|0|8,3:2|0:0|0:0,0:0:0:0:
217,154,188335,1,2,0:0:0:0:
285,189,188478,1,0,0:0:0:0:
332,128,188621,6,0,P|310:212|368:282,1,170.999995433807,2|2,3:2|0:0,0:0:0:0:
410,331,189050,1,0,0:0:0:0:
491,246,189193,2,0,B|479:196|479:196|489:140|489:140|473:72,1,170.999995433807,10|2,0:0|0:0,0:0:0:0:
416,143,189620,1,0,0:0:0:0:
372,19,189764,6,0,B|274:16|327:74|215:75,1,170.999995433807,2|0,3:2|0:0,0:0:0:0:
157,25,190193,1,0,0:0:0:0:
59,113,190335,2,0,P|82:154|97:223,1,85.4999977169037,8|0,0:0|0:0,0:0:0:0:
217,74,190621,54,0,P|194:115|179:184,1,85.4999977169037,2|0,0:0|0:0,0:0:0:0:
264,146,190907,2,0,P|287:187|302:256,1,85.4999977169037,2|0,3:2|0:0,0:0:0:0:
146,269,191193,6,0,B|113:261|113:261|90:267|90:267|40:253,1,85.4999977169037,2|0,0:0|0:0,0:0:0:0:
59,348,191478,2,0,B|115:334|115:334|156:342|156:342|239:320,1,170.999995433807,10|2,0:0|0:0,0:0:0:0:
301,337,191907,1,0,0:0:0:0:
309,200,192050,6,0,B|220:166|222:252|183:270|106:273,1,188.999994232178,2|0,3:2|0:0,0:0:0:0:
63,259,192478,1,0,0:0:0:0:
140,184,192621,2,0,L|151:82,1,94.499997116089,10|0,0:0|0:0,0:0:0:0:
42,71,192907,6,0,L|62:258,1,188.999994232178,2|0,0:0|3:0,0:0:0:0:
291,379,193478,6,0,B|300:348|288:313|288:313|313:272|313:272|297:234|311:191,1,188.999994232178,2|8,0:0|0:0,0:0:0:0:
466,42,194050,1,2,0:0:0:0:
394,67,194193,1,0,0:0:0:0:
332,20,194335,54,0,B|270:22|270:22|227:49|227:49|142:53,1,170.999995433807,0|0,3:0|0:0,0:0:0:0:
98,13,194763,1,0,0:0:0:0:
22,110,194907,2,0,P|32:160|37:216,1,85.4999977169037,8|0,0:0|0:0,0:0:0:0:
97,337,195193,6,0,P|102:294|110:252,1,85.4999977169037,2|0,0:0|0:0,0:0:0:0:
108,177,195478,2,0,P|151:178|192:166,1,85.4999977169037,2|0,3:2|0:0,0:0:0:0:
264,336,195764,6,0,P|219:321|172:322,1,85.4999977169037,2|0,0:0|0:0,0:0:0:0:
268,163,196050,1,10,0:0:0:0:
24,123,196335,1,2,0:0:0:0:
338,99,196621,6,0,B|299:125|286:213|305:267|395:281|434:186|347:143,1,256.499993150711,2|0,3:2|0:0,0:0:0:0:
501,117,197192,2,0,B|465:112|465:112|446:114|446:114|408:106,1,85.4999977169037,8|0,0:0|0:0,0:0:0:0:
387,36,197477,1,2,0:0:0:0:
373,27,197764,6,0,L|468:44,1,85.4999977169037,2|0,3:2|0:0,0:0:0:0:
253,114,198050,2,0,L|348:97,1,85.4999977169037,2|0,0:0|0:0,0:0:0:0:
465,188,198335,1,10,0:0:0:0:
256,224,198621,1,2,0:0:0:0:
72,229,198907,54,0,B|43:203|37:168|39:118|78:86|128:87|152:128|145:168|133:177|133:177|108:174,1,256.499993150711,2|0,3:2|0:0,0:0:0:0:
67,239,199478,2,0,L|167:252,1,85.4999977169037,8|0,0:0|0:0,0:0:0:0:
205,310,199764,1,2,0:0:0:0:
381,206,200050,6,0,B|430:229|457:308|457:308|484:238|549:201,1,256.499993150711,2|0,3:2|0:0,0:0:0:0:
461,166,200621,1,8,0:0:0:0:
398,41,200907,5,2,0:0:0:0:
326,74,201050,2,0,B|289:69|289:69|271:73|271:73|222:66,1,85.4999977169037,2|0,0:0|0:0,0:0:0:0:
400,52,201478,5,2,0:0:0:0:
333,81,201621,2,0,B|299:76|299:76|283:80|283:80|239:73,1,85.4999977169037,2|0,0:0|0:0,0:0:0:0:
401,62,202050,5,2,0:0:0:0:
403,70,202193,1,2,0:0:0:0:
405,78,202335,54,0,P|395:119|382:134,1,42.7499988584519,8|0,0:3|0:0,0:0:0:0:
388,130,202478,2,0,P|379:149|378:170,1,42.7499988584519,8|0,0:3|0:0,0:0:0:0:
339,233,202764,6,0,P|360:244|379:242,1,42.7499988584519,8|0,0:3|0:0,0:0:0:0:
489,175,203193,6,0,P|468:164|448:165,1,42.7499988584519,8|0,0:3|0:0,0:0:0:0:
280,180,203478,6,0,B|224:172|224:172|196:179|196:179|133:169,1,144,4|2,3:2|0:0,0:0:0:0:
92,104,203907,1,2,0:0:0:0:
42,165,204050,2,0,L|80:312,1,144,8|0,0:0|0:0,0:0:0:0:
143,349,204478,1,0,0:0:0:0:
154,344,204621,2,0,L|283:354,1,72,0|0,3:0|0:0,0:0:0:0:
251,274,204907,2,0,L|380:264,1,72
379,322,205193,2,0,P|400:277|344:192,1,144,10|0,0:0|0:0,0:0:0:0:
379,322,205764,6,0,P|400:277|344:192,1,144,0|0,3:0|0:0,0:0:0:0:
403,131,206193,1,0,0:0:0:0:
346,76,206335,2,0,L|354:-6,1,72,8|0,0:0|0:0,0:0:0:0:
479,21,206621,2,0,L|472:92,1,72
304,144,206907,102,0,B|245:137|245:137|218:146|218:146|158:141,1,144,0|0,3:0|0:0,0:0:0:0:
126,70,207335,1,0,0:0:0:0:
55,197,207478,2,0,B|52:113|9:142|15:28,1,144,8|0,0:0|0:0,0:0:0:0:
256,211,208050,6,0,P|276:261|179:357,1,144,2|0,3:2|0:0,0:0:0:0:
167,308,208478,1,0,0:0:0:0:
71,377,208621,2,0,L|-17:384,1,72,8|0,0:0|0:0,0:0:0:0:
23,296,208907,2,0,L|172:307,1,144,2|0,0:0|3:0,0:0:0:0:
203,324,209335,1,0,0:0:0:0:
240,339,209478,2,0,L|313:333,1,72
370,382,209764,2,0,P|386:323|332:260,1,144,8|0,0:0|0:0,0:0:0:0:
265,229,210193,1,0,0:0:0:0:
358,159,210335,102,0,B|427:181|427:181|486:133,1,144,0|0,3:0|0:0,0:0:0:0:
411,98,210764,1,0,0:0:0:0:
463,38,210907,2,0,B|394:16|394:16|335:64,1,144,10|0,0:0|0:0,0:0:0:0:
182,33,211478,2,0,P|224:109|194:177,1,144,0|0,3:0|0:0,0:0:0:0:
140,201,211907,1,0,0:0:0:0:
64,176,212050,2,0,L|-19:162,1,72,8|0,0:0|0:0,0:0:0:0:
11,88,212335,2,0,L|81:99,1,72
208,238,212621,6,0,B|203:322|203:322|233:367|284:329,1,144,0|2,3:2|0:0,0:0:0:0:
312,290,213050,1,2,0:0:0:0:
404,384,213193,2,0,L|440:244,1,144,8|0,0:0|0:0,0:0:0:0:
479,158,213621,1,0,0:0:0:0:
468,153,213764,2,0,L|390:159,1,72,0|0,3:0|0:0,0:0:0:0:
296,86,214050,2,0,L|373:80,1,72
439,74,214335,2,0,L|242:89,1,144,10|0,0:0|0:0,0:0:0:0:
439,74,214907,102,0,L|242:89,1,144,0|0,3:0|0:0,0:0:0:0:
229,130,215336,1,0,0:0:0:0:
155,101,215478,2,0,B|152:138|152:138|161:172,1,72,8|0,0:0|0:0,0:0:0:0:
302,155,215764,2,0,B|305:118|305:118|295:83,1,72
244,231,216050,2,0,B|159:219|197:284|93:268,1,144,0|0,3:0|0:0,0:0:0:0:
35,246,216478,1,0,0:0:0:0:
94,340,216621,2,0,P|182:331|234:295,1,144,8|0,0:0|0:0,0:0:0:0:
442,171,217193,6,0,B|389:161|389:161|348:169|348:169|290:151,1,144,2|0,3:2|0:0,0:0:0:0:
255,96,217621,1,0,0:0:0:0:
352,94,217764,2,0,L|428:79,1,72,8|0,0:0|0:0,0:0:0:0:
255,96,218050,2,0,B|183:82|183:82|129:143,1,144,2|0,0:0|3:0,0:0:0:0:
176,203,218478,1,0,0:0:0:0:
138,218,218621,2,0,P|97:210|64:179,1,72
24,255,218907,102,0,P|45:119|38:70,1,144,10|2,0:0|0:0,0:0:0:0:
3,45,219336,1,2,0:0:0:0:
184,82,219764,5,2,0:0:0:0:
169,57,219907,1,2,0:0:0:0:
340,113,220335,101,2,0:0:0:0:
325,88,220478,1,2,0:0:0:0:
499,146,220907,5,2,0:0:0:0:
484,121,221050,1,2,0:0:0:0:
325,88,221478,101,2,0:0:0:0:
340,113,221621,1,2,0:0:0:0:
355,137,221764,6,0,B|372:123|416:110|457:128|469:209|421:247|404:232|358:242|345:294|345:294|328:231|285:238|242:235|218:158|268:106|320:112|343:143|343:143|340:172|349:194,1,585.899983684273,4|0,0:1|0:0,0:0:0:0:
