osu file format v14

[General]
AudioFilename: audio.mp3
AudioLeadIn: 0
PreviewTime: 38171
Countdown: 0
SampleSet: Soft
StackLeniency: 0.7
Mode: 0
LetterboxInBreaks: 0
WidescreenStoryboard: 1

[Editor]
Bookmarks: 99343,129343,136843,151843,196843
DistanceSpacing: 1
BeatDivisor: 4
GridSize: 8
TimelineZoom: 1.5

[Metadata]
Title:My Love (DestoppeD Remix)
TitleUnicode:My Love (DestoppeD Remix)
Artist:Kuba Oms
ArtistUnicode:Kuba Oms
Creator:Mirash
Version:Hard
Source:A Labour of Love
Tags:labor electronic pop english neilperry tommy phelps sing of love
BeatmapID:2867788
BeatmapSetID:1388552

[Difficulty]
HPDrainRate:5
CircleSize:4
OverallDifficulty:7
ApproachRate:8
SliderMultiplier:1.6
SliderTickRate:1

[Events]
//Background and Video events
0,0,"mylove.png",0,0
//Break Periods
2,24543,29218
2,69542,74921
2,129543,136093
//Storyboard Layer 0 (Background)
//Storyboard Layer 1 (Fail)
//Storyboard Layer 2 (Pass)
//Storyboard Layer 3 (Foreground)
//Storyboard Layer 4 (Overlay)
//Storyboard Sound Samples

[TimingPoints]
1843,468.75,4,2,1,35,1,0
9343,-83.3333333333333,4,2,1,40,0,0
30436,-133.333333333333,4,2,1,40,0,0
32077,-133.333333333333,4,2,3,40,0,0
32546,-133.333333333333,4,2,1,40,0,0
33249,-133.333333333333,4,2,3,40,0,0
34421,-133.333333333333,4,2,1,40,0,0
35124,-133.333333333333,4,2,3,40,0,0
35358,-133.333333333333,4,2,1,40,0,0
35593,-133.333333333333,4,2,3,40,0,0
38874,-133.333333333333,4,2,1,40,0,0
39343,-133.333333333333,4,2,3,60,0,0
39577,-76.9230769230769,4,2,3,60,0,0
46139,-66.6666666666667,4,2,3,60,0,0
47311,-76.9230769230769,4,2,3,60,0,0
53639,-66.6666666666667,4,2,3,60,0,0
54343,-66.6666666666667,4,2,3,60,0,0
54811,-76.9230769230769,4,2,3,60,0,0
61139,-66.6666666666667,4,2,3,60,0,0
62311,-76.9230769230769,4,2,3,60,0,0
68639,-76.9230769230769,4,2,1,50,0,0
68874,-100,4,2,1,50,0,0
69343,-100,4,2,1,40,0,0
70280,-100,4,2,1,30,0,0
72155,-100,4,2,3,40,0,0
73093,-100,4,2,1,40,0,0
76843,-100,4,2,1,40,0,0
84577,-133.333333333333,4,2,1,40,0,0
93249,-133.333333333333,4,2,3,40,0,0
93483,-133.333333333333,4,2,1,40,0,0
99343,-76.9230769230769,4,2,3,60,0,0
106139,-66.6666666666667,4,2,3,60,0,0
107546,-76.9230769230769,4,2,3,60,0,0
113639,-66.6666666666667,4,2,3,60,0,0
115046,-76.9230769230769,4,2,3,60,0,0
121139,-66.6666666666667,4,2,3,60,0,0
122311,-76.9230769230769,4,2,3,60,0,0
128639,-76.9230769230769,4,2,1,50,0,0
136843,-76.9230769230769,4,2,1,35,0,0
137077,-133.333333333333,4,2,1,35,0,0
151843,-133.333333333333,4,2,1,40,0,0
163093,-100,4,2,1,40,0,0
166374,-133.333333333333,4,2,1,40,0,0
166843,-76.9230769230769,4,2,3,65,0,0
173639,-66.6666666666667,4,2,3,65,0,0
174811,-76.9230769230769,4,2,3,65,0,0
179440,-76.9230769230769,4,2,3,5,0,0
179499,-76.9230769230769,4,2,3,65,0,0
181139,-66.6666666666667,4,2,3,65,0,0
182311,-76.9230769230769,4,2,3,65,0,0
188639,-66.6666666666667,4,2,3,65,0,0
189811,-76.9230769230769,4,2,3,65,0,0
196139,-66.6666666666667,4,2,3,65,0,0
196843,-100,4,2,3,60,0,0
203639,-66.6666666666667,4,2,3,60,0,0
205046,-100,4,2,3,60,0,0
211139,-66.6666666666667,4,2,3,60,0,0
212546,-83.3333333333333,4,2,3,60,0,0
218639,-66.6666666666667,4,2,3,60,0,0
219811,-83.3333333333333,4,2,3,60,0,0

[Colours]
Combo1 : 170,213,255
Combo2 : 53,255,154
Combo3 : 238,57,121
Combo4 : 238,158,87
Combo5 : 255,225,225

[HitObjects]
116,47,1843,22,0,P|188:65|255:72,2,120,0|0|2,3:0|3:0|0:1,0:0:0:0:
36,40,2780,2,0,P|33:92|27:133,1,80,8|0,0:2|0:0,0:0:0:0:
118,209,3249,2,0,P|113:169|111:129,1,80,8|8,3:2|0:0,0:0:0:0:
49,245,3718,21,0,0:0:0:0:
107,299,3952,1,2,0:1:0:0:
177,261,4186,2,0,P|216:256|256:254,1,80,0|0,3:0|0:0,0:0:0:0:
310,195,4655,1,8,0:0:0:0:
364,253,4889,1,0,3:0:0:0:
431,209,5124,1,0,0:0:0:0:
431,209,5241,1,2,0:1:0:0:
431,209,5358,1,2,0:1:0:0:
496,254,5593,38,0,P|479:300|455:381,2,120,0|0|2,3:0|3:0|0:1,0:0:0:0:
499,174,6530,2,0,P|484:129|473:85,1,80,8|0,0:0|0:0,0:0:0:0:
396,108,6999,1,0,3:0:0:0:
351,46,7233,1,8,0:0:0:0:
273,57,7468,2,0,P|205:71|166:78,1,80,2|8,0:1|0:0,0:0:0:0:
130,26,7936,1,0,3:0:0:0:
57,46,8171,1,0,0:0:0:0:
57,46,8405,2,0,P|58:110|57:149,1,80,8|0,0:0|3:0,0:0:0:0:
123,172,8874,1,8,0:0:0:0:
123,172,8991,1,8,0:0:0:0:
78,238,9225,1,0,0:0:0:0:
78,238,9343,22,0,P|99:278|191:296,1,143.999995605469,4|0,3:1|3:0,0:0:0:0:
219,259,9811,2,0,P|270:272|334:288,1,95.9999970703126,2|0,0:0|0:0,0:0:0:0:
360,365,10280,1,8,0:0:0:0:
496,280,10632,1,2,0:0:0:0:
496,280,10749,2,0,P|443:285|393:288,1,95.9999970703126,0|8,3:0|0:2,0:0:0:0:
339,212,11218,37,2,0:1:0:0:
373,127,11452,1,8,0:0:0:0:
373,127,11569,1,0,0:0:0:0:
373,127,11686,2,0,P|366:61|355:16,1,95.9999970703126,0|0,3:0|0:0,0:0:0:0:
451,5,12155,1,8,0:0:0:0:
451,5,12389,2,0,P|456:84|459:225,1,191.999994140625,0|0,3:0|0:0,0:0:0:0:
300,186,13093,6,0,P|255:152|296:83,1,143.999995605469,4|0,3:1|3:0,0:0:0:0:
288,84,13561,2,0,P|222:84|179:91,1,95.9999970703126,0|0,0:0|0:0,0:0:0:0:
110,37,14030,1,8,0:0:0:0:
2,195,14499,1,0,3:0:0:0:
86,240,14733,2,0,L|69:277,2,23.9999992675781,0|2|2,0:1|0:1|0:1,0:0:0:0:
117,228,14968,2,0,L|174:251,4,47.9999985351563,2|2|2|2|0,0:1|0:1|0:1|0:1|3:0,0:0:0:0:
236,204,15671,1,0,0:0:0:0:
279,289,15905,2,0,P|275:224|275:177,1,95.9999970703126,8|0,0:0|3:0,0:0:0:0:
360,148,16374,2,0,P|366:168|369:185,4,23.9999992675781,0|0|8|0|0,0:0|0:0|0:0|0:0|3:0,0:0:0:0:
392,112,16725,1,0,3:0:0:0:
438,124,16843,6,0,P|462:77|393:7,2,143.999995605469,4|0|0,3:1|3:0|0:0,0:0:0:0:
494,201,17780,1,8,0:0:0:0:
314,267,18249,2,0,P|241:257|201:253,1,95.9999970703126,0|2,0:0|0:0,0:0:0:0:
141,311,18718,1,2,0:1:0:0:
80,236,18952,1,2,0:0:0:0:
156,178,19186,2,0,P|156:120|149:68,1,95.9999970703126,0|0,3:0|0:0,0:0:0:0:
71,29,19655,1,8,0:0:0:0:
71,29,19889,2,0,P|72:96|61:261,1,191.999994140625,0|2,3:0|0:1,0:0:0:0:
25,308,20593,37,4,3:1:0:0:
103,362,20827,1,2,0:1:0:0:
103,362,20944,1,0,0:0:0:0:
103,362,21061,1,0,0:0:0:0:
158,283,21296,1,0,0:0:0:0:
232,343,21530,1,8,0:0:0:0:
395,195,21999,2,0,P|336:198|290:198,1,95.9999970703126,0|2,3:0|0:0,0:0:0:0:
228,132,22468,5,8,0:0:0:0:
136,160,22702,2,0,P|146:208|147:219,2,47.9999985351563,0|0|0,0:0|0:0|3:0,0:0:0:0:
80,81,23171,1,0,0:0:0:0:
170,50,23405,1,8,0:0:0:0:
228,132,23639,1,0,3:0:0:0:
228,132,23757,1,8,0:0:0:0:
228,132,23874,1,0,0:0:0:0:
293,43,24108,1,0,3:0:0:0:
382,120,24343,1,12,3:1:0:0:
330,118,29968,5,8,3:2:0:0:
412,235,30319,1,0,0:0:0:0:
412,235,30436,2,0,P|325:256|291:266,1,120.000004577637,8|8,0:0|0:0,0:0:0:0:
227,234,31139,1,2,3:2:0:0:
190,300,31374,2,0,P|166:305|141:315,3,30.0000011444092,10|2|2|2,0:0|0:0|0:1|0:0,0:0:0:0:
126,283,31843,6,0,P|130:246|134:198,1,60.0000022888184,0|8,3:0|0:1,0:0:0:0:
214,172,32311,2,0,P|210:135|206:87,1,60.0000022888184,8|0,3:2|0:0,0:0:0:0:
118,61,32780,1,0,3:0:0:0:
118,61,32897,1,0,0:0:0:0:
118,61,33014,1,8,0:0:0:0:
46,136,33249,2,0,P|43:165|39:195,1,60.0000022888184,8|8,3:1|0:0,0:0:0:0:
60,297,33718,53,0,3:0:0:0:
139,240,33952,1,8,0:1:0:0:
139,240,34069,1,0,0:0:0:0:
139,240,34186,1,8,3:2:0:0:
187,331,34421,1,8,0:0:0:0:
257,264,34655,1,0,3:0:0:0:
319,328,34889,1,10,0:0:0:0:
386,270,35124,2,0,P|377:213|374:157,1,90.0000034332277,8|0,0:1|0:0,0:0:0:0:
361,153,35593,6,0,P|356:138|353:110,3,30.0000011444092,8|0|8|0,3:1|0:0|1:0|0:0,0:0:0:0:
346,46,36061,2,0,P|361:49|387:60,3,30.0000011444092,8|0|8|0,3:1|0:0|1:0|0:0,0:0:0:0:
445,89,36530,2,0,P|434:100|411:117,3,30.0000011444092,8|0|8|0,3:1|1:0|1:0|1:0,0:0:0:0:
439,185,36999,1,8,3:1:0:0:
443,214,37116,1,0,1:0:0:0:
447,243,37233,1,8,0:1:0:0:
451,272,37350,1,0,3:0:0:0:
456,301,37468,1,0,3:0:0:0:
160,326,39343,5,4,3:1:0:0:
160,326,39460,1,0,0:0:0:0:
160,326,39577,2,0,P|165:267|164:202,1,103.999995239258,0|8,0:0|0:0,0:0:0:0:
164,196,39928,1,2,0:0:0:0:
164,169,40046,2,0,P|165:140|170:105,1,51.999997619629,2|2,0:0|0:0,0:0:0:0:
167,117,40514,1,2,3:2:0:0:
73,71,40749,1,8,0:0:0:0:
149,0,40983,1,2,0:0:0:0:
241,48,41218,6,0,P|284:54|361:60,1,103.999995239258,2|2,3:2|0:0,0:0:0:0:
438,15,41686,1,8,0:3:0:0:
495,101,41921,2,0,P|486:185|481:316,1,207.999990478516,0|2,3:0|3:2,0:0:0:0:
387,354,42624,1,8,0:3:0:0:
361,348,42741,1,0,0:0:0:0:
335,342,42858,1,2,0:0:0:0:
309,336,42975,1,0,0:0:0:0:
284,326,43093,2,0,P|222:277|236:147,1,207.999990478516,4|8,3:1|0:0,0:0:0:0:
317,103,43796,1,0,3:0:0:0:
317,103,44264,1,2,0:0:0:0:
239,33,44499,1,8,0:0:0:0:
174,114,44733,5,2,3:2:0:0:
148,118,44850,1,2,0:0:0:0:
122,123,44968,1,2,3:2:0:0:
97,130,45085,1,2,0:0:0:0:
71,136,45202,2,0,P|78:97|82:67,2,51.999997619629,2|2|8,3:2|0:0|0:3,0:0:0:0:
137,216,45671,1,0,0:0:0:0:
137,216,46139,38,0,B|194:202|194:202|228:253,1,120.000004577637,0|8,3:0|0:3,0:0:0:0:
219,370,46608,1,0,0:0:0:0:
330,325,46843,2,0,L|312:180,1,120.000004577637,4|2,3:1|0:0,0:0:0:0:
245,129,47311,1,8,0:0:0:0:
299,40,47546,1,2,0:0:0:0:
299,40,48014,1,0,3:0:0:0:
385,98,48249,1,10,0:0:0:0:
410,100,48366,1,2,0:0:0:0:
435,103,48483,1,2,0:0:0:0:
460,106,48600,1,2,0:0:0:0:
485,109,48718,2,0,P|493:165|509:224,2,103.999995239258,2|2|8,3:2|0:0|0:3,0:0:0:0:
402,172,49421,6,0,P|401:263|387:381,1,207.999990478516,0|2,3:0|3:2,0:0:0:0:
320,299,50124,2,0,P|294:247|308:185,1,103.999995239258,8|2,0:0|0:0,0:0:0:0:
224,128,50593,2,0,B|342:127|289:51|420:50,1,207.999990478516,4|8,3:1|0:3,0:0:0:0:
249,29,51296,2,0,P|177:36|129:161,1,207.999990478516,0|2,3:0|0:2,0:0:0:0:
102,161,51882,1,2,0:0:0:0:
106,186,51999,1,10,0:0:0:0:
205,216,52233,1,2,3:2:0:0:
149,304,52468,5,2,3:2:0:0:
243,347,52702,1,2,3:2:0:0:
301,261,52936,1,8,0:3:0:0:
205,216,53171,1,2,0:0:0:0:
205,216,53288,1,2,0:0:0:0:
149,304,53522,1,8,0:0:0:0:
149,304,53639,1,0,3:0:0:0:
46,307,53874,37,8,0:3:0:0:
47,281,53991,1,0,0:0:0:0:
48,255,54108,1,0,3:0:0:0:
49,229,54225,1,0,3:0:0:0:
50,202,54343,2,0,P|49:120|41:20,1,180.000006866455,4|0,3:1|0:0,0:0:0:0:
62,0,54811,2,0,P|128:33|134:63,1,103.999995239258,2|0,0:0|0:0,0:0:0:0:
157,168,55280,1,8,0:0:0:0:
157,168,55514,2,0,P|255:157|284:152,2,103.999995239258,2|0|2,3:2|0:0|0:0,0:0:0:0:
207,259,56218,6,0,P|290:260|348:141,1,207.999990478516,2|2,3:2|0:0,0:0:0:0:
296,73,56921,1,2,3:2:0:0:
386,22,57155,2,0,P|415:93|425:144,1,103.999995239258,8|2,0:3|0:0,0:0:0:0:
509,175,57624,5,2,0:0:0:0:
498,198,57741,1,2,0:0:0:0:
487,221,57858,1,2,0:0:0:0:
477,245,57975,1,2,0:0:0:0:
467,269,58093,2,0,P|401:276|243:306,1,207.999990478516,2|2,3:2|0:0,0:0:0:0:
188,227,58796,1,2,3:2:0:0:
113,299,59030,1,8,0:3:0:0:
113,299,59264,38,0,P|164:327|223:377,2,103.999995239258,2|2|2,0:0|0:0|3:2,0:0:0:0:
87,302,59850,1,2,0:0:0:0:
61,305,59968,2,0,P|33:315|6:333,3,51.999997619629,2|2|2|2,3:2|0:0|3:2|0:0,0:0:0:0:
89,275,60436,2,0,P|96:205|96:137,1,103.999995239258,2|2,0:0|0:0,0:0:0:0:
90,67,60905,1,8,0:3:0:0:
90,67,61139,6,0,B|139:98|139:98|200:50,1,120.000004577637,4|2,3:1|0:0,0:0:0:0:
303,94,61608,1,2,0:0:0:0:
216,177,61843,2,0,L|238:370,1,180.000006866455,4|0,3:1|0:0,0:0:0:0:
258,369,62311,6,0,P|304:345|316:283,1,103.999995239258,2|0,0:0|0:0,0:0:0:0:
422,331,62780,1,10,0:0:0:0:
422,331,63014,2,0,P|418:279|412:227,1,103.999995239258,2|2,3:2|0:0,0:0:0:0:
412,227,63366,1,2,0:0:0:0:
412,227,63483,1,2,0:0:0:0:
314,190,63718,38,0,P|253:168|225:102,1,103.999995239258,2|2,3:2|0:0,0:0:0:0:
258,37,64186,2,0,P|319:59|347:125,1,103.999995239258,2|2,0:0|3:2,0:0:0:0:
443,123,64655,1,8,0:3:0:0:
443,123,64889,2,0,P|431:187|428:242,1,103.999995239258,2|2,0:0|0:0,0:0:0:0:
428,225,65241,1,0,0:0:0:0:
428,225,65358,1,2,0:0:0:0:
362,306,65593,6,0,P|271:293|139:261,1,207.999990478516,2|2,3:2|0:0,0:0:0:0:
109,174,66296,1,2,3:2:0:0:
44,256,66530,1,8,0:3:0:0:
44,256,66764,2,0,P|32:196|24:140,1,103.999995239258,2|2,0:0|0:0,0:0:0:0:
99,79,67233,5,2,3:2:0:0:
99,79,67350,1,2,0:0:0:0:
99,79,67468,1,2,3:2:0:0:
178,145,67702,1,2,3:2:0:0:
251,72,67936,1,2,0:0:0:0:
251,72,68053,1,2,0:0:0:0:
251,72,68171,1,2,3:2:0:0:
328,140,68405,2,0,P|389:135|442:119,1,103.999995239258,8|2,0:3|0:1,0:0:0:0:
447,103,68757,1,2,0:1:0:0:
466,107,68874,2,0,P|468:152|470:164,4,40,2|2|2|2|4,0:1|0:1|0:1|0:1|3:1,0:0:0:0:
260,81,75671,5,0,3:0:0:0:
294,152,75905,1,8,0:0:0:0:
214,145,76139,1,0,3:0:0:0:
416,11,76843,38,0,P|425:73|430:97,1,80,4|0,3:1|0:0,0:0:0:0:
459,114,77194,2,0,P|452:169|445:209,1,80,0|0,3:0|0:0,0:0:0:0:
336,238,77780,2,0,P|299:263|293:379,1,160,8|0,0:0|3:0,0:0:0:0:
367,371,78483,1,8,0:0:0:0:
445,353,78718,2,0,P|436:291|428:244,1,80,2|8,0:0|0:0,0:0:0:0:
364,232,79186,1,0,3:0:0:0:
396,158,79421,1,0,0:0:0:0:
322,126,79655,1,2,0:1:0:0:
343,48,79889,22,0,P|295:54|93:48,1,240,0|4,3:0|3:1,0:0:0:0:
103,49,80944,1,0,3:0:0:0:
103,49,81061,1,2,0:0:0:0:
144,117,81296,1,0,0:0:0:0:
106,187,81530,2,0,P|116:242|125:297,2,80,2|0|0,0:1|0:0|3:0,0:0:0:0:
35,149,82233,1,0,0:0:0:0:
32,229,82468,38,0,P|115:234|211:230,1,160,8|0,0:0|3:0,0:0:0:0:
251,178,83171,1,2,0:0:0:0:
304,237,83405,2,0,P|303:262|301:272,4,20,8|2|2|2|0,0:0|0:1|0:1|0:1|3:0,0:0:0:0:
366,186,83874,2,0,P|367:161|369:151,4,20,8|2|2|2|0,0:0|0:3|0:3|0:3|3:0,0:0:0:0:
424,241,84343,21,4,3:1:0:0:
488,178,84694,1,2,0:1:0:0:
488,178,84811,2,0,P|482:127|479:96,1,60.0000022888184,8|2,0:1|0:0,0:0:0:0:
419,79,85280,1,10,0:0:0:0:
439,8,85514,1,2,3:2:0:0:
439,8,85632,1,2,0:1:0:0:
439,8,85749,2,0,P|394:9|356:16,1,60.0000022888184,8|2,0:0|0:1,0:0:0:0:
330,64,86218,38,0,P|292:61|222:54,1,90.0000034332277,0|2,3:0|0:1,0:0:0:0:
219,26,86686,2,0,P|175:36|146:38,1,60.0000022888184,8|2,0:1|0:0,0:0:0:0:
88,33,87155,2,0,P|63:37|60:37,8,15.0000005722046,0|0|0|0|0|0|0|0|8,1:0|0:0|0:0|0:0|3:0|0:0|0:0|0:0|0:0,0:0:0:0:
126,108,87858,5,8,0:0:0:0:
126,108,87975,1,2,0:1:0:0:
126,108,88093,2,0,P|132:157|132:188,1,60.0000022888184,8|8,3:0|0:0,0:0:0:0:
82,219,88561,1,8,0:0:0:0:
134,268,88796,1,2,0:1:0:0:
107,334,89030,1,8,0:1:0:0:
171,384,89264,1,0,3:0:0:0:
171,384,89382,1,2,0:1:0:0:
171,384,89499,2,0,P|229:369|251:365,1,60.0000022888184,8|2,0:0|0:1,0:0:0:0:
251,300,89968,6,0,P|287:308|372:320,1,120.000004577637,4|8,3:1|0:0,0:0:0:0:
433,286,90671,1,2,0:1:0:0:
492,325,90905,2,0,P|497:346|499:352,8,15.0000005722046,8|0|0|0|0|0|0|0|8,1:2|0:0|0:0|0:0|3:0|0:0|0:0|0:0|0:0,0:0:0:0:
510,255,91608,37,8,0:0:0:0:
510,255,91725,1,0,0:1:0:0:
510,255,91843,1,8,3:1:0:0:
449,202,92077,2,0,P|424:212|415:216,2,30.0000011444092,8|0|8,0:0|0:0|3:1,0:0:0:0:
474,133,92546,2,0,P|499:143|508:147,2,30.0000011444092,8|0|8,0:0|0:0|3:1,0:0:0:0:
428,76,93014,1,8,0:0:0:0:
448,6,93249,1,8,3:2:0:0:
376,10,93483,1,8,0:0:0:0:
344,74,93718,6,0,P|285:64|245:58,1,90.0000034332277,8|0,3:1|0:0,0:0:0:0:
236,28,94186,2,0,P|203:34|168:42,1,60.0000022888184,8|8,3:1|0:0,0:0:0:0:
105,27,94655,1,8,3:1:0:0:
118,107,94889,1,8,0:0:0:0:
118,107,95007,1,0,0:0:0:0:
118,107,95124,1,8,3:1:0:0:
188,122,95358,1,8,0:0:0:0:
260,119,95593,6,0,P|273:127|286:138,3,30.0000011444092,8|0|8|0,3:2|0:0|3:2|0:0,0:0:0:0:
327,200,96061,2,0,P|313:207|297:213,3,30.0000011444092,0|0|0|0,3:0|0:0|3:0|0:0,0:0:0:0:
225,221,96530,2,0,P|225:205|228:188,3,30.0000011444092,0|8|0|8,3:0|0:0|3:0|0:0,0:0:0:0:
153,176,96999,1,8,3:2:0:0:
124,184,97116,1,8,1:0:0:0:
95,192,97233,1,8,3:2:0:0:
66,200,97350,1,8,3:2:0:0:
37,209,97468,1,0,3:0:0:0:
37,209,99343,21,4,3:1:0:0:
37,209,99460,1,0,0:0:0:0:
37,209,99577,2,0,P|95:205|147:201,1,103.999995239258,0|8,0:0|0:0,0:0:0:0:
161,186,99928,1,0,0:0:0:0:
184,197,100046,2,0,P|220:198|249:202,1,51.999997619629,2|2,0:0|0:0,0:0:0:0:
235,199,100514,1,2,3:2:0:0:
299,280,100749,1,8,0:0:0:0:
383,219,100983,1,2,0:0:0:0:
319,136,101218,6,0,P|314:78|312:14,2,103.999995239258,2|0|8,3:2|0:0|0:3,0:0:0:0:
215,126,101921,2,0,P|137:117|86:-1,1,207.999990478516,0|2,3:0|3:2,0:0:0:0:
188,9,102624,1,8,0:3:0:0:
212,16,102741,1,0,0:0:0:0:
236,23,102858,1,2,0:0:0:0:
260,30,102975,1,0,0:0:0:0:
284,39,103093,6,0,P|375:35|493:17,1,207.999990478516,4|8,3:1|0:0,0:0:0:0:
487,121,103796,1,2,3:2:0:0:
487,121,104264,1,2,0:0:0:0:
414,196,104499,2,0,P|427:255|440:309,1,103.999995239258,8|2,0:0|3:2,0:0:0:0:
413,308,104850,1,2,0:0:0:0:
389,318,104968,1,2,3:2:0:0:
365,329,105085,1,0,0:0:0:0:
340,338,105202,2,0,P|306:327|268:320,2,51.999997619629,2|0|8,3:2|0:0|0:3,0:0:0:0:
212,358,105671,1,2,0:0:0:0:
212,358,106139,38,0,B|177:306|177:306|211:249,1,120.000004577637,0|8,3:0|0:3,0:0:0:0:
297,178,106608,1,2,0:0:0:0:
207,97,106843,2,0,B|86:107|86:107|66:258,1,240.000009155274,4|10,3:1|0:0,0:0:0:0:
15,313,107546,1,2,0:0:0:0:
15,313,108014,6,0,P|11:236|-1:167,1,103.999995239258,2|8,3:2|0:0,0:0:0:0:
17,185,108366,1,0,0:0:0:0:
26,160,108483,1,2,0:0:0:0:
36,136,108600,1,2,0:0:0:0:
47,112,108718,2,0,P|51:35|63:-34,1,103.999995239258,2|0,3:2|0:0,0:0:0:0:
151,44,109186,1,8,0:3:0:0:
247,0,109421,2,0,P|257:71|259:237,1,207.999990478516,2|0,3:2|3:2,0:0:0:0:
349,261,110124,1,10,0:0:0:0:
261,317,110358,1,2,0:0:0:0:
174,258,110593,6,0,P|115:260|29:384,1,207.999990478516,4|8,3:1|0:3,0:0:0:0:
132,376,111296,1,2,3:2:0:0:
132,376,111764,1,2,0:0:0:0:
156,367,111882,1,2,0:0:0:0:
180,358,111999,2,0,P|215:364|240:373,2,51.999997619629,10|0|2,0:0|0:0|3:2,0:0:0:0:
257,287,112468,1,2,3:2:0:0:
335,355,112702,1,0,0:0:0:0:
423,300,112936,1,8,0:3:0:0:
408,196,113171,1,2,0:0:0:0:
408,196,113288,1,0,0:0:0:0:
305,179,113522,1,8,0:0:0:0:
305,179,113639,1,0,0:0:0:0:
193,194,113874,37,8,0:3:0:0:
188,170,113991,1,0,3:0:0:0:
186,146,114108,1,2,3:2:0:0:
181,122,114225,1,0,3:0:0:0:
178,97,114343,2,0,P|202:45|366:36,1,240.000009155274,4|2,3:1|0:0,0:0:0:0:
488,5,115046,6,0,P|479:78|474:126,1,103.999995239258,0|8,0:0|0:0,0:0:0:0:
391,155,115514,1,2,3:2:0:0:
453,238,115749,1,2,0:0:0:0:
362,288,115983,1,2,0:0:0:0:
294,208,116218,6,0,P|231:216|71:231,1,207.999990478516,2|2,3:2|0:0,0:0:0:0:
12,156,116921,1,0,0:0:0:0:
2,259,117155,1,8,0:3:0:0:
77,329,117389,1,2,0:0:0:0:
170,282,117624,1,2,0:0:0:0:
170,282,117741,1,2,0:0:0:0:
170,282,117858,1,2,0:0:0:0:
170,282,117975,1,2,0:0:0:0:
170,282,118093,38,0,P|229:309|374:339,1,207.999990478516,2|2,3:2|0:0,0:0:0:0:
391,237,118796,1,0,0:0:0:0:
473,300,119030,1,8,0:3:0:0:
473,300,119264,2,0,P|471:239|469:173,1,103.999995239258,2|2,0:0|0:0,0:0:0:0:
399,118,119733,1,2,3:2:0:0:
425,20,119968,1,2,3:2:0:0:
399,23,120085,1,2,0:0:0:0:
373,26,120202,1,2,3:2:0:0:
347,29,120319,1,2,0:0:0:0:
321,33,120436,1,2,1:2:0:0:
219,9,120671,1,0,1:0:0:0:
190,108,120905,1,8,0:3:0:0:
271,170,121139,6,0,B|212:184|212:184|214:264,1,120.000004577637,4|0,3:1|0:0,0:0:0:0:
145,342,121608,1,0,0:0:0:0:
265,348,121843,2,0,B|351:333|351:333|345:210,1,180.000006866455,4|0,3:1|0:0,0:0:0:0:
333,207,122311,6,0,P|381:200|440:180,1,103.999995239258,2|0,0:0|0:0,0:0:0:0:
446,79,122780,1,8,0:0:0:0:
446,79,123014,2,0,P|398:72|339:52,1,103.999995239258,2|2,3:2|0:0,0:0:0:0:
324,38,123366,1,2,0:0:0:0:
303,54,123483,1,2,0:0:0:0:
204,20,123718,2,0,P|154:36|103:44,3,103.999995239258,2|2|2|2,3:2|0:0|0:0|3:2,0:0:0:0:
2,20,124655,1,8,0:3:0:0:
2,20,124889,2,0,P|6:87|12:138,1,103.999995239258,2|2,0:0|0:0,0:0:0:0:
104,166,125358,1,2,0:0:0:0:
42,250,125593,38,0,P|91:253|258:291,1,207.999990478516,2|2,3:2|1:2,0:0:0:0:
329,224,126296,1,0,0:0:0:0:
378,315,126530,1,8,0:3:0:0:
378,315,126764,2,0,P|320:341|261:372,2,103.999995239258,2|2|2,0:0|0:0|3:2,0:0:0:0:
402,268,127350,1,2,0:0:0:0:
451,285,127468,6,0,P|457:221|460:155,1,103.999995239258,2|2,3:2|3:2,0:0:0:0:
380,113,127936,1,2,0:0:0:0:
365,91,128053,1,2,0:0:0:0:
381,70,128171,1,2,3:2:0:0:
299,5,128405,1,8,0:3:0:0:
244,93,128639,1,2,0:1:0:0:
244,93,128757,1,2,0:1:0:0:
244,93,128874,2,0,P|246:155|245:168,3,51.999997619629,2|2|2|2,3:1|0:1|0:1|0:1,0:0:0:0:
177,178,129343,1,2,3:1:0:0:
44,185,136843,21,0,3:0:0:0:
113,151,137077,2,0,P|121:181|128:205,2,30.0000011444092,0|0|2,0:0|0:0|0:1,0:0:0:0:
111,78,137546,1,0,0:0:0:0:
163,29,137780,2,0,P|208:40|281:162,1,180.000006866455,8|0,0:0|0:0,0:0:0:0:
338,187,138718,2,0,P|324:253|319:313,1,120.000004577637,2|0,0:1|0:0,0:0:0:0:
394,331,139421,2,0,P|399:271|412:212,1,120.000004577637,2|0,0:1|0:0,0:0:0:0:
459,157,140124,1,2,0:1:0:0:
500,215,140358,1,0,0:0:0:0:
473,282,140593,5,0,3:0:0:0:
408,314,140827,2,0,P|382:316|360:324,1,30.0000011444092,0|0,0:0|0:0,0:0:0:0:
309,295,141178,2,0,P|283:293|261:285,1,30.0000011444092,0|0,0:0|0:0,0:0:0:0:
221,248,141530,2,0,P|177:259|81:277,1,120.000004577637,8|0,0:0|0:0,0:0:0:0:
41,237,142233,1,2,0:3:0:0:
38,164,142468,54,0,P|43:108|150:50,1,180.000006866455,2|2,0:0|0:1,0:0:0:0:
191,99,143405,1,8,0:0:0:0:
245,52,143639,1,0,0:0:0:0:
314,73,143874,2,0,P|317:116|323:145,1,60.0000022888184,2|2,0:0|0:0,0:0:0:0:
303,202,144343,6,0,P|282:299|269:396,2,180.000006866455,0|0|0,3:0|0:0|0:0,0:0:0:0:
388,317,146218,1,2,0:1:0:0:
461,293,146452,1,2,0:3:0:0:
461,293,146569,1,0,3:0:0:0:
461,293,146686,1,0,3:0:0:0:
397,245,146921,1,2,0:1:0:0:
459,174,147155,2,0,P|456:129|451:46,1,120.000004577637,8|2,0:0|0:1,0:0:0:0:
451,54,148093,54,0,P|445:103|413:258,1,180.000006866455,0|0,3:0|0:0,0:0:0:0:
351,254,149030,1,8,0:0:0:0:
305,198,149264,1,0,0:0:0:0:
238,225,149499,2,0,P|192:232|152:240,1,60.0000022888184,0|0,0:0|0:0,0:0:0:0:
122,188,149968,5,0,3:0:0:0:
60,224,150202,2,0,P|30:225|18:227,2,30.0000011444092,0|0|0,0:0|0:0|0:0,0:0:0:0:
0,294,150671,1,2,0:1:0:0:
47,355,150905,1,8,0:0:0:0:
107,316,151139,2,0,P|186:318|287:343,1,180.000006866455,0|4,3:0|3:1,0:0:0:0:
283,341,152311,22,0,P|287:293|291:263,1,60.0000022888184,8|2,0:0|0:1,0:0:0:0:
251,219,152780,1,0,3:2:0:0:
341,106,153249,1,2,0:1:0:0:
200,73,153718,2,0,P|160:85|106:96,1,90.0000034332277,0|0,3:0|3:0,0:0:0:0:
80,79,154186,2,0,P|76:127|72:158,1,60.0000022888184,8|0,0:0|3:0,0:0:0:0:
115,198,154655,2,0,P|150:187|196:176,1,60.0000022888184,8|2,3:1|0:0,0:0:0:0:
235,145,155124,1,8,3:1:0:0:
251,151,155241,1,2,0:1:0:0:
267,157,155358,1,0,3:0:0:0:
283,163,155475,1,2,0:1:0:0:
299,169,155593,1,8,3:1:0:0:
376,154,155827,22,0,P|373:185|373:208,2,30.0000011444092,2|0|8,0:1|3:0|0:0,0:0:0:0:
448,182,156296,1,0,3:0:0:0:
414,250,156530,2,0,P|417:287|418:316,1,60.0000022888184,8|2,0:1|0:0,0:0:0:0:
360,357,156999,1,0,3:0:0:0:
315,299,157233,1,0,3:0:0:0:
261,347,157468,38,0,P|222:355|187:362,1,60.0000022888184,8|0,3:1|0:0,0:0:0:0:
137,327,157936,1,0,3:0:0:0:
89,190,158405,2,0,P|142:202|175:209,2,60.0000022888184,0|2|10,3:0|0:0|3:2,0:0:0:0:
197,136,159108,21,2,3:2:0:0:
197,136,159225,1,2,3:2:0:0:
197,136,159343,2,0,P|250:148|283:155,1,60.0000022888184,8|8,3:1|0:0,0:0:0:0:
337,90,159811,2,0,P|307:83|278:76,1,60.0000022888184,8|8,3:1|0:0,0:0:0:0:
220,33,160280,2,0,P|167:44|122:51,1,90.0000034332277,8|0,3:1|3:0,0:0:0:0:
105,25,160749,2,0,P|91:64|81:91,1,60.0000022888184,8|0,0:1|3:0,0:0:0:0:
26,123,161218,38,0,P|47:168|82:258,1,120.000004577637,8|8,3:1|3:1,0:0:0:0:
153,257,161921,1,8,0:0:0:0:
153,257,162038,1,2,0:1:0:0:
153,257,162155,2,0,P|139:296|129:323,1,60.0000022888184,8|8,3:1|0:0,0:0:0:0:
188,359,162624,1,8,3:1:0:0:
255,334,162858,1,8,0:0:0:0:
281,266,163093,22,0,P|277:234|265:172,1,80,8|0,3:1|3:0,0:0:0:0:
374,153,163561,2,0,P|366:192|361:231,1,80,8|0,3:1|3:0,0:0:0:0:
463,292,164030,1,8,3:1:0:0:
459,272,164147,1,0,3:0:0:0:
455,252,164264,1,0,3:0:0:0:
451,232,164382,1,0,3:0:0:0:
447,212,164499,2,0,P|480:207|500:201,4,40,8|0|0|0|4,3:1|3:0|3:0|3:0|3:1,0:0:0:0:
447,212,165671,1,0,0:0:0:0:
418,278,165905,1,0,0:0:0:0:
355,243,166139,1,0,0:0:0:0:
303,294,166374,2,0,P|260:304|226:310,1,60.0000022888184,0|0,0:0|0:0,0:0:0:0:
140,309,166843,22,0,P|100:255|172:137,1,207.999990478516,4|8,3:1|0:0,0:0:0:0:
163,37,167546,1,2,0:0:0:0:
260,72,167780,2,0,P|312:98|366:119,1,103.999995239258,0|2,3:0|0:0,0:0:0:0:
444,62,168249,1,8,0:3:0:0:
476,160,168483,1,2,0:0:0:0:
385,212,168718,6,0,P|380:275|363:386,1,155.999992858887,2|2,3:2|0:0,0:0:0:0:
343,378,169186,2,0,P|289:340|294:264,1,103.999995239258,8|2,0:0|0:0,0:0:0:0:
270,202,169655,1,2,3:2:0:0:
174,241,169889,1,2,0:0:0:0:
143,141,170124,1,8,0:3:0:0:
118,148,170241,1,2,0:0:0:0:
93,155,170358,1,2,0:0:0:0:
68,162,170475,1,2,0:0:0:0:
43,170,170593,6,0,P|125:170|260:157,1,207.999990478516,2|8,3:2|0:1,0:0:0:0:
340,63,171296,2,0,P|390:88|444:110,1,103.999995239258,2|2,0:0|3:2,0:0:0:0:
359,178,171764,1,2,0:0:0:0:
261,140,171999,2,0,P|203:147|127:152,1,103.999995239258,8|2,0:3|0:0,0:0:0:0:
146,126,172350,1,2,0:0:0:0:
123,138,172468,1,2,3:2:0:0:
100,150,172585,1,2,0:0:0:0:
77,162,172702,1,2,0:0:0:0:
54,174,172819,1,2,0:0:0:0:
33,189,172936,2,0,P|25:246|16:324,1,103.999995239258,8|2,0:1|0:0,0:0:0:0:
84,373,173405,1,2,3:2:0:0:
175,295,173639,38,0,B|231:326|231:326|300:277,1,120.000004577637,2|8,0:0|0:3,0:0:0:0:
258,174,174108,1,0,3:0:0:0:
249,138,174225,1,2,1:2:0:0:
243,102,174343,2,0,B|157:91|157:91|123:192,1,180.000006866455,4|2,3:1|0:0,0:0:0:0:
97,168,174811,6,0,P|114:223|128:282,2,103.999995239258,8|2|2,0:0|0:0|3:2,0:0:0:0:
24,93,175514,1,2,0:0:0:0:
115,42,175749,1,8,0:3:0:0:
115,42,175866,1,0,0:0:0:0:
115,42,175983,1,2,0:0:0:0:
182,121,176218,6,0,P|246:109|331:92,3,103.999995239258,2|0|8|2,3:2|0:0|0:0|0:0,0:0:0:0:
364,36,177155,1,2,3:2:0:0:
407,130,177389,1,2,0:0:0:0:
510,117,177624,2,0,P|503:56|500:-1,1,103.999995239258,8|2,0:3|0:0,0:0:0:0:
321,147,178093,38,0,P|330:211|349:368,1,207.999990478516,2|8,3:2|0:1,0:0:0:0:
245,376,178796,1,2,0:0:0:0:
147,192,179264,1,2,0:0:0:0:
216,269,179499,6,0,P|228:165|233:134,1,103.999995239258,8|2,0:3|0:0,0:0:0:0:
245,145,179850,1,2,0:0:0:0:
230,123,179968,2,0,P|217:19|213:-12,1,103.999995239258,2|2,3:2|0:0,0:0:0:0:
114,13,180436,1,8,0:3:0:0:
110,38,180553,1,2,0:0:0:0:
106,63,180671,1,2,0:0:0:0:
11,105,180905,1,2,3:2:0:0:
92,168,181139,6,0,B|108:195|108:195|99:238,2,60.0000022888184,2|2|8,0:0|0:0|0:0,0:0:0:0:
19,245,181608,1,2,3:2:0:0:
35,269,181725,1,2,1:2:0:0:
53,293,181843,2,0,B|90:272|90:272|221:341,1,180.000006866455,4|0,3:1|0:0,0:0:0:0:
226,357,182311,38,0,L|345:328,2,103.999995239258,8|0|2,0:0|0:0|3:2,0:0:0:0:
263,259,183014,1,2,0:0:0:0:
367,253,183249,2,0,P|370:197|368:138,1,103.999995239258,8|2,0:3|0:0,0:0:0:0:
339,48,183718,6,0,P|266:52|196:178,1,207.999990478516,2|8,3:2|0:0,0:0:0:0:
99,199,184421,2,0,P|99:142|95:83,1,103.999995239258,0|2,0:0|3:2,0:0:0:0:
29,15,184889,1,2,0:0:0:0:
132,7,185124,1,8,0:3:0:0:
156,14,185241,1,2,0:0:0:0:
180,21,185358,1,2,0:0:0:0:
204,28,185475,1,2,0:0:0:0:
229,35,185593,2,0,P|297:28|454:9,1,207.999990478516,2|8,3:2|0:1,0:0:0:0:
506,87,186296,2,0,P|499:158|501:202,1,103.999995239258,2|2,0:0|3:2,0:0:0:0:
408,239,186764,5,2,0:0:0:0:
339,160,186999,1,8,0:3:0:0:
269,237,187233,1,2,0:0:0:0:
243,242,187350,1,2,0:0:0:0:
217,247,187468,1,2,3:2:0:0:
191,252,187585,1,2,0:0:0:0:
165,257,187702,1,2,0:0:0:0:
139,262,187819,1,2,0:0:0:0:
114,270,187936,2,0,P|119:321|124:373,1,103.999995239258,8|2,0:3|0:0,0:0:0:0:
23,348,188405,1,2,3:2:0:0:
35,228,188639,38,0,B|49:200|49:200|46:169,2,60.0000022888184,2|0|2,0:0|0:0|1:2,0:0:0:0:
150,191,189109,1,2,3:2:0:0:
178,198,189226,1,2,1:2:0:0:
206,207,189343,2,0,B|275:162|275:162|388:224,1,180.000006866455,4|0,3:1|0:0,0:0:0:0:
370,233,189811,6,0,P|449:207|488:194,2,103.999995239258,8|0|2,0:0|0:0|3:2,0:0:0:0:
409,329,190514,1,2,0:0:0:0:
305,337,190749,1,8,0:3:0:0:
279,334,190866,1,2,0:0:0:0:
253,331,190983,1,2,0:0:0:0:
227,327,191100,1,0,0:0:0:0:
200,324,191218,2,0,P|153:328|83:340,1,103.999995239258,2|2,3:2|0:0,0:0:0:0:
22,237,191686,2,0,P|69:241|139:253,1,103.999995239258,8|2,0:3|0:0,0:0:0:0:
195,173,192155,1,2,3:2:0:0:
281,231,192389,1,2,0:0:0:0:
207,308,192624,6,0,P|201:236|198:182,1,103.999995239258,10|2,0:0|0:0,0:0:0:0:
271,129,193093,2,0,P|263:59|132:21,1,207.999990478516,2|8,3:2|0:3,0:0:0:0:
42,18,193796,2,0,P|53:82|60:134,1,103.999995239258,2|2,0:0|3:2,0:0:0:0:
146,175,194264,1,2,0:0:0:0:
75,251,194499,1,10,0:0:0:0:
171,312,194733,37,2,0:0:0:0:
171,312,194850,1,2,0:0:0:0:
171,312,194968,2,0,L|233:300,2,51.999997619629,2|0|2,3:2|0:0|0:0,0:0:0:0:
215,180,195436,2,0,L|194:239,2,51.999997619629,8|2|2,0:3|0:0|0:0,0:0:0:0:
309,273,195905,1,0,3:2:0:0:
367,187,196139,2,0,B|340:163|340:163|345:127,2,60.0000022888184,2|0|8,0:0|0:0|0:1,0:0:0:0:
485,145,196608,5,2,0:0:0:0:
475,173,196725,1,0,1:0:0:0:
466,200,196843,2,0,P|473:245|482:367,1,160,4|2,3:1|0:0,0:0:0:0:
340,284,197780,1,8,0:0:0:0:
290,346,198014,2,0,P|215:336|176:322,2,80,2|2|2,3:2|0:0|0:0,0:0:0:0:
264,269,198718,22,0,P|258:189|250:84,1,160,2|2,3:2|0:0,0:0:0:0:
195,52,199421,1,2,3:2:0:0:
250,1,199655,1,8,0:0:0:0:
309,54,199889,1,2,0:0:0:0:
378,13,200124,2,0,P|386:54|388:68,3,40,2|2|2|2,0:0|0:0|0:0|0:0,0:0:0:0:
425,59,200593,38,0,P|469:96|468:202,1,160,2|2,3:2|0:0,0:0:0:0:
394,179,201296,1,2,3:2:0:0:
314,180,201530,1,8,0:0:0:0:
236,198,201764,2,0,P|205:247|214:294,1,80,2|2,0:0|0:0,0:0:0:0:
261,333,202233,21,2,3:2:0:0:
261,333,202350,1,2,0:0:0:0:
261,333,202468,2,0,P|296:326|318:326,3,40,2|2|2|2,3:2|0:0|3:2|0:0,0:0:0:0:
237,358,202936,2,0,P|188:348|149:342,1,80,2|2,0:0|0:0,0:0:0:0:
117,274,203405,1,8,0:0:0:0:
53,322,203639,38,0,B|9:283|9:283|36:212,1,120.000004577637,0|2,3:0|0:0,0:0:0:0:
127,154,204108,1,2,0:0:0:0:
31,80,204343,2,0,B|111:122|111:122|251:61,1,240.000009155274,4|2,3:1|0:0,0:0:0:0:
401,108,205280,1,8,0:0:0:0:
349,169,205514,1,2,3:2:0:0:
432,190,205749,1,2,0:0:0:0:
432,190,205866,1,2,0:0:0:0:
432,190,205983,1,2,0:0:0:0:
483,128,206218,22,0,P|471:81|463:39,1,80,2|2,3:2|0:0,0:0:0:0:
388,26,206686,1,2,0:0:0:0:
330,82,206921,2,0,P|274:101|155:129,1,160,2|2,3:2|3:2,0:0:0:0:
106,86,207624,2,0,P|55:108|13:125,1,80,2|2,0:0|0:0,0:0:0:0:
22,261,208093,38,0,P|97:234|170:201,1,160,2|2,3:2|0:0,0:0:0:0:
249,190,208796,1,2,3:2:0:0:
271,266,209030,2,0,P|276:314|285:363,1,80,8|2,0:0|0:0,0:0:0:0:
209,381,209499,1,2,0:0:0:0:
148,328,209733,1,2,3:2:0:0:
148,328,209850,1,2,0:0:0:0:
148,328,209968,2,0,P|151:276|154:263,2,40,2|0|8,3:2|0:0|0:1,0:0:0:0:
78,237,210436,2,0,P|31:260|18:264,2,40,2|2|2,0:0|0:0|0:0,0:0:0:0:
35,344,210905,1,8,0:0:0:0:
151,370,211139,22,0,B|172:350|172:350|210:354,2,60.0000022888184,2|0|2,3:2|0:0|0:0,0:0:0:0:
252,283,211608,1,2,3:2:0:0:
252,283,211725,1,2,3:2:0:0:
252,283,211843,2,0,B|313:323|313:323|471:248,1,240.000009155274,4|10,3:2|0:0,0:0:0:0:
460,171,212546,2,0,P|441:117|421:47,1,95.9999970703126,2|0,0:0|0:0,0:0:0:0:
340,45,213014,1,2,3:2:0:0:
284,123,213249,2,0,P|298:168|314:214,1,95.9999970703126,10|2,0:0|0:0,0:0:0:0:
258,292,213718,38,0,P|184:271|142:136,1,191.999994140625,2|10,3:2|0:0,0:0:0:0:
169,83,214421,1,2,3:2:0:0:
87,32,214655,1,2,0:0:0:0:
42,116,214889,2,0,P|106:104|172:84,1,95.9999970703126,2|10,3:2|0:0,0:0:0:0:
146,78,215241,1,0,0:0:0:0:
169,83,215358,1,2,0:0:0:0:
192,88,215475,1,2,0:0:0:0:
215,93,215593,22,0,P|286:83|423:45,1,191.999994140625,2|10,3:2|0:0,0:0:0:0:
490,13,216296,1,2,3:2:0:0:
490,13,216764,2,0,P|483:66|479:131,1,95.9999970703126,2|10,0:0|0:0,0:0:0:0:
397,158,217233,1,2,3:2:0:0:
399,181,217350,1,2,0:0:0:0:
401,205,217468,1,2,3:2:0:0:
403,228,217585,1,2,0:0:0:0:
405,251,217702,1,2,3:2:0:0:
408,274,217819,1,2,0:0:0:0:
411,297,217936,2,0,P|355:306|306:295,2,95.9999970703126,10|2|0,0:0|0:0|0:0,0:0:0:0:
280,221,218639,38,0,B|221:208|221:208|172:283,1,120.000004577637,2|10,3:2|0:0,0:0:0:0:
128,362,219108,1,2,0:0:0:0:
35,284,219343,2,0,B|6:210|6:210|86:133,1,180.000006866455,4|0,3:1|0:0,0:0:0:0:
97,154,219811,2,0,P|95:83|94:30,1,95.9999970703126,10|0,0:0|0:0,0:0:0:0:
278,3,220514,1,2,3:2:0:0:
346,71,220749,1,10,0:0:0:0:
346,71,220866,1,0,0:0:0:0:
346,71,220983,1,2,0:0:0:0:
259,112,221218,2,0,P|260:159|261:207,3,95.9999970703126,2|2|10|2,3:2|0:0|0:0|3:2,0:0:0:0:
425,307,222389,21,2,3:2:0:0:
377,223,222624,1,10,0:0:0:0:
308,289,222858,1,2,0:0:0:0:
351,374,223093,2,0,P|426:352|464:243,1,191.999994140625,2|10,3:2|0:0,0:0:0:0:
427,164,223796,2,0,P|434:101|436:47,1,95.9999970703126,2|2,3:2|0:0,0:0:0:0:
435,68,224264,38,0,P|437:115|443:163,1,95.9999970703126,2|8,0:0|0:0,0:0:0:0:
390,243,224733,1,2,3:2:0:0:
366,244,224850,1,2,0:0:0:0:
341,246,224968,1,2,3:2:0:0:
317,248,225085,1,0,0:0:0:0:
293,250,225202,1,2,3:2:0:0:
269,252,225319,1,0,0:0:0:0:
245,253,225436,2,0,P|235:290|233:321,2,47.9999985351563,10|0|2,0:0|0:0|0:0,0:0:0:0:
135,158,226022,1,10,0:0:0:0:
135,158,226139,2,0,P|129:88|124:39,1,95.9999970703126,2|10,3:2|0:0,0:0:0:0:
205,7,226608,2,0,P|242:19|283:25,2,47.9999985351563,0|0|4,3:2|3:2|3:1,0:0:0:0:
