osu file format v14

[General]
AudioFilename: audio.mp3
AudioLeadIn: 0
PreviewTime: 129652
Countdown: 1
SampleSet: Soft
StackLeniency: 0.7
Mode: 0
LetterboxInBreaks: 0
WidescreenStoryboard: 1

[Editor]
Bookmarks: 9682,24682,39682,54682,69682,84682,99682,114682,129682,152182,167182,182182,197182,212182
DistanceSpacing: 0.9
BeatDivisor: 4
GridSize: 32
TimelineZoom: 1

[Metadata]
Title:My Love
TitleUnicode:My Love
Artist:Kuba Oms
ArtistUnicode:Kuba Oms
Creator:Aakki
Version:Easy
Source:
Tags:mappers' mappers guild mpg fa featured artist adhd english pop male vocals een persoon Butylcyclobutyn yahuri paradogi
BeatmapID:3516906
BeatmapSetID:1718175

[Difficulty]
HPDrainRate:2
CircleSize:3
OverallDifficulty:3
ApproachRate:4
SliderMultiplier:1
SliderTickRate:1

[Events]
//Background and Video events
0,0,"bg.jpg",0,0
//Break Periods
2,69882,83362
2,152182,157807
//Storyboard Layer 0 (Background)
//Storyboard Layer 1 (Fail)
//Storyboard Layer 2 (Pass)
//Storyboard Layer 3 (Foreground)
//Storyboard Layer 4 (Overlay)
//Storyboard Sound Samples

[TimingPoints]
2182,468.75,4,2,0,50,1,0
9682,-100,4,2,0,60,0,0
24682,-100,4,2,0,70,0,0
39213,-100,4,2,0,50,0,0
39682,-100,4,2,0,75,0,0
54682,-100,4,2,0,90,0,1
69682,-100,4,2,0,60,0,0
84682,-100,4,2,0,70,0,0
99213,-100,4,2,0,50,0,0
99682,-100,4,2,0,75,0,0
114682,-100,4,2,0,90,0,1
129682,-100,4,2,0,40,0,0
144682,-100,4,2,0,50,0,0
150072,-100,4,2,0,30,0,0
152182,-100,4,2,0,40,0,0
157807,-100,4,2,0,50,0,0
158275,-100,4,2,0,55,0,0
158744,-100,4,2,0,60,0,0
159213,-100,4,2,0,65,0,0
159682,-100,4,2,0,50,0,0
161557,-100,4,2,0,60,0,0
163432,-100,4,2,0,70,0,0
165307,-100,4,2,0,80,0,0
166244,-100,4,2,0,50,0,0
167182,-100,4,2,0,85,0,1
182182,-100,4,2,0,90,0,1
197182,-100,4,2,0,75,0,0
215932,-100,4,2,0,70,0,0
216635,-100,4,2,0,60,0,0
217807,-100,4,2,0,50,0,0
227182,-100,4,2,0,5,0,0

[Colours]
Combo1 : 192,192,192
Combo2 : 255,0,0
Combo3 : 255,151,151
Combo4 : 255,128,64

[HitObjects]
478,66,9682,6,0,P|434:34|380:33,1,100,0|2,1:0|1:2,0:0:0:0:
308,69,10619,1,2,1:2:0:0:
267,149,11088,1,2,1:2:0:0:
313,226,11557,6,0,P|329:270|334:343,1,100,2|2,1:2|1:2,0:0:0:0:
416,360,12494,1,2,1:2:0:0:
481,298,12963,1,2,1:2:0:0:
459,210,13432,6,0,P|452:170|423:54,1,150,2|2,1:2|0:0,0:0:0:0:
405,23,14369,1,2,1:2:0:0:
235,84,15307,6,0,P|169:99|126:106,2,100,2|2|2,1:0|1:0|1:0,0:0:0:0:
306,138,16713,1,2,1:0:0:0:
258,214,17182,6,0,P|226:240|163:261,1,100,2|0,1:2|1:0,0:0:0:0:
85,231,18119,1,0,1:0:0:0:
45,150,18588,1,2,1:2:0:0:
106,84,19057,2,0,P|147:99|204:113,1,100,2|2,1:2|1:0,0:0:0:0:
284,77,19994,1,2,1:2:0:0:
342,145,20463,1,2,1:2:0:0:
287,217,20932,6,0,P|272:262|270:370,1,150,2|0,1:2|0:0,0:0:0:0:
313,374,21869,1,2,1:2:0:0:
471,289,22807,6,0,P|487:233|499:176,2,100,0|0|0,1:0|1:0|1:0,0:0:0:0:
331,175,24682,5,4,1:2:0:0:
265,113,25150,1,8,1:2:0:0:
182,149,25619,2,0,L|128:168,1,50,0|2,1:0|3:0,0:0:0:0:
97,191,26088,2,0,P|71:229|98:296,1,100,2|8,1:2|1:2,0:0:0:0:
132,352,27025,1,0,1:0:0:0:
218,375,27494,1,0,1:0:0:0:
304,350,27963,1,2,1:2:0:0:
358,278,28432,6,0,P|376:239|372:167,1,100,8|2,1:2|1:2,0:0:0:0:
335,102,29369,1,0,1:0:0:0:
395,35,29838,1,0,1:0:0:0:
475,75,30307,2,0,P|486:116|500:189,2,100,8|0|0,1:2|1:0|1:2,0:0:0:0:
320,167,32182,6,0,P|274:156|218:140,1,100,10|2,1:2|1:2,0:0:0:0:
159,78,33119,1,0,1:0:0:0:
79,120,33588,2,0,P|67:156|59:177,1,50,2|2,1:2|3:0,0:0:0:0:
80,208,34057,2,0,P|82:250|90:312,1,100,8|0,1:2|1:0,0:0:0:0:
167,352,34994,1,2,1:2:0:0:
237,296,35463,1,0,1:0:0:0:
210,209,35932,5,10,1:2:0:0:
131,164,36400,2,0,P|139:138|147:108,1,50,2|2,1:2|3:0,0:0:0:0:
139,71,36869,2,0,P|163:46|228:55,1,100,2|8,1:2|1:2,0:0:0:0:
250,15,37572,1,2,0:0:0:0:
250,13,39682,6,0,P|255:60|275:133,2,100,6|8|2,1:2|0:0|1:2,0:0:0:0:
166,35,41088,1,10,0:0:0:0:
131,116,41557,2,0,P|140:160|141:185,1,50,0|0,1:0|3:0,0:0:0:0:
132,209,42025,1,10,0:0:0:0:
57,260,42494,2,0,P|34:230|36:165,1,100,0|14,1:0|0:0,0:0:0:0:
16,81,43432,6,0,P|62:70|161:32,1,150,2|2,1:2|3:0,0:0:0:0:
198,53,44369,1,2,1:2:0:0:
283,81,44838,1,10,0:0:0:0:
366,46,45307,6,0,B|423:43|404:13|469:12,2,100,2|10|2,1:2|0:0|1:2,0:0:0:0:
345,133,46713,2,0,P|352:171|353:186,1,50,10|6,0:0|3:0,0:0:0:0:
330,221,47182,6,0,P|298:240|223:253,1,100,6|8,1:2|0:0,0:0:0:0:
156,219,48119,1,2,1:2:0:0:
125,134,48588,1,10,0:0:0:0:
191,73,49057,1,0,1:0:0:0:
276,101,49525,2,0,P|324:100|380:64,2,100,10|0|14,0:0|1:0|0:0,0:0:0:0:
191,73,50932,6,0,P|149:62|29:53,1,150,2|2,1:2|3:0,0:0:0:0:
7,80,51869,2,0,P|14:117|20:186,1,100,2|10,1:2|0:0,0:0:0:0:
69,254,52807,1,2,1:2:0:0:
151,217,53275,1,10,0:0:0:0:
401,316,54682,6,0,P|444:303|474:239,1,100,6|8,1:2|0:0,0:0:0:0:
455,170,55619,1,2,1:2:0:0:
377,124,56088,2,0,P|319:135|313:139,1,50,10|2,0:0|3:0,0:0:0:0:
293,158,56557,2,0,B|246:158|246:191|182:175,1,100,2|8,1:2|0:0,0:0:0:0:
118,133,57494,2,0,L|109:82,1,50,2|2,1:2|3:2,0:0:0:0:
134,46,57963,1,10,0:0:0:0:
218,13,58432,6,0,P|256:29|322:41,1,100,2|10,1:2|0:0,0:0:0:0:
380,100,59369,1,2,1:2:0:0:
316,164,59838,2,0,P|328:196|341:222,1,50,10|2,0:0|3:0,0:0:0:0:
349,253,60307,6,0,P|386:260|421:320,1,100,2|10,1:2|0:0,0:0:0:0:
430,352,61010,1,2,3:0:0:0:
343,377,61478,1,2,0:0:0:0:
268,325,61947,1,2,3:0:0:0:
268,325,62182,6,0,P|216:333|161:348,1,100,6|8,1:2|0:0,0:0:0:0:
97,291,63119,2,0,P|111:245|110:232,1,50,2|2,1:2|0:0,0:0:0:0:
106,198,63588,1,10,0:0:0:0:
67,116,64057,2,0,P|46:63|45:16,1,100,2|8,1:2|0:0,0:0:0:0:
133,30,64994,2,0,P|189:41|202:47,1,50,2|2,1:2|3:2,0:0:0:0:
218,64,65463,1,10,0:0:0:0:
299,26,65932,6,0,P|393:10|507:5,2,200,2|2|0,1:2|1:2|1:0,0:0:0:0:
251,102,68275,1,10,3:0:0:0:
318,161,68744,1,0,1:0:0:0:
280,243,69213,1,8,1:2:0:0:
232,319,69682,5,0,1:0:0:0:
331,209,84682,5,4,1:2:0:0:
253,253,85150,2,0,L|205:236,1,50,8|2,1:2|3:0,0:0:0:0:
163,221,85619,1,0,1:0:0:0:
86,267,86088,2,0,P|67:299|99:358,1,100,2|8,1:2|1:2,0:0:0:0:
178,373,87025,1,0,1:0:0:0:
294,235,87963,1,2,1:2:0:0:
381,254,88432,6,0,L|402:361,1,100,8|2,1:2|1:2,0:0:0:0:
486,379,89369,1,0,1:0:0:0:
503,291,89838,1,0,1:0:0:0:
459,212,90307,1,8,1:2:0:0:
460,212,92182,6,0,P|414:223|358:239,1,100,10|2,1:2|1:2,0:0:0:0:
287,286,93119,2,0,P|279:262|270:238,1,50,0|2,1:0|0:0,0:0:0:0:
239,205,93588,1,2,1:2:0:0:
301,140,94057,2,0,P|303:98|311:36,1,100,8|0,1:2|1:0,0:0:0:0:
224,13,94994,1,2,1:2:0:0:
153,69,95463,1,0,1:0:0:0:
162,158,95932,5,10,1:2:0:0:
209,234,96400,2,0,P|217:260|225:290,1,50,2|2,1:2|3:0,0:0:0:0:
197,319,96869,1,2,1:2:0:0:
324,364,97572,1,2,3:0:0:0:
324,364,97807,1,2,1:2:0:0:
254,376,99682,6,0,P|259:329|279:256,2,100,6|8|2,1:2|0:0|1:2,0:0:0:0:
166,353,101088,1,10,0:0:0:0:
95,297,101557,2,0,P|86:253|85:228,1,50,0|0,1:0|3:0,0:0:0:0:
108,209,102025,1,10,0:0:0:0:
35,154,102494,2,0,P|31:104|58:63,1,100,0|14,1:0|0:0,0:0:0:0:
140,26,103432,6,0,P|186:37|285:75,1,150,2|2,1:2|3:0,0:0:0:0:
301,114,104369,1,2,1:2:0:0:
268,197,104838,1,10,0:0:0:0:
329,262,105307,6,0,B|386:265|367:295|432:296,2,100,2|10|2,1:2|0:0|1:2,0:0:0:0:
240,276,106713,2,0,P|237:300|232:325,1,50,10|6,0:0|3:0,0:0:0:0:
191,345,107182,6,0,P|147:321|98:312,1,100,6|8,1:2|0:0,0:0:0:0:
36,247,108119,1,2,1:2:0:0:
91,175,108588,1,10,0:0:0:0:
67,88,109057,1,0,1:0:0:0:
134,29,109525,2,0,P|178:19|247:13,2,100,10|0|14,0:0|1:0|0:0,0:0:0:0:
129,119,110932,6,0,P|203:114|277:88,1,150,2|2,1:2|3:0,0:0:0:0:
317,98,111869,2,0,P|321:147|329:197,1,100,2|10,1:2|0:0,0:0:0:0:
369,278,112807,1,2,1:2:0:0:
297,332,113275,1,10,0:0:0:0:
213,297,113744,1,2,3:0:0:0:
207,116,114682,6,0,P|181:74|135:58,1,100,6|8,1:2|0:0,0:0:0:0:
76,126,115619,1,2,1:2:0:0:
95,213,116088,2,0,P|118:219|143:219,1,50,10|2,0:0|3:0,0:0:0:0:
185,200,116557,2,0,B|234:187|281:220,1,100,2|8,1:2|0:0,0:0:0:0:
361,182,117494,2,0,L|369:132,1,50,2|2,1:2|3:2,0:0:0:0:
343,95,117963,1,10,0:0:0:0:
401,26,118432,6,0,P|439:10|505:-2,1,100,2|10,1:2|0:0,0:0:0:0:
510,87,119369,1,2,1:2:0:0:
450,154,119838,2,0,P|439:176|431:200,1,50,10|2,0:0|3:0,0:0:0:0:
432,245,120307,6,0,P|407:287|360:300,1,100,2|10,1:2|0:0,0:0:0:0:
320,279,121010,1,2,3:0:0:0:
255,216,121478,1,2,0:0:0:0:
265,130,121947,1,2,3:0:0:0:
265,130,122182,6,0,P|317:122|372:107,1,100,6|8,1:2|0:0,0:0:0:0:
444,71,123119,2,0,P|440:46|430:23,1,50,2|2,1:2|0:0,0:0:0:0:
389,3,123588,1,10,0:0:0:0:
304,34,124057,2,0,P|283:87|270:136,1,100,2|8,1:2|0:0,0:0:0:0:
231,208,124994,2,0,P|206:214|181:216,1,50,2|2,1:2|3:2,0:0:0:0:
139,201,125463,1,10,0:0:0:0:
113,287,125932,6,0,P|207:303|321:308,2,200,2|2|0,1:2|1:2|1:0,0:0:0:0:
64,211,128275,1,10,3:0:0:0:
136,157,128744,1,0,1:0:0:0:
147,67,129213,1,8,1:2:0:0:
226,24,129682,6,0,L|383:54,2,150,0|2|2,1:0|3:0|3:0,0:0:0:0:
435,351,133432,6,0,P|456:312|438:207,2,150,2|2|2,3:0|3:0|3:0,0:0:0:0:
345,344,135307,2,0,P|324:273|350:204,1,150,2|2,3:0|0:0,0:0:0:0:
191,45,137182,6,0,B|157:81|179:122|194:114|213:151|176:203,2,150,2|2|2,3:0|3:0|3:0,0:0:0:0:
102,366,140932,6,0,P|159:355|253:349,2,150,2|2|2,3:0|3:0|3:0,0:0:0:0:
59,286,142807,2,0,P|110:247|114:158,1,150,2|2,3:0|0:0,0:0:0:0:
42,53,144213,1,2,0:0:0:0:
118,4,144682,5,2,1:2:0:0:
256,192,145150,12,2,150072,0:0:0:0:
361,143,159682,6,0,P|355:100|342:31,2,100,0|0|0,1:0|1:0|1:0,0:0:0:0:
319,222,161088,1,0,1:0:0:0:
415,316,161791,5,0,1:3:0:0:
415,316,162025,1,0,1:0:0:0:
475,248,162494,1,0,1:0:0:0:
450,161,162963,1,0,1:0:0:0:
371,116,163432,6,0,L|214:147,1,150,2|2,1:3|1:3,0:0:0:0:
180,133,164369,2,0,L|171:80,1,50,2|2,1:3|1:3,0:0:0:0:
156,41,164838,1,2,1:3:0:0:
69,66,165307,6,0,P|20:101|16:157,2,100,8|8|2,1:3|1:3|3:0,0:0:0:0:
211,175,167182,6,0,P|261:201|317:210,1,100,6|8,1:2|0:0,0:0:0:0:
347,287,168119,1,2,1:2:0:0:
269,332,168588,2,0,P|221:345|214:346,1,50,10|2,0:0|3:0,0:0:0:0:
176,334,169057,2,0,L|74:310,1,100,2|8,1:2|0:0,0:0:0:0:
26,237,169994,1,2,1:2:0:0:
93,177,170463,2,0,P|108:141|110:125,1,50,10|2,0:0|3:0,0:0:0:0:
120,86,170932,6,0,P|99:48|33:37,1,100,2|10,1:2|0:0,0:0:0:0:
26,120,171869,1,2,1:2:0:0:
93,177,172338,1,10,0:0:0:0:
175,141,172807,6,0,P|221:134|286:127,1,100,2|10,1:2|0:0,0:0:0:0:
315,146,173510,2,0,P|326:189|328:253,2,100,2|2|2,3:0|0:0|3:0,0:0:0:0:
341,109,174682,6,0,P|377:100|434:147,1,100,6|8,1:2|0:0,0:0:0:0:
475,206,175619,2,0,P|465:241|460:259,1,50,2|2,1:2|0:0,0:0:0:0:
467,298,176088,1,10,0:0:0:0:
392,348,176557,2,0,P|379:306|349:250,1,100,2|8,1:2|0:0,0:0:0:0:
302,181,177494,2,0,P|312:155|316:126,1,50,2|2,1:2|3:2,0:0:0:0:
289,96,177963,1,10,0:0:0:0:
223,33,178432,6,0,B|142:8|120:93|42:101,2,200,2|2|2,1:2|1:2|1:2,0:0:0:0:
295,85,180775,1,10,3:0:0:0:
232,149,181244,2,0,P|224:187|219:215,1,50,2|2,3:2|3:3,0:0:0:0:
202,238,181713,1,10,3:3:0:0:
260,306,182182,6,0,P|329:323|363:342,1,100,6|8,1:2|0:0,0:0:0:0:
444,340,183119,2,0,P|475:303|472:289,1,50,2|2,1:2|0:0,0:0:0:0:
487,262,183588,1,10,0:0:0:0:
433,189,184057,2,0,P|388:206|367:209,1,50,2|2,1:2|3:0,0:0:0:0:
342,196,184525,1,10,0:0:0:0:
262,153,184994,1,2,1:2:0:0:
200,218,185463,1,10,3:2:0:0:
196,307,185932,6,0,P|147:307|109:275,1,100,2|8,1:2|0:0,0:0:0:0:
63,198,186869,2,0,P|44:162|45:143,1,50,2|2,1:2|0:0,0:0:0:0:
52,109,187338,1,10,0:0:0:0:
127,60,187807,6,0,P|164:71|223:105,1,100,2|10,1:2|0:0,0:0:0:0:
252,129,188510,2,0,P|288:108|356:101,2,100,2|2|2,3:0|0:0|3:0,0:0:0:0:
225,165,189682,5,6,1:2:0:0:
292,223,190150,2,0,P|307:269|309:282,1,50,8|2,0:0|3:2,0:0:0:0:
295,314,190619,1,2,1:2:0:0:
379,345,191088,1,10,0:0:0:0:
454,295,191557,2,0,P|478:258|465:190,1,100,2|10,1:2|0:0,0:0:0:0:
415,135,192494,2,0,L|403:87,1,50,2|2,1:2|3:0,0:0:0:0:
394,42,192963,1,2,3:2:0:0:
307,16,193432,6,0,P|245:22|216:66,1,100,2|8,1:2|0:0,0:0:0:0:
200,87,194135,1,2,3:0:0:0:
200,87,194369,2,0,P|163:119|114:119,1,100,2|10,1:2|0:0,0:0:0:0:
72,39,195307,6,0,P|98:9|163:1,1,100,6|8,1:2|2:3,0:0:0:0:
239,30,196244,2,0,L|290:43,1,50,8|8,2:3|0:0,0:0:0:0:
331,34,196713,1,8,2:3:0:0:
395,96,197182,6,0,P|419:138|460:289,1,200,6|0,1:2|1:0,0:0:0:0:
399,350,198588,1,10,0:0:0:0:
321,304,199057,2,0,P|271:312|223:330,2,100,0|8|2,1:0|0:0|1:3,0:0:0:0:
374,231,200463,1,10,3:2:0:0:
312,164,200932,6,0,P|282:94|275:5,2,150,2|2|10,1:2|3:2|0:0,0:0:0:0:
236,213,202807,2,0,P|194:230|181:235,1,50,0|2,1:0|3:0,0:0:0:0:
152,256,203275,1,8,0:0:0:0:
171,343,203744,2,0,P|220:360|273:366,1,100,0|8,1:0|0:0,0:0:0:0:
354,343,204682,6,0,B|384:267|345:233|367:132,1,200,6|0,1:2|1:0,0:0:0:0:
393,59,206088,1,10,0:0:0:0:
481,77,206557,2,0,P|492:131|504:186,2,100,0|8|2,1:0|0:0|1:3,0:0:0:0:
393,59,207963,1,10,3:2:0:0:
366,145,208432,6,0,P|317:163|212:185,2,150,2|2|10,1:2|3:2|0:0,0:0:0:0:
389,58,210307,2,0,P|379:30|376:2,1,50,0|2,1:0|3:0,0:0:0:0:
331,5,210775,1,8,0:0:0:0:
248,42,211244,1,8,0:0:0:0:
160,22,211713,2,0,L|111:12,1,50,12|6,3:0|3:0,0:0:0:0:
74,38,212182,6,0,B|34:76|34:76|79:225,1,200,6|0,1:2|1:0,0:0:0:0:
43,298,213588,1,10,0:0:0:0:
117,349,214057,2,0,P|208:368|238:371,2,100,0|12|2,1:0|0:0|1:3,0:0:0:0:
107,259,215463,1,10,3:2:0:0:
170,195,215932,6,0,P|206:151|214:41,2,150,2|2|10,1:2|3:2|0:0,0:0:0:0:
222,268,217807,2,0,L|279:289,1,50,0|2,1:0|3:0,0:0:0:0:
313,285,218275,1,8,0:0:0:0:
372,217,218744,2,0,P|385:182|375:111,1,100,0|8,1:0|0:0,0:0:0:0:
313,58,219682,5,14,1:2:0:0:
256,192,220150,12,0,227182,0:0:0:0:
