osu file format v14

[General]
AudioFilename: audio.mp3
AudioLeadIn: 0
PreviewTime: 78046
Countdown: 0
SampleSet: Soft
StackLeniency: 0.7
Mode: 0
LetterboxInBreaks: 1
WidescreenStoryboard: 0

[Editor]
DistanceSpacing: 1.1
BeatDivisor: 4
GridSize: 8
TimelineZoom: 1.5

[Metadata]
Title:My Friend
TitleUnicode:My Friend
Artist:Kuba Oms
ArtistUnicode:Kuba Oms
Creator:Peter
Version:Easy
Source:osu!
Tags:pop featured artist ADHD
BeatmapID:1543785
BeatmapSetID:731490

[Difficulty]
HPDrainRate:2
CircleSize:2.8
OverallDifficulty:2
ApproachRate:3
SliderMultiplier:0.9
SliderTickRate:1

[Events]
//Background and Video events
0,0,"bg.jpg",0,0
//Break Periods
2,63276,71011
2,138276,151636
//Storyboard Layer 0 (Background)
//Storyboard Layer 1 (Fail)
//Storyboard Layer 2 (Pass)
//Storyboard Layer 3 (Foreground)
//Storyboard Sound Samples

[TimingPoints]
3076,468.75,4,2,0,80,1,0
17841,-100,4,2,0,80,0,0
78076,-100,4,2,0,80,0,1
91201,-100,4,2,0,80,0,0
93075,-100,4,2,0,80,0,0
158701,-100,4,2,0,80,0,1
188701,-100,4,2,0,80,0,0

[Colours]
Combo1 : 187,94,0
Combo2 : 252,215,129
Combo3 : 255,128,64
Combo4 : 255,51,56

[HitObjects]
256,192,14326,12,0,16201,0:0:0:0:
42,97,18076,6,0,B|133:68|141:123|233:90,1,180,4|4,0:2|0:3,0:0:0:0:
303,42,19482,1,8,0:0:0:0:
377,107,19951,2,0,P|374:167|387:214,1,90,4|8,0:3|0:0,0:0:0:0:
441,274,20888,2,0,P|444:334|431:381,1,90,4|8,0:3|0:0,0:0:0:0:
339,375,21826,6,0,L|241:369,1,90,4|8,0:3|0:0,0:0:0:0:
244,270,22763,2,0,L|342:264,1,90,4|8,0:3|0:0,0:0:0:0:
413,323,23701,1,4,0:3:0:0:
479,249,24169,1,8,0:0:0:0:
399,190,24638,2,0,P|412:149|399:89,1,90,4|8,0:3|0:0,0:0:0:0:
346,23,25576,6,0,L|160:20,1,180,4|4,0:0|0:3,0:0:0:0:
66,19,26982,1,8,0:0:0:0:
116,104,27451,2,0,P|125:147|118:208,1,90,4|8,0:3|0:0,0:0:0:0:
46,257,28388,2,0,P|43:300|60:360,1,90,2|8,0:0|0:0,0:0:0:0:
149,318,29326,6,0,L|255:313,1,90,4|8,0:0|0:0,0:0:0:0:
324,363,30263,2,0,L|430:368,1,90,4|8,0:3|0:0,0:0:0:0:
445,273,31201,2,0,L|339:268,1,90,4|8,0:3|0:0,0:0:0:0:
267,223,32138,1,2,0:0:0:0:
339,155,32607,1,8,0:0:0:0:
275,79,33076,6,0,P|181:113|100:80,1,180,4|4,0:3|0:3,0:0:0:0:
29,29,34482,1,8,0:0:0:0:
5,125,34951,2,0,L|16:230,1,90,4|8,0:3|0:0,0:0:0:0:
95,271,35888,2,0,L|84:376,1,90,4|8,0:3|0:0,0:0:0:0:
184,352,36826,6,0,P|238:338|286:345,1,90,4|8,0:3|0:0,0:0:0:0:
357,291,37763,2,0,P|411:305|459:298,1,90,4|8,0:3|0:0,0:0:0:0:
506,224,38701,1,4,0:3:0:0:
432,157,39169,1,8,0:0:0:0:
504,89,39638,2,0,L|500:-2,1,90,4|8,0:3|0:0,0:0:0:0:
404,24,40576,6,0,B|320:59|321:4|227:34,1,180,4|4,0:3|0:3,0:0:0:0:
137,73,41982,1,8,0:0:0:0:
50,24,42451,2,0,P|35:76|54:125,1,90,4|8,0:3|0:0,0:0:0:0:
121,171,43388,2,0,P|136:223|117:272,1,90,4|8,0:3|0:0,0:0:0:0:
50,319,44326,5,4,0:3:0:0:
142,353,44794,1,8,0:0:0:0:
229,307,45263,2,0,L|332:309,1,90,4|8,0:3|0:0,0:0:0:0:
404,358,46201,2,0,L|507:356,1,90,4|8,0:3|0:0,0:0:0:0:
506,258,47138,2,0,P|486:202|497:159,1,90,4|8,0:3|0:0,0:0:0:0:
426,97,48076,6,0,P|344:126|257:99,1,180,4|4,0:0|0:3,0:0:0:0:
169,55,49482,1,8,0:0:0:0:
175,153,49951,2,0,L|183:262,1,90,4|8,0:0|0:0,0:0:0:0:
268,195,50888,2,0,L|272:89,1,90,4|8,0:3|0:0,0:0:0:0:
186,53,51826,6,0,P|262:11|357:50,1,180,4|4,0:0|0:3,0:0:0:0:
415,109,53232,1,8,0:0:0:0:
318,131,53701,2,0,P|313:182|331:237,1,90,4|8,0:0|0:0,0:0:0:0:
392,288,54638,2,0,P|397:339|379:394,1,90,4|8,0:3|0:0,0:0:0:0:
291,351,55576,6,0,B|204:314|208:378|112:340,1,180,4|4,0:0|0:3,0:0:0:0:
165,256,56982,1,8,0:0:0:0:
101,180,57451,2,0,L|103:79,1,90,4|8,0:0|0:0,0:0:0:0:
200,74,58388,2,0,L|202:175,1,90,4|8,0:3|0:0,0:0:0:0:
165,256,59326,6,0,P|231:260|296:164,1,180,4|4,0:0|0:3,0:0:0:0:
328,83,60732,1,8,0:0:0:0:
412,133,61201,2,0,L|512:137,1,90,4|8,0:0|0:0,0:0:0:0:
472,231,62138,2,0,L|376:227,1,90,4|8,0:3|0:0,0:0:0:0:
296,176,63076,5,4,0:0:0:0:
256,192,72451,12,0,76201,0:0:0:0:
28,87,78076,6,0,L|47:277,1,180,4|4,0:0|0:3,0:0:0:0:
93,353,79482,1,8,0:0:0:0:
184,313,79951,2,0,L|284:305,1,90,4|8,0:0|0:0,0:0:0:0:
354,362,80888,2,0,L|454:370,1,90,2|8,0:0|0:0,0:0:0:0:
494,284,81826,6,0,P|453:221|486:122,1,180,4|2,0:0|0:0,0:0:0:0:
417,50,83232,1,8,0:0:0:0:
328,93,83701,2,4,L|228:88,1,90,4|8,0:0|0:0,0:0:0:0:
151,40,84638,2,0,L|51:45,1,90,4|8,0:3|0:0,0:0:0:0:
0,122,85576,6,0,P|7:213|12:308,1,180,4|4,0:0|0:3,0:0:0:0:
93,358,86982,1,8,0:0:0:0:
179,309,87451,2,0,P|221:315|273:315,1,90,4|8,0:0|0:0,0:0:0:0:
352,262,88388,2,0,P|358:220|358:168,1,90,2|8,0:0|0:0,0:0:0:0:
272,123,89326,6,0,P|347:75|429:106,1,180,4|4,0:0|0:3,0:0:0:0:
484,183,90732,1,8,0:0:0:0:
416,255,91201,1,8,0:3:0:0:
416,255,93076,6,0,P|347:325|262:312,1,180,4|4,0:2|0:3,0:0:0:0:
195,255,94482,1,8,0:0:0:0:
118,314,94951,2,0,L|20:308,1,90,4|8,0:3|0:0,0:0:0:0:
19,209,95888,2,0,L|117:203,1,90,4|8,0:3|0:0,0:0:0:0:
184,139,96826,6,0,P|165:99|170:41,1,90,4|8,0:3|0:0,0:0:0:0:
260,81,97763,2,0,P|279:121|274:179,1,90,4|8,0:3|0:0,0:0:0:0:
208,236,98701,1,4,0:3:0:0:
124,183,99169,1,8,0:0:0:0:
69,266,99638,2,0,L|73:372,1,90,4|8,0:3|0:0,0:0:0:0:
170,379,100576,6,0,P|222:341|340:345,1,180,4|4,0:0|0:3,0:0:0:0:
427,372,101982,1,8,0:0:0:0:
478,287,102451,2,0,L|482:184,1,90,4|8,0:3|0:0,0:0:0:0:
393,150,103388,2,0,L|389:47,1,90,2|8,0:0|0:0,0:0:0:0:
292,38,104326,6,0,P|247:45|190:35,1,90,4|8,0:0|0:0,0:0:0:0:
121,95,105263,2,0,P|76:88|19:98,1,90,4|8,0:3|0:0,0:0:0:0:
76,182,106201,2,0,L|73:288,1,90,4|8,0:3|0:0,0:0:0:0:
138,346,107138,1,2,0:0:0:0:
208,276,107607,1,8,0:0:0:0:
287,334,108076,6,0,B|384:307|386:356|478:335,1,180,4|4,0:3|0:3,0:0:0:0:
429,244,109482,1,8,0:0:0:0:
332,222,109951,2,0,L|321:117,1,90,4|8,0:3|0:0,0:0:0:0:
418,106,110888,2,0,L|429:1,1,90,4|8,0:3|0:0,0:0:0:0:
328,5,111826,6,0,P|274:19|226:12,1,90,4|8,0:3|0:0,0:0:0:0:
175,90,112763,2,0,P|121:76|73:83,1,90,4|8,0:3|0:0,0:0:0:0:
20,152,113701,1,4,0:3:0:0:
115,175,114169,1,8,0:0:0:0:
53,252,114638,2,0,L|57:343,1,90,4|8,0:3|0:0,0:0:0:0:
151,372,115576,6,0,P|224:334|328:362,1,180,4|4,0:3|0:3,0:0:0:0:
406,313,116982,1,8,0:0:0:0:
323,258,117451,2,0,L|310:153,1,90,4|8,0:3|0:0,0:0:0:0:
402,129,118388,2,0,L|415:24,1,90,4|8,0:3|0:0,0:0:0:0:
321,0,119326,5,4,0:3:0:0:
241,58,119794,1,8,0:0:0:0:
145,31,120263,2,0,P|88:27|39:34,1,90,4|8,0:3|0:0,0:0:0:0:
98,119,121201,1,4,0:0:0:0:
102,209,123076,6,0,P|184:180|271:207,1,180,4|4,0:0|0:3,0:0:0:0:
352,261,124482,1,8,0:0:0:0:
433,204,124951,2,0,P|441:151|424:102,1,90,4|8,0:0|0:0,0:0:0:0:
368,40,125888,2,0,P|315:32|266:49,1,90,4|8,0:3|0:0,0:0:0:0:
200,99,126826,6,0,B|137:99|137:99|87:71|87:71|25:71,1,180,4|4,0:0|0:3,0:0:0:0:
60,164,128232,1,8,0:0:0:0:
134,229,128701,2,0,P|139:280|121:335,1,90,4|8,0:0|0:0,0:0:0:0:
210,375,129638,2,0,L|308:370,1,90,4|8,0:3|0:0,0:0:0:0:
381,314,130576,6,0,P|336:230|389:157,1,180,4|4,0:0|0:3,0:0:0:0:
460,114,131982,1,8,0:0:0:0:
373,66,132451,2,0,L|271:63,1,90,4|8,0:0|0:0,0:0:0:0:
205,125,133388,2,0,L|103:128,1,90,4|8,0:3|0:0,0:0:0:0:
45,57,134326,6,0,P|13:115|69:217,1,180,4|4,0:0|0:3,0:0:0:0:
146,256,135732,1,8,0:0:0:0:
222,193,136201,2,0,L|322:189,1,90,4|8,0:0|0:0,0:0:0:0:
361,275,137138,2,0,L|457:279,1,90,4|8,0:3|0:0,0:0:0:0:
504,196,138076,5,4,0:0:0:0:
256,192,153076,12,0,156826,0:0:0:0:
441,331,158701,6,0,B|469:237|407:242|443:145,1,180,4|4,0:0|0:3,0:0:0:0:
406,61,160107,1,8,0:0:0:0:
321,112,160576,2,0,L|221:104,1,90,4|8,0:0|0:0,0:0:0:0:
161,34,161513,2,0,L|61:42,1,90,2|8,0:0|0:0,0:0:0:0:
14,122,162451,6,0,P|55:185|22:284,1,180,4|2,0:0|0:0,0:0:0:0:
94,352,163857,1,8,0:0:0:0:
186,315,164326,2,4,P|232:309|286:320,1,90,4|8,0:0|0:0,0:0:0:0:
368,349,165263,2,0,P|414:355|468:344,1,90,0|8,0:0|0:0,0:0:0:0:
501,259,166201,6,0,P|494:168|489:73,1,180,4|4,0:0|0:3,0:0:0:0:
420,8,167607,1,8,0:0:0:0:
348,76,168076,2,0,P|306:70|254:70,1,90,4|8,0:0|0:0,0:0:0:0:
176,124,169013,2,0,P|170:166|170:218,1,90,2|8,0:0|0:0,0:0:0:0:
203,306,169951,6,0,B|289:281|292:327|392:301,1,180,4|4,0:0|0:3,0:0:0:0:
477,280,171357,1,8,0:0:0:0:
409,207,171826,2,0,L|415:103,1,90,4|8,0:0|0:0,0:0:0:0:
316,103,172763,2,0,L|310:-1,1,90,4|8,0:3|0:0,0:0:0:0:
211,13,173701,6,0,L|224:205,1,180,4|4,0:0|0:3,0:0:0:0:
151,261,175107,1,8,0:0:0:0:
184,354,175576,2,0,P|238:357|280:349,1,90,4|8,0:0|0:0,0:0:0:0:
345,282,176513,2,0,P|399:279|441:287,1,90,2|8,0:0|0:0,0:0:0:0:
504,355,177451,6,0,P|465:285|508:188,1,180,4|2,0:0|0:0,0:0:0:0:
445,112,178857,1,8,0:0:0:0:
354,153,179326,2,4,L|260:147,1,90,4|8,0:0|0:0,0:0:0:0:
181,91,180263,2,0,L|87:97,1,90,4|8,0:3|0:0,0:0:0:0:
15,160,181201,6,0,B|3:250|43:248|28:352,1,180,4|4,0:0|0:3,0:0:0:0:
120,376,182607,1,8,0:0:0:0:
197,313,183076,2,0,L|291:316,1,90,4|8,0:0|0:0,0:0:0:0:
371,367,184013,2,0,L|465:364,1,90,2|8,0:0|0:0,0:0:0:0:
494,272,184951,6,0,P|450:215|491:110,1,180,4|4,0:0|0:3,0:0:0:0:
406,51,186357,1,8,0:0:0:0:
312,84,186826,2,0,L|208:76,1,90,4|8,0:0|0:0,0:0:0:0:
138,110,187763,1,4,0:3:0:0:
64,57,188232,1,8,0:0:0:0:
256,192,188701,12,2,190576,0:0:0:0:
