osu file format v14

[General]
AudioFilename: audio.mp3
AudioLeadIn: 0
PreviewTime: 78046
Countdown: 0
SampleSet: Soft
StackLeniency: 0.7
Mode: 0
LetterboxInBreaks: 1
WidescreenStoryboard: 0

[Editor]
DistanceSpacing: 1.1
BeatDivisor: 4
GridSize: 8
TimelineZoom: 1.4

[Metadata]
Title:My Friend
TitleUnicode:My Friend
Artist:Kuba Oms
ArtistUnicode:Kuba Oms
Creator:Peter
Version:Best Friends
Source:osu!
Tags:pop featured artist ADHD
BeatmapID:1543662
BeatmapSetID:731490

[Difficulty]
HPDrainRate:5
CircleSize:4
OverallDifficulty:6.5
ApproachRate:7.5
SliderMultiplier:1.6
SliderTickRate:1

[Events]
//Background and Video events
0,0,"bg.jpg",0,0
//Break Periods
2,63276,71626
2,138276,152251
//Storyboard Layer 0 (Background)
//Storyboard Layer 1 (Fail)
//Storyboard Layer 2 (Pass)
//Storyboard Layer 3 (Foreground)
//Storyboard Sound Samples

[TimingPoints]
3076,468.75,4,2,0,80,1,0
17841,-100,4,2,0,80,0,0
78076,-90.9090909090909,4,2,0,80,0,1
91201,-100,4,2,0,80,0,0
93075,-100,4,2,0,80,0,0
158466,-100,4,2,0,80,0,0
158701,-90.9090909090909,4,2,0,80,0,1
188701,-100,4,2,0,80,0,0

[Colours]
Combo1 : 187,94,0
Combo2 : 252,215,129
Combo3 : 255,128,64
Combo4 : 255,51,56

[HitObjects]
256,192,14326,12,0,17138,0:0:0:0:
32,145,17841,5,8,0:3:0:0:
32,145,17958,1,8,0:3:0:0:
32,145,18076,6,0,L|35:313,1,160,4|8,0:2|0:0,0:0:0:0:
86,376,18779,1,2,0:0:0:0:
86,376,18896,1,2,0:0:0:0:
86,376,19013,1,4,0:3:0:0:
167,342,19247,2,0,P|208:337|262:343,1,80,2|8,0:0|0:0,0:0:0:0:
290,347,19599,2,0,P|331:352|385:346,1,80,2|0,0:0|0:0,0:0:0:0:
412,339,19951,6,0,L|401:170,1,160,4|8,0:3|0:0,0:0:0:0:
354,104,20654,1,2,0:0:0:0:
354,104,20771,1,2,0:0:0:0:
354,104,20888,1,4,0:3:0:0:
279,150,21122,1,8,0:0:0:0:
202,105,21357,2,0,L|104:101,1,80,8|0,0:0|0:0,0:0:0:0:
54,158,21826,6,0,P|86:217|49:310,1,160,4|8,0:3|0:0,0:0:0:0:
116,369,22529,1,2,0:0:0:0:
116,369,22646,1,2,0:0:0:0:
116,369,22763,1,4,0:3:0:0:
195,332,22997,2,0,L|303:326,1,80,2|8,0:0|0:0,0:0:0:0:
316,347,23349,2,0,L|424:353,1,80,2|0,0:0|0:0,0:0:0:0:
409,309,23701,6,0,P|359:239|383:163,1,160,4|8,0:3|0:0,0:0:0:0:
305,118,24404,1,0,0:0:0:0:
239,59,24638,2,0,P|190:64|145:58,1,80,4|0,0:3|0:0,0:0:0:0:
98,125,25107,2,0,P|49:120|4:126,1,80,8|0,0:0|0:0,0:0:0:0:
53,203,25576,6,0,B|85:288|19:287|64:392,1,160,4|8,0:0|0:0,0:0:0:0:
135,327,26279,1,2,0:0:0:0:
135,327,26396,1,2,0:0:0:0:
135,327,26513,1,4,0:3:0:0:
206,378,26747,2,0,P|248:373|316:352,1,80,2|8,0:0|0:0,0:0:0:0:
325,347,27099,2,0,P|367:351|435:372,1,80,2|0,0:0|0:0,0:0:0:0:
446,372,27451,6,0,B|411:296|411:296|447:210,1,160,4|8,0:3|0:0,0:0:0:0:
426,138,28154,1,0,0:0:0:0:
356,84,28388,2,0,L|249:81,1,80,2|0,0:0|0:0,0:0:0:0:
235,100,28740,2,0,L|128:103,1,80,2|0,0:0|0:0,0:0:0:0:
118,126,29091,1,2,0:0:0:0:
70,51,29326,6,0,P|31:108|87:211,1,160,4|8,0:0|0:0,0:0:0:0:
121,249,30029,1,2,0:0:0:0:
121,249,30146,1,2,0:0:0:0:
121,249,30263,1,4,0:3:0:0:
205,223,30497,2,0,L|303:226,1,80,2|8,0:0|0:0,0:0:0:0:
325,208,30849,2,0,L|422:221,1,80,2|0,0:0|0:0,0:0:0:0:
445,202,31201,6,0,P|418:247|461:352,1,160,4|8,0:3|0:0,0:0:0:0:
369,383,31904,1,0,0:0:0:0:
296,336,32138,2,0,L|187:329,1,80,2|0,0:0|0:0,0:0:0:0:
177,309,32490,2,0,L|68:316,1,80,2|0,0:0|0:0,0:0:0:0:
55,301,32841,1,8,0:3:0:0:
55,301,32958,1,8,0:3:0:0:
55,301,33076,6,0,B|51:250|51:250|75:201|75:201|65:145,1,160,4|8,0:3|0:0,0:0:0:0:
98,65,33779,1,0,0:0:0:0:
176,103,34013,2,0,P|218:109|267:103,1,80,4|0,0:3|0:0,0:0:0:0:
339,79,34482,2,0,P|381:73|430:79,1,80,8|0,0:0|0:0,0:0:0:0:
456,155,34951,6,0,L|448:246,1,80,2|0,0:0|0:0,0:0:0:0:
415,262,35302,2,0,L|423:353,1,80,2|0,0:0|0:0,0:0:0:0:
395,377,35654,2,0,B|321:397|320:348|228:377,1,160,2|2,0:0|0:0,0:0:0:0:
158,335,36357,1,8,0:0:0:0:
80,377,36591,1,0,0:0:0:0:
29,304,36826,6,0,L|27:127,1,160,4|8,0:3|0:0,0:0:0:0:
77,71,37529,1,0,0:0:0:0:
155,110,37763,2,0,L|264:100,1,80,4|0,0:3|0:0,0:0:0:0:
305,49,38232,2,0,L|414:59,1,80,8|0,0:0|0:0,0:0:0:0:
453,111,38701,6,0,P|461:159|451:216,1,80,2|0,0:0|0:0,0:0:0:0:
424,217,39052,2,0,P|416:265|426:322,1,80,2|0,0:0|0:0,0:0:0:0:
429,338,39404,2,0,P|346:307|252:335,1,160,2|2,0:0|0:0,0:0:0:0:
200,362,40107,1,8,0:0:0:0:
186,275,40341,1,0,0:0:0:0:
259,225,40576,6,0,P|256:146|260:53,1,160,4|8,0:3|0:0,0:0:0:0:
184,17,41279,1,0,0:0:0:0:
113,69,41513,2,0,L|5:72,1,80,4|0,0:3|0:0,0:0:0:0:
60,154,41982,2,0,L|168:157,1,80,8|0,0:0|0:0,0:0:0:0:
221,121,42451,6,0,P|226:183|200:226,1,80,2|0,0:0|0:0,0:0:0:0:
202,238,42802,2,0,P|197:300|223:343,1,80,2|0,0:0|0:0,0:0:0:0:
219,356,43154,2,0,L|405:350,1,160,2|0,0:0|0:0,0:0:0:0:
457,311,43857,1,8,0:0:0:0:
404,240,44091,1,0,0:0:0:0:
470,181,44326,6,0,P|494:116|456:7,1,160,4|8,0:3|0:0,0:0:0:0:
397,74,45029,1,0,0:0:0:0:
320,30,45263,2,0,P|271:25|226:28,1,80,4|0,0:3|0:0,0:0:0:0:
160,62,45732,2,0,P|111:67|66:64,1,80,8|0,0:0|0:0,0:0:0:0:
8,117,46201,6,0,L|19:210,1,80,2|0,0:0|0:0,0:0:0:0:
49,225,46552,2,0,L|38:318,1,80,2|0,0:0|0:0,0:0:0:0:
55,345,46904,2,0,P|107:319|217:349,1,160,2|2,0:0|0:0,0:0:0:0:
276,384,47607,1,8,0:0:0:0:
351,339,47841,1,8,0:3:0:0:
351,339,47958,1,8,0:3:0:0:
351,339,48076,6,0,L|344:157,1,160,4|8,0:0|0:0,0:0:0:0:
176,128,49013,1,4,0:3:0:0:
176,128,49247,2,0,L|168:232,1,80,2|8,0:0|0:0,0:0:0:0:
134,234,49599,2,0,L|142:338,1,80,2|0,0:0|0:0,0:0:0:0:
128,352,49951,6,0,P|174:328|300:354,1,160,4|8,0:0|0:0,0:0:0:0:
360,368,50654,1,0,0:0:0:0:
400,288,50888,2,0,L|407:173,1,80,4|0,0:3|0:0,0:0:0:0:
320,176,51357,2,0,L|313:61,1,80,8|0,0:0|0:0,0:0:0:0:
230,69,51826,6,0,P|278:17|388:48,1,160,4|8,0:0|0:0,0:0:0:0:
488,144,52763,1,4,0:3:0:0:
488,144,52997,2,0,P|473:179|491:250,1,80,2|8,0:0|0:0,0:0:0:0:
488,264,53349,2,0,P|491:301|452:363,1,80,2|0,0:0|0:0,0:0:0:0:
432,336,53701,6,0,B|350:309|358:370|250:329,1,160,4|8,0:0|0:0,0:0:0:0:
232,320,54286,1,0,0:0:0:0:
232,320,54404,1,2,0:0:0:0:
153,360,54638,2,0,P|141:292|162:257,1,80,4|0,0:3|0:0,0:0:0:0:
192,208,55107,2,0,P|206:164|198:111,1,80,8|0,0:0|0:0,0:0:0:0:
168,48,55576,6,0,B|110:54|110:54|67:34|67:34|-3:43,1,160,4|8,0:0|0:0,0:0:0:0:
22,216,56513,1,4,0:3:0:0:
22,216,56747,2,0,P|62:207|111:214,1,80,2|8,0:0|0:0,0:0:0:0:
142,232,57099,2,0,P|182:241|231:234,1,80,2|0,0:0|0:0,0:0:0:0:
262,232,57451,6,0,P|307:212|430:246,1,160,4|8,0:0|0:0,0:0:0:0:
481,287,58154,1,0,0:0:0:0:
501,201,58388,2,0,L|497:103,1,80,4|0,0:3|0:0,0:0:0:0:
411,100,58857,2,0,L|403:6,1,80,8|0,0:0|0:0,0:0:0:0:
317,34,59326,6,0,P|246:83|169:69,1,160,4|8,0:0|0:0,0:0:0:0:
3,107,60263,1,4,0:3:0:0:
3,107,60497,2,0,L|10:219,1,80,2|8,0:0|0:0,0:0:0:0:
29,225,60849,2,0,L|22:337,1,80,2|0,0:0|0:0,0:0:0:0:
44,344,61201,6,0,B|126:309|127:365|222:340,1,160,4|8,0:0|0:0,0:0:0:0:
244,342,61786,1,0,0:0:0:0:
244,342,61904,1,2,0:0:0:0:
209,261,62138,2,0,P|203:197|212:166,1,80,4|0,0:3|0:0,0:0:0:0:
267,118,62607,2,0,P|273:54|264:23,1,80,8|0,0:0|0:0,0:0:0:0:
188,74,63076,5,4,0:0:0:0:
256,192,72451,12,0,77607,0:0:0:0:
39,89,78076,6,0,P|48:186|49:294,1,176.000005371094,4|8,0:0|0:0,0:0:0:0:
111,339,78779,1,0,0:0:0:0:
200,302,79013,2,0,L|310:300,1,88.000002685547,4|0,0:3|0:0,0:0:0:0:
365,359,79482,2,0,L|475:361,1,88.000002685547,8|0,0:0|0:0,0:0:0:0:
495,273,79951,6,0,P|456:207|496:102,1,176.000005371094,4|8,0:0|0:0,0:0:0:0:
404,56,80654,1,0,0:0:0:0:
309,77,80888,2,0,P|239:77|189:64,1,88.000002685547,2|0,0:0|0:0,0:0:0:0:
176,55,81240,2,0,P|106:55|56:68,1,88.000002685547,2|0,0:0|0:0,0:0:0:0:
43,75,81591,1,2,0:0:0:0:
90,159,81826,6,0,L|95:362,1,176.000005371094,4|8,0:0|0:0,0:0:0:0:
187,307,82529,1,0,0:0:0:0:
250,379,82763,2,0,L|355:368,1,88.000002685547,2|0,0:0|0:0,0:0:0:0:
376,340,83115,2,0,L|481:351,1,88.000002685547,2|0,0:0|0:0,0:0:0:0:
503,322,83466,1,2,0:0:0:0:
442,246,83701,6,4,P|489:158|454:88,1,176.000005371094,4|8,0:0|0:0,0:0:0:0:
392,163,84404,2,0,B|307:133|307:199|204:161,1,176.000005371094,2|0,0:0|0:0,0:0:0:0:
130,203,85107,1,8,0:0:0:0:
87,116,85341,1,0,0:0:0:0:
22,186,85576,6,0,L|40:368,1,176.000005371094,4|8,0:0|0:0,0:0:0:0:
126,319,86279,1,0,0:0:0:0:
215,355,86513,2,0,P|264:357|340:339,1,88.000002685547,4|0,0:3|0:0,0:0:0:0:
376,288,86982,2,0,P|425:286|501:304,1,88.000002685547,8|0,0:0|0:0,0:0:0:0:
511,376,87451,6,0,L|509:182,1,176.000005371094,4|8,0:0|0:0,0:0:0:0:
447,125,88154,1,0,0:0:0:0:
367,180,88388,2,0,L|276:173,1,88.000002685547,2|0,0:0|0:0,0:0:0:0:
237,150,88740,2,0,L|146:157,1,88.000002685547,2|0,0:0|0:0,0:0:0:0:
102,144,89091,1,2,0:0:0:0:
15,188,89326,6,0,P|6:111|83:52,1,176.000005371094,4|8,0:0|0:0,0:0:0:0:
168,81,90029,1,0,0:0:0:0:
258,46,90263,2,0,L|372:42,1,88.000002685547,4|0,0:3|0:0,0:0:0:0:
328,138,90732,2,0,L|214:134,1,88.000002685547,8|0,0:0|0:0,0:0:0:0:
168,81,91201,5,8,0:3:0:0:
480,292,93076,6,0,P|445:204|496:139,1,160,4|8,0:2|0:0,0:0:0:0:
421,82,93779,1,2,0:0:0:0:
421,82,93896,1,2,0:0:0:0:
421,82,94013,1,4,0:3:0:0:
337,108,94247,2,0,L|243:104,1,80,2|8,0:0|0:0,0:0:0:0:
218,82,94599,2,0,L|121:90,1,80,2|0,0:0|0:0,0:0:0:0:
105,58,94951,6,0,B|79:143|134:143|103:223,1,160,4|8,0:3|0:0,0:0:0:0:
80,299,95654,1,2,0:0:0:0:
80,299,95771,1,2,0:0:0:0:
80,299,95888,1,4,0:3:0:0:
152,348,96122,1,8,0:0:0:0:
232,310,96357,2,0,L|334:314,1,80,8|0,0:0|0:0,0:0:0:0:
386,265,96826,6,0,P|354:206|391:113,1,160,4|8,0:3|0:0,0:0:0:0:
319,58,97529,1,2,0:0:0:0:
319,58,97646,1,2,0:0:0:0:
319,58,97763,2,0,P|276:66|214:59,1,80,4|0,0:3|0:0,0:0:0:0:
154,43,98232,2,0,P|110:37|49:47,1,80,8|0,0:0|0:0,0:0:0:0:
20,110,98701,6,0,P|35:183|28:288,1,160,4|8,0:3|0:0,0:0:0:0:
99,324,99404,1,0,0:0:0:0:
177,284,99638,2,0,L|270:285,1,80,4|0,0:3|0:0,0:0:0:0:
258,370,100107,2,0,L|164:369,1,80,8|0,0:0|0:0,0:0:0:0:
99,324,100576,6,0,P|150:252|112:171,1,160,4|8,0:0|0:0,0:0:0:0:
82,115,101279,1,2,0:0:0:0:
82,115,101396,1,2,0:0:0:0:
82,115,101513,1,4,0:3:0:0:
142,51,101747,2,0,L|256:58,1,80,2|8,0:0|0:0,0:0:0:0:
258,80,102099,2,0,L|371:75,1,80,2|0,0:0|0:0,0:0:0:0:
379,59,102451,6,0,P|350:120|411:209,1,160,4|8,0:3|0:0,0:0:0:0:
463,244,103154,1,0,0:0:0:0:
411,315,103388,2,0,L|304:318,1,80,2|0,0:0|0:0,0:0:0:0:
292,338,103740,2,0,L|185:335,1,80,2|0,0:0|0:0,0:0:0:0:
169,348,104091,1,2,0:0:0:0:
94,300,104326,6,0,P|97:218|95:139,1,160,4|8,0:0|0:0,0:0:0:0:
158,79,105029,1,2,0:0:0:0:
158,79,105146,1,2,0:0:0:0:
158,79,105263,1,4,0:3:0:0:
229,130,105497,2,0,P|271:134|328:129,1,80,2|8,0:0|0:0,0:0:0:0:
349,115,105849,2,0,P|396:110|451:116,1,80,2|0,0:0|0:0,0:0:0:0:
470,125,106201,6,0,P|443:170|474:277,1,160,4|8,0:3|0:0,0:0:0:0:
407,335,106904,1,0,0:0:0:0:
328,296,107138,2,0,L|219:289,1,80,2|0,0:0|0:0,0:0:0:0:
208,310,107490,2,0,L|99:317,1,80,2|0,0:0|0:0,0:0:0:0:
87,331,107841,1,8,0:3:0:0:
87,331,107958,1,8,0:3:0:0:
87,331,108076,6,0,B|107:247|107:247|70:159,1,160,4|8,0:3|0:0,0:0:0:0:
129,107,108779,1,0,0:0:0:0:
207,146,109013,2,0,L|308:140,1,80,4|0,0:3|0:0,0:0:0:0:
272,228,109482,2,0,L|186:232,1,80,8|0,0:0|0:0,0:0:0:0:
114,273,109951,6,0,P|101:228|112:180,1,80,2|0,0:0|0:0,0:0:0:0:
124,156,110302,2,0,P|135:107|125:69,1,80,2|0,0:0|0:0,0:0:0:0:
110,38,110654,2,0,P|191:68|277:38,1,160,2|2,0:0|0:0,0:0:0:0:
340,13,111357,1,8,0:0:0:0:
403,73,111591,1,0,0:0:0:0:
486,45,111826,6,0,L|488:222,1,160,4|8,0:3|0:0,0:0:0:0:
444,281,112529,1,0,0:0:0:0:
362,251,112763,2,0,P|319:257|259:254,1,80,4|0,0:3|0:0,0:0:0:0:
220,319,113232,2,0,P|177:313|117:316,1,80,8|0,0:0|0:0,0:0:0:0:
61,274,113701,6,0,L|52:167,1,80,2|0,0:0|0:0,0:0:0:0:
91,171,114052,2,0,L|99:70,1,80,2|0,0:0|0:0,0:0:0:0:
127,58,114404,2,0,B|216:27|216:88|308:44,1,160,2|2,0:0|0:0,0:0:0:0:
364,18,115107,1,8,0:0:0:0:
361,105,115341,1,0,0:0:0:0:
440,67,115576,6,0,P|467:138|412:230,1,160,4|8,0:3|0:0,0:0:0:0:
376,276,116279,1,0,0:0:0:0:
410,356,116513,2,0,L|518:353,1,80,4|0,0:3|0:0,0:0:0:0:
455,278,116982,2,0,L|347:275,1,80,8|0,0:0|0:0,0:0:0:0:
315,340,117451,6,0,P|351:253|310:177,1,160,4|8,0:3|0:0,0:0:0:0:
278,123,118154,1,0,0:0:0:0:
207,175,118388,2,0,L|25:179,1,160,4|8,0:3|0:0,0:0:0:0:
5,100,119091,1,0,0:0:0:0:
77,49,119326,6,0,L|251:45,1,160,4|8,0:3|0:0,0:0:0:0:
319,12,120029,1,0,0:0:0:0:
337,97,120263,2,0,P|332:144|344:190,1,80,4|0,0:3|0:3,0:3:0:0:
372,257,120732,2,0,P|383:305|375:350,1,80,8|0,0:0|0:0,0:0:0:0:
299,299,121201,5,4,0:0:0:0:
62,38,122841,1,4,0:3:0:0:
62,38,122958,1,4,0:3:0:0:
62,38,123076,6,0,L|69:220,1,160,4|8,0:0|0:0,0:0:0:0:
232,256,124013,1,4,0:3:0:0:
232,256,124247,2,0,L|240:152,1,80,2|8,0:0|0:0,0:0:0:0:
274,150,124599,2,0,L|266:46,1,80,2|0,0:0|0:0,0:0:0:0:
284,29,124951,6,0,P|238:53|112:27,1,160,4|8,0:0|0:0,0:0:0:0:
63,94,125654,1,0,0:0:0:0:
128,160,125888,2,0,L|121:275,1,80,4|0,0:3|0:0,0:0:0:0:
48,288,126357,2,0,L|55:403,1,80,8|0,0:0|0:0,0:0:0:0:
144,376,126826,6,0,P|202:348|307:365,1,160,4|8,0:0|0:0,0:0:0:0:
331,186,127763,1,4,0:3:0:0:
331,186,127997,2,0,P|293:192|223:171,1,80,2|8,0:0|0:0,0:0:0:0:
206,176,128349,2,0,P|165:168|98:185,1,80,2|0,0:0|0:0,0:0:0:0:
83,178,128701,6,0,P|85:265|82:368,1,160,4|8,0:0|0:0,0:0:0:0:
88,381,129286,1,0,0:0:0:0:
88,381,129404,1,2,0:0:0:0:
171,355,129638,2,0,P|240:354|277:370,1,80,4|0,0:3|0:0,0:0:0:0:
336,374,130107,2,0,P|390:379|439:360,1,80,8|0,0:0|0:0,0:0:0:0:
463,299,130576,6,0,P|439:214|469:131,1,160,4|8,0:0|0:0,0:0:0:0:
304,60,131513,1,4,0:3:0:0:
304,60,131747,2,0,P|294:99|300:148,1,80,2|8,0:0|0:0,0:0:0:0:
314,178,132099,2,0,P|322:218|314:267,1,80,2|0,0:0|0:0,0:0:0:0:
298,296,132451,6,0,P|216:273|119:302,1,160,4|8,0:0|0:0,0:0:0:0:
61,318,133154,1,0,0:0:0:0:
18,241,133388,2,0,L|10:147,1,80,4|0,0:3|0:0,0:0:0:0:
82,109,133857,2,0,L|90:15,1,80,8|0,0:0|0:0,0:0:0:0:
176,25,134326,6,0,B|265:-1|265:50|351:21,1,160,4|8,0:0|0:0,0:0:0:0:
475,130,135263,1,4,0:3:0:0:
475,130,135497,2,0,L|470:209,1,80,2|8,0:0|0:0,0:0:0:0:
495,245,135849,2,0,L|499:324,1,80,2|0,0:0|0:0,0:0:0:0:
471,359,136201,6,0,P|399:325|320:334,1,160,4|8,0:0|0:0,0:0:0:0:
280,349,136786,1,0,0:0:0:0:
280,349,136904,1,2,0:0:0:0:
221,283,137138,2,0,L|229:203,1,80,4|0,0:3|0:0,0:0:0:0:
146,172,137607,2,0,L|136:92,1,80,8|0,0:0|0:0,0:0:0:0:
201,32,138076,5,4,0:0:0:0:
256,192,153076,12,0,157763,0:0:0:0:
454,304,158466,5,8,0:3:0:0:
454,304,158583,1,8,0:3:0:0:
454,304,158701,6,0,P|499:229|437:134,1,176.000005371094,4|8,0:0|0:0,0:0:0:0:
398,221,159404,1,0,0:0:0:0:
339,144,159638,2,0,P|295:149|229:146,1,88.000002685547,4|0,0:3|0:0,0:0:0:0:
181,78,160107,2,0,P|131:73|71:76,1,88.000002685547,8|0,0:0|0:0,0:0:0:0:
28,145,160576,6,0,L|52:344,1,176.000005371094,4|8,0:0|0:0,0:0:0:0:
123,382,161279,1,0,0:0:0:0:
204,329,161513,2,0,L|324:342,1,88.000002685547,2|0,0:0|0:0,0:0:0:0:
336,357,161865,2,0,L|456:344,1,88.000002685547,2|0,0:0|0:0,0:0:0:0:
470,358,162216,1,2,0:0:0:0:
475,261,162451,6,0,B|440:172|505:172|458:58,1,176.000005371094,4|8,0:0|0:0,0:0:0:0:
382,133,163154,1,0,0:0:0:0:
307,70,163388,2,0,L|202:81,1,88.000002685547,2|0,0:0|0:0,0:0:0:0:
177,103,163740,2,0,L|72:92,1,88.000002685547,2|0,0:0|0:0,0:0:0:0:
43,107,164091,1,2,0:0:0:0:
74,198,164326,6,4,P|21:269|62:356,1,176.000005371094,4|8,0:0|0:0,0:0:0:0:
141,319,165029,2,0,B|210:308|210:308|256:333|256:333|329:321,1,176.000005371094,2|0,0:0|0:0,0:0:0:0:
403,300,165732,1,8,0:0:0:0:
486,348,165966,1,0,0:0:0:0:
503,252,166201,6,0,L|485:70,1,176.000005371094,4|8,0:0|0:0,0:0:0:0:
394,109,166904,1,0,0:0:0:0:
317,50,167138,2,0,L|193:59,1,88.000002685547,4|0,0:3|0:0,0:0:0:0:
169,132,167607,2,0,L|48:122,1,88.000002685547,8|0,0:0|0:0,0:0:0:0:
9,59,168076,6,0,P|50:136|7:242,1,176.000005371094,4|8,0:0|0:0,0:0:0:0:
69,306,168779,1,0,0:0:0:0:
152,258,169013,2,0,L|243:265,1,88.000002685547,2|0,0:0|0:0,0:0:0:0:
279,293,169365,2,0,L|370:286,1,88.000002685547,2|0,0:0|0:0,0:0:0:0:
411,305,169716,1,2,0:0:0:0:
468,383,169951,6,0,P|512:319|471:230,1,176.000005371094,4|8,0:0|0:0,0:0:0:0:
396,180,170654,1,0,0:0:0:0:
325,245,170888,2,0,L|211:241,1,88.000002685547,4|0,0:3|0:0,0:0:0:0:
166,174,171357,2,0,L|52:178,1,88.000002685547,8|0,0:0|0:0,0:0:0:0:
15,251,171826,6,0,P|-18:155|25:100,1,176.000005371094,4|8,0:0|0:0,0:0:0:0:
104,50,172529,1,0,0:0:0:0:
190,93,172763,2,0,L|312:87,1,88.000002685547,4|0,0:3|0:0,0:0:0:0:
361,40,173232,1,8,0:0:0:0:
449,79,173466,1,8,0:3:0:0:
449,79,173583,1,8,0:3:0:0:
449,79,173701,6,0,L|446:272,1,176.000005371094,4|8,0:0|0:0,0:0:0:0:
376,322,174404,1,0,0:0:0:0:
296,267,174638,2,0,P|252:262|186:265,1,88.000002685547,4|0,0:3|0:0,0:0:0:0:
138,333,175107,2,0,P|88:338|28:335,1,88.000002685547,8|0,0:0|0:0,0:0:0:0:
6,250,175576,6,0,L|21:45,1,176.000005371094,4|8,0:0|0:0,0:0:0:0:
96,16,176279,1,0,0:0:0:0:
161,87,176513,2,0,L|281:100,1,88.000002685547,2|0,0:0|0:0,0:0:0:0:
285,128,176865,2,0,L|405:115,1,88.000002685547,2|0,0:0|0:0,0:0:0:0:
415,139,177216,1,2,0:0:0:0:
500,93,177451,6,0,B|535:182|470:182|517:296,1,176.000005371094,4|8,0:0|0:0,0:0:0:0:
431,327,178154,1,0,0:0:0:0:
366,255,178388,2,0,L|261:266,1,88.000002685547,2|0,0:0|0:0,0:0:0:0:
238,292,178740,2,0,L|133:281,1,88.000002685547,2|0,0:0|0:0,0:0:0:0:
109,308,179091,1,2,0:0:0:0:
46,382,179326,6,4,P|7:302|69:220,1,176.000005371094,4|8,0:0|0:0,0:0:0:0:
109,308,180029,2,0,B|195:286|197:336|297:310,1,176.000005371094,2|0,0:0|0:0,0:0:0:0:
375,286,180732,1,8,0:0:0:0:
445,352,180966,1,8,0:3:0:0:
500,272,181201,6,0,P|483:188|482:90,1,176.000005371094,4|8,0:0|0:0,0:0:0:0:
425,18,181904,1,0,0:0:0:0:
352,81,182138,2,0,P|307:78|234:85,1,88.000002685547,4|0,0:3|0:0,0:0:0:0:
178,125,182607,2,0,P|129:131|55:126,1,88.000002685547,8|0,0:0|0:0,0:0:0:0:
20,62,183076,6,0,P|61:139|18:245,1,176.000005371094,4|8,0:0|0:0,0:0:0:0:
68,313,183779,1,0,0:0:0:0:
160,284,184013,2,0,L|251:291,1,88.000002685547,2|0,0:0|0:0,0:0:0:0:
284,323,184365,2,0,L|375:316,1,88.000002685547,2|0,0:0|0:0,0:0:0:0:
415,336,184716,1,2,0:0:0:0:
492,277,184951,6,0,P|481:186|490:85,1,176.000005371094,4|8,0:0|0:0,0:0:0:0:
424,27,185654,1,0,0:0:0:0:
374,109,185888,2,0,L|260:105,1,88.000002685547,4|0,0:3|0:0,0:0:0:0:
205,51,186357,2,0,L|91:55,1,88.000002685547,8|0,0:0|0:0,0:0:0:0:
35,106,186826,6,0,P|68:202|25:256,1,176.000005371094,4|8,0:0|0:0,0:0:0:0:
88,329,187529,1,0,0:0:0:0:
175,288,187763,2,0,L|297:282,1,88.000002685547,4|8,0:3|0:3,0:0:0:0:
341,340,188232,1,8,0:0:0:0:
425,292,188466,1,8,0:3:0:0:
425,292,188583,1,8,0:3:0:0:
425,292,188701,5,4,0:0:0:0:
256,192,188818,12,2,190576,0:0:0:0:
