osu file format v14

[General]
AudioFilename: audio.mp3
AudioLeadIn: 0
PreviewTime: 99734
Countdown: 0
SampleSet: Soft
StackLeniency: 0.7
Mode: 0
LetterboxInBreaks: 0
EpilepsyWarning: 1
WidescreenStoryboard: 1

[Editor]
Bookmarks: 7889,22889,37889,52889,67889,84764,99764,114764,129764,144764,159764,172654
DistanceSpacing: 0.5
BeatDivisor: 4
GridSize: 32
TimelineZoom: 1.1

[Metadata]
Title:Beautiful Uncertainty (Redux)
TitleUnicode:Beautiful Uncertainty (Redux)
Artist:Kuba Oms
ArtistUnicode:Kuba Oms
Creator:Rolniczy
Version:Hard
Source:osu!
Tags:mappers' guild peter alphabet venax cherry blossom cherry_blossom featured artist adhd how much time
BeatmapID:1956310
BeatmapSetID:936450

[Difficulty]
HPDrainRate:5
CircleSize:3.5
OverallDifficulty:6
ApproachRate:7
SliderMultiplier:1.6
SliderTickRate:1

[Events]
//Background and Video events
0,0,"i want anime bg.jpg",0,0
//Break Periods
2,67620,68864
2,114963,121364
2,122464,128864
//Storyboard Layer 0 (Background)
//Storyboard Layer 1 (Fail)
//Storyboard Layer 2 (Pass)
//Storyboard Layer 3 (Foreground)
//Storyboard Sound Samples

[TimingPoints]
389,468.75,4,2,1,30,1,0
7889,-100,4,2,1,60,0,0
22889,-95.2380952380952,4,2,1,70,0,0
37889,-83.3333333333333,4,2,1,80,0,1
38357,-83.3333333333333,4,2,1,80,0,0
45389,-83.3333333333333,4,2,1,80,0,1
45857,-83.3333333333333,4,2,1,80,0,0
52889,-76.9230769230769,4,2,1,80,0,1
59920,-76.9230769230769,4,2,1,80,0,0
60389,-76.9230769230769,4,2,1,80,0,1
65779,-90.9090909090909,4,2,1,80,0,1
67889,-76.9230769230769,4,2,1,50,0,0
69764,-100,4,2,1,60,0,0
84764,-95.2380952380952,4,2,1,70,0,0
99764,-83.3333333333333,4,2,1,80,0,1
100232,-83.3333333333333,4,2,1,80,0,0
112654,-100,4,2,1,60,0,0
129764,-111.111111111111,4,2,1,60,0,0
137264,-111.111111111111,4,2,1,70,0,0
142889,-111.111111111111,4,2,1,55,0,0
144295,-111.111111111111,4,2,1,65,0,0
144764,-76.9230769230769,4,2,1,80,0,1
151795,-76.9230769230769,4,2,1,80,0,0
152264,-76.9230769230769,4,2,1,80,0,1
157654,-111.111111111111,4,2,1,80,0,0
159764,-83.3333333333333,4,2,1,80,0,1
160232,-83.3333333333333,4,2,1,80,0,0
167264,-83.3333333333333,4,2,1,80,0,1
167732,-83.3333333333333,4,2,1,80,0,0

[Colours]
Combo1 : 145,228,75
Combo2 : 194,194,194
Combo3 : 129,129,129
Combo4 : 236,23,23
Combo5 : 255,128,0
Combo6 : 84,206,2

[HitObjects]
70,275,7889,6,0,B|168:241|145:307|243:290,1,160,4|0,3:2|3:2,0:0:0:0:
332,276,8592,1,0,0:0:0:0:
344,191,8826,2,0,P|307:174|268:170,1,80,0|0,3:2|0:0,0:0:0:0:
171,186,9295,2,0,L|191:99,1,80,0|0,3:0|0:0,0:0:0:0:
226,10,9764,1,0,3:0:0:0:
133,38,9998,1,0,0:0:0:0:
238,19,10232,2,0,B|319:5|301:64|399:47,1,160,0|0,3:0|3:0,0:0:0:0:
503,16,10935,2,0,L|488:99,1,80,0|0,0:0|3:0,0:0:0:0:
468,213,11404,6,0,P|426:186|375:183,1,80,2|0,0:0|3:0,0:0:0:0:
296,219,11873,1,2,0:0:0:0:
385,280,12107,2,0,P|393:241|386:202,1,80,2|0,3:2|0:0,0:0:0:0:
367,167,12459,1,0,0:0:0:0:
367,167,12576,1,0,3:0:0:0:
266,186,12810,1,0,0:0:0:0:
175,206,13045,2,0,L|250:232,1,80,0|0,3:0|0:0,0:0:0:0:
385,280,13514,70,0,B|304:263|319:329|224:321,3,160,0|0|0|0,3:0|3:0|3:0|3:0,0:0:0:0:
135,313,15154,1,0,0:0:0:0:
135,313,15389,6,0,B|120:258|120:258|160:153,1,160,4|0,3:2|3:0,0:0:0:0:
206,55,16092,1,0,0:0:0:0:
117,76,16326,2,0,P|56:70|29:52,1,80,0|0,3:0|0:0,0:0:0:0:
13,153,16795,2,0,P|28:189|27:229,1,80,0|0,3:0|0:0,0:0:0:0:
10,334,17264,1,0,3:0:0:0:
100,309,17498,1,0,0:0:0:0:
181,354,17732,2,0,P|232:365|274:346,1,80,0|0,3:0|0:0,0:0:0:0:
304,334,18084,1,0,0:0:0:0:
304,334,18201,2,0,P|284:289|313:171,1,160,0|0,3:0|3:0,0:0:0:0:
400,99,18904,70,0,L|316:76,1,80,2|0,0:0|3:0,0:0:0:0:
232,113,19373,1,2,0:0:0:0:
130,72,19607,2,0,P|146:118|135:167,1,80,2|0,3:2|0:0,0:0:0:0:
119,196,19959,1,0,0:0:0:0:
119,196,20076,1,0,3:0:0:0:
219,210,20310,2,0,L|317:226,2,80,2|2|2,0:0|3:2|0:0,0:0:0:0:
256,192,20896,12,8,22420,3:2:0:0:
256,192,22889,6,0,L|236:273,1,83.9999974365235,4|0,3:2|0:0,0:0:0:0:
128,299,23357,2,0,L|108:217,1,83.9999974365235,8|0,3:2|0:0,0:0:0:0:
99,188,23709,1,0,0:0:0:0:
99,188,23826,2,0,P|167:166|179:147,1,83.9999974365235,0|0,3:0|0:0,0:0:0:0:
122,38,24295,1,8,3:2:0:0:
224,61,24529,2,0,L|310:81,1,83.9999974365235,0|0,0:0|3:0,0:0:0:0:
429,63,24998,1,0,0:0:0:0:
389,152,25232,1,8,3:2:0:0:
424,248,25467,1,0,0:0:0:0:
424,248,25584,1,0,0:0:0:0:
424,248,25701,2,0,P|368:230|324:232,1,83.9999974365235,0|0,3:0|0:0,0:0:0:0:
221,337,26170,2,0,P|278:314|354:328,1,125.999996154785,8|0,3:2|0:0,0:0:0:0:
369,348,26639,70,0,L|471:331,1,83.9999974365235,0|0,3:0|0:0,0:0:0:0:
490,208,27107,2,0,L|407:194,1,83.9999974365235,8|0,3:2|0:0,0:0:0:0:
369,191,27459,1,0,0:0:0:0:
369,191,27576,2,0,P|341:142|353:93,1,83.9999974365235,0|0,3:0|0:0,0:0:0:0:
411,18,28045,2,0,L|319:27,1,83.9999974365235,8|0,3:2|0:0,0:0:0:0:
219,2,28514,2,0,B|263:69|185:95|242:184,1,167.999994873047,0|8,3:0|3:2,0:0:0:0:
270,271,29217,2,0,P|212:259|156:268,1,83.9999974365235,0|0,0:0|3:0,0:0:0:0:
76,307,29685,1,2,0:3:0:0:
80,273,29803,1,2,0:3:0:0:
84,239,29920,2,0,L|100:140,1,83.9999974365235,8|2,3:2|0:3,0:0:0:0:
50,40,30389,6,0,B|143:25|117:89|237:78,1,167.999994873047,4|8,3:2|3:2,0:0:0:0:
322,46,31092,1,0,0:0:0:0:
322,46,31209,1,0,0:0:0:0:
322,46,31326,2,0,L|310:129,1,83.9999974365235,0|0,3:0|0:0,0:0:0:0:
412,212,31795,2,0,L|400:129,1,83.9999974365235,8|0,3:2|0:0,0:0:0:0:
512,88,32264,2,0,L|491:257,1,167.999994873047,0|8,3:0|3:2,0:0:0:0:
477,358,32967,1,0,0:0:0:0:
477,358,33084,1,0,0:0:0:0:
477,358,33201,2,0,P|425:373|388:359,1,83.9999974365235,0|0,3:0|0:0,0:0:0:0:
332,283,33670,2,0,P|280:268|243:282,1,83.9999974365235,8|0,3:2|0:0,0:0:0:0:
145,328,34139,69,4,3:2:0:0:
127,238,34373,1,0,0:0:0:0:
324,236,34842,5,4,3:2:0:0:
342,146,35076,1,0,0:0:0:0:
140,133,35545,69,4,3:2:0:0:
122,43,35779,1,0,0:0:0:0:
256,192,35896,12,0,37420,3:0:0:0:
256,192,37889,54,0,L|369:170,1,95.9999970703126,6|2,3:2|0:2,0:0:0:0:
276,78,38357,2,0,B|217:64|217:64|194:82|194:82|105:58,1,143.999995605469,10|0,3:2|0:0,0:0:0:0:
106,46,38826,2,0,P|122:120|111:166,1,95.9999970703126,0|0,3:0|0:0,0:0:0:0:
103,179,39178,1,0,0:0:0:0:
103,179,39295,1,8,3:2:0:0:
10,262,39529,5,2,0:2:0:0:
125,323,39764,1,2,3:2:0:0:
242,236,39998,1,2,0:2:0:0:
121,176,40232,1,10,3:2:0:0:
161,252,40467,2,0,B|246:249|226:171|343:166,1,191.999994140625,2|0,0:2|0:0,0:0:0:0:
447,206,41170,2,0,L|426:93,1,95.9999970703126,8|2,3:2|0:2,0:0:0:0:
311,80,41639,69,2,3:2:0:0:
337,0,41873,1,2,0:2:0:0:
217,42,42107,2,0,B|166:51|124:24|124:24|91:58|32:55,1,191.999994140625,10|0,3:2|3:0,0:0:0:0:
15,168,42810,1,0,0:0:0:0:
15,168,42928,1,0,0:0:0:0:
15,168,43045,1,8,3:2:0:0:
137,146,43279,6,0,P|108:184|124:261,1,95.9999970703126,2|2,0:2|3:2,0:0:0:0:
225,321,43748,2,0,P|196:283|194:236,1,95.9999970703126,2|10,0:2|3:2,0:0:0:0:
263,147,44217,2,0,B|352:135|320:200|416:191,2,143.999995605469,2|2|10,0:3|0:3|3:2,0:0:0:0:
263,147,45389,70,0,L|280:244,1,95.9999970703126,6|2,3:2|0:2,0:0:0:0:
372,331,45857,2,0,B|386:260|386:260|380:251|380:251|399:165,1,143.999995605469,10|0,3:2|0:0,0:0:0:0:
401,153,46326,2,0,P|451:166|502:141,1,95.9999970703126,0|0,3:0|0:0,0:0:0:0:
512,117,46678,1,0,0:0:0:0:
512,117,46795,1,8,3:2:0:0:
390,4,47029,5,2,0:2:0:0:
287,79,47264,1,2,3:2:0:0:
326,195,47498,1,2,0:2:0:0:
407,128,47732,1,10,3:2:0:0:
307,58,47967,2,0,P|216:74|181:159,1,191.999994140625,2|0,0:2|0:0,0:0:0:0:
243,266,48670,2,0,L|127:250,1,95.9999970703126,8|2,3:2|0:2,0:0:0:0:
37,194,49139,69,2,3:2:0:0:
60,281,49373,1,2,0:2:0:0:
8,382,49607,2,0,B|19:332|66:313|66:313|137:330|150:386,1,191.999994140625,10|0,3:2|3:0,0:0:0:0:
249,351,50310,1,0,0:0:0:0:
249,351,50428,1,0,0:0:0:0:
249,351,50545,2,0,L|264:246,1,95.9999970703126,8|4,3:2|3:2,0:0:0:0:
263,256,52889,54,0,B|204:273|204:273|168:310|168:310|101:325,1,155.999992858887,4|0,3:2|0:0,0:0:0:0:
83,324,53357,2,0,B|97:251|97:251|78:227|78:227|89:149,1,155.999992858887,8|0,3:2|0:0,0:0:0:0:
93,136,53826,1,0,3:0:0:0:
188,157,54060,1,0,0:0:0:0:
131,46,54295,2,0,B|27:-28|-2:67|69:50,1,155.999992858887,8|0,3:2|0:0,0:0:0:0:
78,84,54764,6,0,L|64:191,1,103.999995239258,0|0,3:0|0:0,0:0:0:0:
62,227,55115,1,0,0:0:0:0:
62,227,55232,1,8,3:2:0:0:
163,313,55467,1,2,0:3:0:0:
204,307,55584,1,2,0:3:0:0:
245,301,55701,2,0,B|283:294|283:294|269:212,2,103.999995239258,0|2|8,3:0|0:3|3:2,0:0:0:0:
245,301,56639,70,0,B|341:288|323:355|437:345,1,155.999992858887,0|0,3:0|0:0,0:0:0:0:
429,358,57107,2,0,P|444:291|459:239,1,103.999995239258,8|0,3:2|0:0,0:0:0:0:
411,176,57576,1,0,3:0:0:0:
505,114,57810,1,0,0:0:0:0:
505,114,57928,1,0,0:0:0:0:
505,114,58045,2,0,P|443:96|385:99,1,103.999995239258,8|2,3:2|0:3,0:0:0:0:
361,100,58396,1,2,0:3:0:0:
361,100,58514,6,0,L|345:30,1,51.999997619629,2|0,3:2|0:0,0:0:0:0:
301,34,58748,2,0,L|250:22,1,51.999997619629,2|0,0:0|0:0,0:0:0:0:
199,43,58982,1,8,3:2:0:0:
82,18,59217,2,0,P|118:82|129:212,2,155.999992858887,2|2|10,0:0|0:0|3:2,0:0:0:0:
82,18,60389,70,0,B|27:38|27:38|33:154,1,155.999992858887,4|0,3:2|0:0,0:0:0:0:
35,184,60857,2,0,B|101:171|101:171|124:185|124:185|198:175,1,155.999992858887,8|0,3:2|0:0,0:0:0:0:
233,169,61326,1,0,3:0:0:0:
219,267,61560,1,0,0:0:0:0:
354,225,61795,2,0,B|386:202|386:202|268:177,1,155.999992858887,8|0,3:2|0:0,0:0:0:0:
233,169,62264,6,0,P|285:138|313:91,1,103.999995239258,0|0,3:0|0:0,0:0:0:0:
320,62,62615,1,0,0:0:0:0:
320,62,62732,1,8,3:2:0:0:
437,16,62967,1,2,0:3:0:0:
442,57,63084,1,2,0:3:0:0:
447,98,63201,2,0,B|433:124|422:157|422:157|403:144|368:135,2,103.999995239258,0|2|8,3:0|0:3|3:2,0:0:0:0:
447,98,64139,70,0,P|462:185|504:264,1,155.999992858887,0|0,3:0|0:0,0:0:0:0:
510,271,64607,2,0,L|393:297,1,103.999995239258,8|0,3:2|0:0,0:0:0:0:
300,342,65076,1,0,3:0:0:0:
304,316,65193,1,0,0:0:0:0:
309,291,65310,1,2,0:3:0:0:
314,260,65428,1,2,0:3:0:0:
319,229,65545,1,8,3:2:0:0:
260,150,65779,6,0,P|219:133|176:138,1,88.000002685547,2|2,3:2|0:0,0:0:0:0:
92,93,66248,2,0,P|75:133|80:176,1,88.000002685547,8|10,0:3|0:0,0:0:0:0:
147,258,66717,2,0,B|45:279|45:279|14:316,2,132.00000402832,2|2|2,3:2|0:0|0:0,0:0:0:0:
475,204,69764,38,0,B|381:174|422:229|317:225,1,160,4|0,3:2|3:0,0:0:0:0:
211,189,70467,1,0,0:0:0:0:
297,131,70701,2,0,P|321:184|314:234,1,80,0|0,3:0|0:0,0:0:0:0:
237,282,71170,2,0,P|224:338|241:386,1,80,0|0,3:0|0:0,0:0:0:0:
335,384,71639,2,0,L|502:350,1,160,0|0,3:0|3:2,0:0:0:0:
512,259,72342,1,0,0:0:0:0:
512,259,72459,1,0,0:0:0:0:
512,259,72576,2,0,B|426:234|439:299|344:296,1,160,2|2,3:2|3:2,0:0:0:0:
255,336,73279,6,0,P|279:282|270:169,1,160,2|2,0:0|0:0,0:0:0:0:
198,65,73982,2,0,P|236:76|307:66,1,80,2|0,3:2|0:0,0:0:0:0:
311,62,74334,1,0,0:0:0:0:
311,62,74451,2,0,B|360:46|360:46|406:70,1,80,0|2,3:0|0:3,0:0:0:0:
480,159,74920,2,0,B|450:175|401:159,1,80,0|0,3:0|0:0,0:0:0:0:
283,156,75389,70,0,B|346:202|282:267|343:324,3,160,0|0|0|0,3:0|3:0|3:0|3:0,0:0:0:0:
425,344,77029,1,0,0:0:0:0:
425,344,77264,6,0,L|439:251,1,80,4|0,3:2|0:0,0:0:0:0:
456,145,77732,1,0,3:0:0:0:
366,180,77967,1,0,0:0:0:0:
366,180,78084,1,0,0:0:0:0:
366,180,78201,2,0,P|321:178|274:159,1,80,0|0,3:0|0:0,0:0:0:0:
184,118,78670,2,0,P|197:166|186:209,1,80,0|0,3:0|0:0,0:0:0:0:
180,224,79021,1,0,0:0:0:0:
161,250,79139,2,0,L|78:235,1,80,0|0,3:0|0:0,0:0:0:0:
98,374,79607,2,0,L|181:359,1,80,0|0,3:0|0:0,0:0:0:0:
280,298,80076,1,0,3:0:0:0:
194,253,80310,1,0,0:0:0:0:
301,183,80545,1,0,3:0:0:0:
219,134,80779,70,0,P|171:124|124:125,1,80,2|2,0:0|3:2,0:0:0:0:
33,133,81248,1,2,0:0:0:0:
81,51,81482,2,0,P|141:22|174:17,1,80,0|0,3:0|0:0,0:0:0:0:
196,18,81834,1,0,0:0:0:0:
196,18,81951,1,0,3:0:0:0:
321,111,82185,1,2,0:0:0:0:
296,17,82420,1,2,3:2:0:0:
224,116,82654,1,2,0:2:0:0:
256,192,82771,12,8,84295,3:2:0:0:
288,211,84764,6,0,L|308:292,1,83.9999974365235,4|0,3:2|0:0,0:0:0:0:
416,318,85232,2,0,L|436:236,1,83.9999974365235,8|0,3:2|0:0,0:0:0:0:
445,207,85584,1,0,0:0:0:0:
445,207,85701,2,0,P|377:185|365:166,1,83.9999974365235,0|0,3:0|0:0,0:0:0:0:
422,57,86170,1,8,3:2:0:0:
320,80,86404,2,0,L|234:100,1,83.9999974365235,0|0,0:0|3:0,0:0:0:0:
115,82,86873,1,0,0:0:0:0:
155,171,87107,1,8,3:2:0:0:
120,267,87342,1,0,0:0:0:0:
120,267,87459,1,0,0:0:0:0:
120,267,87576,2,0,P|176:249|220:251,1,83.9999974365235,0|0,3:0|0:0,0:0:0:0:
323,356,88045,2,0,P|266:333|190:347,1,125.999996154785,8|0,3:2|0:0,0:0:0:0:
175,367,88514,70,0,L|73:350,1,83.9999974365235,0|0,3:0|0:0,0:0:0:0:
54,227,88982,2,0,L|137:213,1,83.9999974365235,8|0,3:2|0:0,0:0:0:0:
175,210,89334,1,0,0:0:0:0:
175,210,89451,2,0,P|203:161|191:112,1,83.9999974365235,0|0,3:0|0:0,0:0:0:0:
133,37,89920,2,0,L|225:46,1,83.9999974365235,8|0,3:2|0:0,0:0:0:0:
325,21,90389,2,0,B|281:88|359:114|302:203,1,167.999994873047,0|8,3:0|3:2,0:0:0:0:
274,290,91092,2,0,P|332:278|388:287,1,83.9999974365235,0|0,0:0|3:0,0:0:0:0:
468,326,91560,1,2,0:3:0:0:
464,292,91678,1,2,0:3:0:0:
460,258,91795,2,0,L|444:159,1,83.9999974365235,8|2,3:2|0:3,0:0:0:0:
494,59,92264,6,0,B|401:44|427:108|307:97,1,167.999994873047,4|8,3:2|3:2,0:0:0:0:
222,65,92967,1,0,0:0:0:0:
222,65,93084,1,0,0:0:0:0:
222,65,93201,2,0,L|234:148,1,83.9999974365235,0|0,3:0|0:0,0:0:0:0:
132,231,93670,2,0,L|144:148,1,83.9999974365235,8|0,3:2|0:0,0:0:0:0:
32,107,94139,2,0,L|53:276,1,167.999994873047,0|8,3:0|3:2,0:0:0:0:
71,371,94842,1,0,0:0:0:0:
71,371,94959,1,0,0:0:0:0:
71,371,95076,2,0,P|124:374|158:353,1,83.9999974365235,0|0,3:0|0:0,0:0:0:0:
219,292,95545,2,0,P|271:277|308:291,1,83.9999974365235,8|0,3:2|0:0,0:0:0:0:
399,347,96014,69,4,3:2:0:0:
417,257,96248,1,0,0:0:0:0:
220,255,96717,5,4,3:2:0:0:
202,165,96951,1,0,0:0:0:0:
411,145,97420,69,4,3:2:0:0:
423,66,97654,1,0,0:0:0:0:
256,192,97771,12,0,99295,3:0:0:0:
256,191,99764,54,0,L|143:213,1,95.9999970703126,6|2,3:2|0:2,0:0:0:0:
236,305,100232,2,0,B|295:319|295:319|318:301|318:301|407:325,1,143.999995605469,10|0,3:2|0:0,0:0:0:0:
406,337,100701,2,0,P|390:263|401:217,1,95.9999970703126,0|0,3:0|0:0,0:0:0:0:
409,204,101053,1,0,0:0:0:0:
409,204,101170,1,8,3:2:0:0:
502,121,101404,5,2,0:2:0:0:
387,60,101639,1,2,3:2:0:0:
270,147,101873,1,2,0:2:0:0:
391,207,102107,1,10,3:2:0:0:
351,131,102342,2,0,B|249:120|286:212|165:199,1,191.999994140625,2|0,0:2|0:0,0:0:0:0:
65,177,103045,2,0,L|86:290,1,95.9999970703126,8|2,3:2|0:2,0:0:0:0:
201,303,103514,69,2,3:2:0:0:
175,383,103748,1,2,0:2:0:0:
295,341,103982,2,0,B|376:290|415:379|488:337,1,191.999994140625,10|0,3:2|3:0,0:0:0:0:
497,223,104685,1,0,0:0:0:0:
497,223,104803,1,0,0:0:0:0:
497,223,104920,1,8,3:2:0:0:
375,237,105154,6,0,P|404:199|388:122,1,95.9999970703126,2|2,0:2|3:2,0:0:0:0:
287,62,105623,2,0,P|316:100|318:147,1,95.9999970703126,2|10,0:2|3:2,0:0:0:0:
249,236,106092,2,0,B|174:240|192:183|96:192,2,143.999995605469,2|2|10,0:3|0:3|3:2,0:0:0:0:
249,236,107264,70,0,L|232:139,1,95.9999970703126,6|2,3:2|0:2,0:0:0:0:
137,51,107732,2,0,B|123:122|123:122|129:131|129:131|110:217,1,143.999995605469,10|0,3:2|0:0,0:0:0:0:
108,227,108201,2,0,P|58:214|7:239,1,95.9999970703126,0|0,3:0|0:0,0:0:0:0:
0,266,108553,1,0,0:0:0:0:
0,266,108670,1,8,3:2:0:0:
122,379,108904,5,2,0:2:0:0:
225,304,109139,1,2,3:2:0:0:
186,188,109373,1,2,0:2:0:0:
105,255,109607,1,10,3:2:0:0:
205,325,109842,2,0,P|296:309|331:224,1,191.999994140625,2|0,0:2|0:0,0:0:0:0:
269,117,110545,2,0,L|385:133,1,95.9999970703126,8|2,3:2|0:2,0:0:0:0:
475,189,111014,69,2,3:2:0:0:
452,102,111248,1,2,0:2:0:0:
504,1,111482,2,0,P|496:42|370:9,1,191.999994140625,10|0,3:2|3:0,0:0:0:0:
263,32,112185,1,0,0:0:0:0:
263,32,112303,1,0,0:0:0:0:
263,32,112420,1,8,3:2:0:0:
182,74,112654,6,0,L|193:162,1,80,6|2,3:2|0:0,0:0:0:0:
286,204,113123,2,0,L|275:291,1,80,8|10,0:3|0:0,0:0:0:0:
197,353,113592,1,2,3:2:0:0:
106,325,113826,2,0,L|87:143,2,160,2|2|6,0:0|0:0|3:2,0:0:0:0:
256,192,122264,53,6,3:2:0:0:
144,354,129764,38,0,P|149:323|192:287,1,71.9999978027344,6|0,1:2|1:0,0:0:0:0:
110,218,130232,2,0,P|138:204|192:218,1,71.9999978027344,2|0,1:3|1:0,0:0:0:0:
197,96,130701,2,0,P|224:111|243:164,1,71.9999978027344,2|0,1:3|1:0,0:0:0:0:
345,105,131170,2,0,P|348:136|315:182,1,71.9999978027344,2|0,1:3|1:0,0:0:0:0:
264,272,131639,6,0,L|356:253,1,71.9999978027344,2|0,1:3|1:0,0:0:0:0:
434,318,132107,2,0,L|415:226,1,71.9999978027344,2|0,1:3|1:0,0:0:0:0:
485,146,132576,2,0,L|393:165,1,71.9999978027344,2|0,1:3|1:0,0:0:0:0:
315,100,133044,2,0,L|334:192,1,71.9999978027344,2|0,1:3|1:0,0:0:0:0:
419,247,133514,69,2,1:3:0:0:
338,283,133748,1,0,1:0:0:0:
259,319,133982,2,0,L|179:356,1,71.9999978027344,2|0,1:3|1:0,0:0:0:0:
94,288,134451,5,2,1:3:0:0:
170,242,134685,1,0,1:0:0:0:
244,196,134919,2,0,L|320:151,1,71.9999978027344,2|0,1:3|1:0,0:0:0:0:
326,48,135389,69,2,1:3:0:0:
244,83,135623,1,0,1:0:0:0:
165,117,135857,2,0,L|85:154,1,71.9999978027344,2|0,1:3|1:0,0:0:0:0:
4,210,136326,6,0,L|69:240,1,71.9999978027344,2|0,1:3|1:0,0:0:0:0:
199,272,136795,2,0,P|153:285|130:306,1,71.9999978027344,2|0,1:3|1:0,0:0:0:0:
36,377,137264,70,0,L|29:330,3,35.9999989013672,2|0|0|0,1:3|1:0|1:0|1:0,0:0:0:0:
95,281,137732,2,0,L|102:234,3,35.9999989013672,2|0|0|0,1:3|1:0|1:0|1:0,0:0:0:0:
29,199,138201,2,0,L|22:152,3,35.9999989013672,2|0|0|0,1:3|1:0|1:0|1:0,0:0:0:0:
100,110,138670,2,0,L|107:63,3,35.9999989013672,2|0|0|0,1:3|1:0|1:0|1:0,0:0:0:0:
181,23,139139,5,2,1:3:0:0:
209,27,139256,1,0,1:0:0:0:
237,32,139373,1,0,1:0:0:0:
265,37,139490,1,0,1:0:0:0:
293,41,139607,2,0,L|344:48,3,35.9999989013672,2|0|0|0,1:3|1:0|1:0|1:0,0:0:0:0:
366,125,140076,69,2,1:3:0:0:
338,129,140193,1,0,1:0:0:0:
310,134,140310,1,0,1:0:0:0:
282,139,140427,1,0,1:0:0:0:
254,143,140544,2,0,L|203:150,3,35.9999989013672,2|0|0|0,1:3|1:0|1:0|1:0,0:0:0:0:
256,192,141014,12,2,142889,0:3:0:0:
512,192,144295,5,4,0:3:0:0:
512,192,144764,6,0,B|462:182|462:182|434:216|434:216|349:224,1,155.999992858887,4|0,3:2|0:0,0:0:0:0:
323,229,145232,2,0,P|347:169|297:51,1,155.999992858887,8|0,3:2|0:0,0:0:0:0:
299,50,145701,1,0,3:0:0:0:
213,93,145935,1,0,0:0:0:0:
87,44,146170,2,0,B|63:108|106:156|106:156|152:142,1,155.999992858887,8|0,3:2|0:0,0:0:0:0:
179,138,146639,6,0,P|208:190|200:250,1,103.999995239258,0|0,3:0|0:0,0:0:0:0:
189,272,146990,1,0,0:0:0:0:
189,272,147107,1,8,3:2:0:0:
88,306,147342,1,2,0:3:0:0:
47,295,147459,1,2,0:3:0:0:
6,284,147576,2,0,B|-1:237|-1:237|32:186,2,103.999995239258,0|2|8,3:0|0:3|3:2,0:0:0:0:
6,284,148514,70,0,L|187:248,1,155.999992858887,0|0,3:0|0:0,0:0:0:0:
199,246,148982,2,0,B|170:223|162:203|180:130,1,103.999995239258,8|0,3:2|0:0,0:0:0:0:
122,70,149451,1,0,3:0:0:0:
230,56,149685,1,0,0:0:0:0:
230,56,149803,1,0,0:0:0:0:
230,56,149920,2,0,P|288:79|336:69,1,103.999995239258,8|2,3:2|0:3,0:0:0:0:
364,59,150271,1,2,0:3:0:0:
364,59,150389,6,0,L|377:113,1,51.999997619629,2|0,3:2|0:0,0:0:0:0:
420,147,150623,2,0,L|407:201,1,51.999997619629,2|0,0:0|0:0,0:0:0:0:
368,241,150857,1,8,3:2:0:0:
241,232,151092,2,0,P|299:239|398:286,2,155.999992858887,2|2|10,0:0|0:0|3:2,0:0:0:0:
241,232,152264,70,0,B|180:244|180:244|165:273|165:273|83:287,1,155.999992858887,4|0,3:2|0:0,0:0:0:0:
57,290,152732,2,0,B|95:209|13:197|74:103,1,155.999992858887,8|0,3:2|0:0,0:0:0:0:
73,104,153201,1,0,3:0:0:0:
165,139,153435,1,0,0:0:0:0:
304,96,153670,2,0,P|271:166|282:260,1,155.999992858887,8|0,3:2|0:0,0:0:0:0:
296,281,154139,6,0,L|410:256,1,103.999995239258,0|0,3:0|0:0,0:0:0:0:
435,250,154490,1,0,0:0:0:0:
435,250,154607,1,8,3:2:0:0:
495,119,154842,1,2,0:3:0:0:
459,111,154960,1,2,0:3:0:0:
423,104,155077,2,0,B|358:87|358:87|357:41,2,103.999995239258,0|0|8,3:0|0:0|3:2,0:0:0:0:
423,104,156014,70,0,P|390:169|389:279,1,155.999992858887,0|0,3:0|0:0,0:0:0:0:
386,300,156482,2,0,P|349:252|274:220,1,103.999995239258,8|0,3:2|0:0,0:0:0:0:
208,153,156951,1,0,3:0:0:0:
233,147,157068,1,0,0:0:0:0:
258,141,157185,1,2,0:3:0:0:
289,135,157303,1,2,0:3:0:0:
319,128,157420,1,8,3:2:0:0:
330,33,157654,70,0,P|288:9|182:34,1,143.999995605469,0|8,3:0|0:3,0:0:0:0:
114,79,158357,1,8,0:0:0:0:
19,68,158592,2,0,P|41:121|45:146,1,71.9999978027344,2|0,3:2|0:0,0:0:0:0:
46,271,159060,1,8,0:0:0:0:
144,184,159295,2,0,P|157:230|162:271,1,71.9999978027344,8|2,0:0|0:2,0:0:0:0:
256,192,159764,38,0,L|143:170,1,95.9999970703126,6|2,3:2|0:2,0:0:0:0:
236,78,160232,2,0,B|295:64|295:64|318:82|318:82|407:58,1,143.999995605469,10|0,3:2|0:0,0:0:0:0:
406,46,160701,2,0,P|390:120|401:166,1,95.9999970703126,0|0,3:0|0:0,0:0:0:0:
409,179,161053,1,0,0:0:0:0:
409,179,161170,1,8,3:2:0:0:
502,262,161404,5,2,0:2:0:0:
387,323,161639,1,2,3:2:0:0:
270,236,161873,1,2,0:2:0:0:
391,176,162107,1,10,3:2:0:0:
351,252,162342,2,0,B|266:249|286:171|169:166,1,191.999994140625,2|0,0:2|0:0,0:0:0:0:
65,206,163045,2,0,L|86:93,1,95.9999970703126,8|2,3:2|0:2,0:0:0:0:
201,80,163514,69,2,3:2:0:0:
175,0,163748,1,2,0:2:0:0:
295,42,163982,2,0,B|346:51|388:24|388:24|421:58|480:55,1,191.999994140625,10|0,3:2|3:0,0:0:0:0:
497,168,164685,1,0,0:0:0:0:
497,168,164803,1,0,0:0:0:0:
497,168,164920,1,8,3:2:0:0:
375,146,165154,6,0,P|404:184|388:261,1,95.9999970703126,2|2,0:2|3:2,0:0:0:0:
287,321,165623,2,0,P|316:283|318:236,1,95.9999970703126,2|10,0:2|3:2,0:0:0:0:
249,147,166092,2,0,B|160:135|192:200|96:191,2,143.999995605469,2|2|10,0:3|0:3|3:2,0:0:0:0:
249,147,167264,70,0,L|232:244,1,95.9999970703126,6|2,3:2|0:2,0:0:0:0:
140,331,167732,2,0,B|126:260|126:260|132:251|132:251|113:165,1,143.999995605469,10|0,3:2|0:0,0:0:0:0:
111,153,168201,2,0,P|61:166|10:141,1,95.9999970703126,0|0,3:0|0:0,0:0:0:0:
0,117,168553,1,0,0:0:0:0:
0,117,168670,1,8,3:2:0:0:
122,4,168904,5,2,0:2:0:0:
225,79,169139,1,2,3:2:0:0:
186,195,169373,1,2,0:2:0:0:
105,128,169607,1,10,3:2:0:0:
205,58,169842,2,0,P|296:74|331:159,1,191.999994140625,2|0,0:2|0:0,0:0:0:0:
269,266,170545,2,0,L|385:250,1,95.9999970703126,8|2,3:2|0:2,0:0:0:0:
475,194,171014,69,2,3:2:0:0:
452,281,171248,1,2,0:2:0:0:
504,382,171482,2,0,B|493:332|446:313|446:313|375:330|362:386,1,191.999994140625,10|0,3:2|3:0,0:0:0:0:
263,351,172185,1,0,0:0:0:0:
263,351,172303,1,0,0:0:0:0:
263,351,172420,1,8,3:2:0:0:
304,250,172654,69,4,3:2:0:0:
256,192,172771,12,0,174295,0:0:0:0:
