osu file format v14

[General]
AudioFilename: audio.mp3
AudioLeadIn: 0
PreviewTime: 126735
Countdown: 0
SampleSet: Soft
StackLeniency: 0.7
Mode: 0
LetterboxInBreaks: 0
WidescreenStoryboard: 1

[Editor]
Bookmarks: 43635
DistanceSpacing: 1.2
BeatDivisor: 4
GridSize: 8
TimelineZoom: 1.6

[Metadata]
Title:All In All
TitleUnicode:All In All
Artist:Kuba Oms
ArtistUnicode:Kuba Oms
Creator:PeterEU
Version:United
Source:osu!
Tags:featured artist ADHD
BeatmapID:1530593
BeatmapSetID:724846

[Difficulty]
HPDrainRate:6
CircleSize:4
OverallDifficulty:7
ApproachRate:8
SliderMultiplier:1.4
SliderTickRate:1

[Events]
//Background and Video events
0,0,"BG.jpg",0,0
//Break Periods
2,114235,126085
//Storyboard Layer 0 (Background)
//Storyboard Layer 1 (Fail)
//Storyboard Layer 2 (Pass)
//Storyboard Layer 3 (Foreground)
//Storyboard Sound Samples

[TimingPoints]
2035,400,4,2,0,50,1,0
5235,-100,4,2,0,40,0,0
8035,-100,4,2,0,5,0,0
8435,-90.9090909090909,4,2,0,70,0,0
17635,-100,4,2,0,5,0,0
18035,-100,4,2,0,60,0,0
43635,-83.3333333333333,4,2,0,80,0,1
44235,-83.3333333333333,4,2,0,40,0,1
44435,-83.3333333333333,4,2,0,80,0,1
50635,-83.3333333333333,4,2,0,40,0,1
50835,-83.3333333333333,4,2,0,80,0,1
57035,-83.3333333333333,4,2,0,40,0,1
57235,-83.3333333333333,4,2,0,80,0,1
63435,-83.3333333333333,4,2,0,40,0,1
63635,-83.3333333333333,4,2,0,80,0,1
66035,-100,4,2,0,70,0,0
91635,-83.3333333333333,4,2,0,80,0,1
92235,-83.3333333333333,4,2,0,40,0,1
92435,-83.3333333333333,4,2,0,80,0,1
98635,-83.3333333333333,4,2,0,40,0,1
98835,-83.3333333333333,4,2,0,80,0,1
105035,-83.3333333333333,4,2,0,40,0,1
105235,-83.3333333333333,4,2,0,80,0,1
111435,-83.3333333333333,4,2,0,40,0,1
111635,-83.3333333333333,4,2,0,80,0,1
114035,-100,4,2,0,30,0,0
126835,-83.3333333333333,4,2,0,80,0,1
127435,-83.3333333333333,4,2,0,40,0,1
127635,-83.3333333333333,4,2,0,80,0,1
133835,-83.3333333333333,4,2,0,40,0,1
134035,-83.3333333333333,4,2,0,80,0,1
140235,-83.3333333333333,4,2,0,40,0,1
140435,-83.3333333333333,4,2,0,80,0,1
146635,-83.3333333333333,4,2,0,40,0,1
146835,-83.3333333333333,4,2,0,80,0,1
153035,-83.3333333333333,4,2,0,40,0,1
153235,-83.3333333333333,4,2,0,80,0,1
159435,-83.3333333333333,4,2,0,40,0,1
159635,-83.3333333333333,4,2,0,80,0,1
165835,-83.3333333333333,4,2,0,40,0,1
166035,-83.3333333333333,4,2,0,80,0,1
172235,-83.3333333333333,4,2,0,40,0,1
172435,-83.3333333333333,4,2,0,80,0,1
178635,-83.3333333333333,4,2,0,40,0,1
178835,-83.3333333333333,4,2,0,80,0,1
181235,-100,4,2,0,60,0,1
184435,-100,4,2,0,30,0,0
192435,-100,4,2,0,5,0,0

[Colours]
Combo1 : 153,198,253
Combo2 : 220,160,200
Combo3 : 255,230,140
Combo4 : 248,154,126
Combo5 : 187,164,236

[HitObjects]
109,99,2035,6,0,P|128:170|78:236,1,140,2|10,0:0|0:0,0:0:0:0:
45,291,2635,1,2,0:0:0:0:
45,291,2735,1,0,0:0:0:0:
45,291,2835,1,2,0:0:0:0:
85,364,3035,1,0,0:0:0:0:
160,327,3235,2,0,L|241:324,1,70,10|0,0:0|0:0,0:0:0:0:
302,366,3635,6,0,B|331:291|273:294|306:210,1,140,2|10,0:0|0:0,0:0:0:0:
336,154,4235,1,2,0:0:0:0:
336,154,4335,1,0,0:0:0:0:
336,154,4435,1,2,0:0:0:0:
265,108,4635,1,0,0:0:0:0:
339,68,4835,2,0,P|395:74|422:67,1,70,10|0,0:0|0:0,0:0:0:0:
462,7,5235,6,0,L|463:155,1,140,2|8,0:0|0:0,0:0:0:0:
421,220,5835,1,2,0:0:0:0:
421,220,5935,1,0,0:0:0:0:
421,220,6035,1,2,0:0:0:0:
351,173,6235,1,2,0:0:0:0:
277,213,6435,2,0,P|216:212|193:213,1,70,10|0,0:0|0:0,0:0:0:0:
256,192,6835,12,0,8035,0:0:0:0:
104,139,8435,6,0,L|114:224,1,77.0000023498536,4|0,0:3|0:0,0:0:0:0:
168,292,8835,2,0,P|226:266|327:292,1,154.000004699707,8|0,0:0|0:0,0:0:0:0:
349,309,9335,1,0,0:0:0:0:
349,309,9435,1,2,0:0:0:0:
429,263,9635,2,0,L|440:169,1,77.0000023498536,8|0,0:0|0:0,0:0:0:0:
354,146,10035,6,0,L|343:52,1,77.0000023498536,4|0,0:3|0:0,0:0:0:0:
264,24,10435,2,0,B|189:60|190:-3|102:39,1,154.000004699707,8|0,0:0|0:0,0:0:0:0:
71,48,10935,1,0,0:0:0:0:
71,48,11035,1,2,0:0:0:0:
106,133,11235,2,0,L|101:242,1,77.0000023498536,8|0,0:0|0:0,0:0:0:0:
165,277,11635,6,0,L|170:386,1,77.0000023498536,4|0,0:3|0:0,0:0:0:0:
257,378,12035,2,0,L|263:211,1,154.000004699707,8|0,0:0|0:0,0:0:0:0:
268,178,12535,1,0,0:0:0:0:
268,178,12635,1,2,0:0:0:0:
357,199,12835,2,0,P|404:202|441:194,1,77.0000023498536,8|0,0:0|0:0,0:0:0:0:
467,110,13235,6,0,P|420:107|383:115,1,77.0000023498536,4|0,0:3|0:0,0:0:0:0:
308,70,13635,2,0,P|247:94|130:65,1,154.000004699707,8|0,0:0|0:0,0:0:0:0:
117,66,14135,1,0,0:0:0:0:
117,66,14235,1,2,0:0:0:0:
62,140,14435,2,0,L|69:235,1,77.0000023498536,8|0,0:0|0:0,0:0:0:0:
140,274,14835,6,0,L|133:369,1,77.0000023498536,4|0,0:3|0:0,0:0:0:0:
223,376,15235,2,0,P|294:341|378:360,1,154.000004699707,8|0,0:0|0:0,0:0:0:0:
406,375,15735,1,0,0:0:0:0:
406,375,15835,1,2,0:0:0:0:
474,313,16035,2,0,L|479:203,1,77.0000023498536,8|0,0:0|0:0,0:0:0:0:
418,164,16435,5,4,0:3:0:0:
256,192,16535,12,0,17635,0:0:0:0:
86,240,18035,6,0,L|92:139,1,70,4|0,0:3|0:0,0:0:0:0:
123,92,18435,2,0,P|185:124|273:99,1,140,8|0,0:0|0:0,0:0:0:0:
327,75,19035,1,4,0:3:0:0:
397,120,19235,2,0,L|391:206,1,70,8|0,0:0|0:0,0:0:0:0:
459,240,19635,6,0,L|465:326,1,70,4|0,0:3|0:0,0:0:0:0:
398,362,20035,2,0,B|324:334|325:385|243:356,1,140,8|0,0:0|0:0,0:0:0:0:
177,373,20635,1,4,0:3:0:0:
203,293,20835,2,0,P|214:233|205:203,1,70,8|0,0:0|0:0,0:0:0:0:
276,170,21235,6,0,P|265:110|274:80,1,70,4|0,0:3|0:0,0:0:0:0:
328,46,21635,2,0,P|268:71|176:46,1,140,8|0,0:0|0:0,0:0:0:0:
115,35,22235,1,4,0:3:0:0:
135,116,22435,2,0,P|128:150|136:183,1,70,8|0,0:0|0:0,0:0:0:0:
214,218,22835,6,0,P|220:252|211:286,1,70,4|0,0:3|0:0,0:0:0:0:
143,335,23234,2,0,B|207:310|209:359|284:331,1,140,8|0,0:0|0:0,0:0:0:0:
358,302,23835,1,4,0:3:0:0:
430,343,24035,1,8,0:0:0:0:
495,290,24235,2,0,L|501:220,1,70,0|4,0:0|0:3,0:0:0:0:
448,156,24635,5,0,0:0:0:0:
505,94,24835,2,0,P|441:69|382:102,1,140,8|0,0:0|0:0,0:0:0:0:
328,166,25435,1,4,0:3:0:0:
257,121,25635,2,0,L|187:117,1,70,8|0,0:0|0:0,0:0:0:0:
131,55,26035,6,0,B|154:125|105:126|134:191,1,140,4|8,0:3|0:0,0:0:0:0:
200,241,26634,2,0,P|135:218|73:251,1,140,4|0,0:3|0:0,0:0:0:0:
142,298,27235,1,8,0:0:0:0:
280,202,27635,6,0,L|275:111,1,70,4|0,0:3|0:0,0:0:0:0:
223,66,28035,2,0,P|185:90|81:71,1,140,8|0,0:0|0:0,0:0:0:0:
27,28,28635,1,4,0:3:0:0:
0,107,28835,2,0,L|5:186,1,70,8|0,0:0|0:0,0:0:0:0:
69,230,29235,6,0,L|64:309,1,70,4|0,0:3|0:0,0:0:0:0:
134,346,29635,2,0,B|207:375|213:315|291:355,1,140,8|0,0:0|0:0,0:0:0:0:
356,319,30235,1,4,0:3:0:0:
316,245,30435,1,8,0:0:0:0:
233,260,30635,1,8,0:0:0:0:
233,260,30735,1,8,0:0:0:0:
233,260,30835,6,0,L|134:258,1,70,4|0,0:3|0:0,0:0:0:0:
109,323,31235,2,0,B|135:250|81:252|108:166,1,140,8|0,0:0|0:0,0:0:0:0:
117,103,31835,1,4,0:3:0:0:
198,121,32035,2,0,L|275:125,1,70,8|0,0:0|0:0,0:0:0:0:
329,182,32435,6,0,L|407:175,1,70,4|0,0:3|0:0,0:0:0:0:
438,103,32835,2,0,P|420:168|473:225,1,140,8|0,0:0|0:0,0:0:0:0:
512,153,33435,1,4,0:3:0:0:
512,153,33635,1,8,0:0:0:0:
383,236,34035,6,0,L|299:230,1,70,4|0,0:3|0:0,0:0:0:0:
208,315,34435,2,0,L|347:311,1,140,8|0,0:0|0:0,0:0:0:0:
431,308,35035,1,4,0:3:0:0:
383,236,35235,2,0,P|388:184|377:148,1,70,8|0,0:0|0:0,0:0:0:0:
357,87,35635,5,4,0:3:0:0:
287,133,35835,2,0,L|199:133,1,70,0|8,0:0|0:0,0:0:0:0:
159,71,36235,2,0,P|191:138|152:205,1,140,0|4,0:0|0:3,0:0:0:0:
108,254,36835,1,8,0:0:0:0:
179,298,37035,2,0,L|259:298,1,70,0|4,0:0|0:3,0:0:0:0:
310,354,37435,5,0,0:3:0:0:
229,379,37635,2,0,L|81:377,1,140,8|0,0:0|0:0,0:0:0:0:
27,319,38235,1,4,0:3:0:0:
86,259,38435,2,0,P|89:225|87:169,1,70,8|0,0:0|0:0,0:0:0:0:
29,129,38835,6,0,P|26:95|28:39,1,70,4|0,0:3|0:0,0:0:0:0:
100,19,39235,2,0,P|166:44|260:30,1,140,8|0,0:0|0:0,0:0:0:0:
314,14,39835,1,4,0:3:0:0:
296,96,40035,2,0,P|304:139|294:172,1,70,8|0,0:0|0:0,0:0:0:0:
244,229,40435,6,0,P|236:272|246:305,1,70,4|0,0:3|0:0,0:0:0:0:
317,334,40835,2,0,B|239:310|242:352|168:327,1,140,8|0,0:0|0:0,0:0:0:0:
99,356,41435,1,4,0:3:0:0:
120,274,41635,2,0,P|129:240|131:198,1,70,8|0,0:0|0:0,0:0:0:0:
212,178,42035,6,0,P|203:144|201:102,1,70,4|0,0:3|0:0,0:0:0:0:
259,49,42435,2,0,P|200:83|131:67,1,140,8|8,0:0|0:0,0:0:0:0:
132,68,43035,1,8,0:0:0:0:
132,68,43235,1,8,0:0:0:0:
384,104,43635,6,0,L|376:284,1,167.999994873047,4|8,0:1|0:0,0:0:0:0:
298,335,44235,1,8,0:0:0:0:
240,252,44435,2,0,P|178:248|144:251,1,83.9999974365235,0|4,0:0|0:3,0:0:0:0:
107,338,44835,2,0,P|169:342|203:339,1,83.9999974365235,8|0,0:0|0:0,0:0:0:0:
240,252,45235,6,0,B|270:170|204:167|246:72,1,167.999994873047,4|8,0:3|0:0,0:0:0:0:
330,132,45835,2,0,P|383:167|477:139,1,167.999994873047,0|0,0:0|0:0,0:0:0:0:
408,64,46435,1,8,0:0:0:0:
316,22,46635,1,0,0:0:0:0:
237,84,46835,6,0,L|245:176,1,83.9999974365235,4|0,0:3|0:0,0:0:0:0:
323,230,47235,2,0,L|315:322,1,83.9999974365235,8|0,0:0|0:0,0:0:0:0:
230,368,47635,2,0,B|147:341|145:398|54:354,1,167.999994873047,0|8,0:0|0:0,0:0:0:0:
111,269,48235,1,0,0:0:0:0:
14,239,48435,6,0,P|33:132|32:52,1,167.999994873047,4|8,0:3|0:0,0:0:0:0:
124,28,49035,2,0,P|231:47|311:46,1,167.999994873047,0|4,0:0|0:3,0:0:0:0:
390,37,49635,1,8,0:0:0:0:
390,37,49835,1,0,0:0:0:0:
474,92,50035,6,0,P|439:137|478:253,1,167.999994873047,4|8,0:3|0:0,0:0:0:0:
412,327,50635,1,8,0:0:0:0:
327,277,50835,2,0,P|281:276|227:278,1,83.9999974365235,0|4,0:0|0:3,0:0:0:0:
164,213,51235,2,0,P|118:214|64:212,1,83.9999974365235,8|0,0:0|0:0,0:0:0:0:
37,121,51635,6,0,P|115:71|112:-10,1,167.999994873047,4|8,0:3|0:0,0:0:0:0:
22,34,52235,2,0,L|174:115,1,167.999994873047,0|4,0:0|0:3,0:0:0:0:
256,164,52835,1,8,0:0:0:0:
336,102,53035,1,0,0:0:0:0:
432,131,53235,6,0,P|435:73|394:30,1,83.9999974365235,4|0,0:3|0:0,0:0:0:0:
336,102,53635,2,0,P|332:159|373:202,1,83.9999974365235,8|0,0:0|0:0,0:0:0:0:
429,235,54035,2,0,B|347:203|348:267|245:232,1,167.999994873047,0|8,0:0|0:0,0:0:0:0:
170,202,54635,1,0,0:0:0:0:
79,245,54835,6,0,L|85:330,1,83.9999974365235,4|0,0:3|0:0,0:0:0:0:
170,202,55235,2,0,L|176:117,1,83.9999974365235,8|0,0:0|0:0,0:0:0:0:
239,39,55635,2,0,P|308:65|406:7,1,167.999994873047,0|8,0:0|0:0,0:0:0:0:
497,147,56435,6,0,L|487:352,1,167.999994873047,4|8,0:3|0:0,0:0:0:0:
402,363,57035,1,8,0:0:0:0:
314,313,57235,2,0,P|263:305|218:310,1,83.9999974365235
136,342,57635,2,0,P|85:350|40:345,1,83.9999974365235,8|0,0:0|0:0,0:0:0:0:
20,251,58035,6,0,B|55:159|-10:184|25:66,1,167.999994873047,4|8,0:3|0:0,0:0:0:0:
104,35,58635,2,0,L|273:45,1,167.999994873047,0|4,0:0|0:3,0:0:0:0:
372,52,59235,1,8,0:0:0:0:
311,133,59435,1,0,0:0:0:0:
377,208,59635,6,0,L|383:317,1,83.9999974365235,4|0,0:3|0:0,0:0:0:0:
476,256,60035,2,0,L|482:147,1,83.9999974365235,8|0,0:0|0:0,0:0:0:0:
407,102,60435,2,0,B|320:73|323:145|212:93,1,167.999994873047,0|8,0:0|0:0,0:0:0:0:
151,63,61035,1,0,0:0:0:0:
95,147,61235,6,0,L|105:322,1,167.999994873047,4|8,0:3|0:0,0:0:0:0:
196,356,61835,2,0,P|252:318|375:344,1,167.999994873047
439,369,62435,1,8,0:0:0:0:
439,369,62635,1,0,0:0:0:0:
486,280,62835,6,0,L|469:112,1,167.999994873047,4|8,0:3|0:0,0:0:0:0:
400,39,63435,1,8,0:0:0:0:
324,106,63635,2,0,L|222:105,1,83.9999974365235
157,47,64035,2,0,L|55:48,1,83.9999974365235,8|0,0:0|0:0,0:0:0:0:
5,122,64435,6,0,P|47:185|23:285,1,167.999994873047,4|8,0:3|0:0,0:0:0:0:
100,347,65035,1,0,0:0:0:0:
189,301,65235,2,0,L|285:297,1,83.9999974365235
342,370,65635,2,0,L|438:374,1,83.9999974365235,8|0,0:0|0:0,0:0:0:0:
485,314,66035,5,4,0:3:0:0:
350,213,66435,2,0,L|353:55,1,140,8|0,0:0|0:0,0:0:0:0:
283,25,67035,1,4,0:3:0:0:
225,85,67235,2,0,P|165:87|135:83,1,70,8|0,0:0|0:0,0:0:0:0:
95,26,67635,6,0,P|117:95|71:172,1,140,4|8,0:3|0:0,0:0:0:0:
41,222,68235,1,0,0:0:0:0:
88,290,68435,2,0,L|176:282,1,70,0|4,0:0|0:3,0:0:0:0:
233,319,68835,1,8,0:0:0:0:
233,319,69035,1,0,0:0:0:0:
313,342,69235,6,0,B|388:315|391:368|461:335,1,140,4|8,0:3|0:0,0:0:0:0:
417,261,69835,1,0,0:0:0:0:
469,195,70035,2,0,L|474:106,1,70,0|4,0:0|0:3,0:0:0:0:
393,98,70435,2,0,L|384:25,1,70,8|0,0:0|0:0,0:0:0:0:
302,12,70835,6,0,P|267:47|154:45,1,140,4|8,0:3|0:0,0:0:0:0:
99,32,71435,1,0,0:0:0:0:
52,101,71635,2,0,L|61:195,1,70,0|4,0:0|0:3,0:0:0:0:
116,232,72035,2,0,L|108:324,1,70,8|0,0:0|0:0,0:0:0:0:
177,351,72435,6,0,B|256:323|255:375|337:339,1,140,4|8,0:3|0:0,0:0:0:0:
389,310,73035,2,0,L|398:140,1,140,0|4,0:0|0:3,0:0:0:0:
390,86,73635,1,8,0:0:0:0:
312,52,73835,6,0,P|339:18|380:4,1,70,0|4,0:0|0:3,0:0:0:0:
320,132,74235,2,0,P|277:124|245:95,1,70,0|8,0:0|0:0,0:0:0:0:
390,86,74635,2,0,P|405:126|396:169,1,70,0|0,0:0|2:0,0:0:0:0:
344,212,75035,1,4,0:3:0:0:
281,268,75235,1,8,0:0:0:0:
291,351,75435,1,0,0:0:0:0:
209,372,75635,6,0,P|152:339|59:356,1,140,4|8,0:3|0:0,0:0:0:0:
22,283,76235,1,0,0:0:0:0:
73,217,76435,2,0,L|65:117,1,70,0|4,0:0|0:3,0:0:0:0:
144,114,76835,2,0,L|152:14,1,70,8|0,0:0|0:0,0:0:0:0:
232,32,77235,6,0,P|308:1|378:45,1,140,4|8,0:3|0:0,0:0:0:0:
302,84,77835,1,0,0:0:0:0:
358,146,78035,2,0,P|363:186|352:242,1,70,0|4,0:0|0:3,0:0:0:0:
300,274,78435,2,0,P|295:308|298:343,1,70,8|8,0:0|0:0,0:0:0:0:
218,370,78835,6,0,B|152:336|151:395|65:361,1,140,4|8,0:3|0:0,0:0:0:0:
110,287,79435,1,0,0:0:0:0:
41,238,79635,2,0,L|33:148,1,70,0|4,0:0|0:3,0:0:0:0:
113,138,80035,2,0,L|121:48,1,70,8|0,0:0|0:0,0:0:0:0:
192,26,80435,6,0,P|251:68|339:43,1,140,4|8,0:3|0:0,0:0:0:0:
393,30,81035,1,0,0:0:0:0:
443,96,81235,2,0,B|438:190,1,70,0|4,0:0|0:3,0:0:0:0:
379,225,81635,2,0,B|384:319,1,70,8|0,0:0|0:0,0:0:0:0:
319,350,82035,6,0,P|263:317|171:341,1,140,4|8,0:3|0:0,0:0:0:0:
113,358,82635,1,0,0:0:0:0:
45,308,82835,2,0,L|54:222,1,70,0|4,0:0|0:3,0:0:0:0:
99,169,83235,2,0,L|90:83,1,70,8|0,0:0|0:0,0:0:0:0:
186,132,83635,6,0,L|174:275,1,140,4|8,0:3|0:0,0:0:0:0:
234,330,84235,1,0,0:0:0:0:
295,273,84435,2,0,L|375:274,1,70,0|4,0:0|0:3,0:0:0:0:
417,339,84835,2,0,L|497:338,1,70,8|4,0:0|0:3,0:0:0:0:
504,255,85235,6,0,P|459:197|482:126,1,140,4|8,0:3|0:0,0:0:0:0:
410,79,85835,2,0,P|351:124|281:101,1,140,0|4,0:0|0:3,0:0:0:0:
224,59,86435,1,8,0:0:0:0:
224,59,86635,1,0,0:0:0:0:
163,117,86835,6,0,L|173:213,1,70,4|0,0:3|0:0,0:0:0:0:
224,250,87235,2,0,L|214:346,1,70,8|0,0:0|0:0,0:0:0:0:
286,366,87635,2,0,B|364:340|365:387|452:357,1,140,0|8,0:0|0:0,0:0:0:0:
502,335,88235,1,0,0:0:0:0:
434,284,88435,6,0,P|427:238|429:200,1,70,4|0,0:3|0:0,0:0:0:0:
459,136,88835,2,0,P|466:90|464:52,1,70,8|0,0:0|0:0,0:0:0:0:
407,5,89235,1,4,0:3:0:0:
407,5,89435,1,0,0:0:0:0:
331,41,89635,2,0,L|228:40,1,70,8|0,0:0|0:0,0:0:0:0:
179,18,90035,6,0,P|219:74|183:154,1,140,4|8,0:3|0:0,0:0:0:0:
134,87,90635,1,0,0:0:0:0:
83,153,90835,2,0,L|94:256,1,70,0|4,0:0|0:3,0:0:0:0:
55,299,91235,1,8,0:0:0:0:
250,375,91635,6,0,B|341:349|342:403|437:365,1,167.999994873047,4|8,0:1|0:0,0:0:0:0:
501,318,92235,1,8,0:0:0:0:
408,277,92435,2,0,P|399:205|408:182,1,83.9999974365235,0|4,0:0|0:3,0:0:0:0:
455,110,92835,2,0,P|464:38|455:15,1,83.9999974365235,8|0,0:0|0:0,0:0:0:0:
365,59,93235,6,0,B|283:29|285:88|190:52,1,167.999994873047,4|8,0:3|0:0,0:0:0:0:
104,26,93835,2,0,L|114:210,1,167.999994873047,0|4,0:0|0:3,0:0:0:0:
168,278,94435,1,8,0:0:0:0:
251,220,94635,1,0,0:0:0:0:
338,269,94835,6,0,L|447:259,1,83.9999974365235,4|0,0:3|0:0,0:0:0:0:
405,161,95235,2,0,L|296:151,1,83.9999974365235,8|0,0:0|0:0,0:0:0:0:
251,220,95635,2,0,P|302:269|277:367,1,167.999994873047,0|8,0:0|0:0,0:0:0:0:
204,297,96235,1,0,0:0:0:0:
123,236,96435,6,0,B|161:154|92:158|135:47,1,167.999994873047,4|8,0:3|0:0,0:0:0:0:
218,113,97035,2,0,P|344:121|408:106,1,167.999994873047,0|4,0:0|0:3,0:0:0:0:
479,81,97635,1,8,0:0:0:0:
479,81,97835,1,0,0:0:0:0:
501,179,98035,6,0,L|503:353,1,167.999994873047,4|8,0:3|0:0,0:0:0:0:
408,309,98635,1,8,0:0:0:0:
325,366,98835,2,0,P|279:365|225:367,1,83.9999974365235,0|4,0:0|0:3,0:0:0:0:
166,297,99235,2,0,P|120:298|66:296,1,83.9999974365235,8|0,0:0|0:0,0:0:0:0:
14,221,99635,6,0,P|62:141|23:70,1,167.999994873047,4|8,0:3|0:0,0:0:0:0:
125,33,100235,2,0,B|207:12|202:61|297:31,1,167.999994873047,0|4,0:0|0:3,0:0:0:0:
387,7,100835,1,8,0:0:0:0:
355,102,101035,1,0,0:0:0:0:
437,160,101235,6,0,P|440:218|399:261,1,83.9999974365235,4|0,0:3|0:0,0:0:0:0:
346,180,101635,2,0,P|342:123|383:80,1,83.9999974365235,8|0,0:0|0:0,0:0:0:0:
441,48,102035,2,0,P|336:68|265:17,1,167.999994873047,0|8,0:0|0:0,0:0:0:0:
187,17,102635,1,0,0:0:0:0:
119,91,102835,6,0,L|125:176,1,83.9999974365235,4|0,0:3|0:0,0:0:0:0:
196,246,103235,2,0,L|190:331,1,83.9999974365235,8|0,0:0|0:0,0:0:0:0:
275,383,103635,2,0,P|343:352|448:386,1,167.999994873047,0|8,0:0|0:0,0:0:0:0:
476,206,104435,6,0,L|466:1,1,167.999994873047,4|8,0:3|0:0,0:0:0:0:
368,19,105035,1,8,0:0:0:0:
286,77,105235,2,0,P|235:85|190:80,1,83.9999974365235
107,49,105635,2,0,P|56:41|11:46,1,83.9999974365235,8|0,0:0|0:0,0:0:0:0:
55,139,106035,6,0,B|48:199|48:199|71:255|71:255|60:324,1,167.999994873047,4|8,0:3|0:0,0:0:0:0:
151,351,106635,2,0,B|239:312|239:383|323:342,1,167.999994873047,0|4,0:0|0:3,0:0:0:0:
403,300,107235,1,8,0:0:0:0:
337,223,107435,1,0,0:0:0:0:
387,135,107635,6,0,L|393:26,1,83.9999974365235,4|0,0:3|0:0,0:0:0:0:
290,48,108035,2,0,L|296:157,1,83.9999974365235,8|0,0:0|0:0,0:0:0:0:
337,223,108435,2,0,B|250:252|253:180|142:232,1,167.999994873047,0|8,0:0|0:0,0:0:0:0:
82,265,109035,1,0,0:0:0:0:
7,197,109235,6,0,L|17:22,1,167.999994873047,4|8,0:3|0:0,0:0:0:0:
117,21,109835,2,0,P|173:59|296:33,1,167.999994873047
360,8,110435,1,8,0:0:0:0:
360,8,110635,1,0,0:0:0:0:
426,84,110835,6,0,L|409:252,1,167.999994873047,4|8,0:3|0:0,0:0:0:0:
471,330,111435,1,8,0:0:0:0:
376,365,111635,2,0,P|334:368|280:356,1,83.9999974365235
200,319,112035,2,0,P|160:312|98:320,1,83.9999974365235,8|0,0:0|0:0,0:0:0:0:
31,260,112435,6,0,P|73:197|49:97,1,167.999994873047,4|8,0:3|0:0,0:0:0:0:
6,23,113035,1,0,0:0:0:0:
106,23,113235,2,0,L|202:19,1,83.9999974365235
268,82,113635,2,0,L|364:86,1,83.9999974365235,8|0,0:0|0:0,0:0:0:0:
431,57,114035,5,0,0:0:0:0:
129,336,126835,6,0,B|217:298|217:375|304:334,1,167.999994873047,4|8,0:1|0:0,0:0:0:0:
380,291,127435,1,8,0:0:0:0:
295,235,127635,2,0,L|288:134,1,83.9999974365235,0|4,0:3|0:3,0:0:0:0:
381,109,128035,2,0,L|388:8,1,83.9999974365235,8|0,0:0|0:0,0:0:0:0:
289,52,128435,6,0,B|206:24|205:90|108:52,1,167.999994873047,4|8,0:3|0:0,0:0:0:0:
48,123,129035,2,0,P|81:195|48:298,1,167.999994873047
133,350,129635,1,8,0:0:0:0:
133,350,129835,1,0,0:0:0:0:
214,291,130035,6,0,L|307:296,1,83.9999974365235,4|0,0:3|0:0,0:0:0:0:
366,368,130435,2,0,L|462:364,1,83.9999974365235,8|0,0:0|0:0,0:0:0:0:
484,269,130835,2,0,P|440:190|467:116,1,167.999994873047,0|8,0:0|0:0,0:0:0:0:
390,51,131435,1,0,0:0:0:0:
298,93,131635,6,0,L|110:88,1,167.999994873047,4|8,0:3|0:0,0:0:0:0:
88,182,132235,2,0,L|275:177,1,167.999994873047,0|4,0:3|0:3,0:0:0:0:
356,176,132835,1,8,0:0:0:0:
356,176,133035,1,0,0:0:0:0:
420,98,133235,6,0,P|455:143|416:259,1,167.999994873047,4|8,0:3|0:0,0:0:0:0:
356,311,133835,1,8,0:0:0:0:
282,242,134035,2,0,P|236:241|182:243,1,83.9999974365235,0|4,0:0|0:3,0:0:0:0:
147,329,134435,2,0,P|101:330|47:328,1,83.9999974365235,8|0,0:0|0:0,0:0:0:0:
8,243,134835,6,0,P|43:176|11:79,1,167.999994873047,4|8,0:3|0:0,0:0:0:0:
106,35,135435,2,0,L|288:42,1,167.999994873047,0|4,0:0|0:3,0:0:0:0:
347,111,136035,1,8,0:0:0:0:
248,132,136235,1,0,0:0:0:0:
306,214,136435,6,0,L|300:319,1,83.9999974365235,4|0,0:3|0:0,0:0:0:0:
200,297,136835,2,0,L|194:192,1,83.9999974365235,8|0,0:0|0:0,0:0:0:0:
248,132,137235,2,0,P|323:112|394:179,1,167.999994873047,0|8,0:0|0:0,0:0:0:0:
306,214,137835,1,0,0:0:0:0:
208,239,138035,6,0,L|214:324,1,83.9999974365235,4|0,0:3|0:0,0:0:0:0:
306,214,138435,2,0,L|312:129,1,83.9999974365235,8|0,0:0|0:0,0:0:0:0:
385,61,138835,2,0,P|317:92|212:58,1,167.999994873047,0|8,0:0|0:0,0:0:0:0:
42,146,139635,6,0,P|48:221|52:351,1,167.999994873047,4|8,0:3|0:0,0:0:0:0:
135,369,140235,1,8,0:0:0:0:
198,290,140435,2,0,P|249:282|294:287,1,83.9999974365235
368,335,140835,2,0,P|419:343|464:338,1,83.9999974365235,8|0,0:0|0:0,0:0:0:0:
507,256,141235,6,0,P|468:183|494:95,1,167.999994873047,4|8,0:3|0:0,0:0:0:0:
412,36,141835,2,0,B|332:64|331:14|245:42,1,167.999994873047,0|4,0:0|0:3,0:0:0:0:
154,81,142435,1,8,0:0:0:0:
71,23,142635,1,0,0:0:0:0:
55,122,142835,6,0,L|61:231,1,83.9999974365235,4|0,0:3|0:0,0:0:0:0:
139,267,143235,2,0,L|145:158,1,83.9999974365235,8|0,0:0|0:0,0:0:0:0:
235,140,143635,2,0,B|322:111|319:183|430:131,1,167.999994873047,0|8,0:0|0:0,0:0:0:0:
491,102,144235,1,0,0:0:0:0:
505,201,144435,6,0,L|495:372,1,167.999994873047,4|8,0:3|0:0,0:0:0:0:
394,372,145035,2,0,P|338:334|215:360,1,167.999994873047
147,378,145635,1,8,0:0:0:0:
147,378,145835,1,0,0:0:0:0:
63,321,146035,6,0,L|80:153,1,167.999994873047,4|8,0:3|0:0,0:0:0:0:
149,81,146635,1,8,0:0:0:0:
229,141,146835,2,0,P|276:144|331:140,1,83.9999974365235
386,72,147235,2,0,P|426:68|488:73,1,83.9999974365235,8|0,0:0|0:0,0:0:0:0:
511,162,147635,6,0,L|495:343,1,167.999994873047,4|8,0:3|0:0,0:0:0:0:
402,367,148235,1,0,0:0:0:0:
320,308,148435,2,0,L|224:304,1,83.9999974365235
156,366,148835,2,0,L|60:370,1,83.9999974365235,8|0,0:0|0:0,0:0:0:0:
18,284,149235,6,0,P|5:239|15:172,1,83.9999974365235,4|0,0:3|0:0,0:0:0:0:
97,157,149635,2,0,P|106:92|92:44,1,83.9999974365235,8|0,0:0|0:0,0:0:0:0:
16,21,150035,2,0,B|100:-8|101:50|200:18,1,167.999994873047,0|8,0:0|0:0,0:0:0:0:
280,5,150635,1,0,0:0:0:0:
249,101,150835,6,0,P|248:132|255:186,1,83.9999974365235,4|0,0:3|0:0,0:0:0:0:
311,268,151235,2,0,P|313:305|305:353,1,83.9999974365235,8|0,0:0|0:0,0:0:0:0:
208,381,151635,2,0,P|140:350|35:384,1,167.999994873047,0|8,0:0|0:0,0:0:0:0:
21,209,152435,6,0,L|11:4,1,167.999994873047,4|8,0:1|0:0,0:0:0:0:
109,12,153035,1,8,0:0:0:0:
185,77,153235,2,0,L|281:80,1,83.9999974365235
353,25,153635,2,0,L|449:22,1,83.9999974365235,8|0,0:0|0:0,0:0:0:0:
495,104,154035,6,0,P|461:175|500:289,1,167.999994873047,4|8,0:3|0:0,0:0:0:0:
428,347,154635,2,0,B|368:344|368:344|317:372|317:372|237:369,1,167.999994873047,0|4,0:0|0:3,0:0:0:0:
172,334,155235,1,8,0:0:0:0:
250,272,155435,1,0,0:0:0:0:
180,199,155635,6,0,L|186:90,1,83.9999974365235,4|0,0:3|0:0,0:0:0:0:
282,92,156035,2,0,L|288:201,1,83.9999974365235,8|0,0:0|0:0,0:0:0:0:
250,272,156435,2,0,B|337:301|334:229|445:281,1,167.999994873047,0|8,0:0|0:0,0:0:0:0:
507,307,157035,1,0,0:0:0:0:
486,208,157235,6,0,L|476:33,1,167.999994873047,4|8,0:3|0:0,0:0:0:0:
377,19,157835,2,0,P|321:57|198:31,1,167.999994873047
132,7,158435,1,8,0:0:0:0:
132,7,158635,1,0,0:0:0:0:
67,84,158835,6,0,L|84:252,1,167.999994873047,4|8,0:3|0:0,0:0:0:0:
129,341,159435,1,8,0:0:0:0:
203,273,159635,2,0,P|245:270|299:282,1,83.9999974365235
378,316,160035,2,0,P|418:323|480:315,1,83.9999974365235,8|0,0:0|0:0,0:0:0:0:
508,230,160435,6,0,P|466:167|490:67,1,167.999994873047,4|8,0:3|0:0,0:0:0:0:
405,12,161035,1,0,0:0:0:0:
344,92,161235,2,0,L|248:88,1,83.9999974365235
170,41,161635,2,0,L|74:45,1,83.9999974365235,8|0,0:0|0:0,0:0:0:0:
30,128,162035,6,0,P|41:187|25:242,1,83.9999974365235,4|0,0:3|0:0,0:0:0:0:
82,287,162435,2,0,P|78:344|104:397,1,83.9999974365235,8|0,0:0|0:0,0:0:0:0:
181,338,162835,2,0,L|365:335,1,167.999994873047,0|8,0:0|0:0,0:0:0:0:
440,379,163435,1,0,0:0:0:0:
488,290,163635,6,0,L|482:206,1,83.9999974365235,4|0,0:3|0:0,0:0:0:0:
405,140,164035,2,0,L|410:56,1,83.9999974365235,8|0,0:0|0:0,0:0:0:0:
311,38,164435,2,0,B|223:15|237:68|138:38,1,167.999994873047,0|8,0:0|0:0,0:0:0:0:
47,15,165035,1,0,0:0:0:0:
11,109,165235,6,0,L|17:224,1,83.9999974365235,4|0,0:3|0:0,0:0:0:0:
91,260,165635,2,0,L|85:375,1,83.9999974365235,8|8,0:0|0:0,0:0:0:0:
181,379,166035,2,0,P|234:350|348:376,1,167.999994873047,0|8,0:0|0:0,0:0:0:0:
434,340,166635,1,0,0:0:0:0:
365,266,166835,6,0,L|348:171,1,83.9999974365235,4|0,0:3|0:0,0:0:0:0:
436,129,167235,2,0,L|453:34,1,83.9999974365235,8|0,0:0|0:0,0:0:0:0:
353,17,167635,2,0,P|302:42|182:23,1,167.999994873047,0|8,0:0|0:0,0:0:0:0:
118,96,168235,1,0,0:0:0:0:
168,182,168435,6,0,L|174:291,1,83.9999974365235,4|0,0:3|0:0,0:0:0:0:
272,285,168835,2,0,L|278:176,1,83.9999974365235,8|0,0:0|0:0,0:0:0:0:
239,107,169235,2,0,B|326:78|323:150|434:98,1,167.999994873047,0|8,0:0|0:0,0:0:0:0:
494,66,169835,1,0,0:0:0:0:
484,166,170035,6,0,L|474:255,1,83.9999974365235,4|0,0:3|0:0,0:0:0:0:
377,275,170435,2,0,L|387:364,1,83.9999974365235,8|0,0:0|0:0,0:0:0:0:
287,377,170835,2,0,P|209:332|111:360,1,167.999994873047,0|8,0:0|0:0,0:0:0:0:
40,377,171435,1,0,0:0:0:0:
57,277,171635,6,0,L|44:160,1,83.9999974365235,4|0,0:3|0:0,0:0:0:0:
131,136,172035,2,0,L|144:19,1,83.9999974365235,8|8,0:0|0:0,0:0:0:0:
236,20,172435,2,0,P|286:55|405:32,1,167.999994873047,0|8,0:0|0:0,0:0:0:0:
484,14,173035,1,0,0:0:0:0:
458,111,173235,6,0,P|456:172|468:198,1,83.9999974365235,4|0,0:3|0:0,0:0:0:0:
507,283,173635,2,0,P|509:344|497:370,1,83.9999974365235,8|0,0:0|0:0,0:0:0:0:
415,309,174035,2,0,B|335:337|331:282|235:311,1,167.999994873047,0|8,0:0|0:0,0:0:0:0:
158,264,174635,1,0,0:0:0:0:
75,206,174835,6,0,P|59:260|77:313,1,83.9999974365235,4|0,0:3|0:0,0:0:0:0:
158,264,175235,2,0,P|174:210|156:157,1,83.9999974365235,8|0,0:0|0:0,0:0:0:0:
90,120,175635,2,0,B|178:151|174:97|265:127,1,167.999994873047,0|8,0:0|0:0,0:0:0:0:
347,164,176235,1,0,0:0:0:0:
270,230,176435,6,0,L|276:315,1,83.9999974365235,4|0,0:3|0:0,0:0:0:0:
370,349,176835,2,0,L|364:264,1,83.9999974365235,8|0,0:0|0:0,0:0:0:0:
347,164,177235,2,0,P|279:195|174:161,1,167.999994873047,0|8,0:0|0:0,0:0:0:0:
108,116,177835,1,0,0:0:0:0:
18,163,178035,6,0,L|26:251,1,83.9999974365235,4|0,0:3|0:0,0:0:0:0:
107,301,178435,2,0,L|99:389,1,83.9999974365235,8|8,0:0|0:0,0:0:0:0:
197,363,178835,2,0,B|282:339|283:396|376:362,1,167.999994873047,0|8,0:0|0:0,0:0:0:0:
459,338,179435,1,0,0:0:0:0:
383,271,179635,6,0,L|395:157,1,83.9999974365235,4|0,0:3|0:0,0:0:0:0:
304,132,180035,2,0,L|292:18,1,83.9999974365235,8|0,0:0|0:0,0:0:0:0:
205,95,180435,2,0,L|227:285,1,167.999994873047,0|8,0:0|0:0,0:0:0:0:
294,334,181035,1,0,0:0:0:0:
364,287,181235,6,0,P|416:279|456:282,1,70,4|0,0:3|0:0,0:0:0:0:
447,362,181635,2,0,P|395:370|355:367,1,70,8|0,0:0|0:0,0:0:0:0:
294,334,182035,2,0,B|229:357|226:302|135:336,1,140,0|8,0:0|0:0,0:0:0:0:
77,356,182635,1,0,0:0:0:0:
41,279,182835,6,0,L|37:188,1,70,4|0,0:3|0:0,0:0:0:0:
106,159,183235,2,0,L|110:68,1,70,8|0,0:0|0:0,0:0:0:0:
183,48,183635,2,0,P|241:77|330:56,1,140,0|8,0:0|0:0,0:0:0:0:
391,34,184235,1,0,0:0:0:0:
453,89,184435,6,0,L|441:182,1,70,4|0,0:3|0:0,0:0:0:0:
378,211,184835,2,0,L|395:303,1,70,8|0,0:0|0:0,0:0:0:0:
327,335,185235,2,0,P|266:302|169:322,1,140,0|8,0:0|0:0,0:0:0:0:
120,339,185835,1,0,0:0:0:0:
64,276,186035,6,0,L|56:187,1,70,4|0,0:3|0:0,0:0:0:0:
125,155,186435,2,0,L|133:66,1,70,8|0,0:0|0:0,0:0:0:0:
201,37,186835,2,0,P|256:68|348:47,1,140,0|8,0:0|0:0,0:0:0:0:
256,192,187635,12,0,192435,0:0:0:0:
