osu file format v14

[General]
AudioFilename: audio.mp3
AudioLeadIn: 0
PreviewTime: 126735
Countdown: 0
SampleSet: Soft
StackLeniency: 0.7
Mode: 0
LetterboxInBreaks: 0
WidescreenStoryboard: 1

[Editor]
Bookmarks: 43635
DistanceSpacing: 1
BeatDivisor: 4
GridSize: 8
TimelineZoom: 1.6

[Metadata]
Title:All In All
TitleUnicode:All In All
Artist:Kuba Oms
ArtistUnicode:Kuba Oms
Creator:PeterEU
Version:Easy
Source:osu!
Tags:featured artist ADHD
BeatmapID:1531325
BeatmapSetID:724846

[Difficulty]
HPDrainRate:2
CircleSize:3
OverallDifficulty:2
ApproachRate:3
SliderMultiplier:0.9
SliderTickRate:1

[Events]
//Background and Video events
0,0,"BG.jpg",0,0
//Break Periods
2,114235,125395
//Storyboard Layer 0 (Background)
//Storyboard Layer 1 (Fail)
//Storyboard Layer 2 (Pass)
//Storyboard Layer 3 (Foreground)
//Storyboard Sound Samples

[TimingPoints]
2035,400,4,2,0,50,1,0
5235,-100,4,2,0,40,0,0
8035,-100,4,2,0,5,0,0
8435,-100,4,2,0,70,0,0
17635,-100,4,2,0,5,0,0
18035,-100,4,2,0,60,0,0
43635,-100,4,2,0,80,0,1
66035,-100,4,2,0,70,0,0
91635,-100,4,2,0,80,0,1
114035,-100,4,2,0,30,0,0
126835,-100,4,2,0,80,0,1
181235,-100,4,2,0,60,0,1
184435,-100,4,2,0,30,0,0
192435,-100,4,2,0,5,0,0

[Colours]
Combo1 : 153,198,253
Combo2 : 220,160,200
Combo3 : 255,230,140
Combo4 : 248,154,126
Combo5 : 187,164,236

[HitObjects]
86,83,2035,6,0,P|150:102|269:90,1,180,2|2,0:0|0:0,0:0:0:0:
344,57,3235,1,10,0:0:0:0:
408,119,3635,2,0,L|414:318,1,180,2|2,0:0|0:0,0:0:0:0:
349,362,4835,1,10,0:0:0:0:
267,323,5235,6,0,B|180:285|181:350|83:314,1,180,2|2,0:0|0:0,0:0:0:0:
20,261,6435,1,10,0:0:0:0:
84,197,6835,1,0,0:0:0:0:
51,54,8435,6,0,L|158:44,1,90,4|8,0:3|0:0,0:0:0:0:
213,98,9235,2,0,L|320:108,1,90,0|8,0:0|0:0,0:0:0:0:
386,73,10035,1,4,0:3:0:0:
448,137,10435,1,8,0:0:0:0:
403,214,10835,2,0,P|394:265|409:311,1,90,0|8,0:0|0:0,0:0:0:0:
333,357,11635,6,0,B|293:342|294:373|227:351,1,90,4|8,0:3|0:0,0:0:0:0:
157,333,12435,2,0,L|148:230,1,90,0|8,0:0|0:0,0:0:0:0:
167,155,13235,1,4,0:3:0:0:
240,207,13635,1,8,0:0:0:0:
311,152,14035,2,0,L|415:156,1,90,0|8,0:0|0:0,0:0:0:0:
411,244,14835,6,0,L|307:248,1,90,4|8,0:3|0:0,0:0:0:0:
312,337,15635,2,0,L|416:341,1,90,0|8,0:0|0:0,0:0:0:0:
482,301,16435,1,4,0:3:0:0:
365,58,18035,6,0,P|296:69|259:62,1,90,4|8,0:3|0:0,0:0:0:0:
192,98,18835,2,0,P|123:87|86:94,1,90,0|8,0:0|0:0,0:0:0:0:
33,146,19635,2,0,B|76:241|3:243|41:336,1,180,4|0,0:3|0:0,0:0:0:0:
119,288,20835,1,8,0:0:0:0:
184,349,21235,6,0,P|228:355|284:345,1,90,4|8,0:3|0:0,0:0:0:0:
358,321,22035,2,0,P|402:315|458:325,1,90,0|8,0:0|0:0,0:0:0:0:
498,247,22835,2,0,L|492:64,1,180,4|0,0:3|0:0,0:0:0:0:
412,25,24035,1,8,0:0:0:0:
354,93,24435,6,0,L|253:87,1,90,4|8,0:3|0:0,0:0:0:0:
185,44,25235,2,0,L|84:50,1,90,0|8,0:0|0:0,0:0:0:0:
29,111,26035,2,0,P|-1:172|58:264,1,180,4|0,0:3|0:0,0:0:0:0:
140,247,27235,1,8,0:0:0:0:
195,317,27635,6,0,L|292:314,1,90,4|8,0:3|0:0,0:0:0:0:
319,230,28435,2,0,L|222:227,1,90,0|8,0:0|0:0,0:0:0:0:
140,247,29235,2,0,B|124:148|217:180|185:69,1,180,4|0,0:3|0:0,0:0:0:0:
254,21,30435,1,8,0:0:0:0:
327,72,30835,6,0,P|368:65|432:66,1,90,4|8,0:3|0:0,0:0:0:0:
484,124,31635,2,0,P|491:165|490:229,1,90,0|8,0:0|0:0,0:0:0:0:
445,290,32435,2,0,B|385:292|385:292|332:260|332:260|266:262,1,180,4|0,0:3|0:0,0:0:0:0:
186,282,33635,1,8,0:0:0:0:
125,215,34035,6,0,L|123:111,1,90,4|8,0:3|0:0,0:0:0:0:
37,98,34835,2,0,L|35:202,1,90,0|8,0:0|0:0,0:0:0:0:
60,274,35635,2,0,B|152:238|150:304|236:268,1,180,4|0,0:3|0:0,0:0:0:0:
315,228,36835,1,8,0:0:0:0:
393,272,37235,6,0,P|471:275|488:273,1,90,4|8,0:3|0:0,0:0:0:0:
484,183,38035,2,0,P|406:180|389:182,1,90,0|8,0:0|0:0,0:0:0:0:
315,228,38835,2,0,P|360:160|328:73,1,180,4|0,0:3|0:0,0:0:0:0:
271,143,40035,1,8,0:0:0:0:
192,98,40435,6,0,L|187:7,1,90,4|8,0:3|0:0,0:0:0:0:
103,42,41235,2,0,L|98:133,1,90,0|8,0:0|0:0,0:0:0:0:
169,186,42035,2,0,P|136:254|195:344,1,180,4|4,0:3|0:3,0:0:0:0:
352,274,43635,6,0,L|450:278,1,90,4|8,0:1|0:0,0:0:0:0:
409,361,44435,2,0,L|311:365,1,90,0|8,0:0|0:0,0:0:0:0:
265,292,45235,1,4,0:3:0:0:
206,360,45635,2,0,B|118:324|114:395|10:357,1,180,8|8,0:0|0:0,0:0:0:0:
66,281,46835,6,0,P|86:212|82:179,1,90,4|8,0:3|0:0,0:0:0:0:
144,126,47635,2,0,P|124:57|128:24,1,90,0|8,0:0|0:0,0:0:0:0:
211,65,48435,2,0,B|314:35|310:97|405:61,1,180,4|0,0:3|0:0,0:0:0:0:
468,26,49635,1,8,0:0:0:0:
509,105,50035,6,0,L|506:212,1,90,4|8,0:3|0:0,0:0:0:0:
441,256,50835,2,0,P|391:245|341:250,1,90,0|8,0:0|0:0,0:0:0:0:
271,285,51635,1,4,0:3:0:0:
188,250,52035,2,0,P|107:285|1:259,1,180,8|8,0:0|0:0,0:0:0:0:
44,183,53235,6,0,P|28:132|39:81,1,90,4|8,0:3|0:0,0:0:0:0:
96,32,54035,2,0,P|147:15|198:27,1,90,0|8,0:0|0:0,0:0:0:0:
262,62,54835,2,0,B|354:95|356:28|453:65,1,180,4|0,0:3|0:0,0:0:0:0:
510,112,56035,1,8,0:0:0:0:
449,178,56435,6,0,L|460:277,1,90,4|8,0:3|0:0,0:0:0:0:
370,284,57235,2,0,L|359:383,1,90,0|8,0:0|0:0,0:0:0:0:
277,338,58035,1,4,0:3:0:0:
193,375,58435,2,0,P|116:349|104:242,1,180,8|8,0:0|0:0,0:0:0:0:
146,185,59635,6,0,L|157:86,1,90,4|8,0:3|0:0,0:0:0:0:
244,77,60435,2,0,L|255:176,1,90,0|8,0:0|0:0,0:0:0:0:
215,248,61235,2,0,B|307:275|305:209|396:250,1,180,4|0,0:3|0:0,0:0:0:0:
467,293,62435,1,8,0:0:0:0:
502,211,62835,6,0,P|509:164|507:118,1,90,4|8,0:3|0:0,0:0:0:0:
417,126,63635,2,0,P|410:79|412:33,1,90,0|8,0:0|0:0,0:0:0:0:
323,16,64435,2,0,P|236:58|141:38,1,180
0,136,66035,6,0,L|2:326,1,180,4|0,0:3|0:0,0:0:0:0:
72,368,67235,1,8,0:0:0:0:
160,344,67635,2,0,P|203:336|255:341,1,90,4|8,0:3|0:0,0:0:0:0:
335,367,68435,2,0,P|378:375|430:370,1,90,0|8,0:0|0:0,0:0:0:0:
501,325,69235,6,0,P|453:241|478:166,1,180,4|0,0:3|0:0,0:0:0:0:
424,83,70435,1,8,0:0:0:0:
353,139,70835,2,0,L|242:137,1,90,4|8,0:3|0:0,0:0:0:0:
192,81,71635,2,0,L|81:83,1,90,0|8,0:0|0:0,0:0:0:0:
39,147,72435,6,0,B|39:201|39:201|73:260|73:260|71:321,1,180,4|0,0:3|0:0,0:0:0:0:
148,363,73635,1,8,0:0:0:0:
230,326,74035,2,0,L|327:320,1,90,4|8,0:3|0:0,0:0:0:0:
311,230,74835,2,0,L|214:224,1,90,0|8,2:0|0:0,0:0:0:0:
146,275,75635,6,0,B|105:184|183:178|145:91,1,180,4|0,0:3|0:0,0:0:0:0:
211,35,76835,1,8,0:0:0:0:
296,63,77235,2,0,P|341:59|404:64,1,90,4|8,0:3|0:0,0:0:0:0:
455,117,78035,2,0,P|459:162|454:225,1,90,0|8,0:0|0:0,0:0:0:0:
383,260,78835,6,0,P|316:219|205:238,1,180,4|0,0:3|0:0,0:0:0:0:
138,271,80035,1,8,0:0:0:0:
61,222,80435,2,0,L|65:121,1,90,4|8,0:3|0:0,0:0:0:0:
143,88,81235,2,0,L|147:189,1,90,0|8,0:0|0:0,0:0:0:0:
219,230,82035,6,0,P|268:180|374:186,1,180,4|0,0:3|0:0,0:0:0:0:
448,233,83235,1,8,0:0:0:0:
422,319,83635,2,0,B|323:317,1,90,4|8,0:3|0:0,0:0:0:0:
253,362,84435,2,0,B|154:364,1,90,0|8,0:0|0:0,0:0:0:0:
96,303,85235,6,0,P|135:253|91:144,1,180,4|0,0:3|0:0,0:0:0:0:
135,67,86435,1,8,0:0:0:0:
221,90,86835,2,0,P|295:93|322:89,1,90,4|8,0:3|0:0,0:0:0:0:
399,74,87635,1,0,0:0:0:0:
457,142,88035,6,0,L|455:333,1,180,8|8,0:0|0:0,0:0:0:0:
381,373,89235,1,4,0:3:0:0:
301,331,89635,1,8,0:0:0:0:
214,355,90035,2,0,P|162:359|116:349,1,90,4|8,0:3|0:0,0:0:0:0:
43,314,90835,1,0,0:0:0:0:
124,153,91635,6,0,L|121:54,1,90,4|8,0:1|0:0,0:0:0:0:
203,100,92435,2,0,L|207:196,1,90,0|8,0:0|0:0,0:0:0:0:
275,248,93235,1,4,0:3:0:0:
354,202,93635,2,0,P|432:180|512:246,1,180,8|8,0:0|0:0,0:0:0:0:
484,321,94835,6,0,L|384:314,1,90,4|8,0:3|0:0,0:0:0:0:
318,363,95635,2,0,L|223:370,1,90,0|8,0:0|0:0,0:0:0:0:
148,328,96435,2,0,B|144:134,1,180,4|0,0:3|0:0,0:0:0:0:
203,80,97635,1,8,0:0:0:0:
285,115,98035,6,0,P|327:119|391:104,1,90,4|8,0:3|0:0,0:0:0:0:
367,20,98835,2,0,P|325:16|260:30,1,90,0|8,0:0|0:0,0:0:0:0:
203,80,99635,1,4,0:3:0:0:
285,115,100035,2,0,L|275:306,1,180,8|8,0:0|0:0,0:0:0:0:
222,367,101235,6,0,P|171:351|120:362,1,90,4|8,0:3|0:0,0:0:0:0:
90,277,102035,2,0,P|39:294|-12:282,1,90,0|8,0:0|0:0,0:0:0:0:
36,205,102835,2,0,P|4:130|47:36,1,180,4|0,0:3|0:0,0:0:0:0:
121,78,104035,1,8,0:0:0:0:
202,39,104435,6,0,L|301:28,1,90,4|8,0:3|0:0,0:0:0:0:
368,75,105235,2,0,L|467:86,1,90,0|8,0:0|0:0,0:0:0:0:
512,156,106035,1,4,0:3:0:0:
429,193,106435,2,0,P|396:267|443:362,1,180,8|8,0:0|0:0,0:0:0:0:
347,380,107635,6,0,L|249:374,1,90,4|8,0:3|0:0,0:0:0:0:
184,320,108435,2,0,L|85:331,1,90,0|8,0:0|0:0,0:0:0:0:
24,273,109235,2,0,B|55:182|-10:181|35:92,1,180,4|0,0:3|0:0,0:0:0:0:
115,61,110435,1,8,0:0:0:0:
192,106,110835,6,0,L|297:103,1,90,4|8,0:3|0:0,0:0:0:0:
282,193,111635,2,0,L|177:190,1,90,0|8,0:0|0:0,0:0:0:0:
111,150,112435,1,4,0:3:0:0:
40,206,112835,2,0,P|28:310|85:364,1,180,8|8,0:0|0:0,0:0:0:0:
160,329,114035,5,0,0:0:0:0:
153,43,126835,6,0,P|158:92|146:141,1,90,4|8,0:1|0:0,0:0:0:0:
99,206,127635,2,0,P|92:250|108:311,1,90,0|8,0:3|0:0,0:0:0:0:
152,368,128435,1,4,0:3:0:0:
234,332,128835,2,0,L|417:337,1,180,8|8,0:0|0:0,0:0:0:0:
488,287,130035,6,0,P|498:236|487:190,1,90,4|8,0:3|0:0,0:0:0:0:
412,155,130835,2,0,P|402:104|413:58,1,90,0|8,0:0|0:0,0:0:0:0:
325,34,131635,2,0,B|233:16|232:71|140:38,1,180,4|0,0:3|0:0,0:0:0:0:
61,18,132835,1,8,0:0:0:0:
21,99,133235,6,0,L|28:200,1,90,4|8,0:3|0:0,0:0:0:0:
99,241,134035,2,0,L|92:342,1,90,0|8,0:0|0:0,0:0:0:0:
172,372,134835,1,4,0:3:0:0:
259,351,135235,2,0,P|292:275|244:180,1,180,8|8,0:0|0:0,0:0:0:0:
184,134,136435,6,0,L|179:38,1,90,4|8,0:3|0:0,0:0:0:0:
89,44,137235,2,0,L|84:140,1,90,0|8,0:0|0:0,0:0:0:0:
135,208,138035,2,0,P|104:260|145:371,1,180,4|0,0:3|0:0,0:0:0:0:
319,364,139635,6,0,L|418:353,1,90,4|8,0:3|0:0,0:0:0:0:
394,264,140435,2,0,L|295:275,1,90,0|8,0:0|0:0,0:0:0:0:
243,207,141235,1,4,0:3:0:0:
329,182,141635,2,0,P|362:108|315:13,1,180,8|8,0:0|0:0,0:0:0:0:
248,67,142835,6,0,P|200:58|150:61,1,90,4|8,0:3|0:0,0:0:0:0:
82,107,143635,2,0,P|73:155|76:205,1,90,0|8,0:0|0:0,0:0:0:0:
104,280,144435,2,0,B|167:281|167:281|216:252|216:252|285:253,1,180,4|0,0:3|0:0,0:0:0:0:
353,299,145635,1,8,0:0:0:0:
435,263,146035,6,0,L|438:158,1,90,4|8,0:3|0:0,0:0:0:0:
360,126,146835,2,0,L|357:21,1,90,0|8,0:0|0:0,0:0:0:0:
270,11,147635,1,4,0:3:0:0:
197,65,148035,2,0,P|93:38|29:91,1,180,8|8,0:0|0:0,0:0:0:0:
72,159,149235,6,0,L|61:255,1,90,4|8,0:3|0:0,0:0:0:0:
148,274,150035,2,0,L|159:370,1,90,0|8,0:0|0:0,0:0:0:0:
248,371,150835,2,0,B|337:340|340:411|439:359,1,180,4|0,0:3|0:0,0:0:0:0:
495,312,152035,1,8,0:0:0:0:
431,248,152435,6,0,L|422:148,1,90,4|8,0:1|0:0,0:0:0:0:
346,111,153235,2,0,L|355:11,1,90,0|8,0:0|0:0,0:0:0:0:
264,15,154035,1,4,0:3:0:0:
198,76,154435,2,0,L|219:274,1,180,8|8,0:0|0:0,0:0:0:0:
251,337,155635,6,0,L|349:331,1,90,4|8,0:3|0:0,0:0:0:0:
410,273,156435,2,0,L|508:279,1,90,0|8,0:0|0:0,0:0:0:0:
508,188,157235,2,0,P|457:138|475:35,1,180,4|0,0:3|0:0,0:0:0:0:
390,8,158435,1,8,0:0:0:0:
327,72,158835,6,0,L|222:66,1,90,4|8,0:3|0:0,0:0:0:0:
178,134,159635,2,0,L|73:140,1,90,0|8,0:0|0:0,0:0:0:0:
13,89,160435,1,4,0:3:0:0:
2,178,160835,2,0,B|38:269|-30:270|17:362,1,180,8|8,0:0|0:0,0:0:0:0:
99,329,162035,6,0,L|197:323,1,90,4|8,0:3|0:0,0:0:0:0:
257,264,162835,2,0,L|355:270,1,90,0|8,0:0|0:0,0:0:0:0:
422,317,163635,2,0,P|380:235|416:155,1,180,4|0,0:3|0:0,0:0:0:0:
472,92,164835,1,8,0:0:0:0:
398,40,165235,6,0,L|300:46,1,90,4|8,0:3|0:0,0:0:0:0:
243,108,166035,2,0,L|145:102,1,90,0|8,0:0|0:0,0:0:0:0:
72,62,166835,2,0,P|114:144|78:224,1,180,4|0,0:3|0:0,0:0:0:0:
28,292,168035,1,8,0:0:0:0:
98,347,168435,6,0,P|163:351|193:343,1,90,4|8,0:3|0:0,0:0:0:0:
271,313,169235,2,0,P|336:309|366:317,1,90,0|8,0:0|0:0,0:0:0:0:
447,337,170035,2,0,L|438:155,1,180,4|0,0:3|0:0,0:0:0:0:
381,87,171235,1,8,0:0:0:0:
303,133,171635,6,0,P|258:130|204:132,1,90,4|8,0:3|0:0,0:0:0:0:
169,210,172435,2,0,P|214:213|268:211,1,90,0|8,0:0|0:0,0:0:0:0:
348,211,173235,2,0,P|396:146|358:61,1,180,4|0,0:3|0:0,0:0:0:0:
277,25,174435,1,8,0:0:0:0:
199,71,174835,6,0,P|154:66|97:69,1,90,4|8,0:3|0:0,0:0:0:0:
39,124,175635,2,0,P|34:169|37:226,1,90,0|8,0:0|0:0,0:0:0:0:
95,280,176435,2,0,L|275:269,1,180,4|0,0:3|0:0,0:0:0:0:
348,320,177635,1,8,0:0:0:0:
430,283,178035,6,0,P|444:234|434:181,1,90,4|8,0:3|0:0,0:0:0:0:
357,157,178835,2,0,P|343:108|353:55,1,90,0|8,0:0|0:0,0:0:0:0:
270,22,179635,2,0,P|192:70|102:49,1,180,4|0,0:3|0:0,0:0:0:0:
21,75,180835,1,8,0:0:0:0:
66,152,181235,6,0,L|55:254,1,90,4|8,0:3|0:0,0:0:0:0:
141,269,182035,2,0,L|152:371,1,90,0|8,0:0|0:0,0:0:0:0:
238,377,182835,2,0,B|339:344|339:401|425:370,1,180,4|0,0:3|0:0,0:0:0:0:
491,326,184035,1,8,0:0:0:0:
439,252,184435,6,0,L|331:248,1,90,4|8,0:3|0:0,0:0:0:0:
290,179,185235,2,0,L|182:183,1,90,0|8,0:0|0:0,0:0:0:0:
149,107,186035,2,0,P|106:170|159:262,1,180,4|0,0:3|0:0,0:0:0:0:
219,310,187235,1,8,0:0:0:0:
256,192,187635,12,0,192435,0:0:0:0:
