osu file format v14

[General]
AudioFilename: audio.mp3
AudioLeadIn: 0
PreviewTime: 126735
Countdown: 0
SampleSet: Soft
StackLeniency: 0.7
Mode: 0
LetterboxInBreaks: 0
WidescreenStoryboard: 1

[Editor]
DistanceSpacing: 0.9
BeatDivisor: 4
GridSize: 8
TimelineZoom: 1.6

[Metadata]
Title:All In All
TitleUnicode:All In All
Artist:Kuba Oms
ArtistUnicode:Kuba Oms
Creator:PeterEU
Version:Normal
Source:osu!
Tags:featured artist ADHD
BeatmapID:1530592
BeatmapSetID:724846

[Difficulty]
HPDrainRate:4
CircleSize:3.5
OverallDifficulty:4
ApproachRate:5
SliderMultiplier:1
SliderTickRate:1

[Events]
//Background and Video events
0,0,"BG.jpg",0,0
//Break Periods
2,114235,125635
//Storyboard Layer 0 (Background)
//Storyboard Layer 1 (Fail)
//Storyboard Layer 2 (Pass)
//Storyboard Layer 3 (Foreground)
//Storyboard Sound Samples

[TimingPoints]
2035,400,4,2,0,50,1,0
5235,-100,4,2,0,40,0,0
8035,-100,4,2,0,5,0,0
8435,-100,4,2,0,70,0,0
43635,-90.9090909090909,4,2,0,80,0,1
50635,-90.9090909090909,4,2,0,40,0,1
50835,-90.9090909090909,4,2,0,80,0,1
63435,-90.9090909090909,4,2,0,40,0,1
63635,-90.9090909090909,4,2,0,80,0,1
66035,-100,4,2,0,70,0,0
91635,-90.9090909090909,4,2,0,80,0,1
98635,-90.9090909090909,4,2,0,40,0,1
98835,-90.9090909090909,4,2,0,80,0,1
111435,-90.9090909090909,4,2,0,40,0,1
111635,-90.9090909090909,4,2,0,80,0,1
114035,-100,4,2,0,70,0,0
126835,-90.9090909090909,4,2,0,80,0,1
133835,-90.9090909090909,4,2,0,40,0,1
134035,-90.9090909090909,4,2,0,80,0,1
146635,-90.9090909090909,4,2,0,40,0,1
146835,-90.9090909090909,4,2,0,80,0,1
159435,-90.9090909090909,4,2,0,40,0,1
159635,-90.9090909090909,4,2,0,80,0,1
181235,-100,4,2,0,60,0,1
184435,-100,4,2,0,30,0,0
192435,-100,4,2,0,5,0,0

[Colours]
Combo1 : 153,198,253
Combo2 : 220,160,200
Combo3 : 255,230,140
Combo4 : 248,154,126
Combo5 : 187,164,236

[HitObjects]
104,85,2035,6,0,L|109:195,1,100,2|10,0:0|0:0,0:0:0:0:
115,234,2635,1,2,0:0:0:0:
115,234,2835,2,0,P|161:219|231:234,1,100,2|10,0:0|0:0,0:0:0:0:
298,274,3635,2,0,L|403:268,1,100,2|10,0:0|0:0,0:0:0:0:
448,267,4235,1,2,0:0:0:0:
448,267,4435,2,0,P|430:197|443:169,1,100,2|10,0:0|0:0,0:0:0:0:
389,87,5235,6,0,B|339:105|337:73|278:96,1,100,2|8,0:0|0:0,0:0:0:0:
247,116,5835,1,2,0:0:0:0:
247,116,6035,2,0,L|125:114,1,100,2|10,0:0|0:0,0:0:0:0:
57,158,6835,1,0,0:0:0:0:
300,363,8435,6,0,L|416:356,1,100,4|8,0:3|0:0,0:0:0:0:
450,270,9235,2,0,L|511:276,2,50,0|2|8,0:0|0:0|0:0,0:0:0:0:
385,193,10035,2,0,P|409:133|395:86,1,100,4|8,0:3|0:0,0:0:0:0:
306,128,10835,2,0,L|245:134,2,50,0|2|8,0:0|0:0|0:0,0:0:0:0:
258,40,11635,6,0,L|142:33,1,100,4|8,0:3|0:0,0:0:0:0:
62,61,12435,2,0,P|59:12|67:-7,2,50,0|2|8,0:0|0:0|0:0,0:0:0:0:
115,145,13235,2,0,P|132:188|109:259,1,100,4|8,0:3|0:0,0:0:0:0:
67,323,14035,2,0,L|14:318,2,50,0|2|8,0:0|0:0|0:0,0:0:0:0:
156,368,14835,6,0,L|270:360,1,100,4|8,0:3|0:0,0:0:0:0:
339,306,15635,2,0,L|408:311,2,50,0|2|8,0:0|0:0|0:0,0:0:0:0:
250,258,16435,1,4,0:3:0:0:
20,51,18035,5,4,0:3:0:0:
98,112,18435,1,8,0:0:0:0:
154,32,18835,2,0,L|257:35,1,100,0|8,0:0|0:0,0:0:0:0:
297,126,19635,2,0,L|410:124,1,100,4|8,0:3|0:0,0:0:0:0:
466,197,20435,2,0,P|447:254|463:311,1,100,0|8,0:0|0:0,0:0:0:0:
383,362,21235,6,0,B|326:377|326:345|266:366,1,100,4|8,0:3|0:0,0:0:0:0:
238,379,21835,1,0,0:0:0:0:
238,379,22035,2,0,L|123:375,1,100,0|8,0:0|0:0,0:0:0:0:
71,302,22835,6,0,P|88:255|69:196,1,100,4|8,0:3|0:0,0:0:0:0:
161,151,23635,2,0,B|209:133|210:167|279:149,1,100,0|8,0:0|0:0,0:0:0:0:
307,138,24235,1,0,0:0:0:0:
307,138,24435,6,0,L|319:25,1,100,4|8,0:3|0:0,0:0:0:0:
417,39,25235,2,0,L|431:157,1,100,0|8,0:0|0:0,0:0:0:0:
448,184,25835,1,0,0:0:0:0:
448,184,26035,2,0,P|422:231|441:294,1,100,4|8,0:3|0:0,0:0:0:0:
445,321,26635,1,4,0:3:0:0:
352,351,27035,2,0,L|284:345,1,50,0|8,0:0|0:0,0:0:0:0:
204,368,27635,6,0,P|178:348|102:342,1,100,4|8,0:3|0:0,0:0:0:0:
26,288,28435,2,0,L|20:167,1,100,0|8,0:0|0:0,0:0:0:0:
109,142,29235,2,0,B|161:157|161:127|223:147,1,100,4|8,0:3|0:0,0:0:0:0:
272,218,30035,2,0,P|254:268|280:325,1,100,0|8,0:0|0:0,0:0:0:0:
290,355,30635,1,0,0:0:0:0:
290,355,30835,6,0,L|180:355,1,100,4|8,0:3|0:0,0:0:0:0:
106,299,31635,2,0,P|127:245|112:189,1,100,0|8,0:0|0:0,0:0:0:0:
46,136,32435,2,0,P|23:84|40:26,1,100,4|8,0:3|0:0,0:0:0:0:
125,72,33235,2,0,L|242:65,1,100,0|8,0:0|0:0,0:0:0:0:
321,39,34035,6,0,B|339:94|306:94|322:143,1,100,4|8,0:3|0:0,0:0:0:0:
351,176,34635,1,0,0:0:0:0:
351,176,34835,2,0,L|340:292,1,100,0|8,0:0|0:0,0:0:0:0:
256,328,35635,6,0,L|193:327,1,50,4|0,0:3|0:0,0:0:0:0:
113,288,36235,2,0,P|128:227|105:174,1,100,0|4,0:0|0:3,0:0:0:0:
72,103,37035,1,0,0:0:0:0:
72,103,37235,2,0,L|179:92,1,100,4|8,0:3|0:0,0:0:0:0:
256,40,38035,2,0,L|363:51,1,100,0|8,0:0|0:0,0:0:0:0:
444,4,38835,6,0,P|460:68|437:114,1,100,4|8,0:3|0:0,0:0:0:0:
418,137,39435,1,0,0:0:0:0:
418,137,39635,2,0,P|402:201|425:247,1,100,0|8,0:0|0:0,0:0:0:0:
344,304,40435,2,0,L|230:305,1,100,4|8,0:3|0:0,0:0:0:0:
154,260,41235,2,0,B|176:207|137:209|160:150,1,100,0|8,0:0|0:0,0:0:0:0:
204,74,42035,6,0,L|309:68,1,100,4|8,0:3|0:0,0:0:0:0:
371,143,42835,2,0,L|424:147,2,50,8|8|8,0:0|0:0|0:0,0:0:0:0:
265,173,43635,6,0,P|248:234|275:297,1,110.000003356934,4|8,0:1|0:0,0:0:0:0:
337,356,44435,2,0,L|464:354,1,110.000003356934,0|8,0:0|0:0,0:0:0:0:
502,357,45035,1,0,0:0:0:0:
502,357,45235,2,0,B|516:311|516:311|499:245,1,110.000003356934,4|8,0:3|0:0,0:0:0:0:
439,159,46035,1,0,0:0:0:0:
368,243,46435,1,8,0:0:0:0:
289,168,46835,6,0,L|167:170,1,110.000003356934,4|8,0:3|0:0,0:0:0:0:
142,273,47635,2,0,L|264:275,1,110.000003356934,0|8,0:0|0:0,0:0:0:0:
303,255,48235,1,0,0:0:0:0:
303,255,48435,2,0,P|361:279|423:258,1,110.000003356934,4|8,0:3|0:0,0:0:0:0:
452,240,49035,2,0,L|451:119,1,110.000003356934,0|4,0:0|0:3,0:0:0:0:
449,74,49635,1,8,0:0:0:0:
341,95,50035,6,0,B|282:75|294:115|218:89,1,110.000003356934,4|8,0:3|0:0,0:0:0:0:
179,78,50635,1,8,0:0:0:0:
179,78,50835,2,0,P|188:135|150:184,1,110.000003356934,0|8,0:0|0:0,0:0:0:0:
80,251,51635,1,4,0:3:0:0:
155,330,52035,1,8,0:0:0:0:
258,291,52435,2,0,L|376:292,1,110.000003356934,0|8,0:0|0:0,0:0:0:0:
429,200,53235,6,0,L|311:201,1,110.000003356934,4|8,0:3|0:0,0:0:0:0:
222,148,54035,1,0,0:0:0:0:
300,71,54435,1,8,0:0:0:0:
192,49,54835,2,0,P|130:40|73:52,1,110.000003356934,4|8,0:3|0:0,0:0:0:0:
37,77,55435,1,0,0:0:0:0:
37,77,55635,2,0,L|47:195,1,110.000003356934,0|8,0:0|0:0,0:0:0:0:
140,243,56435,6,0,L|132:362,1,110.000003356934,4|8,0:3|0:0,0:0:0:0:
241,369,57235,2,0,P|297:346|360:357,1,110.000003356934,0|8,0:0|0:0,0:0:0:0:
397,367,57835,1,0,0:0:0:0:
397,367,58035,2,0,B|419:312|377:311|398:243,1,110.000003356934,4|8,0:3|0:0,0:0:0:0:
441,161,58835,1,0,0:0:0:0:
376,73,59235,1,8,0:0:0:0:
280,127,59635,6,0,B|226:104|224:142|148:121,1,110.000003356934,4|8,0:3|0:0,0:0:0:0:
77,69,60435,2,0,P|57:142|79:181,1,110.000003356934,0|8,0:0|0:0,0:0:0:0:
101,215,61035,1,0,0:0:0:0:
101,215,61235,2,0,P|121:288|99:327,1,110.000003356934,4|8,0:3|0:0,0:0:0:0:
71,357,61835,2,0,L|187:357,1,110.000003356934,0|0,0:0|0:0,0:0:0:0:
236,359,62435,1,8,0:0:0:0:
331,304,62835,6,0,B|342:242|304:260|319:181,1,110.000003356934,4|8,0:3|0:0,0:0:0:0:
326,141,63435,1,8,0:0:0:0:
326,141,63635,2,0,P|275:156|211:140,1,110.000003356934,0|8,0:0|0:0,0:0:0:0:
168,127,64235,2,0,P|117:112|53:128,1,110.000003356934,0|0,0:0|0:0,0:0:0:0:
15,151,64835,1,8,0:0:0:0:
88,233,65235,2,0,L|81:364,1,110.000003356934,0|8,0:0|0:0,0:0:0:0:
176,377,66035,5,4,0:3:0:0:
268,339,66435,2,0,P|320:331|379:348,1,100,8|0,0:0|0:0,0:0:0:0:
456,299,67235,1,8,0:0:0:0:
375,239,67635,2,0,L|376:128,1,100,4|8,0:3|0:0,0:0:0:0:
312,61,68435,2,0,P|261:77|202:68,1,100,0|8,0:0|0:0,0:0:0:0:
125,27,69235,6,0,P|111:83|138:134,1,100,4|8,0:3|0:0,0:0:0:0:
158,158,69835,1,0,0:0:0:0:
158,158,70035,2,0,P|172:214|151:268,1,100,0|8,0:0|0:0,0:0:0:0:
71,204,70835,1,4,0:3:0:0:
71,303,71235,1,8,0:0:0:0:
158,350,71635,2,0,L|274:350,1,100,0|8,0:0|0:0,0:0:0:0:
344,299,72435,6,0,P|321:237|339:190,1,100,4|8,0:3|0:0,0:0:0:0:
352,162,73035,2,0,P|375:100|357:53,1,100,0|4,0:0|0:3,0:0:0:0:
344,24,73635,1,8,0:0:0:0:
255,70,74035,2,0,L|138:68,1,100,4|8,0:3|0:0,0:0:0:0:
105,72,74635,1,0,0:0:0:0:
105,72,74835,2,0,P|123:117|110:172,1,100,0|8,2:0|0:0,0:0:0:0:
50,244,75635,6,0,P|32:289|45:344,1,100,4|8,0:3|0:0,0:0:0:0:
134,300,76435,2,0,L|252:301,1,100,0|8,0:0|0:0,0:0:0:0:
328,268,77235,1,4,0:3:0:0:
399,338,77635,1,8,0:0:0:0:
455,255,78035,2,0,L|463:148,1,100,0|8,0:0|0:0,0:0:0:0:
470,105,78635,1,0,0:0:0:0:
470,105,78835,6,0,P|391:121|362:111,1,100,4|8,0:3|0:0,0:0:0:0:
280,80,79635,1,0,0:0:0:0:
290,179,80035,1,8,0:0:0:0:
210,240,80435,2,0,L|104:239,1,100,4|8,0:3|0:0,0:0:0:0:
27,182,81235,2,0,P|46:115|34:78,1,100,0|8,0:0|0:0,0:0:0:0:
125,38,82035,6,0,B|182:53|184:21|241:45,1,100,4|8,0:3|0:0,0:0:0:0:
268,61,82635,1,0,0:0:0:0:
268,61,82835,2,0,L|375:61,1,100,0|8,0:0|0:0,0:0:0:0:
458,17,83635,2,0,P|472:65|448:124,1,100,4|8,0:3|0:0,0:0:0:0:
366,158,84435,2,0,L|293:157,2,50,0|4|8,0:0|0:3|0:0,0:0:0:0:
445,218,85235,6,0,P|428:272|445:321,1,100,4|8,0:3|0:0,0:0:0:0:
461,357,85835,2,0,L|348:358,1,100,0|4,0:0|0:3,0:0:0:0:
311,356,86435,1,8,0:0:0:0:
221,311,86835,2,0,P|176:296|108:311,1,100,4|8,0:3|0:0,0:0:0:0:
77,319,87435,1,0,0:0:0:0:
77,319,87635,2,0,L|67:203,1,100,0|8,0:0|0:0,0:0:0:0:
6,140,88435,6,0,L|17:27,1,100,4|8,0:3|0:0,0:0:0:0:
112,14,89235,2,0,P|163:9|219:28,1,100,4|8,0:3|0:0,0:0:0:0:
288,83,90035,2,0,L|395:81,1,100,4|8,0:3|0:0,0:0:0:0:
437,85,90635,1,0,0:0:0:0:
437,85,90835,2,0,P|420:141|444:196,1,100,0|8,0:0|0:0,0:0:0:0:
404,285,91635,6,0,L|271:279,1,110.000003356934,4|8,0:1|0:0,0:0:0:0:
205,217,92435,2,0,L|78:219,1,110.000003356934,0|8,0:0|0:0,0:0:0:0:
39,222,93035,1,0,0:0:0:0:
39,222,93235,2,0,P|61:174|45:110,1,110.000003356934,4|8,0:3|0:0,0:0:0:0:
124,37,94035,1,0,0:0:0:0:
210,105,94435,1,8,0:0:0:0:
307,54,94835,6,0,L|429:56,1,110.000003356934,4|8,0:3|0:0,0:0:0:0:
473,150,95635,2,0,L|351:148,1,110.000003356934,0|8,0:0|0:0,0:0:0:0:
317,178,96235,1,0,0:0:0:0:
317,178,96435,2,0,B|256:155|258:192|196:173,1,110.000003356934,4|8,0:3|0:0,0:0:0:0:
154,167,97035,2,0,P|173:232|150:288,1,110.000003356934,0|4,0:0|0:3,0:0:0:0:
134,319,97635,1,8,0:0:0:0:
240,348,98035,6,0,B|362:345,1,110.000003356934,4|8,0:3|0:0,0:0:0:0:
404,343,98635,1,8,0:0:0:0:
404,343,98835,2,0,P|375:293|393:233,1,110.000003356934,0|8,0:0|0:0,0:0:0:0:
446,152,99635,1,4,0:3:0:0:
396,53,100035,1,8,0:0:0:0:
302,111,100435,2,0,P|248:126|184:112,1,110.000003356934,0|8,0:0|0:0,0:0:0:0:
128,29,101235,6,0,P|182:14|246:28,1,110.000003356934,4|8,0:3|0:0,0:0:0:0:
302,111,102035,1,0,0:0:0:0:
392,49,102435,1,8,0:0:0:0:
454,139,102835,2,0,L|452:262,1,110.000003356934,4|8,0:3|0:0,0:0:0:0:
454,303,103435,1,0,0:0:0:0:
454,303,103635,2,0,P|392:287|335:298,1,110.000003356934,0|8,0:0|0:0,0:0:0:0:
249,344,104435,6,0,L|129:338,1,110.000003356934,4|8,0:3|0:0,0:0:0:0:
42,285,105235,2,0,P|62:227|47:165,1,110.000003356934,0|8,0:0|0:0,0:0:0:0:
40,126,105835,1,0,0:0:0:0:
40,126,106035,2,0,B|98:106|97:144|166:123,1,110.000003356934,4|8,0:3|0:0,0:0:0:0:
240,67,106835,1,0,0:0:0:0:
296,161,107235,1,8,0:0:0:0:
394,111,107635,6,0,B|405:-6,1,110.000003356934,4|8,0:3|0:0,0:0:0:0:
498,58,108435,2,0,B|509:175,1,110.000003356934,0|8,0:0|0:0,0:0:0:0:
479,214,109035,1,0,0:0:0:0:
479,214,109235,2,0,P|416:199|357:213,1,110.000003356934,4|8,0:3|0:0,0:0:0:0:
319,223,109835,2,0,P|256:238|197:224,1,110.000003356934,0|0,0:0|0:0,0:0:0:0:
160,210,110435,1,8,0:0:0:0:
60,163,110835,6,0,B|63:287,1,110.000003356934,4|8,0:3|0:0,0:0:0:0:
67,327,111435,1,8,0:0:0:0:
67,327,111635,2,0,P|118:312|182:328,1,110.000003356934,0|8,0:0|0:0,0:0:0:0:
224,342,112235,2,0,P|275:357|339:341,1,110.000003356934,0|0,0:0|0:0,0:0:0:0:
382,329,112835,1,8,0:0:0:0:
303,252,113235,2,0,L|296:121,1,110.000003356934,0|8,0:0|0:0,0:0:0:0:
365,68,114035,5,0,0:0:0:0:
437,339,126835,6,0,P|455:286|442:210,1,110.000003356934,4|8,0:1|0:0,0:0:0:0:
345,201,127635,2,0,P|327:148|340:72,1,110.000003356934,0|8,0:3|0:0,0:0:0:0:
349,43,128235,1,0,0:0:0:0:
349,43,128435,2,0,L|226:42,1,110.000003356934,4|8,0:3|0:0,0:0:0:0:
142,95,129235,1,0,0:0:0:0:
49,36,129635,1,8,0:0:0:0:
14,140,130035,6,0,L|18:273,1,110.000003356934,4|8,0:3|0:0,0:0:0:0:
99,323,130835,2,0,P|155:302|221:325,1,110.000003356934,0|8,0:0|0:0,0:0:0:0:
251,338,131435,1,0,0:0:0:0:
251,338,131635,2,0,B|370:334,1,110.000003356934,4|8,0:3|0:0,0:0:0:0:
415,328,132235,2,0,P|394:263|415:212,1,110.000003356934,0|4,0:3|0:3,0:0:0:0:
438,180,132835,1,8,0:0:0:0:
366,96,133235,6,0,B|244:99,1,110.000003356934,4|8,0:3|0:0,0:0:0:0:
204,78,133835,1,8,0:0:0:0:
204,78,134035,2,0,P|150:99|86:86,1,110.000003356934,0|8,0:0|0:0,0:0:0:0:
1,42,134835,1,4,0:3:0:0:
11,151,135235,1,8,0:0:0:0:
99,217,135635,2,0,L|98:345,1,110.000003356934,0|8,0:0|0:0,0:0:0:0:
203,358,136435,6,0,B|259:343|261:375|324:354,1,110.000003356934,4|8,0:3|0:0,0:0:0:0:
419,334,137235,1,0,0:0:0:0:
340,256,137635,1,8,0:0:0:0:
440,210,138035,2,0,L|438:87,1,110.000003356934,4|8,0:3|0:0,0:0:0:0:
441,45,138635,1,0,0:0:0:0:
441,45,138835,2,0,P|379:61|322:50,1,110.000003356934,0|8,0:0|0:0,0:0:0:0:
227,27,139635,6,0,L|102:31,1,110.000003356934,4|8,0:3|0:0,0:0:0:0:
43,112,140435,2,0,P|63:170|48:232,1,110.000003356934,0|8,0:0|0:0,0:0:0:0:
45,271,141035,1,0,0:0:0:0:
45,271,141235,2,0,B|103:291|102:253|171:274,1,110.000003356934,4|8,0:3|0:0,0:0:0:0:
229,348,142035,1,0,0:0:0:0:
321,289,142435,1,8,0:0:0:0:
414,347,142835,6,0,B|425:230,1,110.000003356934,4|8,0:3|0:0,0:0:0:0:
325,187,143635,2,0,B|314:70,1,110.000003356934,0|8,0:0|0:0,0:0:0:0:
282,32,144235,1,0,0:0:0:0:
282,32,144435,2,0,P|219:47|160:33,1,110.000003356934,4|8,0:3|0:0,0:0:0:0:
123,21,145035,2,0,P|62:6|2:28,1,110.000003356934,0|0,0:0|0:0,0:0:0:0:
0,70,145635,1,8,0:0:0:0:
62,160,146035,6,0,L|65:284,1,110.000003356934,4|8,0:3|0:0,0:0:0:0:
72,324,146635,1,8,0:0:0:0:
72,324,146835,2,0,B|129:346|129:306|186:328,1,110.000003356934,0|8,0:0|0:0,0:0:0:0:
232,342,147435,2,0,L|347:341,1,110.000003356934,0|0,0:0|0:0,0:0:0:0:
396,341,148035,1,8,0:0:0:0:
464,257,148435,2,0,B|443:197|477:198|452:134,1,110.000003356934,0|8,0:0|0:0,0:0:0:0:
375,74,149235,6,0,L|254:78,1,110.000003356934,4|8,0:3|0:0,0:0:0:0:
167,25,150035,1,0,0:0:0:0:
83,96,150435,1,8,0:0:0:0:
129,195,150835,2,0,P|144:248|117:318,1,110.000003356934,4|8,0:3|0:0,0:0:0:0:
114,352,151435,1,0,0:0:0:0:
114,352,151635,2,0,L|237:355,1,110.000003356934,0|8,0:0|0:0,0:0:0:0:
278,359,152235,1,0,0:0:0:0:
278,359,152435,6,0,P|262:307|286:234,1,110.000003356934,4|8,0:1|0:0,0:0:0:0:
357,182,153235,2,0,P|370:122|349:62,1,110.000003356934,0|8,0:0|0:0,0:0:0:0:
327,30,153835,1,0,0:0:0:0:
327,30,154035,2,0,B|199:28,1,110.000003356934,4|8,0:3|0:0,0:0:0:0:
142,109,154835,1,0,0:0:0:0:
68,26,155235,1,8,0:0:0:0:
32,130,155635,6,0,B|37:249,1,110.000003356934,4|8,0:3|0:0,0:0:0:0:
104,326,156435,2,0,P|170:310|217:320,1,110.000003356934,0|8,0:0|0:0,0:0:0:0:
262,333,157035,1,0,0:0:0:0:
262,333,157235,2,0,L|249:208,1,110.000003356934,4|8,0:3|0:0,0:0:0:0:
297,195,157835,2,0,L|310:70,1,110.000003356934,0|0,0:0|0:0,0:0:0:0:
284,36,158435,1,8,0:0:0:0:
178,68,158835,6,0,P|128:82|68:70,1,110.000003356934,4|8,0:3|0:0,0:0:0:0:
20,52,159435,1,8,0:0:0:0:
20,52,159635,2,0,L|26:161,1,110.000003356934,0|8,0:0|0:0,0:0:0:0:
64,201,160235,2,0,L|59:316,1,110.000003356934
82,361,160835,1,8,0:0:0:0:
185,324,161235,2,0,P|233:314|305:327,1,110.000003356934,0|8,0:0|0:0,0:0:0:0:
386,265,162035,6,0,L|386:141,1,110.000003356934,4|8,0:3|0:0,0:0:0:0:
345,52,162835,1,0,0:0:0:0:
266,128,163235,1,8,0:0:0:0:
169,74,163635,2,0,P|116:56|58:76,1,110.000003356934,4|8,0:3|0:0,0:0:0:0:
25,108,164235,1,0,0:0:0:0:
25,108,164435,2,0,L|28:230,1,110.000003356934,0|8,0:0|0:0,0:0:0:0:
88,309,165235,6,0,P|139:295|212:312,1,110.000003356934,4|8,0:3|0:0,0:0:0:0:
290,355,166035,1,0,0:0:0:0:
392,314,166435,1,8,0:0:0:0:
350,212,166835,2,0,L|362:89,1,110.000003356934,4|8,0:3|0:0,0:0:0:0:
373,48,167435,1,0,0:0:0:0:
373,48,167635,2,0,P|311:66|250:45,1,110.000003356934,0|8,0:0|0:0,0:0:0:0:
166,13,168435,6,0,L|54:17,1,110.000003356934,4|8,0:3|0:0,0:0:0:0:
4,114,169235,1,0,0:0:0:0:
74,198,169635,1,8,0:0:0:0:
178,163,170035,2,0,P|231:157|303:169,1,110.000003356934,4|8,0:3|0:0,0:0:0:0:
339,180,170635,1,0,0:0:0:0:
339,180,170835,2,0,L|344:57,1,110.000003356934,0|8,0:0|0:0,0:0:0:0:
447,106,171635,6,0,L|445:229,1,110.000003356934,4|8,0:3|0:0,0:0:0:0:
364,290,172435,1,0,0:0:0:0:
270,233,172835,1,8,0:0:0:0:
200,318,173235,2,0,P|146:330|77:299,1,110.000003356934,4|8,0:3|0:0,0:0:0:0:
47,286,173835,1,0,0:0:0:0:
47,286,174035,2,0,L|56:167,1,110.000003356934,0|8,0:0|0:0,0:0:0:0:
136,101,174835,6,0,P|189:117|257:105,1,110.000003356934,4|8,0:3|0:0,0:0:0:0:
347,76,175635,1,0,0:0:0:0:
441,132,176035,1,8,0:0:0:0:
382,224,176435,2,0,L|394:347,1,110.000003356934,4|8,0:3|0:0,0:0:0:0:
357,375,177035,1,0,0:0:0:0:
357,375,177235,2,0,P|292:357|233:376,1,110.000003356934,0|8,0:0|0:0,0:0:0:0:
149,323,178035,6,0,L|144:202,1,110.000003356934,4|8,0:3|0:0,0:0:0:0:
232,146,178835,1,0,0:0:0:0:
141,83,179235,1,8,0:0:0:0:
239,33,179635,2,0,B|305:10|306:46|367:27,1,110.000003356934,4|8,0:3|0:0,0:0:0:0:
402,24,180235,1,0,0:0:0:0:
402,24,180435,2,0,L|396:147,1,110.000003356934,0|8,0:0|0:0,0:0:0:0:
351,234,181235,6,0,P|298:221|242:232,1,100,4|8,0:3|0:0,0:0:0:0:
176,274,182035,1,0,0:0:0:0:
98,228,182435,1,8,0:0:0:0:
174,180,182835,2,0,L|185:63,1,100,4|8,0:3|0:0,0:0:0:0:
215,48,183435,1,0,0:0:0:0:
215,48,183635,2,0,P|280:66|330:53,1,100,0|8,0:0|0:0,0:0:0:0:
387,12,184435,6,0,P|402:76|380:124,1,100,4|8,0:3|0:0,0:0:0:0:
346,185,185235,1,0,0:0:0:0:
387,264,185635,1,8,0:0:0:0:
325,330,186035,2,0,B|209:327,1,100,4|8,0:3|0:0,0:0:0:0:
183,310,186635,1,0,0:0:0:0:
183,310,186835,2,0,P|128:325|78:309,1,100,0|8,0:0|0:0,0:0:0:0:
256,192,187635,12,0,192435,0:0:0:0:
