osu file format v14

[General]
AudioFilename: audio.mp3
AudioLeadIn: 0
PreviewTime: 0
Countdown: 0
SampleSet: Soft
StackLeniency: 0.7
Mode: 0
LetterboxInBreaks: 0
WidescreenStoryboard: 1

[Editor]
DistanceSpacing: 1.2
BeatDivisor: 4
GridSize: 8
TimelineZoom: 1

[Metadata]
Title:Trash
TitleUnicode:Trash
Artist:Kshro
ArtistUnicode:Kshro
Creator:Kyshiro
Version:Normal
Source:
Tags:
BeatmapID:1530999
BeatmapSetID:725041

[Difficulty]
HPDrainRate:4
CircleSize:3.4
OverallDifficulty:4
ApproachRate:5
SliderMultiplier:1.3
SliderTickRate:1

[Events]
//Background and Video events
0,0,"stock-photo-trash-background-92159608.jpg",0,0
//Break Periods
//Storyboard Layer 0 (Background)
//Storyboard Layer 1 (Fail)
//Storyboard Layer 2 (Pass)
//Storyboard Layer 3 (Foreground)
//Storyboard Sound Samples

[TimingPoints]
0,461.538461538462,4,2,0,50,1,0
14769,-100,4,2,0,50,0,0
29538,-100,4,2,0,50,0,1
44307,230.769230769231,4,2,0,50,1,0
44307,-200,4,2,0,50,0,0
49845,-200,4,2,0,50,0,0

[Colours]
Combo1 : 206,234,233
Combo2 : 201,202,233
Combo3 : 244,206,243

[HitObjects]
21,142,14769,6,0,P|69:114|154:113,1,130
213,141,15461,1,0,0:0:0:0:
287,116,15692,2,0,P|312:69|316:47,2,65
346,166,16384,6,0,P|325:221|336:291,2,130
460,59,17769,1,0,0:0:0:0:
486,132,18000,2,0,L|467:202,1,65
499,266,18461,6,0,P|427:233|370:232,2,130
504,343,19615,1,0,0:0:0:0:
430,368,19846,1,0,0:0:0:0:
358,337,20076,6,0,L|285:323,1,65
232,276,20538,2,0,L|159:290,1,65
108,339,21000,1,0,0:0:0:0:
20,209,21461,1,0,0:0:0:0:
83,163,21692,2,0,P|129:174|153:195,1,65
215,147,22153,6,0,P|237:97|238:6,2,130
276,195,23307,1,0,0:0:0:0:
228,257,23538,1,0,0:0:0:0:
288,306,23769,6,0,L|438:293,2,130
352,164,25153,1,0,0:0:0:0:
428,179,25384,2,0,P|458:210|471:238,1,65
504,137,25846,6,0,P|490:73|500:2,2,130
428,179,27000,1,0,0:0:0:0:
366,130,27230,1,0,0:0:0:0:
299,170,27461,6,0,L|210:157,1,65
177,107,27923,2,0,L|88:120,1,65
49,162,28384,1,0,0:0:0:0:
130,295,28846,1,0,0:0:0:0:
196,255,29076,2,0,L|276:283,1,65
329,246,29538,6,0,P|351:203|356:171,1,65
284,152,30000,2,0,P|262:109|257:77,1,65
312,36,30461,2,0,L|378:35,2,65
236,17,31153,6,0,L|93:35,2,130
180,162,32538,1,0,0:0:0:0:
101,158,32769,2,0,P|58:132|41:106,1,65
0,186,33230,6,0,L|11:327,2,130
49,120,34384,1,0,0:0:0:0:
118,157,34615,1,0,0:0:0:0:
191,129,34846,6,0,P|213:94|225:64,1,65
289,32,35307,2,0,P|306:75|326:103,1,65
384,129,35769,1,0,0:0:0:0:
254,216,36230,2,0,L|180:205,2,65
315,264,36923,6,0,P|414:231|465:237,2,130
280,333,38076,1,0,0:0:0:0:
203,346,38307,1,0,0:0:0:0:
141,298,38538,6,0,P|110:229|114:168,2,130
223,165,39923,1,0,0:0:0:0:
175,103,40153,2,0,L|105:92,1,65
35,113,40615,6,0,L|44:268,2,130
53,37,41769,1,0,0:0:0:0:
110,92,42000,1,0,0:0:0:0:
187,88,42230,2,0,P|235:75|260:60,1,65
321,39,42692,2,0,P|352:45|382:59,1,65
434,117,43153,1,0,0:0:0:0:
296,190,43615,2,0,L|309:266,2,65
217,162,44307,6,0,P|175:192|93:203,2,130
253,93,45460,1,0,0:0:0:0:
325,120,45691,2,0,P|374:124|401:117,1,65
462,148,46153,6,0,L|481:287,1,130
343,352,47076,1,0,0:0:0:0:
284,300,47307,2,0,P|270:258|276:232,2,65
349,258,47999,6,0,P|365:172|354:127,1,130
288,91,48691,1,0,0:0:0:0:
232,145,48922,2,0,L|164:137,1,65
99,99,49383,2,0,L|31:107,1,65
102,247,49845,6,0,P|167:248|206:263,2,97.5
95,324,50768,2,0,P|141:337|190:335,2,97.5
