osu file format v14

[General]
AudioFilename: audio.mp3
AudioLeadIn: 0
PreviewTime: 177408
Countdown: 0
SampleSet: Soft
StackLeniency: 0.6
Mode: 0
LetterboxInBreaks: 0
WidescreenStoryboard: 0

[Editor]
DistanceSpacing: 1.3
BeatDivisor: 4
GridSize: 32
TimelineZoom: 0.7

[Metadata]
Title:Rising III
TitleUnicode:Rising III
Artist:KsTBeats
ArtistUnicode:KsTBeats
Creator:Phyloukz
Version:Normal
Source:
Tags:electronic instrumental violin
BeatmapID:1094104
BeatmapSetID:502816

[Difficulty]
HPDrainRate:3
CircleSize:3.5
OverallDifficulty:3
ApproachRate:4.5
SliderMultiplier:1.2
SliderTickRate:1

[Events]
//Background and Video events
0,0,"bg.jpg",0,0
//Break Periods
2,28951,31073
2,100593,102715
2,118503,131312
//Storyboard Layer 0 (Background)
//Storyboard Layer 1 (Fail)
//Storyboard Layer 2 (Pass)
//Storyboard Layer 3 (Foreground)
//Storyboard Sound Samples

[TimingPoints]
95,447.761194029851,4,2,0,30,1,0
7259,-100,4,2,0,35,0,0
14423,-100,4,2,0,40,0,0
32333,-100,4,2,0,50,0,0
60990,-100,4,2,0,60,0,1
75318,-100,4,2,0,50,0,0
103975,-100,4,2,0,60,0,1
118303,-100,4,2,0,60,0,0
132632,-100,4,2,0,15,0,0
146960,-100,4,1,0,35,0,0
161289,-100,4,2,0,45,0,0
172035,-100,4,2,0,46,0,0
172483,-100,4,2,0,47,0,0
172930,-100,4,2,0,48,0,0
173378,-100,4,2,0,49,0,0
173826,-100,4,2,0,50,0,0
174050,-100,4,2,0,51,0,0
174274,-100,4,2,0,52,0,0
174497,-100,4,2,0,53,0,0
174721,-100,4,2,0,54,0,0
174833,-100,4,2,0,55,0,0
174945,-100,4,2,0,56,0,0
175057,-100,4,2,0,57,0,0
175169,-100,4,2,0,58,0,0
175393,-100,4,2,0,59,0,0
175617,-100,4,2,0,60,0,0
177408,-100,4,2,0,60,0,1
206065,-100,4,2,0,30,0,0
220393,-100,4,2,0,70,0,0
220841,-100,4,2,0,65,0,0
221289,-100,4,2,0,60,0,0
221736,-100,4,2,0,55,0,0
222184,-100,4,2,0,50,0,0
222632,-100,4,2,0,45,0,0
223080,-100,4,2,0,40,0,0
223527,-100,4,2,0,35,0,0
223975,-100,4,2,0,30,0,0
224423,-100,4,2,0,25,0,0
224871,-100,4,2,0,20,0,0
225318,-100,4,2,0,15,0,0
225766,-100,4,2,0,5,0,0

[Colours]
Combo1 : 245,120,154
Combo2 : 214,214,214
Combo3 : 197,138,255
Combo4 : 0,105,210
Combo5 : 255,198,198
Combo6 : 138,27,148

[HitObjects]
280,179,95,6,0,B|275:229|315:260|315:260|308:309|341:344,1,180,6|0,0:0|1:0,0:0:0:0:
366,188,1214,2,0,P|350:127|300:94,1,120,0|0,3:0|3:0,0:0:0:0:
227,100,1886,2,0,P|150:102|75:35,2,180,2|0|0,0:0|1:0|3:0,0:0:0:0:
162,242,3677,6,0,P|124:318|32:339,1,180,2|0,0:0|1:0,0:0:0:0:
98,196,4796,2,0,P|153:164|209:178,1,120,0|0,3:0|3:0,0:0:0:0:
244,244,5468,2,0,B|286:223|295:170|276:140|276:140|302:129|352:142,2,180,2|0|0,0:0|1:0|3:0,0:0:0:0:
98,196,7259,5,2,0:0:0:0:
54,46,7706,2,0,P|55:81|66:122,1,60,0|0,0:0|1:0,0:0:0:0:
209,60,8378,1,0,3:0:0:0:
283,38,8602,2,0,P|315:33|366:39,1,60,0|0,3:0|3:0,0:0:0:0:
418,53,9050,6,0,B|396:116|439:165|439:165|432:198|410:228,1,180,2|0,0:0|1:0,0:0:0:0:
294,318,10169,1,0,3:0:0:0:
216,326,10393,2,0,L|149:335,1,60,0|0,3:0|3:0,0:0:0:0:
78,344,10841,5,2,0:0:0:0:
91,188,11289,2,0,P|100:236|115:264,1,60,0|0,0:0|1:0,0:0:0:0:
242,176,11960,1,0,3:0:0:0:
204,108,12184,2,0,P|184:83|148:62,1,60,0|0,3:0|3:0,0:0:0:0:
85,44,12632,6,0,B|68:107|130:143|130:143|121:175|80:192,1,180,2|0,0:0|1:0,0:0:0:0:
172,323,13751,1,0,3:0:0:0:
245,295,13975,2,0,P|278:289|326:299,1,60,0|0,3:0|3:0,0:0:0:0:
365,340,14423,6,0,P|383:285|344:226,1,120,6|2,0:0|0:0,0:0:0:0:
279,213,15095,1,0,1:0:0:0:
130,174,15542,2,0,P|98:159|75:119,2,60,0|0|0,3:0|3:0|3:0,0:0:0:0:
206,191,16214,6,0,P|194:130|138:98,1,120,2|2,0:0|0:0,0:0:0:0:
78,64,16886,1,0,1:0:0:0:
233,57,17333,2,0,L|303:31,2,60,0|0|0,3:0|3:0|3:0,0:0:0:0:
276,121,18005,6,0,L|412:72,1,120,2|2,0:0|0:0,0:0:0:0:
462,53,18677,1,0,1:0:0:0:
425,204,19124,2,0,B|421:237|421:237|428:278,2,60,0|0|0,3:0|3:0|3:0,0:0:0:0:
479,147,19796,6,0,P|445:128|367:151,1,120,2|2,0:0|0:0,0:0:0:0:
347,222,20468,1,0,1:0:0:0:
405,366,20915,2,0,P|442:372|473:370,2,60,0|0|0,3:0|3:0|3:0,0:0:0:0:
335,330,21587,6,0,P|293:312|205:303,1,120,2|2,0:0|0:0,0:0:0:0:
142,315,22259,1,0,1:0:0:0:
90,168,22706,2,0,P|87:132|94:94,2,60,0|0|0,3:0|3:0|3:0,0:0:0:0:
131,237,23378,6,0,P|185:250|221:316,1,120,2|2,0:0|0:0,0:0:0:0:
297,313,24050,2,0,P|334:266|395:260,2,120,0|0|0,1:0|3:0|3:0,0:0:0:0:
371,335,25169,6,0,P|431:327|466:281,1,120,6|0,0:0|0:0,0:0:0:0:
448,205,25841,2,0,B|467:129|467:129|494:98,2,120,0|0|0,1:0|3:0|3:0,0:0:0:0:
465,282,26960,6,0,P|405:273|371:225,1,120,2|0,0:0|0:0,0:0:0:0:
351,151,27632,2,0,B|316:161|303:186|303:186|290:160|258:144,2,120,0|0|0,1:0|3:0|3:0,0:0:0:0:
310,84,28751,5,4,1:0:0:0:
188,163,32333,6,0,L|176:85,2,60,6|0|10,0:0|0:0|0:0,0:0:0:0:
233,226,33005,2,0,B|270:198|264:152|264:152|256:100,2,120,0|0|0,1:0|0:0|0:0,0:0:0:0:
178,282,34124,6,0,P|235:303|297:272,1,120,2|10,0:0|0:0,0:0:0:0:
360,251,34796,1,0,1:0:0:0:
505,292,35244,1,0,0:0:0:0:
479,218,35468,2,0,L|406:193,1,60,10|0,0:0|0:0,0:0:0:0:
348,173,35915,6,0,B|329:93|329:93|347:37,2,120,2|10|2,0:0|0:0|0:0,0:0:0:0:
360,251,37035,1,0,0:0:0:0:
412,308,37259,2,0,P|384:324|345:325,1,60,10|0,0:0|0:0,0:0:0:0:
278,329,37706,6,0,P|214:315|162:261,1,120,2|10,0:0|0:0,0:0:0:0:
148,205,38378,1,0,1:0:0:0:
211,62,38826,1,0,0:0:0:0:
288,73,39050,2,0,L|372:87,1,60,10|0,0:0|0:0,0:0:0:0:
419,111,39497,6,0,P|424:77|409:38,2,60,2|0|10,0:0|0:0|0:0,0:0:0:0:
358,160,40169,2,0,B|329:191|327:237|327:237|316:258|281:270,2,120,0|0|0,1:0|0:0|0:0,0:0:0:0:
419,111,41289,6,0,B|438:146|438:146|426:235,1,120,2|10,0:0|0:0,0:0:0:0:
416,302,41960,1,0,1:0:0:0:
266,347,42408,1,0,0:0:0:0:
273,269,42632,2,0,P|243:271|217:285,1,60,10|0,0:0|0:0,0:0:0:0:
149,325,43080,6,0,B|111:341|69:341|69:341|54:349|43:378,2,120,2|10|0,0:0|0:0|0:0,0:0:0:0:
217,284,44199,1,0,0:0:0:0:
231,207,44423,2,0,P|215:179|173:157,1,60,10|0,0:0|0:0,0:0:0:0:
149,97,44871,6,0,B|122:120|95:122|95:122|114:143|113:192,1,120,2|10,0:0|0:0,0:0:0:0:
73,245,45542,1,0,1:0:0:0:
211,317,45990,1,0,0:0:0:0:
211,238,46214,2,0,L|211:178,1,60,10|0,0:0|0:0,0:0:0:0:
269,125,46662,6,0,B|329:114|329:114|406:129,2,120,2|10|0,0:0|0:0|0:0,0:0:0:0:
211,178,47781,2,0,L|139:160,1,60,2|10,0:0|0:0,0:0:0:0:
78,139,48229,1,0,0:0:0:0:
136,87,48453,2,0,B|168:62|168:62|253:38,1,120,2|10,0:0|0:0,0:0:0:0:
322,36,49124,1,0,0:0:0:0:
420,156,49572,2,0,L|420:233,1,60,0|10,0:0|0:0,0:0:0:0:
394,290,50020,1,0,0:0:0:0:
356,358,50244,6,0,B|328:343|319:312|319:312|306:341|273:353,2,120,2|10|0,0:0|0:0|0:0,0:0:0:0:
434,358,51363,2,0,P|458:335|470:309,1,60,2|10,0:0|0:0,0:0:0:0:
478,233,51811,1,0,0:0:0:0:
496,157,52035,2,0,P|445:160|403:211,1,120,2|10,0:0|0:0,0:0:0:0:
394,290,52706,1,0,0:0:0:0:
256,215,53154,2,0,L|179:234,1,60,0|10,0:0|0:0,0:0:0:0:
127,264,53602,1,0,0:0:0:0:
190,310,53826,6,0,B|231:301|231:301|317:323,1,120,6|10,0:0|0:0,0:0:0:0:
381,342,54497,2,0,B|395:294|351:254|351:254|267:232,1,180,0|10,0:0|0:0,0:0:0:0:
163,120,55617,2,0,P|224:83|285:80,1,120,2|0,0:0|0:0,0:0:0:0:
335,123,56289,2,0,B|360:84|341:43|341:43|369:-1|437:22,1,180,2|10,0:0|0:0,0:0:0:0:
507,152,57408,6,0,P|452:137|396:173,1,120,2|0,0:0|0:0,0:0:0:0:
461,216,58080,2,0,B|472:281|472:281|417:382,1,180,2|10,0:0|0:0,0:0:0:0:
262,361,59199,2,0,B|140:353,1,120,2|0,0:0|0:0,0:0:0:0:
68,327,59871,2,0,B|39:304|39:304|29:271|29:271|83:242|81:178,1,180,2|10,0:0|0:0,0:0:0:0:
227,129,60990,6,0,B|275:132|275:132|341:102,2,120,6|10|2,0:0|0:0|0:0,0:0:0:0:
149,116,62109,1,0,0:0:0:0:
78,83,62333,2,0,P|103:52|134:36,1,60,10|0,0:0|0:0,0:0:0:0:
200,51,62781,1,6,0:0:0:0:
350,99,63229,6,0,L|367:178,1,60,10|0,0:0|0:0,0:0:0:0:
393,230,63677,2,0,P|361:236|319:223,1,60,2|0,0:0|0:0,0:0:0:0:
256,216,64124,2,0,L|218:269,1,60,10|0,0:0|0:0,0:0:0:0:
176,329,64572,1,6,0:0:0:0:
69,214,65020,6,0,P|60:177|77:133,1,60,10|0,0:0|0:0,0:0:0:0:
138,179,65468,2,0,P|148:142|185:112,1,60,2|0,0:0|0:0,0:0:0:0:
236,105,65915,1,10,0:0:0:0:
174,248,66363,6,0,L|235:293,1,60,2|0,0:0|0:0,0:0:0:0:
292,248,66811,2,0,L|322:317,1,60,10|0,0:0|0:0,0:0:0:0:
391,323,67259,1,2,0:0:0:0:
463,293,67483,1,0,0:0:0:0:
501,225,67706,2,0,P|510:187|503:147,1,60,10|0,0:0|0:0,0:0:0:0:
477,94,68154,6,0,B|449:105|418:96|418:96|389:106|358:96,1,120,6|10,0:0|0:0,0:0:0:0:
283,77,68826,1,0,0:0:0:0:
212,110,69050,2,0,P|198:148|203:185,1,60,2|0,0:0|0:0,0:0:0:0:
247,227,69497,2,0,P|267:250|280:290,1,60,10|0,0:0|0:0,0:0:0:0:
265,354,69945,1,6,0:0:0:0:
123,283,70393,6,0,P|91:275|60:244,1,60,10|0,0:0|0:0,0:0:0:0:
126,204,70841,2,0,P|102:181|90:138,1,60,2|0,0:0|0:0,0:0:0:0:
168,140,71289,2,0,P|158:108|170:65,1,60,10|0,0:0|0:0,0:0:0:0:
237,103,71736,1,6,0:0:0:0:
359,200,72184,6,0,P|326:205|293:201,1,60,10|0,0:0|0:0,0:0:0:0:
221,202,72632,2,0,P|217:235|194:270,1,60,2|0,0:0|0:0,0:0:0:0:
127,274,73080,1,10,0:0:0:0:
11,170,73528,6,0,P|16:142|4:100,1,60,2|0,0:0|0:0,0:0:0:0:
82,83,73975,2,0,P|100:109|131:127,1,60,10|0,0:0|0:0,0:0:0:0:
201,132,74423,1,2,0:0:0:0:
274,104,74647,1,0,0:0:0:0:
350,87,74871,2,0,P|386:96|423:126,1,60,10|0,0:0|0:0,0:0:0:0:
448,172,75318,1,6,0:0:0:0:
305,234,75766,5,10,0:0:0:0:
280,307,75990,2,0,P|294:343|314:363,1,60,0|2,0:0|0:0,0:0:0:0:
358,297,76438,2,0,P|379:269|387:228,2,60,0|10|0,0:0|0:0|0:0,0:0:0:0:
280,307,77109,2,0,B|232:345|232:345|199:280,1,120,2|10,0:0|0:0,0:0:0:0:
173,220,77781,5,0,0:0:0:0:
20,185,78229,1,0,0:0:0:0:
129,73,78677,1,0,0:0:0:0:
204,92,78900,6,0,P|254:129|325:126,1,120,2|10,0:0|0:0,0:0:0:0:
382,100,79572,2,0,P|388:133|374:178,1,60,0|2,0:0|0:0,0:0:0:0:
370,236,80020,2,0,P|381:263|398:287,1,60,0|10,0:0|0:0,0:0:0:0:
470,320,80468,1,0,0:0:0:0:
405,363,80692,5,6,0:0:0:0:
333,332,80915,2,0,B|294:315|249:331|249:331|215:310,2,120
280,184,82259,1,0,0:0:0:0:
220,235,82483,6,0,B|154:235,1,60,6|0,0:0|0:0,0:0:0:0:
87,206,82930,1,8,0:0:0:0:
59,133,83154,2,0,L|59:65,1,60
123,28,83602,2,0,P|156:30|188:48,2,60,0|10|0,0:0|0:0|0:0,0:0:0:0:
135,105,84274,2,0,P|192:118|249:77,1,120,2|10,0:0|0:0,0:0:0:0:
251,10,84945,5,0,0:0:0:0:
279,163,85393,1,0,0:0:0:0:
309,316,85841,1,0,0:0:0:0:
385,301,86065,6,0,B|419:280|419:280|442:186,1,120,2|10,0:0|0:0,0:0:0:0:
406,131,86736,2,0,B|373:125|373:125|329:125,1,60,0|2,0:0|0:0,0:0:0:0:
279,163,87184,2,0,B|252:163|252:163|219:157,1,60,0|10,0:0|0:0,0:0:0:0:
148,123,87632,1,0,0:0:0:0:
71,137,87856,5,2,0:0:0:0:
13,189,88080,2,0,P|8:246|38:318,2,120
164,225,89423,1,0,0:0:0:0:
229,266,89647,6,0,P|239:207|189:153,1,120,2|10,0:0|0:0,0:0:0:0:
142,114,90318,2,0,P|128:84|91:58,1,60,0|2,1:0|0:0,0:0:0:0:
66,133,90766,2,0,P|79:162|116:188,1,60,0|10,1:0|0:0,0:0:0:0:
229,266,91438,6,0,P|282:246|362:251,1,120,2|10,0:0|0:0,0:0:0:0:
360,170,92109,2,0,P|325:161|293:142,1,60,0|2,1:0|0:0,0:0:0:0:
254,89,92557,2,0,L|192:89,1,60,0|10,1:0|0:0,0:0:0:0:
80,195,93229,6,0,P|138:216|171:268,1,120,2|10,0:0|0:0,0:0:0:0:
127,327,93900,2,0,P|155:340|185:340,1,60,0|2,1:0|0:0,0:0:0:0:
244,290,94348,2,0,P|274:289|300:303,1,60,0|10,1:0|0:0,0:0:0:0:
357,357,94796,1,0,0:0:0:0:
374,281,95020,5,6,0:0:0:0:
430,225,95244,2,0,P|452:279|429:334,2,120,0|0|0,1:0|1:0|1:0,0:0:0:0:
274,234,96587,1,0,0:0:0:0:
318,298,96811,6,0,B|275:324|233:299|233:299|190:324,1,120,6|10,0:0|0:0,0:0:0:0:
145,360,97483,2,0,P|130:326|135:291,1,60,0|2,1:0|0:0,0:0:0:0:
178,241,97930,2,0,P|178:211|164:184,1,60,0|10,1:0|0:0,0:0:0:0:
17,132,98602,6,0,B|40:263,1,120,2|10,0:0|0:0,0:0:0:0:
74,320,99274,2,0,P|104:316|130:304,1,60,0|2,1:0|0:0,0:0:0:0:
178,241,99721,2,0,P|205:228|235:224,1,60,0|10,1:0|0:0,0:0:0:0:
388,253,100393,5,4,0:0:0:0:
295,226,103975,6,0,B|276:216|265:196|265:196|224:226|174:206,2,120,6|10|2,0:0|0:0|0:0,0:0:0:0:
371,207,105095,2,0,P|353:176|328:158,2,60,0|10|0,0:0|0:0|0:0,0:0:0:0:
349,282,105766,1,6,0:0:0:0:
202,339,106214,6,0,L|129:346,1,60,10|0,0:0|0:0,0:0:0:0:
97,280,106662,2,0,L|118:210,1,60,2|0,0:0|0:0,0:0:0:0:
192,211,107109,2,0,L|226:265,1,60,10|0,0:0|0:0,0:0:0:0:
278,318,107557,1,6,0:0:0:0:
367,190,108005,6,0,L|409:125,1,60,10|0,0:0|0:0,0:0:0:0:
465,182,108453,2,0,L|465:256,1,60,2|0,0:0|0:0,0:0:0:0:
465,320,108900,1,10,0:0:0:0:
322,255,109348,6,0,P|286:258|254:274,1,60,2|0,0:0|0:0,0:0:0:0:
208,323,109796,2,0,P|179:333|150:335,1,60,10|0,0:0|0:0,0:0:0:0:
77,307,110244,1,2,0:0:0:0:
36,240,110468,1,0,0:0:0:0:
22,161,110692,2,0,P|23:125|35:93,1,60,10|0,0:0|0:0,0:0:0:0:
86,49,111139,6,0,P|128:55|202:27,2,120,6|10|2,0:0|0:0|0:0,0:0:0:0:
30,103,112259,2,0,P|22:131|22:161,1,60,0|10,0:0|0:0,0:0:0:0:
43,237,112706,1,0,0:0:0:0:
117,260,112930,1,6,0:0:0:0:
267,219,113378,6,0,P|302:224|342:250,1,60,10|0,0:0|0:0,0:0:0:0:
376,293,113826,2,0,P|397:267|403:235,1,60,2|0,0:0|0:0,0:0:0:0:
369,170,114274,1,10,0:0:0:0:
443,33,114721,5,6,0:0:0:0:
507,176,115169,2,0,P|474:183|441:174,1,60,10|0,0:0|0:0,0:0:0:0:
369,170,115617,2,0,P|339:164|310:171,1,60,2|0,0:0|0:0,0:0:0:0:
247,217,116065,1,10,0:0:0:0:
181,358,116512,6,0,L|114:340,1,60,2|0,0:0|0:0,0:0:0:0:
67,286,116960,2,0,L|45:216,1,60,10|0,0:0|0:0,0:0:0:0:
96,166,117408,1,2,0:0:0:0:
152,112,117632,1,0,0:0:0:0:
208,58,117856,2,0,L|280:71,1,60,10|0,0:0|0:0,0:0:0:0:
334,29,118303,5,4,0:0:0:0:
503,96,132632,6,0,B|466:121|407:135|352:139|322:73|322:25|385:-16|425:-3|485:54|465:96|427:151|378:183,1,420,2|0,0:0|0:0,0:0:0:0:
321,208,134423,2,0,B|254:225|215:175|215:175|256:229|241:311|205:354|125:346|88:285|132:220,1,420,2|0,0:0|0:0,0:0:0:0:
138,160,136214,6,0,B|102:151|60:172|44:217|44:217|42:169|48:98|123:152|215:129|216:7,1,420,2|0,0:0|0:0,0:0:0:0:
292,28,138005,2,0,B|309:89|369:113|369:113|316:143|253:138|253:138|270:160|304:173|304:173|341:233|309:302,1,420,2|0,0:0|0:0,0:0:0:0:
238,297,139796,6,0,B|123:253|132:166|281:144|316:271|196:304|166:304|117:314|63:291|20:224,1,420
70,173,141587,2,0,B|96:116|65:58|65:58|107:111|169:109|169:109|186:66|213:53|291:71|292:108|282:143,1,420,2|0,0:0|0:0,0:0:0:0:
263,214,143378,6,0,B|312:248|383:215|392:140|392:140|323:181|328:259|390:278|390:278|377:306|322:321,1,420
268,335,145169,2,0,B|234:332|194:301|210:260|190:258|190:258|167:260|156:301|156:301|152:350|127:349|127:349|105:345|117:309|76:282|37:285|37:285|60:252|105:261,1,420
98,182,146960,6,0,P|44:170|9:118,1,120,6|0,1:0|0:0,0:0:0:0:
86,105,147632,1,0,1:0:0:0:
393,153,148527,1,0,1:0:0:0:
415,78,148751,2,0,P|454:106|465:181,1,120,2|0,1:0|1:0,1:0:0:0:
413,230,149423,1,0,1:0:0:0:
122,117,150318,1,0,1:0:0:0:
100,42,150542,6,0,P|61:70|50:145,1,120,2|0,1:0|1:0,1:0:0:0:
102,194,151214,1,0,1:0:0:0:
392,308,152109,1,0,0:0:0:0:
334,361,152333,2,0,L|210:335,1,120,2|0,0:0|0:0,0:0:0:0:
140,318,153005,1,0,1:0:0:0:
338,77,153900,1,0,1:0:0:0:
268,112,154124,6,0,P|316:152|384:142,1,120,2|0,1:0|0:0,0:0:0:0:
420,88,154796,1,0,1:0:0:0:
108,66,155692,1,0,0:0:0:0:
51,119,155915,2,0,B|28:149|27:189|27:189|38:214|38:244,1,120,2|0,0:0|0:0,0:0:0:0:
25,309,156587,1,0,1:0:0:0:
252,95,157483,1,0,0:0:0:0:
328,108,157706,6,0,B|365:108|398:85|398:85|411:61|435:43,1,120,2|0,0:0|0:0,0:0:0:0:
496,18,158378,1,0,1:0:0:0:
256,218,159274,1,0,0:0:0:0:
178,210,159497,2,0,P|197:269|246:296,1,120,2|0,0:0|0:0,0:0:0:0:
319,270,160169,1,0,1:0:0:0:
47,115,161065,1,0,1:0:0:0:
27,190,161289,5,6,0:0:0:0:
192,355,161960,2,0,L|192:295,1,60,0|0,3:0|3:0,0:0:0:0:
148,145,162632,1,0,3:0:0:0:
251,29,163080,5,6,0:0:0:0:
296,91,163303,2,0,L|431:91,2,120
252,156,164423,1,0,3:0:0:0:
330,290,164871,5,6,0:0:0:0:
174,299,165318,2,0,L|155:231,1,60,0|0,3:0|3:0,0:0:0:0:
135,166,165766,1,0,3:0:0:0:
290,157,166214,2,0,L|306:99,1,60,0|0,3:0|3:0,0:0:0:0:
329,24,166662,5,6,0:0:0:0:
438,135,167109,2,0,L|421:192,1,60,0|0,3:0|3:0,0:0:0:0:
396,266,167557,1,0,3:0:0:0:
321,289,167781,2,0,L|243:300,1,60,0|0,3:0|3:0,0:0:0:0:
105,317,168453,6,0,P|75:201|112:79,1,240,6|0,0:0|3:0,0:0:0:0:
415,28,170244,2,0,P|312:88|254:191,1,240,6|0,0:0|3:0,0:0:0:0:
254,191,172035,6,0,L|114:191,1,120,6|0,3:0|3:0,0:0:0:0:
197,333,172930,2,0,L|316:333,1,120,2|0,3:0|3:0,0:0:0:0:
429,223,173826,6,0,L|429:161,2,60,2|0|2,3:0|3:0|3:0,0:0:0:0:
376,280,174497,1,0,3:0:0:0:
323,223,174721,2,0,L|323:95,2,120,2|2|4,3:0|3:0|0:0,0:0:0:0:
323,223,177408,6,0,B|299:223|280:214|280:214|245:243|198:233,2,120,6|10|2,0:0|0:0|0:0,0:0:0:0:
398,204,178527,2,0,P|404:176|422:137,2,60,0|10|0,0:0|0:0|0:0,0:0:0:0:
446,265,179199,1,6,0:0:0:0:
312,345,179647,6,0,B|280:347|280:347|237:342,1,60,10|0,0:0|0:0,0:0:0:0:
193,291,180095,2,0,B|165:287|165:287|133:289,1,60,2|0,0:0|0:0,0:0:0:0:
61,320,180542,1,10,0:0:0:0:
163,202,180990,6,0,P|186:151|159:84,1,120,6|10,0:0|0:0,0:0:0:0:
105,44,181662,1,0,0:0:0:0:
59,107,181886,2,0,P|84:132|122:148,1,60,2|0,0:0|0:0,0:0:0:0:
163,202,182333,1,10,0:0:0:0:
293,287,182781,6,0,L|219:287,1,60,2|0,0:0|0:0,0:0:0:0:
232,365,183229,2,0,L|292:365,1,60,10|0,0:0|0:0,0:0:0:0:
360,327,183677,1,2,0:0:0:0:
362,249,183900,1,0,0:0:0:0:
420,197,184124,2,0,L|485:197,1,60,10|0,0:0|0:0,0:0:0:0:
478,119,184572,6,0,P|477:55|509:3,2,120,6|10|2,0:0|0:0|0:0,0:0:0:0:
479,197,185692,2,0,P|484:233|470:277,2,60,0|10|0,0:0|0:0|0:0,0:0:0:0:
409,161,186363,1,6,0:0:0:0:
255,130,186811,6,0,P|222:126|178:136,1,60,10|0,0:0|0:0,0:0:0:0:
130,172,187259,2,0,P|133:201|129:231,1,60,2|0,0:0|0:0,0:0:0:0:
79,290,187706,1,10,0:0:0:0:
226,341,188154,6,0,B|264:325|264:325|308:346|350:325,1,120,6|10,0:0|0:0,0:0:0:0:
406,287,188826,1,0,0:0:0:0:
357,226,189050,2,0,P|330:238|307:257,1,60,2|0,0:0|0:0,0:0:0:0:
265,325,189497,1,10,0:0:0:0:
124,257,189945,6,0,P|118:227|132:183,1,60,2|0,0:0|0:0,0:0:0:0:
95,125,190393,2,0,P|125:119|169:133,1,60,10|0,0:0|0:0,0:0:0:0:
221,163,190841,1,2,0:0:0:0:
263,229,191065,1,0,0:0:0:0:
336,259,191289,2,0,P|342:229|328:185,1,60,10|0,0:0|0:0,0:0:0:0:
309,127,191736,6,0,P|348:111|392:28,2,120,6|10|2,0:0|0:0|0:0,0:0:0:0:
230,128,192856,2,0,P|201:122|173:103,2,60,0|10|0,0:0|0:0|0:0,0:0:0:0:
268,59,193527,1,6,0:0:0:0:
269,215,193975,6,0,L|269:295,1,60,10|0,0:0|0:0,0:0:0:0:
239,347,194423,2,0,P|268:352|306:343,1,60,2|0,0:0|0:0,0:0:0:0:
345,284,194871,1,10,0:0:0:0:
293,137,195318,6,0,B|233:131|233:131|181:97,1,120,6|10,0:0|0:0,0:0:0:0:
190,20,195990,1,0,0:0:0:0:
261,54,196214,2,0,L|339:62,1,60,2|0,0:0|0:0,0:0:0:0:
371,119,196662,1,10,0:0:0:0:
330,269,197109,6,0,B|300:273|300:273|255:266,1,60,2|0,0:0|0:0,0:0:0:0:
202,229,197557,2,0,B|172:224|172:224|142:228,1,60,10|0,0:0|0:0,0:0:0:0:
77,272,198005,1,2,0:0:0:0:
71,194,198229,1,0,0:0:0:0:
97,120,198453,2,0,P|90:88|64:54,1,60,10|0,0:0|0:0,0:0:0:0:
146,31,198900,6,0,P|203:14|268:63,2,120,6|10|2,0:0|0:0|0:0,0:0:0:0:
195,91,200020,2,0,P|209:124|205:168,2,60,0|10|0,0:0|0:0|0:0,0:0:0:0:
132,138,200692,1,6,0:0:0:0:
234,255,201139,6,0,P|273:238|298:212,1,60,10|0,0:0|0:0,0:0:0:0:
341,171,201587,2,0,P|362:197|400:215,1,60,2|0,0:0|0:0,0:0:0:0:
462,218,202035,1,10,0:0:0:0:
362,98,202483,6,0,P|305:105|265:166,1,120,6|10,0:0|0:0,0:0:0:0:
268,229,203154,1,0,0:0:0:0:
345,229,203378,2,0,P|347:200|341:171,1,60,2|0,0:0|0:0,0:0:0:0:
362,98,203826,1,10,0:0:0:0:
424,241,204274,6,0,P|409:280|378:305,1,60,2|0,0:0|0:0,0:0:0:0:
346,352,204721,2,0,P|306:366|267:359,1,60,10|0,0:0|0:0,0:0:0:0:
211,374,205169,1,2,0:0:0:0:
178,303,205393,1,0,0:0:0:0:
212,232,205617,2,0,P|208:188|192:161,1,60,10|0,0:0|0:0,0:0:0:0:
231,101,206065,6,0,L|294:101,2,60,4|0|0,0:0|0:0|0:0,0:0:0:0:
167,55,206736,1,0,0:0:0:0:
82,186,207184,2,0,L|82:263,2,60,0|0|0,3:0|3:0|3:0,0:0:0:0:
156,157,207856,6,0,L|156:283,1,120,2|2,0:0|0:0,0:0:0:0:
156,355,208527,1,0,1:0:0:0:
291,277,208975,2,0,L|368:277,2,60,0|0|0,3:0|3:0|3:0,0:0:0:0:
235,222,209647,6,0,B|254:163|254:163|316:118,1,120,2|2,0:0|0:0,0:0:0:0:
364,83,210318,1,0,1:0:0:0:
448,214,210766,2,0,L|508:214,2,60,0|0|0,3:0|3:0|3:0,0:0:0:0:
388,265,211438,6,0,B|355:269|355:269|316:263,1,60,6|0,0:0|0:0,0:0:0:0:
252,246,211886,2,0,B|225:241|225:241|192:245,1,60,2|0,0:0|0:0,0:0:0:0:
116,265,212333,1,2,0:0:0:0:
136,189,212557,1,2,0:0:0:0:
141,111,212781,2,0,P|125:75|92:44,1,60,2|2,0:0|0:0,0:0:0:0:
180,21,213229,6,0,B|231:59|293:30|293:30|288:69|316:98,1,180,2|0,0:0|0:0,0:0:0:0:
359,144,214124,2,0,P|382:170|392:213,1,60,2|2,0:0|0:0,0:0:0:0:
397,271,214572,2,0,P|408:298|428:320,1,60,2|2,0:0|0:0,0:0:0:0:
475,257,215020,1,2,0:0:0:0:
320,237,215468,6,0,P|288:243|246:230,1,60,2|0,0:0|0:0,0:0:0:0:
231,165,215915,2,0,P|263:159|305:172,1,60,2|0,0:0|0:0,0:0:0:0:
367,173,216363,1,2,0:0:0:0:
311,318,216811,6,0,B|284:338|256:340|256:340|228:338|202:317,1,120,2|2,0:0|0:0,0:0:0:0:
164,247,217483,1,0,0:0:0:0:
110,190,217706,2,0,P|92:213|86:243,1,60,2|2,0:0|0:0,0:0:0:0:
122,314,218154,1,2,0:0:0:0:
225,196,218602,6,0,P|242:228|240:270,1,60,2|0,0:0|0:0,0:0:0:0:
285,317,219050,2,0,P|309:294|322:260,1,60,2|0,0:0|0:0,0:0:0:0:
319,191,219497,1,2,0:0:0:0:
269,130,219721,1,2,0:0:0:0:
264,52,219945,2,0,P|293:36|334:31,1,60,2|2,0:0|0:0,0:0:0:0:
392,3,220393,1,4,1:0:0:0:
256,192,220617,12,0,225766,0:0:0:0:
