osu file format v14

[General]
AudioFilename: audio.mp3
AudioLeadIn: 0
PreviewTime: 177408
Countdown: 0
SampleSet: Soft
StackLeniency: 0.7
Mode: 0
LetterboxInBreaks: 0
WidescreenStoryboard: 0

[Editor]
DistanceSpacing: 1.7
BeatDivisor: 4
GridSize: 32
TimelineZoom: 1

[Metadata]
Title:Rising III
TitleUnicode:Rising III
Artist:KsTBeats
ArtistUnicode:KsTBeats
Creator:Phyloukz
Version:Insane
Source:
Tags:electronic instrumental violin
BeatmapID:1070014
BeatmapSetID:502816

[Difficulty]
HPDrainRate:5
CircleSize:4.5
OverallDifficulty:7
ApproachRate:8
SliderMultiplier:1.6
SliderTickRate:1

[Events]
//Background and Video events
0,0,"bg.jpg",0,0
//Break Periods
//Storyboard Layer 0 (Background)
//Storyboard Layer 1 (Fail)
//Storyboard Layer 2 (Pass)
//Storyboard Layer 3 (Foreground)
//Storyboard Sound Samples

[TimingPoints]
95,447.761194029851,4,2,0,30,1,0
7259,-100,4,2,0,35,0,0
14423,-100,4,2,0,40,0,0
32333,-100,4,2,0,50,0,0
60990,-100,4,2,0,60,0,1
75318,-100,4,2,0,50,0,0
103975,-100,4,2,0,60,0,1
118303,-133.333333333333,4,2,0,60,0,0
118415,-133.333333333333,4,2,0,25,0,0
118975,-100,4,2,0,25,0,0
125468,-133.333333333333,4,2,0,25,0,0
126139,-100,4,2,0,25,0,0
132632,-200,4,2,0,15,0,0
146960,-100,4,2,0,35,0,0
161289,-100,4,2,0,45,0,0
172035,-100,4,2,0,46,0,0
172483,-100,4,2,0,47,0,0
172930,-100,4,2,0,48,0,0
173378,-100,4,2,0,49,0,0
173826,-100,4,2,0,50,0,0
174050,-100,4,2,0,51,0,0
174274,-100,4,2,0,52,0,0
174497,-100,4,2,0,53,0,0
174721,-100,4,2,0,54,0,0
174833,-100,4,2,0,55,0,0
174945,-100,4,2,0,56,0,0
175057,-100,4,2,0,57,0,0
175169,-100,4,2,0,58,0,0
175393,-100,4,2,0,59,0,0
175617,-100,4,2,0,60,0,0
176960,-100,4,2,0,5,0,0
177408,-100,4,2,0,60,0,1
206065,-200,4,2,0,30,0,0
220393,-200,4,2,0,70,0,0
220841,-100,4,2,0,65,0,0
221289,-100,4,2,0,60,0,0
221736,-100,4,2,0,55,0,0
222184,-100,4,2,0,50,0,0
222632,-100,4,2,0,45,0,0
223080,-100,4,2,0,40,0,0
223527,-100,4,2,0,35,0,0
223975,-100,4,2,0,30,0,0
224423,-100,4,2,0,25,0,0
224871,-100,4,2,0,20,0,0
225318,-100,4,2,0,15,0,0
225766,-100,4,2,0,5,0,0

[Colours]
Combo1 : 245,120,154
Combo2 : 214,214,214
Combo3 : 197,138,255
Combo4 : 0,105,210
Combo5 : 255,198,198
Combo6 : 138,27,148

[HitObjects]
400,156,95,6,0,P|361:182|278:182,1,120,6|0,0:0|0:0,0:0:0:0:
256,163,542,1,0,0:0:0:0:
321,82,766,2,0,P|284:64|245:62,1,80,0|0,1:0|0:0,0:0:0:0:
103,178,1214,5,0,3:0:0:0:
187,240,1438,1,0,3:0:0:0:
256,163,1662,1,0,3:0:0:0:
321,82,1886,6,0,B|353:111|353:111|368:187,1,120,2|0,0:0|0:0,0:0:0:0:
373,226,2333,1,0,0:0:0:0:
269,241,2557,2,0,L|254:153,1,80,0|0,1:0|0:0,0:0:0:0:
120,34,3005,5,0,3:0:0:0:
50,111,3229,1,0,3:0:0:0:
120,187,3453,1,0,3:0:0:0:
51,264,3677,6,0,B|77:291|121:292|121:292|139:313|161:321,1,120,2|0,0:0|0:0,0:0:0:0:
193,318,4124,1,0,0:0:0:0:
283,266,4348,2,0,B|286:225|286:225|310:189,1,80,0|0,1:0|0:0,0:0:0:0:
430,54,4796,5,0,3:0:0:0:
333,92,5020,1,0,3:0:0:0:
229,86,5244,1,0,3:0:0:0:
130,51,5468,6,0,B|121:91|121:91|129:129|129:129|127:153|120:172,1,120,2|0,0:0|0:0,0:0:0:0:
107,205,5915,1,0,0:0:0:0:
207,233,6139,2,0,P|239:265|260:310,1,80,0|0,1:0|0:0,0:0:0:0:
90,376,6587,5,0,3:0:0:0:
39,284,6811,1,0,3:0:0:0:
107,205,7035,1,0,3:0:0:0:
178,129,7259,6,0,B|207:130|229:147|229:147|252:131|252:131|284:153|326:144,1,160,2|0,0:0|0:0,0:0:0:0:
422,103,7930,2,0,P|430:147|414:198,1,80,0|0,1:0|0:0,0:0:0:0:
311,320,8378,5,0,3:0:0:0:
220,268,8602,1,0,3:0:0:0:
116,258,8826,1,0,3:0:0:0:
60,345,9050,6,0,P|14:277|31:200,1,160,2|0,0:0|0:0,0:0:0:0:
102,131,9721,2,0,L|184:143,1,80,0|0,1:0|0:0,0:0:0:0:
364,167,10169,5,0,3:0:0:0:
451,111,10393,1,0,3:0:0:0:
475,9,10617,1,0,3:0:0:0:
375,39,10841,6,0,B|337:61|298:45|298:45|266:72|222:61,1,160,2|0,0:0|0:0,0:0:0:0:
129,16,11512,2,0,P|117:63|128:107,1,80,0|0,1:0|0:0,0:0:0:0:
228,244,11960,5,0,3:0:0:0:
128,272,12184,1,0,3:0:0:0:
55,346,12408,1,0,3:0:0:0:
155,374,12632,6,0,B|206:382|206:382|291:348,1,120,2|0,0:0|0:0,0:0:0:0:
306,340,13080,1,0,0:0:0:0:
349,245,13303,2,0,L|429:209,1,80,0|0,1:0|0:0,0:0:0:0:
272,102,13751,5,0,3:0:0:0:
168,109,13975,1,0,3:0:0:0:
72,66,14199,1,0,3:0:0:0:
29,245,14423,6,0,L|70:276,1,40,6|2,0:0|0:0,0:0:0:0:
153,219,14759,1,2,0:0:0:0:
186,240,14871,2,0,P|224:247|271:238,1,80,2|0,0:0|1:0,0:0:0:0:
302,146,15318,2,0,L|252:137,1,40,2|2,0:0|0:0,0:0:0:0:
226,132,15542,5,0,3:0:0:0:
305,64,15766,1,0,3:0:0:0:
389,124,15990,1,0,3:0:0:0:
455,295,16214,6,0,L|409:301,1,40,2|2,0:0|0:0,0:0:0:0:
317,261,16550,1,2,0:0:0:0:
308,221,16662,2,0,P|285:182|246:157,1,80,2|0,0:0|1:0,0:0:0:0:
209,254,17109,2,0,L|168:254,1,40,2|2,0:0|0:0,0:0:0:0:
128,254,17333,5,0,3:0:0:0:
69,162,17557,1,0,3:0:0:0:
78,58,17781,1,0,3:0:0:0:
242,142,18005,6,0,L|307:136,1,40,2|2,0:0|0:0,0:0:0:0:
362,71,18341,1,2,0:0:0:0:
381,106,18453,2,0,P|386:146|366:200,1,80,2|0,0:0|1:0,0:0:0:0:
287,239,18900,2,0,L|296:289,1,40,2|2,0:0|0:0,0:0:0:0:
302,317,19124,5,0,3:0:0:0:
199,336,19348,1,0,3:0:0:0:
102,296,19572,1,0,3:0:0:0:
22,130,19796,6,0,L|70:153,1,40,2|2,0:0|0:0,0:0:0:0:
162,147,20132,1,2,0:0:0:0:
201,138,20244,2,0,P|243:134|283:148,1,80,2|0,0:0|1:0,0:0:0:0:
230,235,20692,2,0,L|191:245,1,40,2|2,0:0|0:0,0:0:0:0:
152,256,20915,5,0,3:0:0:0:
234,319,21139,1,0,3:0:0:0:
337,314,21363,1,0,3:0:0:0:
493,217,21587,6,0,L|500:269,1,40,2|2,0:0|0:0,0:0:0:0:
396,234,21923,1,2,0:0:0:0:
401,194,22035,2,0,P|420:154|462:129,1,80,2|0,0:0|1:0,0:0:0:0:
403,39,22483,2,0,P|377:47|342:47,1,40,2|2,0:0|0:0,0:0:0:0:
324,46,22706,5,0,3:0:0:0:
224,16,22930,1,0,3:0:0:0:
244,118,23154,1,0,3:0:0:0:
225,300,23378,6,0,L|272:294,1,40,2|2,0:0|0:0,0:0:0:0:
317,204,23714,1,2,0:0:0:0:
347,229,23826,2,0,P|366:265|369:318,1,80,2|0,0:0|1:0,0:0:0:0:
466,346,24274,2,0,P|460:324|464:291,1,40,2|2,0:0|0:0,0:0:0:0:
471,268,24497,5,0,3:0:0:0:
458,164,24721,1,0,3:0:0:0:
398,78,24945,1,0,3:0:0:0:
215,54,25169,6,0,B|173:72|138:51|138:51|149:91|119:124,1,160,6|0,0:0|0:0,0:0:0:0:
47,201,25841,2,0,P|30:240|25:292,1,80,0|0,1:0|0:0,0:0:0:0:
181,366,26289,5,0,3:0:0:0:
229,266,26512,1,0,3:0:0:0:
166,183,26736,1,0,3:0:0:0:
338,245,26960,6,0,B|356:283|354:333|354:333|370:298|371:260,1,160,2|0,0:0|0:0,0:0:0:0:
376,161,27632,2,0,P|379:115|390:78,1,80,0|0,1:0|0:0,0:0:0:0:
285,65,28080,5,0,3:0:0:0:
184,89,28303,1,0,3:0:0:0:
81,71,28527,1,0,3:0:0:0:
256,165,28751,5,4,1:0:0:0:
259,199,31438,5,8,2:0:0:0:
347,67,31774,1,8,2:0:0:0:
416,210,32109,1,8,2:0:0:0:
254,304,32333,6,0,P|298:296|328:278,1,80,6|0,0:0|0:0,0:0:0:0:
259,199,32781,1,10,0:0:0:0:
185,124,33005,2,0,P|160:161|155:204,1,80,0|2,1:0|0:0,0:0:0:0:
181,378,33453,1,0,0:0:0:0:
254,304,33677,1,10,0:0:0:0:
259,199,33900,2,0,L|291:165,1,40,0|8,0:0|2:0,0:0:0:0:
322,152,34124,6,0,L|417:175,1,80,2|0,0:0|0:0,0:0:0:0:
382,67,34572,1,10,0:0:0:0:
278,59,34796,2,0,L|183:36,1,80,0|2,1:0|0:0,0:0:0:0:
124,206,35244,1,0,0:0:0:0:
45,137,35468,1,10,0:0:0:0:
26,239,35692,2,0,P|37:261|49:278,1,40,0|8,0:0|0:0,0:0:0:0:
73,302,35915,6,0,P|111:314|165:306,1,80,2|0,0:0|0:0,0:0:0:0:
244,265,36363,1,10,0:0:0:0:
325,200,36587,2,0,P|364:197|402:209,1,80,0|2,1:0|0:0,0:0:0:0:
511,359,37035,1,0,0:0:0:0:
417,312,37259,1,10,0:0:0:0:
402,209,37483,2,0,P|404:184|418:154,1,40,0|8,0:0|0:0,0:0:0:0:
426,134,37706,6,0,P|387:134|342:109,1,80,2|0,0:0|0:0,0:0:0:0:
281,38,38154,1,10,0:0:0:0:
191,90,38378,2,0,P|150:100|107:94,1,80,0|2,1:0|0:0,0:0:0:0:
50,270,38826,1,0,0:0:0:0:
135,210,39050,1,10,0:0:0:0:
242,237,39274,2,0,L|291:259,1,40,0|8,0:0|0:0,0:0:0:0:
315,269,39497,6,0,P|300:236|299:180,1,80,2|0,0:0|0:0,0:0:0:0:
402,208,39945,1,10,0:0:0:0:
506,219,40169,2,0,P|503:179|487:142,1,80,0|2,1:0|0:0,0:0:0:0:
313,83,40617,1,0,0:0:0:0:
218,126,40841,1,10,0:0:0:0:
182,223,41065,2,0,P|179:251|185:277,1,40,0|8,0:0|0:0,0:0:0:0:
191,302,41289,6,0,P|152:302|115:323,1,80,2|0,0:0|0:0,0:0:0:0:
19,285,41736,1,10,0:0:0:0:
97,216,41960,2,0,P|98:174|79:129,1,80,0|2,1:0|0:0,0:0:0:0:
240,38,42408,1,0,0:0:0:0:
321,102,42632,1,10,0:0:0:0:
425,104,42856,2,0,P|448:101|476:89,1,40,0|8,0:0|2:0,0:0:0:0:
496,72,43080,6,0,P|496:116|477:158,1,80,2|0,0:0|0:0,0:0:0:0:
405,218,43527,1,10,0:0:0:0:
307,254,43751,2,0,P|293:291|294:331,1,80,0|0,1:0|0:0,0:0:0:0:
330,151,44199,1,0,0:0:0:0:
295,52,44423,1,10,0:0:0:0:
397,71,44647,2,0,P|418:73|445:71,1,40,0|8,0:0|0:0,0:0:0:0:
472,53,44871,6,0,P|432:34|387:33,1,80,2|0,0:0|0:0,0:0:0:0:
295,52,45318,1,10,0:0:0:0:
204,103,45542,2,0,P|164:99|128:81,1,80,0|0,1:0|0:0,0:0:0:0:
127,265,45990,1,0,0:0:0:0:
212,205,46214,1,10,0:0:0:0:
298,147,46438,2,0,L|336:119,1,40,0|8,0:0|0:0,0:0:0:0:
364,102,46662,5,2,0:0:0:0:
402,123,46774,1,0,0:0:0:0:
440,145,46886,1,2,0:0:0:0:
426,247,47109,1,10,0:0:0:0:
321,249,47333,1,2,0:0:0:0:
283,270,47445,2,0,L|207:312,1,80,2|0,0:0|0:0,0:0:0:0:
174,330,47781,2,0,P|131:336|95:330,1,80,2|10,0:0|0:0,0:0:0:0:
136,233,48229,2,0,L|152:191,1,40,0|8,0:0|0:0,0:0:0:0:
150,155,48453,5,2,0:0:0:0:
150,114,48565,1,0,0:0:0:0:
150,73,48677,1,2,0:0:0:0:
250,48,48900,1,10,0:0:0:0:
350,75,49124,1,2,0:0:0:0:
381,100,49236,2,0,P|393:118|408:188,1,80,2|0,0:0|0:0,0:0:0:0:
400,212,49572,2,0,P|422:171|459:144,1,80,2|10,0:0|0:0,0:0:0:0:
502,239,50020,2,0,P|508:259|508:287,1,40,0|8,0:0|0:0,0:0:0:0:
501,317,50244,5,2,0:0:0:0:
479,351,50356,1,0,0:0:0:0:
444,370,50468,1,2,0:0:0:0:
356,313,50692,1,10,0:0:0:0:
256,345,50915,1,2,0:0:0:0:
224,369,51027,2,0,B|184:366|184:366|137:347,1,80,2|0,0:0|0:0,0:0:0:0:
130,316,51363,2,0,P|136:272|161:223,1,80,2|10,0:0|0:0,0:0:0:0:
213,155,51811,2,0,P|204:137|187:115,1,40,0|8,0:0|0:0,0:0:0:0:
189,80,52035,5,2,0:0:0:0:
228,71,52147,1,0,0:0:0:0:
267,65,52259,1,2,0:0:0:0:
370,85,52483,1,10,0:0:0:0:
446,154,52706,1,2,0:0:0:0:
406,160,52818,2,0,L|304:173,1,80,2|0,0:0|0:0,0:0:0:0:
289,182,53154,2,0,P|327:197|360:233,1,80,2|10,0:0|0:0,0:0:0:0:
269,284,53602,2,0,L|216:294,1,40,0|8,0:0|0:0,0:0:0:0:
87,314,53826,6,0,B|77:280|93:246|93:246|76:216|76:216|71:187|80:157,1,160,6|10,0:0|0:0,0:0:0:0:
153,78,54497,2,0,P|117:58|70:53,2,80,0|2|0,0:0|0:0|0:0,0:0:0:0:
188,177,55169,2,0,P|222:196|262:202,1,80,10|0,0:0|0:0,0:0:0:0:
351,176,55505,5,8,0:0:0:0:
380,150,55617,2,0,P|387:234|348:300,1,160,2|10,0:0|0:0,0:0:0:0:
253,337,56289,2,0,P|208:347|168:347,2,80,0|2|0,0:0|0:0|0:0,0:0:0:0:
350,297,56960,2,0,P|395:287|435:287,1,80,10|0,0:0|0:0,0:0:0:0:
474,206,57296,5,8,0:0:0:0:
440,184,57408,2,0,B|391:187|366:157|366:157|335:131|287:139,1,160,2|10,0:0|0:0,0:0:0:0:
188,144,58080,2,0,P|148:151|98:178,2,80,0|2|0,0:0|0:0|0:0,0:0:0:0:
292,138,58751,2,0,P|332:131|382:104,1,80,10|0,0:0|0:0,0:0:0:0:
431,46,59087,5,8,0:0:0:0:
455,77,59199,2,0,B|470:103|470:152|435:184|435:184|451:233,1,160,2|10,0:0|0:0,0:0:0:0:
364,287,59871,2,0,L|281:258,2,80,0|2|0,0:0|0:0|0:0,0:0:0:0:
462,321,60542,2,0,P|440:361|406:383,1,80,10|0,0:0|0:0,0:0:0:0:
177,320,60990,6,0,B|142:279|153:221|153:221|128:205|120:170,1,160,6|10,0:0|0:0,0:0:0:0:
143,75,61662,1,0,0:0:0:0:
234,25,61886,2,0,P|274:24|315:37,1,80,2|0,0:0|0:0,0:0:0:0:
431,175,62333,2,0,P|391:176|350:163,1,80,10|0,0:0|0:0,0:0:0:0:
321,143,62669,1,8,0:0:0:0:
359,131,62781,6,0,P|367:170|355:216,1,80,6|0,0:0|0:0,0:0:0:0:
268,261,63229,2,0,B|292:294|292:294|335:311,1,80,10|0,0:0|0:0,0:0:0:0:
159,240,63677,2,0,B|124:262|124:262|78:262,1,80,2|0,0:0|0:0,0:0:0:0:
95,159,64124,2,0,P|149:137|210:150,1,120,10|8,0:0|0:0,0:0:0:0:
233,179,64572,6,0,P|206:148|197:110,1,80,6|0,0:0|0:0,0:0:0:0:
234,13,65020,2,0,L|324:28,1,80,10|0,0:0|0:0,0:0:0:0:
489,82,65468,2,0,L|399:97,1,80,2|0,0:0|0:0,0:0:0:0:
261,204,65915,2,0,L|300:129,1,80,10|0,0:0|0:0,0:0:0:0:
329,157,66251,1,8,0:0:0:0:
365,173,66363,6,0,P|403:180|451:172,1,80,2|0,0:0|0:0,0:0:0:0:
261,204,66811,2,0,P|223:197|175:205,1,80,10|0,0:0|0:0,0:0:0:0:
97,263,67259,1,2,0:0:0:0:
110,79,67483,1,0,0:0:0:0:
69,273,67706,1,10,0:0:0:0:
261,204,67930,2,0,P|281:193|304:166,1,40,0|8,0:0|0:0,0:0:0:0:
367,85,68154,6,0,B|401:124|401:124|422:255,1,160,6|10,0:0|0:0,0:0:0:0:
389,331,68826,1,0,0:0:0:0:
310,262,69050,2,0,P|287:301|286:353,1,80,2|0,0:0|0:0,0:0:0:0:
197,172,69497,2,0,P|220:133|221:81,1,80,10|0,0:0|0:0,0:0:0:0:
203,64,69833,1,8,0:0:0:0:
186,100,69945,6,0,L|275:100,1,80,6|0,0:0|0:0,0:0:0:0:
352,159,70393,2,0,L|370:66,1,80,10|0,0:0|0:0,0:0:0:0:
465,237,70841,2,0,L|447:330,1,80,2|0,0:0|0:0,0:0:0:0:
356,363,71289,2,0,P|296:344|265:299,1,120,10|8,0:0|0:0,0:0:0:0:
304,294,71736,6,0,P|263:308|212:303,1,80,6|0,0:0|0:0,0:0:0:0:
140,248,72184,2,0,B|124:288|124:288|128:349,1,80,10|0,0:0|0:0,0:0:0:0:
126,137,72632,2,0,B|109:97|109:97|63:57,1,80,2|0,0:0|0:0,0:0:0:0:
235,178,73080,2,0,B|275:193|275:193|336:190,1,80,10|0,0:0|0:0,0:0:0:0:
351,188,73415,1,8,0:0:0:0:
390,184,73527,6,0,P|401:221|394:282,1,80,2|0,0:0|0:0,0:0:0:0:
216,284,73975,2,0,P|195:318|166:345,1,80,10|0,0:0|0:0,0:0:0:0:
115,253,74423,1,2,0:0:0:0:
256,131,74647,1,0,0:0:0:0:
310,310,74871,1,10,0:0:0:0:
230,161,75095,2,0,L|180:145,1,40,0|8,0:0|0:0,0:0:0:0:
72,90,75318,6,0,B|99:89|120:75|120:75|148:89|148:89|186:65|228:83,1,160,6|10,0:0|0:0,0:0:0:0:
324,103,75990,2,0,L|279:175,1,80,0|2,0:0|0:0,0:0:0:0:
385,194,76438,2,0,L|430:266,1,80,0|10,0:0|0:0,0:0:0:0:
346,329,76886,2,0,L|321:290,1,40,0|8,0:0|0:0,0:0:0:0:
303,261,77109,6,0,B|252:285|201:261|201:261|190:285|200:314,1,160,2|10,0:0|0:0,0:0:0:0:
104,349,77781,2,0,P|82:324|24:304,1,80,0|2,0:0|0:0,0:0:0:0:
105,224,78229,2,0,P|127:190|167:166,1,80,0|10,0:0|0:0,0:0:0:0:
246,110,78677,2,0,P|269:98|280:87,1,40,0|8,0:0|0:0,0:0:0:0:
294,51,78900,6,0,P|259:112|301:187,1,160,2|10,0:0|0:0,0:0:0:0:
333,283,79572,2,0,P|322:321|327:364,1,80,0|2,0:0|0:0,0:0:0:0:
426,331,80020,2,0,P|437:293|432:250,1,80,0|10,0:0|0:0,0:0:0:0:
404,152,80468,2,0,P|397:131|396:101,1,40,0|8,0:0|0:0,0:0:0:0:
403,73,80692,6,0,P|374:96|325:107,1,80,6|0,0:0|0:0,0:0:0:0:
229,95,81139,1,10,0:0:0:0:
136,47,81363,2,0,P|97:56|66:80,1,80,0|2,0:0|0:0,0:0:0:0:
144,150,81811,2,0,P|123:184|118:223,1,80,0|10,0:0|0:0,0:0:0:0:
222,219,82259,2,0,P|231:257|252:284,1,40,0|8,0:0|0:0,0:0:0:0:
262,284,82483,6,0,B|203:263|152:283|152:283|129:270|121:238,1,160,6|10,0:0|0:0,0:0:0:0:
151,141,83154,2,0,P|109:137|64:153,1,80,0|2,0:0|0:0,0:0:0:0:
0,74,83602,2,0,P|42:72|82:51,1,80,0|10,0:0|0:0,0:0:0:0:
172,17,84050,2,0,P|196:26|220:28,1,40,0|8,0:0|0:0,0:0:0:0:
250,25,84274,6,0,P|251:103|172:149,1,160,2|10,0:0|0:0,0:0:0:0:
167,249,84945,2,0,P|207:246|247:262,1,80,0|2,0:0|0:0,0:0:0:0:
302,173,85393,2,0,P|332:199|349:239,1,80,0|10,0:0|0:0,0:0:0:0:
321,336,85841,2,0,P|342:341|371:339,1,40,0|8,0:0|0:0,0:0:0:0:
400,336,86065,6,0,B|427:328|438:318|438:318|430:245|481:203,1,160,2|10,0:0|0:0,0:0:0:0:
420,120,86736,2,0,L|427:32,1,80,0|2,0:0|0:0,0:0:0:0:
325,67,87184,2,0,L|227:75,1,80,0|10,0:0|0:0,0:0:0:0:
163,136,87632,2,0,L|153:186,1,40,0|8,0:0|0:0,0:0:0:0:
160,215,87856,6,0,P|140:177|101:149,1,80,2|0,0:0|0:0,0:0:0:0:
21,205,88303,1,10,0:0:0:0:
19,308,88527,2,0,P|32:349|79:388,1,80,0|2,0:0|0:0,0:0:0:0:
136,307,88975,2,0,P|174:326|234:321,1,80,0|10,0:0|0:0,0:0:0:0:
296,268,89423,2,0,P|337:255|361:234,1,40,0|8,0:0|0:0,0:0:0:0:
366,233,89647,6,0,B|336:260|329:301|329:301|302:270|250:265,1,160,2|10,0:0|0:0,0:0:0:0:
173,205,90318,2,0,P|129:196|99:174,1,80,0|2,1:0|0:0,0:0:0:0:
265,95,90766,2,0,P|309:104|339:126,1,80,0|10,1:0|0:0,0:0:0:0:
366,233,91214,2,0,P|390:250|423:256,1,40,0|8,0:0|0:0,0:0:0:0:
440,253,91438,6,0,B|402:287|350:276|350:276|352:313|325:341,1,160,2|10,0:0|0:0,0:0:0:0:
246,273,92109,2,0,B|205:275|205:275|151:306,1,80,0|2,1:0|0:0,0:0:0:0:
10,202,92557,2,0,B|51:200|51:200|105:169,1,80,0|10,1:0|0:0,0:0:0:0:
170,121,93005,2,0,P|194:118|214:120,1,40,0|8,0:0|0:0,0:0:0:0:
247,133,93229,6,0,P|267:61|342:24,1,160,2|10,0:0|0:0,0:0:0:0:
420,88,93900,2,0,P|389:113|339:126,1,80,0|2,1:0|0:0,0:0:0:0:
242,275,94348,2,0,P|273:250|323:237,1,80,0|10,1:0|0:0,0:0:0:0:
417,265,94796,2,0,P|438:287|447:311,1,40,0|8,0:0|0:0,0:0:0:0:
448,335,95020,6,0,L|463:240,1,80,6|0,0:0|1:0,0:0:0:0:
411,163,95468,1,10,0:0:0:0:
315,121,95692,2,0,B|277:106|277:106|234:108,1,80,0|2,1:0|0:0,0:0:0:0:
80,203,96139,2,0,B|118:218|118:218|161:216,1,80,0|10,1:0|0:0,0:0:0:0:
261,211,96587,2,0,L|265:260,1,40,0|8,0:0|0:0,0:0:0:0:
268,291,96811,6,0,B|309:295|345:273|345:273|386:281|431:261,1,160,6|10,0:0|0:0,0:0:0:0:
375,171,97483,2,0,P|376:134|403:79,1,80,0|2,1:0|0:0,0:0:0:0:
208,108,97930,2,0,P|188:81|140:53,1,80,0|10,1:0|0:0,0:0:0:0:
115,155,98378,2,0,P|110:185|115:216,1,40,0|8,0:0|0:0,0:0:0:0:
119,235,98602,6,0,B|156:212|156:212|191:218|191:218|236:213|263:181,1,160,2|10,0:0|0:0,0:0:0:0:
301,87,99274,2,0,P|337:109|365:159,1,80,0|2,1:0|0:0,0:0:0:0:
414,314,99721,2,0,P|378:292|351:242,1,80,0|10,1:0|0:0,0:0:0:0:
263,312,100169,2,0,P|267:337|259:376,1,40,0|8,0:0|0:0,0:0:0:0:
228,336,100393,5,4,0:0:0:0:
149,143,100841,1,0,1:0:0:0:
187,239,101065,1,0,1:0:0:0:
114,45,101512,1,0,1:0:0:0:
149,143,101736,2,0,P|189:135|230:146,1,80,0|0,0:0|1:0,0:0:0:0:
341,288,102184,5,0,3:0:0:0:
405,205,102408,2,0,L|452:137,1,80,0|0,1:0|0:0,0:0:0:0:
403,46,102856,2,0,L|355:114,1,80,0|0,1:0|0:0,0:0:0:0:
295,195,103303,1,0,1:0:0:0:
233,278,103527,1,0,3:0:0:0:
336,292,103751,1,0,0:0:0:0:
161,124,103975,6,0,B|117:191|117:191|111:284,1,160,6|10,0:0|0:0,0:0:0:0:
187,344,104647,1,0,0:0:0:0:
277,293,104871,2,0,L|285:204,1,80,2|0,0:0|0:0,0:0:0:0:
381,56,105318,2,0,L|373:145,1,80,10|0,0:0|0:0,0:0:0:0:
397,168,105654,1,8,0:0:0:0:
410,131,105766,6,0,L|320:120,1,80,6|0,0:0|0:0,0:0:0:0:
231,155,106214,2,0,P|253:190|289:216,1,80,10|0,0:0|0:0,0:0:0:0:
121,124,106662,2,0,P|82:139|38:139,1,80,2|0,0:0|0:0,0:0:0:0:
100,336,107109,2,0,B|137:294|111:262|146:227,1,120,10|8,0:0|0:0,0:0:0:0:
180,213,107557,6,0,P|215:186|234:146,1,80,6|0,0:0|0:0,0:0:0:0:
274,59,108005,2,0,B|235:50|235:50|189:58,1,80,10|0,0:0|0:0,0:0:0:0:
380,42,108453,2,0,B|411:16|411:16|455:3,1,80,2|0,0:0|0:0,0:0:0:0:
349,154,108900,2,0,B|363:191|363:191|363:237,1,80,10|0,0:0|0:0,0:0:0:0:
346,267,109236,1,8,0:0:0:0:
327,231,109348,6,0,P|364:224|417:235,1,80,2|0,0:0|0:0,0:0:0:0:
228,286,109796,2,0,P|191:293|138:282,1,80,10|0,0:0|0:0,0:0:0:0:
185,190,110244,1,2,0:0:0:0:
353,227,110468,1,0,0:0:0:0:
150,205,110692,1,10,0:0:0:0:
324,132,110915,2,0,L|371:112,1,40,0|8,0:0|0:0,0:0:0:0:
463,70,111139,6,0,B|418:149|483:141|431:224,1,160,6|10,0:0|0:0,0:0:0:0:
342,276,111811,1,0,0:0:0:0:
238,284,112035,2,0,B|210:288|210:288|160:332,1,80,2|0,0:0|0:0,0:0:0:0:
196,140,112483,2,0,B|224:136|224:136|274:92,1,80,10|0,0:0|0:0,0:0:0:0:
291,74,112818,1,8,0:0:0:0:
251,66,112930,6,0,P|271:99|314:120,1,80,6|0,0:0|0:0,0:0:0:0:
411,116,113378,2,0,L|446:24,1,80,10|0,0:0|0:0,0:0:0:0:
473,223,113826,2,0,L|508:315,1,80,2|0,0:0|0:0,0:0:0:0:
339,213,114274,2,0,L|213:266,1,120,10|8,0:0|0:0,0:0:0:0:
256,287,114721,6,0,B|262:248|262:248|256:203,1,80,6|0,0:0|0:0,0:0:0:0:
186,130,115169,2,0,P|163:160|152:211,1,80,10|0,0:0|0:0,0:0:0:0:
325,130,115617,2,0,P|349:160|360:211,1,80,2|0,0:0|0:0,0:0:0:0:
257,365,116065,2,0,B|248:338|269:312|254:284,1,80,10|0,0:0|0:0,0:0:0:0:
240,248,116400,1,8,0:0:0:0:
216,280,116512,6,0,P|256:286|301:278,1,80,2|0,0:0|0:0,0:0:0:0:
130,197,116960,2,0,P|90:191|45:199,1,80,10|0,0:0|0:0,0:0:0:0:
87,98,117408,2,0,L|100:9,1,80,2|0,0:0|0:0,0:0:0:0:
130,197,117856,2,0,L|118:285,1,80,10|0,0:0|0:0,0:0:0:0:
169,360,118303,6,0,B|194:364|219:353|219:353|251:360|251:360|277:335|277:335|314:349|353:335,1,180.000006866455,4|0,0:0|0:0,0:0:0:0:
412,299,119199,1,2,0:0:0:0:
428,212,119423,1,2,0:0:0:0:
360,151,119647,1,2,0:0:0:0:
385,67,119871,1,2,0:0:0:0:
276,177,120095,6,0,B|235:177|235:177|157:145,1,120,2|0,0:0|0:0,0:0:0:0:
125,133,120542,2,0,P|132:177|121:219,1,80,2|2,0:0|0:0,0:0:0:0:
58,270,120990,1,0,0:0:0:0:
140,300,121214,1,0,0:0:0:0:
300,337,121438,2,0,P|343:330|378:298,1,80,2|0,0:0|0:0,0:0:0:0:
276,177,121886,6,0,L|308:256,1,80,2|0,0:0|0:0,0:0:0:0:
146,249,122333,2,0,L|178:175,1,80,2|2,0:0|0:0,0:0:0:0:
108,327,122781,1,0,3:0:0:0:
195,319,123005,1,0,3:0:0:0:
276,177,123229,2,0,P|316:170|370:186,1,80,2|0,0:0|0:0,0:0:0:0:
328,338,123677,6,0,L|314:253,1,80,2|0,2:0|2:0,2:0:0:0:
289,98,124124,2,0,L|275:183,1,80,2|0,2:0|2:0,2:0:0:0:
328,338,124572,1,2,0:0:0:0:
344,251,124796,1,2,0:0:0:0:
413,305,125020,1,2,0:0:0:0:
328,338,125244,1,2,0:0:0:0:
233,352,125468,6,0,B|207:353|185:345|185:345|164:351|148:367|148:367|98:380|57:342,1,180.000006866455,4|0,0:0|0:0,0:0:0:0:
123,283,126363,1,2,0:0:0:0:
203,248,126587,1,2,0:0:0:0:
215,160,126811,1,2,0:0:0:0:
269,90,127035,1,2,0:0:0:0:
371,212,127259,6,0,B|357:229|339:238|339:238|337:290|382:320,1,120,2|0,0:0|0:0,0:0:0:0:
402,333,127706,2,0,L|322:351,1,80,2|2,0:0|0:0,0:0:0:0:
239,323,128154,1,0,0:0:0:0:
168,277,128378,1,0,0:0:0:0:
71,154,128602,2,0,L|52:259,1,80,2|0,0:0|0:0,0:0:0:0:
165,355,129050,6,0,P|159:305|177:264,1,80,2|0,0:0|0:0,0:0:0:0:
272,171,129497,2,0,P|288:134|288:94,1,80,2|2,0:0|0:0,0:0:0:0:
255,256,129945,1,0,3:0:0:0:
340,233,130169,1,0,3:0:0:0:
452,132,130393,2,0,B|471:168|471:168|478:222,1,80,2|0,0:0|0:0,0:0:0:0:
412,262,130841,6,0,B|369:254|369:254|332:227,1,80,2|0,0:0|0:0,0:0:0:0:
192,296,131289,2,0,B|226:277|226:277|259:240,1,80,2|0,0:0|0:0,0:0:0:0:
237,88,131736,1,2,0:0:0:0:
283,164,131960,1,2,0:0:0:0:
373,164,132184,1,2,0:0:0:0:
424,90,132408,1,2,0:0:0:0:
329,80,132632,6,0,B|276:104|217:96|186:48|186:48|146:55|146:55|107:50|107:50|66:63,1,280,2|0,0:0|0:0,0:0:0:0:
34,156,134423,2,0,B|69:180|71:223|71:223|146:194|146:194|181:215|181:215|218:205|218:205|269:233,1,280,2|0,0:0|0:0,0:0:0:0:
341,274,136214,6,0,B|362:238|350:195|350:195|387:169|388:130|388:130|359:102|359:102|368:63|368:63|359:25,1,280,2|0,0:0|0:0,0:0:0:0:
266,61,138005,2,0,B|228:67|197:99|197:99|200:61|233:30|233:30|194:22|194:22|155:29|155:29|112:22,1,280,2|0,0:0|0:0,0:0:0:0:
57,104,139796,6,0,B|72:144|59:182|59:182|47:219|57:260|57:260|80:263|98:256|98:256|133:276|133:276|183:265,1,280
263,307,141587,2,0,B|280:270|267:228|267:228|310:214|327:179|327:179|298:150|298:150|295:112|295:112|259:81,1,280,2|0,0:0|0:0,0:0:0:0:
165,74,143378,6,0,B|170:30|204:7|204:7|170:30|128:26|128:26|96:51|96:51|57:49|57:49|25:78,1,280
25,176,145169,2,0,B|42:215|79:233|79:233|107:203|146:195|146:195|184:213|184:213|222:201|222:201|259:216,1,280
333,295,146960,5,6,1:0:0:0:
333,295,147632,1,0,1:0:0:0:
352,111,148527,1,0,1:0:0:0:
344,201,148751,5,2,1:0:0:0:
344,201,149423,1,0,1:0:0:0:
361,20,150318,1,0,1:0:0:0:
352,111,150542,5,2,1:0:0:0:
352,111,151214,1,0,1:0:0:0:
163,80,152109,1,0,1:0:0:0:
258,94,152333,5,2,1:0:0:0:
258,94,153005,1,0,1:0:0:0:
219,279,153900,1,0,1:0:0:0:
239,186,154124,5,2,1:0:0:0:
239,186,154796,1,0,1:0:0:0:
49,248,155692,1,0,1:0:0:0:
147,215,155915,5,2,1:0:0:0:
147,215,156587,1,0,1:0:0:0:
78,19,157483,1,0,1:0:0:0:
112,117,157706,5,2,1:0:0:0:
112,117,158378,1,0,1:0:0:0:
313,161,159274,1,0,1:0:0:0:
213,138,159497,5,2,1:0:0:0:
213,138,160169,1,0,1:0:0:0:
12,96,161065,1,0,1:0:0:0:
112,117,161289,5,6,0:0:0:0:
112,117,161960,2,0,L|108:137,4,20,0|0|0|0|0,3:0|3:0|3:0|3:0|3:0,3:0:0:0:
213,93,162408,1,0,3:0:0:0:
313,121,162632,1,0,3:0:0:0:
299,304,163080,5,6,0:0:0:0:
197,281,163303,2,0,L|172:275,4,20,0|0|0|0|0,3:0|3:0|3:0|3:0|3:0,3:0:0:0:
272,208,163751,2,0,L|297:214,4,20,0|0|0|0|0,3:0|3:0|3:0|3:0|3:0,3:0:0:0:
223,115,164199,1,0,3:0:0:0:
121,139,164423,1,0,3:0:0:0:
97,270,164871,5,6,0:0:0:0:
26,104,165318,2,0,B|88:50,1,80,0|0,3:0|3:0,3:0:0:0:
191,31,165766,1,0,3:0:0:0:
191,31,166214,1,0,3:0:0:0:
294,56,166438,1,0,3:0:0:0:
391,195,166662,5,6,0:0:0:0:
391,195,167109,2,0,L|303:207,1,80,0|0,3:0|3:0,3:0:0:0:
208,221,167557,1,0,3:0:0:0:
105,237,167781,2,0,L|111:269,4,20,0|0|0|0|0,3:0|3:0|3:0|3:0|3:0,3:0:0:0:
140,138,168229,1,0,3:0:0:0:
311,205,168453,5,6,0:0:0:0:
311,205,169348,1,0,3:0:0:0:
261,20,170244,5,6,0:0:0:0:
261,20,171139,1,0,3:0:0:0:
255,211,172035,5,6,3:0:0:0:
255,50,172483,1,0,3:0:0:0:
174,187,172930,1,2,3:0:0:0:
334,187,173378,1,0,3:0:0:0:
413,48,173826,5,2,3:0:0:0:
315,10,174050,1,0,3:0:0:0:
219,50,174274,1,2,3:0:0:0:
181,146,174497,1,0,3:0:0:0:
89,195,174721,5,2,3:0:0:0:
77,156,174833,1,2,3:0:0:0:
81,116,174945,1,2,3:0:0:0:
88,76,175057,1,2,3:0:0:0:
75,38,175169,2,0,L|51:56,8,20,2|2|2|2|2|2|2|0|4,3:0|3:0|3:0|3:0|3:0|3:0|3:0|3:0|0:0,3:0:0:0:
256,192,175729,12,0,176960,0:0:0:0:
255,62,177408,6,0,B|267:96|267:96|257:128|257:128|274:172|256:223,1,160,6|10,0:0|0:0,0:0:0:0:
191,297,178080,1,0,0:0:0:0:
0,257,178303,1,2,0:0:0:0:
164,175,178527,1,0,0:0:0:0:
17,225,178751,1,10,0:0:0:0:
90,56,178975,2,0,L|117:91,1,40,0|8,0:0|0:0,0:0:0:0:
202,192,179199,6,0,P|243:200|294:185,1,80,6|0,0:0|0:0,0:0:0:0:
243,100,179647,2,0,L|243:19,1,80,10|0,0:0|0:0,0:0:0:0:
298,183,180095,2,0,P|322:215|354:240,1,80,2|0,0:0|0:0,0:0:0:0:
130,241,180542,2,0,B|167:215|185:184|185:184|185:209|193:226,1,120,10|8,0:0|0:0,0:0:0:0:
206,260,180990,6,0,P|177:294|167:331,1,80,6|0,0:0|0:0,0:0:0:0:
268,340,181438,2,0,P|304:346|353:337,1,80,10|0,0:0|0:0,0:0:0:0:
416,261,181886,1,2,0:0:0:0:
372,166,182109,1,0,0:0:0:0:
307,246,182333,2,0,P|279:212|269:176,1,80,10|0,0:0|0:0,0:0:0:0:
294,146,182669,1,8,0:0:0:0:
308,183,182781,6,0,P|267:190|225:184,1,80,2|0,0:0|0:0,0:0:0:0:
60,132,183229,2,0,P|101:125|143:131,1,80,10|0,0:0|0:0,0:0:0:0:
229,185,183677,1,2,0:0:0:0:
278,357,183900,1,0,0:0:0:0:
259,163,184124,1,10,0:0:0:0:
111,275,184348,2,0,L|161:271,1,40,0|8,0:0|0:0,0:0:0:0:
302,258,184572,6,0,B|352:232|361:176|361:176|395:177|423:158,1,160,6|10,0:0|0:0,0:0:0:0:
365,75,185244,1,0,0:0:0:0:
463,255,185468,1,2,0:0:0:0:
394,44,185692,1,0,0:0:0:0:
257,162,185915,1,10,0:0:0:0:
423,15,186139,2,0,L|383:57,1,40,0|8,0:0|0:0,0:0:0:0:
289,135,186363,6,0,P|257:132|216:106,1,80,6|0,0:0|0:0,0:0:0:0:
115,131,186811,2,0,B|93:166|93:166|42:194,1,80,10|0,0:0|0:0,0:0:0:0:
216,281,187259,2,0,B|245:309|245:309|262:365,1,80,2|0,0:0|0:0,0:0:0:0:
385,215,187706,2,0,B|419:191|419:191|468:187|499:227,1,120,10|8,0:0|0:0,0:0:0:0:
491,254,188154,6,0,P|469:219|466:171,1,80,6|0,0:0|0:0,0:0:0:0:
427,81,188602,2,0,P|384:89|346:82,1,80,10|0,0:0|0:0,0:0:0:0:
248,53,189050,1,2,0:0:0:0:
145,71,189274,1,0,0:0:0:0:
168,172,189497,2,0,B|171:213|171:213|158:265,1,80,10|0,0:0|0:0,0:0:0:0:
126,270,189833,1,8,0:0:0:0:
133,230,189945,6,0,P|171:214|214:216,1,80,2|0,0:0|0:0,0:0:0:0:
383,273,190393,2,0,P|422:273|459:257,1,80,10|0,0:0|0:0,0:0:0:0:
406,177,190841,1,2,0:0:0:0:
209,214,191065,1,0,0:0:0:0:
379,168,191289,1,10,0:0:0:0:
187,114,191512,2,0,P|163:123|128:153,1,40,0|8,0:0|0:0,0:0:0:0:
83,259,191736,6,0,B|101:266|124:265|124:265|150:308|195:322|235:310,1,160,6|10,0:0|0:0,0:0:0:0:
319,268,192408,1,0,0:0:0:0:
300,96,192632,1,2,0:0:0:0:
362,290,192856,1,0,0:0:0:0:
209,214,193080,1,10,0:0:0:0:
341,118,193303,2,0,P|356:148|359:173,1,40,0|8,0:0|0:0,0:0:0:0:
362,290,193527,6,0,P|404:282|449:247,1,80,6|0,0:0|0:0,0:0:0:0:
476,166,193975,2,0,B|475:125|475:125|489:86,1,80,10|0,0:0|0:0,0:0:0:0:
341,118,194423,2,0,B|299:116|299:116|256:131,1,80,2|0,0:0|0:0,0:0:0:0:
182,289,194871,2,0,B|160:261|160:261|169:209|126:173,1,120,10|8,0:0|0:0,0:0:0:0:
102,205,195318,6,0,B|142:215|142:215|186:212,1,80,6|0,0:0|0:0,0:0:0:0:
269,145,195766,2,0,P|290:184|291:232,1,80,10|0,0:0|0:0,0:0:0:0:
258,317,196214,1,2,0:0:0:0:
360,297,196438,1,0,0:0:0:0:
401,201,196662,2,0,P|410:162|435:131,1,80,10|0,0:0|0:0,0:0:0:0:
474,133,196997,1,8,0:0:0:0:
501,161,197109,6,0,B|462:171|462:171|415:169,1,80,2|0,0:0|0:0,0:0:0:0:
255,97,197557,2,0,B|294:87|294:87|341:89,1,80,10|0,0:0|0:0,0:0:0:0:
451,78,198005,1,2,0:0:0:0:
305,182,198229,1,0,0:0:0:0:
438,54,198453,1,10,0:0:0:0:
370,294,198677,2,0,L|326:319,1,40,0|8,0:0|0:0,0:0:0:0:
191,360,198900,6,0,B|181:317|205:281|205:281|188:242|140:237,1,160,6|10,0:0|0:0,0:0:0:0:
42,268,199572,1,0,0:0:0:0:
86,362,199796,1,2,0:0:0:0:
292,341,200020,1,0,0:0:0:0:
112,330,200244,1,10,0:0:0:0:
213,160,200468,2,0,P|234:153|263:154,1,40,0|8,0:0|0:0,0:0:0:0:
396,210,200692,6,0,B|412:170|412:170|416:114,1,80,6|0,0:0|0:0,0:0:0:0:
358,46,201139,2,0,P|319:50|274:82,1,80,10|0,0:0|0:0,0:0:0:0:
96,37,201587,2,0,P|86:75|101:128,1,80,2|0,0:0|0:0,0:0:0:0:
1,271,202035,2,0,P|33:293|114:290,1,120,10|8,0:0|0:0,0:0:0:0:
150,281,202483,6,0,B|187:293|187:293|223:328,1,80,6|0,0:0|0:0,0:0:0:0:
316,296,202930,2,0,L|327:205,1,80,10|0,0:0|0:0,0:0:0:0:
339,112,203378,1,2,0:0:0:0:
350,8,203602,1,0,0:0:0:0:
441,62,203826,2,0,P|411:95|369:113,1,80,10|0,0:0|0:0,0:0:0:0:
339,112,204162,1,8,0:0:0:0:
298,110,204274,6,0,L|220:163,1,80,2|0,0:0|0:0,0:0:0:0:
41,216,204721,2,0,L|119:163,1,80,10|0,0:0|0:0,0:0:0:0:
231,154,205169,1,2,0:0:0:0:
197,335,205393,1,0,0:0:0:0:
41,216,205617,1,10,0:0:0:0:
267,257,205841,1,0,0:0:0:0:
189,35,206065,5,4,0:0:0:0:
133,74,206289,1,0,0:0:0:0:
173,129,206512,1,0,0:0:0:0:
231,92,206736,1,0,0:0:0:0:
329,182,207184,1,0,3:0:0:0:
388,149,207408,1,0,3:0:0:0:
415,86,207632,1,0,3:0:0:0:
456,140,207856,6,0,L|485:178,1,40,2|0,0:0|0:0,0:0:0:0:
451,306,208303,1,2,0:0:0:0:
409,250,208527,2,0,L|374:203,1,40,0|0,1:0|0:0,0:0:0:0:
252,249,208975,1,0,3:0:0:0:
196,287,209199,1,0,3:0:0:0:
166,348,209423,1,0,3:0:0:0:
128,291,209647,6,0,L|103:249,1,40,2|0,0:0|0:0,0:0:0:0:
139,123,210095,1,2,0:0:0:0:
172,182,210318,2,0,L|194:222,1,40,0|0,1:0|0:0,0:0:0:0:
322,253,210766,1,0,3:0:0:0:
351,191,210990,1,0,3:0:0:0:
377,128,211214,1,0,3:0:0:0:
377,59,211438,6,0,P|352:63|333:77,1,40,6|0,0:0|0:0,0:0:0:0:
236,158,211886,2,0,P|219:146|200:140,1,40,2|0,0:0|0:0,0:0:0:0:
72,183,212333,1,2,0:0:0:0:
39,123,212557,1,2,0:0:0:0:
102,97,212781,1,2,0:0:0:0:
143,43,213005,1,2,0:0:0:0:
208,25,213229,6,0,B|247:33|247:33|285:25|285:25|309:36|322:56,1,120,2|0,0:0|0:0,0:0:0:0:
351,183,214124,1,2,0:0:0:0:
412,153,214348,1,2,0:0:0:0:
443,92,214572,1,2,0:0:0:0:
479,149,214796,1,2,0:0:0:0:
477,217,215020,1,2,0:0:0:0:
356,323,215468,6,0,P|369:306|376:284,1,40,2|0,0:0|0:0,0:0:0:0:
258,220,215915,2,0,P|245:237|237:258,1,40,2|0,0:0|0:0,0:0:0:0:
235,322,216363,1,2,0:0:0:0:
81,278,216811,5,2,0:0:0:0:
196,168,217259,2,0,P|203:143|201:115,1,40,2|0,0:0|0:0,0:0:0:0:
178,65,217706,1,2,0:0:0:0:
237,31,217930,1,2,0:0:0:0:
304,38,218154,1,2,0:0:0:0:
294,201,218602,6,0,P|276:184|265:164,1,40,2|0,0:0|0:0,0:0:0:0:
397,219,219050,2,0,P|390:244|375:268,1,40,2|0,0:0|0:0,0:0:0:0:
328,295,219497,1,2,0:0:0:0:
267,264,219721,1,2,0:0:0:0:
294,201,219945,1,2,0:0:0:0:
280,134,220169,1,2,0:0:0:0:
222,97,220393,5,4,1:0:0:0:
256,192,220617,12,0,225766,0:0:0:0:
