osu file format v14

[General]
AudioFilename: audio.mp3
AudioLeadIn: 0
PreviewTime: 34308
Countdown: 1
SampleSet: None
StackLeniency: 0.7
Mode: 0
LetterboxInBreaks: 0
WidescreenStoryboard: 1

[Editor]
Bookmarks: 17529
DistanceSpacing: 1.4
BeatDivisor: 3
GridSize: 4
TimelineZoom: 1

[Metadata]
Title:Lewandowski, gol dla Polski!
TitleUnicode:Lewandowski, gol dla Polski!
Artist:Krzysztof Krawczyk
ArtistUnicode:Krzysztof Krawczyk
Creator:olsonn
Version:Aosek's Pazdan
Source:
Tags:lewandowski football krzysztof krawczyk
BeatmapID:1900834
BeatmapSetID:909212

[Difficulty]
HPDrainRate:7
CircleSize:4.2
OverallDifficulty:8.8
ApproachRate:9.1
SliderMultiplier:1.99999990463257
SliderTickRate:1

[Events]
//Background and Video events
0,0,"uy5s1ef19v257pu671a53areputp1cne.png",0,0
//Break Periods
//Storyboard Layer 0 (Background)
//Storyboard Layer 1 (Fail)
//Storyboard Layer 2 (Pass)
//Storyboard Layer 3 (Foreground)
//Storyboard Sound Samples

[TimingPoints]
241,508.474576271186,4,2,0,10,1,0
241,-111.111111111111,4,2,0,10,0,0
749,-76.9230769230769,4,1,0,30,0,0
8885,-71.4285714285714,4,1,0,30,0,0
16342,-142.857142857143,4,1,0,20,0,0
16851,-142.857142857143,4,1,0,10,0,0
17020,-76.9230769230769,4,1,0,30,0,0
17120,-76.9230769230769,4,1,0,30,0,0
24139,-76.9230769230769,4,1,0,10,0,0
25156,-76.9230769230769,4,1,0,30,0,0
34308,-166.666666666667,4,1,0,30,0,0
35325,-125,4,1,0,30,0,0
36342,-66.6666666666667,4,1,0,40,0,1
52613,-66.6666666666667,4,1,0,40,0,0
53122,-66.6666666666667,4,1,0,35,0,0
53630,-66.6666666666667,4,1,0,30,0,0
54139,-66.6666666666667,4,1,0,25,0,0
54647,-66.6666666666667,4,1,0,20,0,0
55156,-66.6666666666667,4,1,0,15,0,0
55664,-66.6666666666667,4,1,0,10,0,0

[Colours]
Combo1 : 255,255,255
Combo2 : 255,0,0

[HitObjects]
72,115,241,6,2,L|156:135,1,59.9999953079226
150,137,579,1,0,0:0:0:0:
248,136,749,6,2,P|240:93|256:51,1,86.6666585667933
334,152,1088,1,0,0:0:0:0:
179,272,1257,6,2,P|146:300|90:302,1,86.6666585667933
141,189,1596,1,0,0:0:0:0:
323,268,1766,6,2,B|332:281|263:319|251:225|353:127|324:392|386:206|456:303,1,173.333317133587
451,192,2274,5,2,0:0:0:0:
399,66,2444,1,0,0:0:0:0:
228,190,2613,1,0,0:0:0:0:
390,340,2783,2,2,P|432:339|470:317,1,86.6666585667933
314,56,3122,5,0,0:0:0:0:
314,242,3291,1,2,0:0:0:0:
205,91,3461,1,0,0:0:0:0:
381,148,3630,1,0,0:0:0:0:
216,227,3800,2,2,P|182:242|204:213,1,86.6666585667933
140,337,4139,1,0,0:0:0:0:
232,305,4308,6,2,L|342:259,1,86.6666585667933
356,250,4647,1,0,0:0:0:0:
415,62,4817,6,2,P|372:68|338:94,1,86.6666585667933
416,184,5156,1,0,0:0:0:0:
197,242,5325,2,2,P|203:199|229:165,1,86.6666585667933
310,244,5664,1,0,0:0:0:0:
251,304,5834,6,2,B|241:370|241:370|231:353,1,86.6666585667933
166,258,6173,1,0,0:0:0:0:
87,193,6342,2,2,B|96:126|96:126|106:143,1,86.6666585667933
169,245,6681,1,0,0:0:0:0:
211,103,6851,6,2,L|284:203,1,86.6666585667933
326,239,7190,1,0,0:0:0:0:
346,129,7359,2,2,P|343:89|313:41,1,86.6666585667933
211,242,7699,1,0,0:0:0:0:
435,346,7868,1,8,0:0:0:0:
443,356,8207,5,8,0:0:0:0:
336,190,8377,1,10,0:0:0:0:
198,311,8546,1,8,0:0:0:0:
496,235,8716,1,8,0:0:0:0:
170,62,8885,6,2,P|133:96|124:159,1,93.3333260345462
113,218,9224,1,8,0:0:0:0:
295,205,9393,2,0,P|279:248|244:278,1,93.3333260345462
162,346,9732,1,8,0:0:0:0:
133,162,9902,2,2,P|184:154|237:189,1,93.3333260345462
257,202,10240,1,8,0:0:0:0:
356,321,10410,5,2,0:0:0:0:
397,152,10579,1,2,0:0:0:0:
226,209,10749,1,2,0:0:0:0:
421,256,10918,2,2,L|526:276,1,93.3333260345462
328,184,11257,5,8,0:0:0:0:
372,347,11427,1,2,0:0:0:0:
271,86,11596,5,8,0:0:0:0:
235,229,11766,1,2,0:0:0:0:
124,132,11935,2,2,B|25:60|25:60,1,93.3333260345462
81,199,12274,5,8,0:0:0:0:
81,199,12444,2,0,P|105:240|165:266,1,93.3333260345462
195,274,12783,1,0,0:0:0:0:
280,109,12952,6,2,B|286:158|286:158|350:248,1,93.3333260345462
382,118,13291,1,8,0:0:0:0:
187,328,13461,6,2,B|226:358|226:358|334:376,1,93.3333260345462
262,247,13800,1,8,0:0:0:0:
142,113,13969,6,2,P|113:147|143:157,1,93.3333260345462
237,162,14308,1,8,0:0:0:0:
421,172,14478,6,2,P|453:148|419:128,1,93.3333260345462
341,125,14817,1,8,0:0:0:0:
250,235,14986,6,2,L|280:353,1,93.3333260345462
160,170,15325,1,8,0:0:0:0:
300,35,15495,6,2,L|256:152,1,93.3333260345462
245,238,15834,1,8,0:0:0:0:
97,167,16003,1,8,0:0:0:0:
96,167,16342,5,0,0:0:0:0:
422,190,16512,2,0,P|394:175|424:187,1,93.3333260345462
279,188,17020,5,0,0:0:0:0:
242,337,17190,2,0,L|190:267,1,86.6666585667933
131,145,17529,2,0,L|86:223,1,86.6666585667933
103,340,17868,5,0,0:0:0:0:
212,133,18037,2,4,P|275:125|314:227,1,173.333317133587
352,285,18546,2,4,P|288:292|249:190,1,173.333317133587
306,80,19054,6,0,L|314:166,1,86.6666585667933
320,209,19393,1,0,0:0:0:0:
248,32,19563,1,0,0:0:0:0:
126,149,19732,1,0,0:0:0:0:
319,206,19902,1,0,0:0:0:0:
141,270,20071,6,4,P|181:320|255:256,1,173.333317133587
316,223,20579,2,4,P|275:172|201:236,1,173.333317133587
393,318,21088,6,0,B|401:302|401:302|396:289|396:289|405:277|405:277|400:261|400:261|408:253|408:253|410:220,1,86.6666585667933
419,165,21427,1,0,0:0:0:0:
367,38,21596,6,0,L|336:167,1,86.6666585667933
324,215,21935,1,0,0:0:0:0:
267,0,22105,6,4,P|229:85|242:164,1,173.333317133587
244,314,22613,6,4,P|262:271|256:231,1,86.6666585667933
241,161,22952,1,8,0:0:0:0:
135,345,23122,6,0,P|129:302|148:264,1,86.6666585667933
194,183,23461,1,0,0:0:0:0:
33,232,23630,6,0,P|59:197|99:183,1,86.6666585667933
214,158,23969,1,0,0:0:0:0:
357,291,24139,6,0,L|311:256,3,43.3333292833966
363,275,24478,6,0,L|355:217,3,43.3333292833966
390,267,24817,6,0,L|425:221,3,43.3333292833966
352,120,25156,5,0,0:0:0:0:
421,104,25326,2,0,P|459:123|480:160,1,86.6666585667933
304,205,25664,2,0,P|265:185|244:148,1,86.6666585667933
231,83,26003,1,0,0:0:0:0:
145,22,26173,6,4,B|129:102|129:102|164:156|114:267,1,173.333317133587
67,319,26681,6,4,B|83:239|83:239|51:187|97:83,1,173.333317133587
228,88,27190,6,0,P|266:69|307:79,1,86.6666585667933
373,125,27529,1,0,0:0:0:0:
492,228,27698,2,0,P|453:209|412:219,1,86.6666585667933
347,265,28037,1,0,0:0:0:0:
292,350,28207,6,4,B|143:363|143:363|139:316,1,173.333317133587
42,267,28715,6,4,B|190:253|190:253|195:301,1,173.333317133587
127,160,29224,6,0,L|130:42,1,86.6666585667933
240,178,29563,1,0,0:0:0:0:
419,247,29732,6,0,L|416:129,1,86.6666585667933
290,284,30071,1,0,0:0:0:0:
124,317,30240,6,0,L|127:199,2,86.6666585667933
202,219,30749,2,0,P|165:172|116:156,1,86.6666585667933
64,125,31088,1,0,0:0:0:0:
256,192,31257,12,0,32105,0:0:0:0:
162,175,32274,6,0,B|152:108|74:133|14:45|77:12|122:7|150:53|150:53|155:20|193:11|276:22|241:122|171:105|157:165,1,433.333292833966
187,190,33291,5,2,0:0:0:0:
375,230,33461,1,8,0:0:0:0:
174,321,33630,1,8,0:0:0:0:
289,90,33800,1,2,0:0:0:0:
372,350,33969,1,8,0:0:0:0:
87,96,34139,1,8,0:0:0:0:
471,183,34308,6,0,L|491:236,5,39.9999968719484
394,134,35325,6,0,L|373:208,5,53.3333307902019
451,45,36342,6,2,L|485:169,1,99.9999990463257
319,67,36681,1,8,0:0:0:0:
231,214,36851,2,2,L|295:337,1,99.9999990463257
343,181,37190,1,8,0:0:0:0:
209,80,37359,6,2,P|147:69|100:76,2,99.9999990463257
152,153,37868,5,2,0:0:0:0:
153,320,38037,1,0,0:0:0:0:
300,235,38207,1,0,0:0:0:0:
53,258,38376,6,2,L|151:239,1,99.9999990463257
218,222,38715,1,8,0:0:0:0:
338,98,38885,6,2,L|239:116,1,99.9999990463257
173,133,39224,1,8,0:0:0:0:
263,221,39393,2,2,P|305:251|373:244,1,99.9999990463257
419,225,39732,1,8,0:0:0:0:
299,82,39902,5,2,0:0:0:0:
245,263,40071,1,8,0:0:0:0:
140,97,40240,1,8,0:0:0:0:
81,310,40410,6,4,P|113:208|122:107,1,199.999998092651
31,140,40918,6,4,P|110:218|198:276,1,199.999998092651
197,183,41427,6,4,P|103:205|6:255,1,199.999998092651
64,312,41935,6,4,P|96:216|97:108,1,199.999998092651
174,33,42444,2,2,P|230:67|244:110,1,99.9999990463257
274,229,42783,5,8,0:0:0:0:
378,107,42952,1,10,0:0:0:0:
134,168,43122,1,8,0:0:0:0:
446,302,43291,1,0,0:0:0:0:
156,359,43461,2,2,L|62:300,1,99.9999990463257
47,210,43800,5,8,0:0:0:0:
138,167,43969,2,2,P|189:180|230:227,2,99.9999990463257
299,175,44478,6,2,P|326:219|331:286,1,99.9999990463257
333,341,44817,1,8,0:0:0:0:
457,203,44986,6,2,P|484:158|489:91,1,99.9999990463257
491,36,45325,1,8,0:0:0:0:
357,132,45495,2,2,L|279:220,2,99.9999990463257
369,240,46003,5,8,0:0:0:0:
218,384,46173,1,8,0:0:0:0:
201,164,46342,1,8,0:0:0:0:
34,289,46512,6,2,L|173:279,1,99.9999990463257
216,272,46851,1,8,0:0:0:0:
396,134,47020,2,2,L|257:124,1,99.9999990463257
228,123,47359,1,8,0:0:0:0:
331,324,47529,2,2,L|470:314,1,99.9999990463257
474,314,47868,1,8,0:0:0:0:
329,217,48037,6,2,P|272:249|244:309,2,99.9999990463257
447,104,48546,5,2,0:0:0:0:
270,56,48715,2,8,L|351:157,1,99.9999990463257
442,297,49054,1,0,0:0:0:0:
195,276,49223,1,8,0:0:0:0:
444,207,49393,1,8,0:0:0:0:
125,164,49563,6,0,L|-20:147,1,99.9999990463257
457,123,49902,1,8,0:0:0:0:
202,346,50071,1,8,0:0:0:0:
306,27,50240,1,8,0:0:0:0:
334,358,50410,1,2,0:0:0:0:
401,129,50579,6,2,P|425:95|493:69,1,99.9999990463257
406,277,50918,1,8,0:0:0:0:
213,197,51088,2,2,P|183:217|223:223,1,99.9999990463257
321,115,51427,1,8,0:0:0:0:
281,377,51596,2,2,L|299:256,1,99.9999990463257
217,58,51935,5,8,0:0:0:0:
426,253,52105,1,8,0:0:0:0:
354,30,52274,1,8,0:0:0:0:
186,289,52444,1,8,0:0:0:0:
256,192,52613,12,4,55643,0:0:0:0:
