osu file format v14

[General]
AudioFilename: audio.mp3
AudioLeadIn: 0
PreviewTime: -1
Countdown: 1
SampleSet: None
StackLeniency: 0.7
Mode: 0
LetterboxInBreaks: 0
WidescreenStoryboard: 0

[Editor]
DistanceSpacing: 1
BeatDivisor: 4
GridSize: 8
TimelineZoom: 5.900002

[Metadata]
Title:Sand Storm
TitleUnicode:Sand Storm
Artist:Kryss
ArtistUnicode:Kryss
Creator:Cindelluna
Version:Sabaku no Tempest
Source:
Tags:Kryss, sand, storm, nightcore, tech, electronic,
BeatmapID:1557058
BeatmapSetID:737775

[Difficulty]
HPDrainRate:6
CircleSize:4
OverallDifficulty:9
ApproachRate:9.5
SliderMultiplier:2.99999990463257
SliderTickRate:2

[Events]
//Background and Video events
0,0,"back 2.jpg",0,0
//Break Periods
2,72777,80674
//Storyboard Layer 0 (Background)
//Storyboard Layer 1 (Fail)
//Storyboard Layer 2 (Pass)
//Storyboard Layer 3 (Foreground)
//Storyboard Sound Samples

[TimingPoints]
9285,280.370037386671,4,2,0,100,1,0
33337,-66.6666666666667,4,2,0,100,0,0
33922,-66.6666666666667,4,2,0,100,0,0
33922,-100,4,2,0,100,0,0
34397,-100,4,2,0,100,0,0
36200,-100,4,2,0,100,0,1
72648,-100,4,2,0,100,0,0
108185,-100,4,2,0,100,0,1
144002,-100,4,2,0,100,0,0

[HitObjects]
98,279,9284,6,0,B|126:197|197:323|239:189,1,149.999995231629
318,140,9565,1,0,0:0:0:0:
409,79,9705,2,0,B|389:40|389:40|348:36,6,74.9999976158143
410,97,10406,2,0,B|388:180|307:61|277:198,1,149.999995231629
200,250,10686,1,0,0:0:0:0:
114,302,10827,2,0,B|134:341|134:341|175:345,6,74.9999976158143
256,192,11527,5,0,0:0:0:0:
128,40,11808,1,0,0:0:0:0:
48,176,11948,1,0,0:0:0:0:
264,88,12088,1,0,0:0:0:0:
48,176,12369,1,0,0:0:0:0:
136,336,12649,1,0,0:0:0:0:
256,192,12789,1,0,0:0:0:0:
256,192,12859,1,0,0:0:0:0:
256,192,12929,2,0,B|266:160|300:227|314:186,2,74.9999976158143
112,192,13490,5,0,0:0:0:0:
336,48,13770,1,0,0:0:0:0:
440,200,14051,1,0,0:0:0:0:
512,56,14191,1,0,0:0:0:0:
320,256,14331,1,0,0:0:0:0:
180,127,14612,1,0,0:0:0:0:
384,88,14892,2,0,B|324:114|372:24|347:56|306:50,4,74.9999976158143
128,272,15312,2,0,B|194:245|121:360|201:295|249:296,6,74.9999976158143
353,81,16013,5,0,0:0:0:0:
257,193,16294,1,0,0:0:0:0:
160,296,16434,1,0,0:0:0:0:
353,81,16574,1,0,0:0:0:0:
106,68,16854,5,0,0:0:0:0:
257,193,17135,1,0,0:0:0:0:
373,60,17415,1,0,0:0:0:0:
116,328,17555,1,0,0:0:0:0:
134,134,17696,2,0,B|235:101|280:351|438:169,1,299.999990463257
488,64,18256,6,0,B|389:13|464:168|328:110|328:110,1,149.999995231629
32,320,18537,2,0,B|131:371|56:216|192:274|192:274,1,149.999995231629
152,112,18817,2,0,B|53:163|128:8|-8:66|-8:66,1,149.999995231629
360,264,19097,2,0,B|459:213|384:368|520:310|520:310,1,149.999995231629
494,195,19378,1,0,0:0:0:0:
256,80,19518,1,0,0:0:0:0:
104,232,19658,2,0,B|73:206|112:240|112:240|15:252,2,74.9999976158143
300,269,19939,1,0,0:0:0:0:
389,43,20079,2,0,B|419:17|381:51|381:51|477:63,2,74.9999976158143
120,66,20359,1,0,0:0:0:0:
400,168,20499,6,0,B|505:133|407:274|550:238|550:238,1,149.999995231629
112,160,20780,2,0,B|6:125|104:266|-38:230|-38:230,1,149.999995231629
512,176,21060,2,0,B|406:141|504:282|361:246|361:246,1,149.999995231629
0,160,21340,2,0,B|105:125|7:266|150:230|150:230,1,149.999995231629
256,0,21621,1,0,0:0:0:0:
397,58,21761,2,0,P|411:100|461:107,1,74.9999976158143
257,189,21901,1,0,0:0:0:0:
137,326,22041,2,0,P|122:283|72:276,1,74.9999976158143
256,384,22182,1,0,0:0:0:0:
403,112,22322,2,0,P|417:69|467:62,1,74.9999976158143
257,189,22462,1,0,0:0:0:0:
138,273,22602,2,0,P|123:316|73:323,1,74.9999976158143
257,189,22742,1,0,0:0:0:0:
176,24,22882,6,0,B|250:52|112:96|280:112,1,149.999995231629
265,113,23023,2,0,B|303:159|321:152|280:212|192:107|182:245,1,149.999995231629
451,376,23303,2,0,B|479:378|490:400|478:337|578:319,2,74.9999976158143
8,38,23583,2,0,B|20:12|6:-8|55:34|120:-43,2,74.9999976158143
458,259,23864,2,0,B|453:231|471:215|413:242|371:149,2,74.9999976158143
95,102,24144,2,0,B|122:107|138:88|110:146|202:189,2,74.9999976158143
298,94,24424,2,0,B|325:99|341:80|313:138|405:181,2,74.9999976158143
227,268,24705,2,0,B|200:263|184:282|212:224|120:181,2,74.9999976158143
312,272,24985,5,0,0:0:0:0:
349,138,25125,1,0,0:0:0:0:
208,176,25266,1,0,0:0:0:0:
392,216,25406,1,0,0:0:0:0:
256,96,25546,1,0,0:0:0:0:
192,296,25686,1,0,0:0:0:0:
352,328,25826,2,0,L|336:304,2,24.9999992052714
256,48,26002,1,0,0:0:0:0:
160,112,26107,5,0,0:0:0:0:
344,112,26247,1,0,0:0:0:0:
256,146,26387,2,0,P|256:202|256:194,4,37.4999988079071
344,112,26667,1,0,0:0:0:0:
160,112,26808,1,0,0:0:0:0:
344,112,26948,6,0,P|346:129|366:144,5,37.4999988079071
256,0,27228,1,0,0:0:0:0:
96,48,27368,1,0,0:0:0:0:
168,112,27509,6,0,P|165:129|145:144,5,37.4999988079071
256,192,27789,1,0,0:0:0:0:
96,336,27929,1,0,0:0:0:0:
144,232,28069,6,0,P|141:215|121:200,5,37.4999988079071
256,384,28350,1,0,0:0:0:0:
416,336,28490,1,0,0:0:0:0:
368,232,28630,6,0,P|371:215|391:200,5,37.4999988079071
416,48,28910,1,0,0:0:0:0:
256,191,29051,1,0,0:0:0:0:
96,48,29191,6,0,P|92:64|73:80,5,37.4999988079071
180,133,29471,1,0,0:0:0:0:
0,0,29611,1,0,0:0:0:0:
416,336,29752,6,0,P|420:320|439:304,5,37.4999988079071
332,251,30032,1,0,0:0:0:0:
512,384,30172,1,0,0:0:0:0:
416,48,30312,6,0,P|420:64|439:80,5,37.4999988079071
332,133,30593,1,0,0:0:0:0:
512,0,30733,1,0,0:0:0:0:
96,336,30873,6,0,P|92:320|73:304,5,37.4999988079071
180,251,31153,1,0,0:0:0:0:
0,384,31294,1,0,0:0:0:0:
179,189,31434,6,0,P|194:195|218:189,5,37.4999988079071
291,339,31714,1,0,0:0:0:0:
77,67,31854,1,0,0:0:0:0:
333,189,31994,6,0,P|317:195|293:189,5,37.4999988079071
221,339,32275,1,0,0:0:0:0:
435,67,32415,1,0,0:0:0:0:
512,298,32555,1,0,0:0:0:0:
435,67,32695,1,0,0:0:0:0:
512,297,32836,1,0,0:0:0:0:
221,339,32976,1,0,0:0:0:0:
371,223,33116,2,0,P|378:186|346:227,2,74.9999976158143
54,48,33396,6,0,P|86:89|140:71,1,74.9999976158143
105,92,33537,6,0,P|158:98|184:46,1,74.9999976158143
172,86,33677,6,0,B|181:29|248:66|251:40,1,74.9999976158143
228,50,33817,6,0,B|265:104|368:93|316:73,1,74.9999976158143
446,57,33957,5,0,0:0:0:0:
431,81,34027,1,0,0:0:0:0:
414,104,34097,1,0,0:0:0:0:
394,129,34167,1,0,0:0:0:0:
374,149,34237,1,0,0:0:0:0:
355,171,34308,1,0,0:0:0:0:
339,196,34378,1,0,0:0:0:0:
325,217,34448,2,0,P|291:245|247:207,1,74.9999976158143
264,237,34518,2,0,P|227:278|254:301,1,74.9999976158143
230,286,34588,2,0,P|220:326|171:299,1,74.9999976158143
140,285,34728,5,0,0:0:0:0:
182,233,34798,6,0,L|169:196,2,37.4999988079071
239,266,34938,6,0,L|251:302,2,37.4999988079071
259,184,35079,6,0,L|246:147,2,37.4999988079071
321,256,35219,6,0,L|333:292,2,37.4999988079071
338,135,35359,6,0,L|325:98,2,37.4999988079071
411,234,35499,6,0,L|423:270,2,37.4999988079071
375,135,35639,6,0,B|273:102|229:352|71:170,1,299.999990463257
85,133,35990,5,0,0:0:0:0:
152,192,36060,1,0,0:0:0:0:
303,245,36200,2,0,B|103:164|133:138|186:362,1,299.999990463257
89,206,36550,2,0,B|121:111|120:384|280:160|304:240,1,224.999992847443
352,192,36831,6,0,P|384:184|384:160,3,37.4999988079071
440,96,36971,1,0,0:0:0:0:
368,32,37041,2,0,P|336:40|336:64,3,37.4999988079071
288,112,37181,1,0,0:0:0:0:
184,232,37251,1,0,0:0:0:0:
104,192,37322,6,0,P|265:223|188:315,1,299.999990463257
104,192,37672,1,0,0:0:0:0:
232,288,37777,1,0,0:0:0:0:
224,296,37882,6,0,P|173:139|91:227,1,299.999990463257
168,240,38233,1,0,0:0:0:0:
248,80,38338,2,0,P|256:64|288:48,2,37.4999988079071
424,136,38443,6,0,B|224:272|304:160|448:272,1,299.999990463257
352,200,38793,6,0,B|272:376|208:120|112:240|72:280,1,299.999990463257
96,160,39109,2,0,L|80:112,1,37.4999988079071
120,184,39179,2,0,L|99:130,1,37.4999988079071
200,256,39284,2,0,L|248:280,5,37.4999988079071
352,200,39494,1,0,0:0:0:0:
128,16,39635,6,0,P|136:32|160:40,2,37.4999988079071
416,96,39775,1,0,0:0:0:0:
416,96,39810,1,0,0:0:0:0:
416,96,39845,2,0,P|424:112|448:120,6,37.4999988079071
512,192,40160,1,0,0:0:0:0:
393,384,40335,1,0,0:0:0:0:
256,191,40406,2,0,P|251:162|239:179,2,37.4999988079071
407,255,40511,2,0,P|394:274|386:244,5,37.4999988079071
376,219,40756,6,0,B|329:97|184:288|106:163,1,299.999990463257
111,171,41036,6,0,B|158:293|303:102|381:227,1,299.999990463257
420,273,41352,6,0,L|365:303,1,37.4999988079071
272,327,41422,2,0,P|253:331|222:310,3,37.4999988079071
92,273,41562,2,0,L|147:303,1,37.4999988079071
256,191,41702,1,0,0:0:0:0:
255,16,41807,2,0,B|270:-7|310:84|336:8,7,74.9999976158143
255,16,42298,2,0,B|240:-7|200:84|174:8,6,74.9999976158143
263,91,42754,6,0,L|263:143,1,37.4999988079071
255,16,42859,1,0,0:0:0:0:
349,234,42999,6,0,P|289:306|161:208,1,262.49999165535
177,227,43279,5,0,0:0:0:0:
196,217,43314,1,0,0:0:0:0:
215,211,43349,1,0,0:0:0:0:
227,205,43385,1,0,0:0:0:0:
247,200,43420,1,0,0:0:0:0:
271,202,43455,1,0,0:0:0:0:
291,211,43490,1,0,0:0:0:0:
315,224,43525,1,0,0:0:0:0:
337,234,43560,1,0,0:0:0:0:
376,240,43595,6,0,L|411:214,2,37.4999988079071
392,272,43700,2,0,L|357:298,2,37.4999988079071
416,296,43805,1,0,0:0:0:0:
256,4,43980,1,0,0:0:0:0:
257,180,44120,2,0,P|264:195|261:182,2,37.4999988079071
377,88,44261,1,0,0:0:0:0:
257,180,44331,2,0,P|264:195|261:182,2,37.4999988079071
135,296,44541,1,0,0:0:0:0:
0,9,44681,5,0,0:0:0:0:
241,229,44821,1,0,0:0:0:0:
239,8,44962,1,0,0:0:0:0:
0,227,45102,1,0,0:0:0:0:
127,116,45242,6,0,P|167:113|177:81,3,74.9999976158143
127,116,45452,6,0,P|93:93|66:112,3,74.9999976158143
127,116,45663,6,0,P|113:153|138:175,2,74.9999976158143
127,116,45838,5,0,0:0:0:0:
127,116,45908,1,0,0:0:0:0:
256,80,46048,1,0,0:0:0:0:
255,118,46083,2,0,P|241:155|266:177,1,74.9999976158143
256,200,46188,1,0,0:0:0:0:
440,112,46258,1,0,0:0:0:0:
105,300,46398,2,0,B|104:302|104:302|106:300|106:300|103:300|103:300|105:304|105:304|105:302|105:302|102:303|102:303|103:304|103:304|101:303|101:303|101:299|101:299|100:298|100:298|104:295|104:295|102:299|102:299|100:298|100:298|103:305|103:305|105:306|105:306|102:303|102:303|103:304|103:304|103:306|103:306|99:304|99:304|98:299|98:299|102:305|102:305|103:307|103:307|95:299|95:299|94:305|94:305|99:313|99:313|105:313|105:313|115:312|115:312|119:309|119:309|119:301|119:301|118:294|118:294|113:288|113:288|105:289|105:289|104:287|104:287|95:289|95:289|95:296|95:296|107:307|107:307|93:297|93:297|95:311|95:311|92:293|92:293|93:305|93:305|103:292|103:292|109:305,1,262.49999165535
389,189,46784,2,0,B|388:191|388:191|390:189|390:189|387:189|387:189|389:193|389:193|389:191|389:191|386:192|386:192|387:193|387:193|385:192|385:192|385:188|385:188|384:187|384:187|388:184|388:184|386:188|386:188|384:187|384:187|387:194|387:194|389:195|389:195|386:192|386:192|387:193|387:193|387:195|387:195|383:193|383:193|382:188|382:188|386:194|386:194|387:196|387:196|379:188|379:188|378:194|378:194|383:202|383:202|389:202|389:202|399:201|399:201|403:198|403:198|403:190|403:190|402:183|402:183|397:177|397:177|389:178|389:178|388:176|388:176|379:178|379:178|379:185|379:185|391:196|391:196|377:186|377:186|379:200|379:200|376:182|376:182|377:194|377:194|387:181|387:181|393:194,1,262.49999165535
127,74,47205,1,0,0:0:0:0:
278,307,47345,1,0,0:0:0:0:
191,39,47485,6,0,B|139:30|153:161|38:104,1,149.999995231629
325,341,47765,2,0,B|377:350|363:219|478:276,1,149.999995231629
171,279,48046,1,0,0:0:0:0:
340,42,48186,1,0,0:0:0:0:
408,166,48326,1,0,0:0:0:0:
171,40,48466,1,0,0:0:0:0:
356,282,48606,1,0,0:0:0:0:
108,162,48747,1,0,0:0:0:0:
108,162,48817,1,0,0:0:0:0:
108,162,48887,1,0,0:0:0:0:
256,187,49027,2,0,B|255:182|255:182|256:194|256:194|257:198|252:193|252:193|250:189|250:189|251:185|251:185|260:183|260:183|262:187|262:187|260:192|260:192|257:182|257:182|254:192|254:192|265:170,1,74.9999976158143
256,187,49167,1,0,0:0:0:0:
254,35,49307,1,0,0:0:0:0:
254,35,49377,1,0,0:0:0:0:
254,35,49448,2,0,B|253:30|253:30|254:42|254:42|255:46|250:41|250:41|248:37|248:37|249:33|249:33|258:31|258:31|260:35|260:35|258:40|258:40|255:30|255:30|252:40|252:40|263:18,2,74.9999976158143
191,345,49728,6,0,B|139:354|153:223|38:280,1,149.999995231629
325,43,50008,2,0,B|377:34|363:165|478:108,1,149.999995231629
405,321,50289,1,0,0:0:0:0:
107,63,50429,1,0,0:0:0:0:
107,321,50569,1,0,0:0:0:0:
405,63,50709,1,0,0:0:0:0:
107,321,50849,2,0,B|145:322|145:322|195:246,5,74.9999976158143
405,63,51340,2,0,B|367:62|367:62|317:138,4,74.9999976158143
405,63,51690,2,0,L|485:108,1,74.9999976158143
496,112,51831,1,0,0:0:0:0:
102,127,51971,6,0,B|59:156|160:241|38:280,1,149.999995231629
409,251,52251,2,0,B|452:221|351:137|474:98,1,149.999995231629
257,337,52532,1,0,0:0:0:0:
102,128,52672,1,0,0:0:0:0:
257,337,52812,1,0,0:0:0:0:
437,114,52952,1,0,0:0:0:0:
257,337,53092,1,0,0:0:0:0:
47,52,53233,1,0,0:0:0:0:
47,52,53303,1,0,0:0:0:0:
47,52,53373,1,0,0:0:0:0:
257,337,53513,1,0,0:0:0:0:
465,52,53653,1,0,0:0:0:0:
257,337,53793,1,0,0:0:0:0:
256,61,53933,2,0,B|255:59|255:59|251:63|251:63|260:59|260:59|251:60|251:60|253:57|253:57|261:59|261:59|261:64|261:64|257:67|257:67|253:67|253:67|256:56|256:56|256:72|256:72|255:68,2,74.9999976158143
183,341,54214,6,0,B|210:386|300:290|332:414,1,149.999995231629
323,42,54494,2,0,B|295:-2|206:93|173:-30,1,149.999995231629
107,280,54775,1,0,0:0:0:0:
387,192,54915,1,0,0:0:0:0:
106,112,55055,1,0,0:0:0:0:
376,39,55195,1,0,0:0:0:0:
376,39,55265,1,0,0:0:0:0:
376,39,55335,1,0,0:0:0:0:
106,112,55475,1,0,0:0:0:0:
387,192,55616,1,0,0:0:0:0:
108,280,55756,1,0,0:0:0:0:
108,280,55896,1,0,0:0:0:0:
387,192,56036,1,0,0:0:0:0:
106,112,56176,1,0,0:0:0:0:
376,39,56317,1,0,0:0:0:0:
94,229,56457,6,0,B|76:279|207:288|131:391,1,149.999995231629
414,149,56737,2,0,B|432:100|301:91|377:-12,1,149.999995231629
153,356,57017,1,0,0:0:0:0:
356,21,57158,1,0,0:0:0:0:
95,227,57298,1,0,0:0:0:0:
414,149,57438,1,0,0:0:0:0:
359,356,57578,1,0,0:0:0:0:
156,21,57718,1,0,0:0:0:0:
156,21,57789,1,0,0:0:0:0:
156,21,57859,1,0,0:0:0:0:
359,356,57999,1,0,0:0:0:0:
95,227,58139,1,0,0:0:0:0:
356,21,58279,1,0,0:0:0:0:
356,21,58349,1,0,0:0:0:0:
356,21,58419,1,0,0:0:0:0:
356,21,58489,2,0,B|355:19|355:19|351:23|351:23|360:19|360:19|351:20|351:20|353:17|353:17|361:19|361:19|361:24|361:24|357:27|357:27|353:27|353:27|356:16|356:16|356:32|356:32|355:28,1,74.9999976158143
417,229,58700,6,0,B|435:279|304:288|380:391,1,149.999995231629
97,149,58980,2,0,B|79:100|210:91|134:-12,1,149.999995231629
456,343,59260,1,0,0:0:0:0:
56,41,59401,1,0,0:0:0:0:
201,252,59541,1,0,0:0:0:0:
346,57,59681,1,0,0:0:0:0:
346,57,59751,1,0,0:0:0:0:
346,57,59821,1,0,0:0:0:0:
456,343,59961,1,0,0:0:0:0:
311,132,60102,1,0,0:0:0:0:
166,327,60242,1,0,0:0:0:0:
475,189,60382,1,0,0:0:0:0:
37,189,60522,1,0,0:0:0:0:
256,41,60662,1,0,0:0:0:0:
256,343,60802,1,0,0:0:0:0:
320,39,60943,6,0,B|372:30|358:161|473:104,1,149.999995231629
186,341,61223,2,0,B|134:350|148:219|33:276,1,149.999995231629
1,135,61503,1,0,0:0:0:0:
132,2,61644,1,0,0:0:0:0:
380,2,61784,1,0,0:0:0:0:
511,135,61924,1,0,0:0:0:0:
511,135,61994,1,0,0:0:0:0:
511,135,62064,1,0,0:0:0:0:
1,249,62204,1,0,0:0:0:0:
132,382,62345,1,0,0:0:0:0:
380,382,62485,1,0,0:0:0:0:
511,249,62625,1,0,0:0:0:0:
256,73,62765,1,0,0:0:0:0:
141,253,62905,1,0,0:0:0:0:
371,253,63045,1,0,0:0:0:0:
191,39,63186,6,0,B|139:30|153:161|38:104,1,149.999995231629
325,341,63466,2,0,B|377:350|363:219|478:276,1,149.999995231629
0,72,63746,1,0,0:0:0:0:
0,312,63887,1,0,0:0:0:0:
2,32,64027,1,0,0:0:0:0:
1,264,64167,1,0,0:0:0:0:
1,264,64237,1,0,0:0:0:0:
1,264,64307,2,0,B|16:228|16:228|111:211,2,74.9999976158143
512,72,64587,1,0,0:0:0:0:
512,312,64728,1,0,0:0:0:0:
510,32,64868,1,0,0:0:0:0:
511,264,65008,1,0,0:0:0:0:
511,264,65078,1,0,0:0:0:0:
511,264,65148,2,0,B|496:228|496:228|401:211,2,74.9999976158143
95,228,65429,6,0,B|77:279|207:287|131:391,1,149.999995231629
414,149,65709,2,0,B|433:99|302:91|377:-12,1,149.999995231629
389,329,65989,2,0,P|336:311|326:271,1,74.9999976158143
304,273,66130,1,0,0:0:0:0:
123,55,66270,2,0,P|176:73|186:113,1,74.9999976158143
208,111,66411,1,0,0:0:0:0:
123,329,66550,2,0,P|176:311|186:271,1,74.9999976158143
208,273,66691,1,0,0:0:0:0:
208,273,66760,1,0,0:0:0:0:
208,273,66830,1,0,0:0:0:0:
208,273,66901,1,0,0:0:0:0:
208,273,66971,1,0,0:0:0:0:
389,55,67111,2,0,P|336:73|326:113,1,74.9999976158143
304,111,67252,1,0,0:0:0:0:
256,187,67391,2,0,B|255:185|255:185|251:189|251:189|260:185|260:185|251:186|251:186|253:183|253:183|261:185|261:185|261:190|261:190|257:193|257:193|253:193|253:193|256:182|256:182|256:198|256:198|255:194,2,74.9999976158143
417,228,67672,6,0,B|435:279|304:287|380:391,1,149.999995231629
97,149,67952,2,0,B|78:99|210:91|134:-12,1,149.999995231629
358,355,68232,1,0,0:0:0:0:
96,147,68372,1,0,0:0:0:0:
358,355,68513,1,0,0:0:0:0:
2,55,68653,1,0,0:0:0:0:
358,355,68793,2,0,B|357:353|357:353|353:357|353:357|362:353|362:353|353:354|353:354|355:351|355:351|363:353|363:353|363:358|363:358|359:361|359:361|355:361|355:361|358:350|358:350|358:366|358:366|357:362,6,74.9999976158143
0,238,69354,2,0,B|-1:236|-1:236|-5:240|-5:240|4:236|4:236|-5:237|-5:237|-3:234|-3:234|5:236|5:236|5:241|5:241|1:244|1:244|-3:244|-3:244|0:233|0:233|0:249|0:249|-1:245,4,74.9999976158143
330,339,69774,1,0,0:0:0:0:
330,339,69844,1,0,0:0:0:0:
330,339,69915,6,0,B|383:344|360:215|479:264,1,149.999995231629
175,48,70195,2,0,B|123:42|146:171|28:122,1,149.999995231629
423,11,70475,1,0,0:0:0:0:
512,196,70615,1,0,0:0:0:0:
279,164,70756,1,0,0:0:0:0:
512,196,70896,1,0,0:0:0:0:
423,11,71036,1,0,0:0:0:0:
127,253,71176,1,0,0:0:0:0:
300,44,71316,1,0,0:0:0:0:
416,281,71457,1,0,0:0:0:0:
300,44,71597,1,0,0:0:0:0:
127,253,71737,1,0,0:0:0:0:
416,281,71877,1,0,0:0:0:0:
281,181,72017,1,0,0:0:0:0:
181,339,72157,6,0,B|128:344|151:215|32:264,1,149.999995231629
336,48,72437,2,0,B|388:42|365:171|483:122,1,149.999995231629
98,105,81199,6,0,B|126:187|197:61|239:195,1,149.999995231629
318,244,81480,1,0,0:0:0:0:
409,305,81620,2,0,B|389:344|389:344|348:348,6,74.9999976158143
410,287,82321,2,0,B|388:204|307:323|277:186,1,149.999995231629
200,134,82601,1,0,0:0:0:0:
114,82,82742,2,0,B|134:43|134:43|175:39,6,74.9999976158143
256,192,83442,5,0,0:0:0:0:
128,344,83723,1,0,0:0:0:0:
48,208,83863,1,0,0:0:0:0:
264,296,84003,1,0,0:0:0:0:
48,208,84284,1,0,0:0:0:0:
136,48,84564,1,0,0:0:0:0:
256,192,84704,1,0,0:0:0:0:
256,192,84774,1,0,0:0:0:0:
256,192,84844,2,0,B|266:224|300:157|314:198,2,74.9999976158143
112,192,85405,5,0,0:0:0:0:
336,336,85685,1,0,0:0:0:0:
440,184,85966,1,0,0:0:0:0:
512,328,86106,1,0,0:0:0:0:
320,128,86246,1,0,0:0:0:0:
180,257,86527,1,0,0:0:0:0:
384,296,86807,2,0,B|324:270|372:360|347:328|306:334,4,74.9999976158143
128,112,87227,2,0,B|194:139|121:24|201:89|249:88,6,74.9999976158143
353,303,87928,5,0,0:0:0:0:
257,191,88209,1,0,0:0:0:0:
160,88,88349,1,0,0:0:0:0:
353,303,88489,1,0,0:0:0:0:
106,316,88769,5,0,0:0:0:0:
257,191,89050,1,0,0:0:0:0:
373,324,89330,1,0,0:0:0:0:
116,56,89470,1,0,0:0:0:0:
134,250,89611,2,0,B|235:283|280:33|438:215,1,299.999990463257
488,320,90171,6,0,B|389:371|464:216|328:274|328:274,1,149.999995231629
32,64,90452,2,0,B|131:13|56:168|192:110|192:110,1,149.999995231629
152,272,90732,2,0,B|53:221|128:376|-8:318|-8:318,1,149.999995231629
360,120,91012,2,0,B|459:171|384:16|520:74|520:74,1,149.999995231629
494,189,91293,1,0,0:0:0:0:
256,304,91433,1,0,0:0:0:0:
104,152,91573,2,0,B|73:178|112:144|112:144|15:132,2,74.9999976158143
300,115,91854,1,0,0:0:0:0:
389,341,91994,2,0,B|419:367|381:333|381:333|477:321,2,74.9999976158143
120,318,92274,1,0,0:0:0:0:
400,216,92414,6,0,B|505:251|407:110|550:146|550:146,1,149.999995231629
112,224,92695,2,0,B|6:259|104:118|-38:154|-38:154,1,149.999995231629
512,208,92975,2,0,B|406:243|504:102|361:138|361:138,1,149.999995231629
0,224,93255,2,0,B|105:259|7:118|150:154|150:154,1,149.999995231629
256,384,93536,1,0,0:0:0:0:
397,326,93676,2,0,P|411:284|461:277,1,74.9999976158143
257,195,93816,1,0,0:0:0:0:
137,58,93956,2,0,P|122:101|72:108,1,74.9999976158143
256,0,94097,1,0,0:0:0:0:
403,272,94237,2,0,P|417:315|467:322,1,74.9999976158143
257,195,94377,1,0,0:0:0:0:
138,111,94517,2,0,P|123:68|73:61,1,74.9999976158143
257,195,94657,1,0,0:0:0:0:
176,360,94797,6,0,B|250:332|112:288|280:272,1,149.999995231629
265,271,94938,2,0,B|303:225|321:232|280:172|192:277|182:139,1,149.999995231629
451,8,95218,2,0,B|479:6|490:-16|478:47|578:65,2,74.9999976158143
8,346,95498,2,0,B|20:372|6:392|55:350|120:427,2,74.9999976158143
458,125,95779,2,0,B|453:153|471:169|413:142|371:235,2,74.9999976158143
95,282,96059,2,0,B|122:277|138:296|110:238|202:195,2,74.9999976158143
298,290,96339,2,0,B|325:285|341:304|313:246|405:203,2,74.9999976158143
227,116,96620,2,0,B|200:121|184:102|212:160|120:203,2,74.9999976158143
312,112,96900,5,0,0:0:0:0:
349,246,97040,1,0,0:0:0:0:
208,208,97181,1,0,0:0:0:0:
392,168,97321,1,0,0:0:0:0:
256,288,97461,1,0,0:0:0:0:
192,88,97601,1,0,0:0:0:0:
352,56,97741,2,0,L|336:80,2,24.9999992052714
256,336,97917,1,0,0:0:0:0:
160,272,98022,5,0,0:0:0:0:
344,272,98162,1,0,0:0:0:0:
256,238,98302,2,0,P|256:182|256:190,4,37.4999988079071
344,272,98582,1,0,0:0:0:0:
160,272,98723,1,0,0:0:0:0:
344,272,98863,6,0,P|346:255|366:240,5,37.4999988079071
256,384,99143,1,0,0:0:0:0:
96,336,99283,1,0,0:0:0:0:
168,272,99424,6,0,P|165:255|145:240,5,37.4999988079071
256,192,99704,1,0,0:0:0:0:
96,48,99844,1,0,0:0:0:0:
144,152,99984,6,0,P|141:169|121:184,5,37.4999988079071
256,0,100265,1,0,0:0:0:0:
416,48,100405,1,0,0:0:0:0:
368,152,100545,6,0,P|371:169|391:184,5,37.4999988079071
416,336,100825,1,0,0:0:0:0:
256,193,100966,1,0,0:0:0:0:
96,336,101106,6,0,P|92:320|73:304,5,37.4999988079071
180,251,101386,1,0,0:0:0:0:
0,384,101526,1,0,0:0:0:0:
416,48,101667,6,0,P|420:64|439:80,5,37.4999988079071
332,133,101947,1,0,0:0:0:0:
512,0,102087,1,0,0:0:0:0:
416,336,102227,6,0,P|420:320|439:304,5,37.4999988079071
332,251,102508,1,0,0:0:0:0:
512,384,102648,1,0,0:0:0:0:
96,48,102788,6,0,P|92:64|73:80,5,37.4999988079071
180,133,103068,1,0,0:0:0:0:
0,0,103209,1,0,0:0:0:0:
179,195,103349,6,0,P|194:189|218:195,5,37.4999988079071
291,45,103629,1,0,0:0:0:0:
77,317,103769,1,0,0:0:0:0:
333,195,103909,6,0,P|317:189|293:195,5,37.4999988079071
291,339,104190,1,0,0:0:0:0:
77,67,104330,1,0,0:0:0:0:
0,298,104470,1,0,0:0:0:0:
77,67,104610,1,0,0:0:0:0:
0,297,104751,1,0,0:0:0:0:
291,339,104891,1,0,0:0:0:0:
141,223,105031,2,0,P|134:186|166:227,2,74.9999976158143
458,48,105311,6,0,P|426:89|372:71,1,74.9999976158143
407,92,105452,6,0,P|354:98|328:46,1,74.9999976158143
340,86,105592,6,0,B|331:29|264:66|261:40,1,74.9999976158143
284,50,105732,6,0,B|247:104|144:93|196:73,1,74.9999976158143
66,57,105872,5,0,0:0:0:0:
81,81,105942,1,0,0:0:0:0:
98,104,106012,1,0,0:0:0:0:
118,129,106082,1,0,0:0:0:0:
138,149,106152,1,0,0:0:0:0:
157,171,106223,1,0,0:0:0:0:
173,196,106293,1,0,0:0:0:0:
187,217,106363,2,0,P|221:245|265:207,1,74.9999976158143
248,237,106433,2,0,P|285:278|258:301,1,74.9999976158143
282,286,106503,2,0,P|292:326|341:299,1,74.9999976158143
372,285,106643,5,0,0:0:0:0:
330,233,106713,6,0,L|343:196,2,37.4999988079071
273,266,106853,6,0,L|261:302,2,37.4999988079071
253,184,106994,6,0,L|266:147,2,37.4999988079071
191,256,107134,6,0,L|179:292,2,37.4999988079071
174,135,107274,6,0,L|187:98,2,37.4999988079071
101,234,107414,6,0,L|89:270,2,37.4999988079071
209,139,108185,2,0,B|409:220|379:246|326:22,1,299.999990463257
423,178,108535,2,0,B|391:273|392:0|232:224|208:144,1,224.999992847443
160,192,108816,6,0,P|128:200|128:224,3,37.4999988079071
72,288,108956,1,0,0:0:0:0:
144,352,109026,2,0,P|176:344|176:320,3,37.4999988079071
224,272,109166,1,0,0:0:0:0:
328,152,109236,1,0,0:0:0:0:
408,192,109307,6,0,P|247:161|324:69,1,299.999990463257
408,192,109657,1,0,0:0:0:0:
280,96,109762,1,0,0:0:0:0:
288,88,109867,6,0,P|339:245|421:157,1,299.999990463257
344,144,110218,1,0,0:0:0:0:
264,304,110323,2,0,P|256:320|224:336,2,37.4999988079071
88,248,110428,6,0,B|288:112|208:224|64:112,1,299.999990463257
160,184,110778,6,0,B|240:8|304:264|400:144|440:104,1,299.999990463257
416,224,111094,2,0,L|432:272,1,37.4999988079071
392,200,111164,2,0,L|413:254,1,37.4999988079071
312,128,111269,2,0,L|264:104,5,37.4999988079071
160,184,111479,1,0,0:0:0:0:
384,368,111620,6,0,P|376:352|352:344,2,37.4999988079071
96,288,111760,1,0,0:0:0:0:
96,288,111795,1,0,0:0:0:0:
96,288,111830,2,0,P|88:272|64:264,6,37.4999988079071
0,192,112145,1,0,0:0:0:0:
119,0,112320,1,0,0:0:0:0:
256,193,112391,2,0,P|261:222|273:205,2,37.4999988079071
105,129,112496,2,0,P|118:110|126:140,5,37.4999988079071
136,165,112741,6,0,B|183:287|328:96|406:221,1,299.999990463257
401,213,113021,6,0,B|354:91|209:282|131:157,1,299.999990463257
92,111,113337,6,0,L|147:81,1,37.4999988079071
240,57,113407,2,0,P|259:53|290:74,3,37.4999988079071
420,111,113547,2,0,L|365:81,1,37.4999988079071
256,193,113687,1,0,0:0:0:0:
257,368,113792,2,0,B|242:391|202:300|176:376,7,74.9999976158143
257,368,114283,2,0,B|272:391|312:300|338:376,6,74.9999976158143
249,293,114739,6,0,L|249:241,1,37.4999988079071
257,368,114844,1,0,0:0:0:0:
163,150,114984,6,0,P|223:78|351:176,1,262.49999165535
335,157,115264,5,0,0:0:0:0:
316,167,115299,1,0,0:0:0:0:
297,173,115334,1,0,0:0:0:0:
285,179,115370,1,0,0:0:0:0:
265,184,115405,1,0,0:0:0:0:
241,182,115440,1,0,0:0:0:0:
221,173,115475,1,0,0:0:0:0:
197,160,115510,1,0,0:0:0:0:
175,150,115545,1,0,0:0:0:0:
136,144,115580,6,0,L|101:170,2,37.4999988079071
120,112,115685,2,0,L|155:86,2,37.4999988079071
96,88,115790,1,0,0:0:0:0:
256,380,115965,1,0,0:0:0:0:
255,204,116105,2,0,P|248:189|251:202,2,37.4999988079071
135,296,116246,1,0,0:0:0:0:
255,204,116316,2,0,P|248:189|251:202,2,37.4999988079071
377,88,116526,1,0,0:0:0:0:
512,375,116666,5,0,0:0:0:0:
271,155,116806,1,0,0:0:0:0:
273,376,116947,1,0,0:0:0:0:
512,157,117087,1,0,0:0:0:0:
385,268,117227,6,0,P|345:271|335:303,3,74.9999976158143
385,268,117437,6,0,P|419:291|446:272,3,74.9999976158143
385,268,117648,6,0,P|399:231|374:209,2,74.9999976158143
385,268,117823,5,0,0:0:0:0:
385,268,117893,1,0,0:0:0:0:
256,304,118033,1,0,0:0:0:0:
257,266,118068,2,0,P|271:229|246:207,1,74.9999976158143
256,184,118173,1,0,0:0:0:0:
72,272,118243,1,0,0:0:0:0:
407,84,118383,2,0,B|408:82|408:82|406:84|406:84|409:84|409:84|407:80|407:80|407:82|407:82|410:81|410:81|409:80|409:80|411:81|411:81|411:85|411:85|412:86|412:86|408:89|408:89|410:85|410:85|412:86|412:86|409:79|409:79|407:78|407:78|410:81|410:81|409:80|409:80|409:78|409:78|413:80|413:80|414:85|414:85|410:79|410:79|409:77|409:77|417:85|417:85|418:79|418:79|413:71|413:71|407:71|407:71|397:72|397:72|393:75|393:75|393:83|393:83|394:90|394:90|399:96|399:96|407:95|407:95|408:97|408:97|417:95|417:95|417:88|417:88|405:77|405:77|419:87|419:87|417:73|417:73|420:91|420:91|419:79|419:79|409:92|409:92|403:79,1,262.49999165535
123,195,118769,2,0,B|124:193|124:193|122:195|122:195|125:195|125:195|123:191|123:191|123:193|123:193|126:192|126:192|125:191|125:191|127:192|127:192|127:196|127:196|128:197|128:197|124:200|124:200|126:196|126:196|128:197|128:197|125:190|125:190|123:189|123:189|126:192|126:192|125:191|125:191|125:189|125:189|129:191|129:191|130:196|130:196|126:190|126:190|125:188|125:188|133:196|133:196|134:190|134:190|129:182|129:182|123:182|123:182|113:183|113:183|109:186|109:186|109:194|109:194|110:201|110:201|115:207|115:207|123:206|123:206|124:208|124:208|133:206|133:206|133:199|133:199|121:188|121:188|135:198|135:198|133:184|133:184|136:202|136:202|135:190|135:190|125:203|125:203|119:190,1,262.49999165535
385,310,119190,1,0,0:0:0:0:
234,77,119330,1,0,0:0:0:0:
321,345,119470,6,0,B|373:354|359:223|474:280,1,149.999995231629
187,43,119750,2,0,B|135:34|149:165|34:108,1,149.999995231629
341,105,120031,1,0,0:0:0:0:
172,342,120171,1,0,0:0:0:0:
104,218,120311,1,0,0:0:0:0:
341,344,120451,1,0,0:0:0:0:
156,102,120591,1,0,0:0:0:0:
404,222,120732,1,0,0:0:0:0:
404,222,120802,1,0,0:0:0:0:
404,222,120872,1,0,0:0:0:0:
256,197,121012,2,0,B|257:202|257:202|256:190|256:190|255:186|260:191|260:191|262:195|262:195|261:199|261:199|252:201|252:201|250:197|250:197|252:192|252:192|255:202|255:202|258:192|258:192|247:214,1,74.9999976158143
256,197,121152,1,0,0:0:0:0:
258,349,121292,1,0,0:0:0:0:
258,349,121362,1,0,0:0:0:0:
258,349,121433,2,0,B|259:354|259:354|258:342|258:342|257:338|262:343|262:343|264:347|264:347|263:351|263:351|254:353|254:353|252:349|252:349|254:344|254:344|257:354|257:354|260:344|260:344|249:366,2,74.9999976158143
321,39,121713,6,0,B|373:30|359:161|474:104,1,149.999995231629
187,341,121993,2,0,B|135:350|149:219|34:276,1,149.999995231629
107,63,122274,1,0,0:0:0:0:
405,321,122414,1,0,0:0:0:0:
405,63,122554,1,0,0:0:0:0:
107,321,122694,1,0,0:0:0:0:
405,63,122834,2,0,B|367:62|367:62|317:138,5,74.9999976158143
107,321,123325,2,0,B|145:322|145:322|195:246,4,74.9999976158143
107,321,123675,2,0,L|27:276,1,74.9999976158143
16,272,123816,1,0,0:0:0:0:
410,257,123956,6,0,B|453:228|352:143|474:104,1,149.999995231629
103,133,124236,2,0,B|60:163|161:247|38:286,1,149.999995231629
255,47,124517,1,0,0:0:0:0:
410,256,124657,1,0,0:0:0:0:
255,47,124797,1,0,0:0:0:0:
75,270,124937,1,0,0:0:0:0:
255,47,125077,1,0,0:0:0:0:
465,332,125218,1,0,0:0:0:0:
465,332,125288,1,0,0:0:0:0:
465,332,125358,1,0,0:0:0:0:
255,47,125498,1,0,0:0:0:0:
47,332,125638,1,0,0:0:0:0:
255,47,125778,1,0,0:0:0:0:
256,323,125918,2,0,B|257:325|257:325|261:321|261:321|252:325|252:325|261:324|261:324|259:327|259:327|251:325|251:325|251:320|251:320|255:317|255:317|259:317|259:317|256:328|256:328|256:312|256:312|257:316,2,74.9999976158143
329,43,126199,6,0,B|302:-2|212:94|180:-30,1,149.999995231629
189,342,126479,2,0,B|217:386|306:291|339:414,1,149.999995231629
405,104,126760,1,0,0:0:0:0:
125,192,126900,1,0,0:0:0:0:
406,272,127040,1,0,0:0:0:0:
136,345,127180,1,0,0:0:0:0:
136,345,127250,1,0,0:0:0:0:
136,345,127320,1,0,0:0:0:0:
406,272,127460,1,0,0:0:0:0:
125,192,127601,1,0,0:0:0:0:
404,104,127741,1,0,0:0:0:0:
404,104,127881,1,0,0:0:0:0:
125,192,128021,1,0,0:0:0:0:
406,272,128161,1,0,0:0:0:0:
136,345,128302,1,0,0:0:0:0:
418,155,128442,6,0,B|436:105|305:96|381:-7,1,149.999995231629
98,235,128722,2,0,B|80:284|211:293|135:396,1,149.999995231629
359,28,129002,1,0,0:0:0:0:
156,363,129143,1,0,0:0:0:0:
417,157,129283,1,0,0:0:0:0:
98,235,129423,1,0,0:0:0:0:
153,28,129563,1,0,0:0:0:0:
356,363,129703,1,0,0:0:0:0:
356,363,129774,1,0,0:0:0:0:
356,363,129844,1,0,0:0:0:0:
153,28,129984,1,0,0:0:0:0:
417,157,130124,1,0,0:0:0:0:
156,363,130264,1,0,0:0:0:0:
156,363,130334,1,0,0:0:0:0:
156,363,130404,1,0,0:0:0:0:
156,363,130474,2,0,B|157:365|157:365|161:361|161:361|152:365|152:365|161:364|161:364|159:367|159:367|151:365|151:365|151:360|151:360|155:357|155:357|159:357|159:357|156:368|156:368|156:352|156:352|157:356,1,74.9999976158143
95,155,130685,6,0,B|77:105|208:96|132:-7,1,149.999995231629
415,235,130965,2,0,B|433:284|302:293|378:396,1,149.999995231629
56,41,131245,1,0,0:0:0:0:
456,343,131386,1,0,0:0:0:0:
311,132,131526,1,0,0:0:0:0:
166,327,131666,1,0,0:0:0:0:
166,327,131736,1,0,0:0:0:0:
166,327,131806,1,0,0:0:0:0:
56,41,131946,1,0,0:0:0:0:
201,252,132087,1,0,0:0:0:0:
346,57,132227,1,0,0:0:0:0:
37,195,132367,1,0,0:0:0:0:
475,195,132507,1,0,0:0:0:0:
256,343,132647,1,0,0:0:0:0:
256,41,132787,1,0,0:0:0:0:
192,345,132928,6,0,B|140:354|154:223|39:280,1,149.999995231629
326,43,133208,2,0,B|378:34|364:165|479:108,1,149.999995231629
511,249,133488,1,0,0:0:0:0:
380,382,133629,1,0,0:0:0:0:
132,382,133769,1,0,0:0:0:0:
1,249,133909,1,0,0:0:0:0:
1,249,133979,1,0,0:0:0:0:
1,249,134049,1,0,0:0:0:0:
511,135,134189,1,0,0:0:0:0:
380,2,134330,1,0,0:0:0:0:
132,2,134470,1,0,0:0:0:0:
1,135,134610,1,0,0:0:0:0:
256,311,134750,1,0,0:0:0:0:
371,131,134890,1,0,0:0:0:0:
141,131,135030,1,0,0:0:0:0:
321,345,135171,6,0,B|373:354|359:223|474:280,1,149.999995231629
187,43,135451,2,0,B|135:34|149:165|34:108,1,149.999995231629
512,312,135731,1,0,0:0:0:0:
512,72,135872,1,0,0:0:0:0:
510,352,136012,1,0,0:0:0:0:
511,120,136152,1,0,0:0:0:0:
511,120,136222,1,0,0:0:0:0:
511,120,136292,2,0,B|496:156|496:156|401:173,2,74.9999976158143
0,312,136572,1,0,0:0:0:0:
0,72,136713,1,0,0:0:0:0:
2,352,136853,1,0,0:0:0:0:
1,120,136993,1,0,0:0:0:0:
1,120,137063,1,0,0:0:0:0:
1,120,137133,2,0,B|16:156|16:156|111:173,2,74.9999976158143
417,156,137414,6,0,B|435:105|305:97|381:-7,1,149.999995231629
98,235,137694,2,0,B|79:285|210:293|135:396,1,149.999995231629
123,55,137974,2,0,P|176:73|186:113,1,74.9999976158143
208,111,138115,1,0,0:0:0:0:
389,329,138255,2,0,P|336:311|326:271,1,74.9999976158143
304,273,138396,1,0,0:0:0:0:
389,55,138535,2,0,P|336:73|326:113,1,74.9999976158143
304,111,138676,1,0,0:0:0:0:
304,111,138745,1,0,0:0:0:0:
304,111,138815,1,0,0:0:0:0:
304,111,138886,1,0,0:0:0:0:
304,111,138956,1,0,0:0:0:0:
123,329,139096,2,0,P|176:311|186:271,1,74.9999976158143
208,273,139237,1,0,0:0:0:0:
256,197,139376,2,0,B|257:199|257:199|261:195|261:195|252:199|252:199|261:198|261:198|259:201|259:201|251:199|251:199|251:194|251:194|255:191|255:191|259:191|259:191|256:202|256:202|256:186|256:186|257:190,2,74.9999976158143
95,156,139657,6,0,B|77:105|208:97|132:-7,1,149.999995231629
415,235,139937,2,0,B|434:285|302:293|378:396,1,149.999995231629
154,29,140217,1,0,0:0:0:0:
416,237,140357,1,0,0:0:0:0:
154,29,140498,1,0,0:0:0:0:
510,329,140638,1,0,0:0:0:0:
154,29,140778,2,0,B|155:31|155:31|159:27|159:27|150:31|150:31|159:30|159:30|157:33|157:33|149:31|149:31|149:26|149:26|153:23|153:23|157:23|157:23|154:34|154:34|154:18|154:18|155:22,6,74.9999976158143
512,146,141339,2,0,B|513:148|513:148|517:144|517:144|508:148|508:148|517:147|517:147|515:150|515:150|507:148|507:148|507:143|507:143|511:140|511:140|515:140|515:140|512:151|512:151|512:135|512:135|513:139,4,74.9999976158143
182,45,141759,1,0,0:0:0:0:
182,45,141829,1,0,0:0:0:0:
182,45,141900,6,0,B|129:40|152:169|33:120,1,149.999995231629
337,336,142180,2,0,B|389:342|366:213|484:262,1,149.999995231629
89,373,142460,1,0,0:0:0:0:
0,188,142600,1,0,0:0:0:0:
233,220,142741,1,0,0:0:0:0:
0,188,142881,1,0,0:0:0:0:
89,373,143021,1,0,0:0:0:0:
385,131,143161,1,0,0:0:0:0:
212,340,143301,1,0,0:0:0:0:
96,103,143442,1,0,0:0:0:0:
212,340,143582,1,0,0:0:0:0:
385,131,143722,1,0,0:0:0:0:
96,103,143862,1,0,0:0:0:0:
231,203,144002,1,0,0:0:0:0:
