osu file format v14

[General]
AudioFilename: audio.mp3
AudioLeadIn: 0
PreviewTime: 54600
Countdown: 0
SampleSet: None
StackLeniency: 0.6
Mode: 0
LetterboxInBreaks: 0
WidescreenStoryboard: 1

[Editor]
DistanceSpacing: 0.8
BeatDivisor: 4
GridSize: 16
TimelineZoom: 1

[Metadata]
Title:Way Back Home (Short Ver.)
TitleUnicode:Way Back Home (Short Ver.)
Artist:Krys Talk & Cole Sipe
ArtistUnicode:Krys Talk & Cole Sipe
Creator:Leann
Version:Robicoco101's Light Insane
Source:
Tags:
BeatmapID:1818196
BeatmapSetID:859430

[Difficulty]
HPDrainRate:6
CircleSize:4.2
OverallDifficulty:8
ApproachRate:9
SliderMultiplier:1.4
SliderTickRate:1

[Events]
//Background and Video events
0,0,"anime-aesthetic-wallpaper.jpg",0,0
//Break Periods
//Storyboard Layer 0 (Background)
//Storyboard Layer 1 (Fail)
//Storyboard Layer 2 (Pass)
//Storyboard Layer 3 (Foreground)
//Storyboard Sound Samples

[TimingPoints]
3406,400,4,2,0,80,1,0
3406,-125,4,2,0,80,0,0
26606,-125,4,2,0,80,0,0
31006,-100,4,2,0,80,0,0
31200,400,4,2,0,80,1,0
34600,-83.3333333333333,4,2,0,80,0,0
40900,400,4,2,0,80,1,0
41000,-71.4285714285714,4,2,0,80,0,0
47300,-62.5,4,2,0,80,0,0
51400,-83.3333333333333,4,2,0,80,0,0
54600,-45.4545454545455,4,2,0,80,0,1
55400,-55.5555555555556,4,2,0,80,0,1
55800,-45.4545454545455,4,2,0,80,0,1
56800,-55.5555555555556,4,2,0,80,0,1
57800,-45.4545454545455,4,2,0,80,0,1
58400,-55.5555555555556,4,2,0,80,0,1
59000,-45.4545454545455,4,2,0,80,0,1
60000,-55.5555555555556,4,2,0,80,0,1
61000,-45.4545454545455,4,2,0,80,0,1
61800,-55.5555555555556,4,2,0,80,0,1
62200,-45.4545454545455,4,2,0,80,0,1
63400,-55.5555555555556,4,2,0,80,0,1
64200,-45.4545454545455,4,2,0,80,0,1
64800,-55.5555555555556,4,2,0,80,0,1
65400,-71.4285714285714,4,2,0,80,0,1
66400,-55.5555555555556,4,2,0,80,0,1
67400,-45.4545454545455,4,2,0,80,0,1
68200,-55.5555555555556,4,2,0,80,0,1
68600,-45.4545454545455,4,2,0,80,0,1
69800,-55.5555555555556,4,2,0,80,0,1
70600,-45.4545454545455,4,2,0,80,0,1
72800,-55.5555555555556,4,2,0,80,0,1
73800,-45.4545454545455,4,2,0,80,0,1
74600,-55.5555555555556,4,2,0,80,0,1
74900,-45.4545454545455,4,2,0,80,0,1
76200,-55.5555555555556,4,2,0,80,0,1
77000,-83.3333333333333,4,2,0,80,0,0
77600,-111.111111111111,4,2,0,80,0,0
78200,-166.666666666667,4,2,0,80,0,0
81000,-83.3333333333333,4,2,0,80,0,0

[Colours]
Combo1 : 38,81,128
Combo2 : 252,206,69

[HitObjects]
400,59,4206,5,0,0:0:0:0:
400,59,4406,2,0,P|415:88|411:134,1,56
508,108,4806,2,0,P|387:197|325:113,1,280
325,120,6406,5,0,0:0:0:0:
325,120,6606,2,0,B|267:146|206:118|206:118|215:141|246:168,1,168
299,208,7406,2,0,P|275:229|234:237,1,56
159,258,7806,1,0,0:0:0:0:
159,258,8006,2,0,B|193:368|303:330|282:318|354:295|403:363|403:363|470:257|356:158,1,504
372,176,10606,6,0,P|331:196|309:196,1,56
234,207,11006,1,0,0:0:0:0:
161,151,11206,1,0,0:0:0:0:
149,62,11406,1,0,0:0:0:0:
225,17,11606,2,0,P|295:62|389:49,1,168
375,56,12606,6,0,P|397:98|426:108,1,56
360,185,13006,2,0,P|338:143|309:133,2,56
359,279,13606,2,0,P|337:321|308:331,1,56
232,340,14006,2,0,P|254:298|283:288,1,56
272,189,14406,2,0,B|143:213|131:358|131:358|135:248|79:169|79:169|87:200|77:238,1,504
78,233,17006,5,0,0:0:0:0:
91,137,17206,1,0,0:0:0:0:
166,76,17406,1,0,0:0:0:0:
261,56,17606,2,0,B|353:38|402:126|402:126|339:109|276:159,1,280
298,146,19406,6,0,P|393:180|435:246,1,168
450,322,20206,2,0,P|407:320|379:295,1,56
316,276,20606,2,0,B|208:254|114:330|114:330|194:221|169:100|169:100|175:142|221:196,1,560
213,187,23406,5,0,0:0:0:0:
213,187,23606,2,0,P|237:159|256:152,1,56
321,121,24006,2,0,P|363:108|383:92,1,56
454,47,24406,2,0,P|444:80|448:109,1,56
465,193,24806,2,0,P|475:228|466:254,1,56
398,331,25206,2,0,P|388:296|397:270,1,56
395,190,25606,2,0,P|403:151|228:51,1,280
239,79,27006,5,0,0:0:0:0:
244,104,27406,1,0,0:0:0:0:
249,127,27806,1,0,0:0:0:0:
254,155,28206,1,0,0:0:0:0:
254,155,28406,6,0,P|210:144|188:149,2,56
330,183,29006,2,0,B|400:217|458:180|458:180|481:258|441:326,1,280
361,290,30206,2,0,P|298:272|139:334,1,224
59,284,31200,5,0,0:0:0:0:
59,284,31300,1,0,0:0:0:0:
59,284,31400,2,0,P|94:258|110:210,1,70
132,151,31800,1,0,0:0:0:0:
132,151,32000,1,0,0:0:0:0:
132,151,32200,2,0,P|160:90|231:51,1,140
310,27,32800,2,0,P|359:55|452:32,1,140
479,118,33400,2,0,B|385:203|477:330|477:330|410:307|343:327,1,350
368,322,34600,5,0,0:0:0:0:
281,268,34800,1,0,0:0:0:0:
200,322,35000,1,0,0:0:0:0:
118,267,35200,1,0,0:0:0:0:
118,267,35300,1,0,0:0:0:0:
118,267,35400,2,0,B|218:183|161:67|161:67|231:149|344:124,1,419.999987182618
374,34,36600,2,0,P|426:171|255:180,1,335.999989746094
192,149,37600,5,0,0:0:0:0:
192,149,37700,1,0,0:0:0:0:
192,149,37800,2,0,P|159:117|119:115,1,83.9999974365235
49,182,38200,1,0,0:0:0:0:
49,182,38400,1,0,0:0:0:0:
49,182,38600,2,0,P|37:81|84:20,1,167.999994873047
158,15,39200,2,0,P|215:61|317:70,1,167.999994873047
383,18,39800,2,0,B|415:80|396:124|361:171|293:164|293:164|346:198|416:191|376:163|438:157|492:197,1,419.999987182618
468,276,41000,5,0,0:0:0:0:
396,341,41200,1,0,0:0:0:0:
302,321,41400,1,0,0:0:0:0:
251,242,41600,1,0,0:0:0:0:
272,142,41800,2,0,P|285:90|270:44,1,97.9999970092774
183,13,42200,5,0,0:0:0:0:
406,20,42600,1,0,0:0:0:0:
183,13,43000,2,0,P|124:18|46:129,1,195.999994018555
45,337,43800,1,0,0:0:0:0:
45,231,44000,5,0,0:0:0:0:
45,231,44100,1,0,0:0:0:0:
45,231,44200,2,0,P|86:270|130:274,1,97.9999970092774
249,218,44600,1,0,0:0:0:0:
249,218,44800,1,0,0:0:0:0:
249,218,45000,2,0,P|300:194|437:256,1,195.999994018555
470,351,45600,2,0,P|540:260|491:155,1,195.999994018555
477,88,46200,5,0,0:0:0:0:
378,282,46600,1,0,0:0:0:0:
472,84,47000,1,0,0:0:0:0:
373,278,47400,5,0,0:0:0:0:
278,333,47600,1,0,0:0:0:0:
173,313,47800,1,0,0:0:0:0:
97,245,48000,1,0,0:0:0:0:
97,245,48100,1,0,0:0:0:0:
97,245,48200,2,0,P|72:170|138:40,1,224
357,91,49000,1,0,0:0:0:0:
130,44,49400,2,0,B|74:19|21:39|21:39|71:95|67:160,1,224
89,354,50200,1,0,0:0:0:0:
78,246,50400,5,0,0:0:0:0:
78,246,50500,1,0,0:0:0:0:
78,246,50600,2,0,P|123:286|183:287,1,112
278,209,51000,1,0,0:0:0:0:
278,209,51200,1,0,0:0:0:0:
256,192,51400,12,0,54400,0:0:0:0:
469,178,54600,6,0,B|329:107|206:157|286:179|100:259|1:139,1,462.000014099122
6,285,55400,2,0,P|66:303|120:336,1,125.999996154785
259,360,55800,2,0,B|346:151|65:-45|9:27|8:177|74:183|116:217|212:147|92:124,1,616.000018798829
79,246,56800,5,0,0:0:0:0:
79,246,56900,1,0,0:0:0:0:
79,246,57021,2,0,L|89:315,1,70
170,383,57221,2,0,L|160:313,1,70
212,210,57421,2,0,L|223:279,1,70
313,384,57621,2,0,L|303:314,1,70
292,218,57800,2,0,B|291:173|322:158|322:158|449:234|407:357,1,308.000009399414
490,203,58400,6,0,L|468:104,1,62.9999980773926
448,38,58600,2,0,L|374:148,1,125.999996154785
284,293,59000,2,0,B|172:208|247:100|247:100|127:208|-3:133|-3:133|26:190|112:187,1,616.000018798829
180,274,60000,2,0,P|125:266|105:253,1,62.9999980773926
47,273,60200,6,0,P|55:218|68:198,1,62.9999980773926
115,129,60400,2,0,P|123:184|136:204,1,62.9999980773926
179,299,60600,2,0,P|187:244|200:224,1,62.9999980773926
242,107,60800,2,0,P|250:162|263:182,1,62.9999980773926
301,320,61000,2,0,B|315:191|447:127|447:127|322:109|268:22,1,462.000014099122
148,22,61800,2,0,P|212:85|215:142,1,125.999996154785
190,273,62200,2,0,B|285:99|457:140|457:140|357:168|308:270|308:270|345:233|403:218,1,616.000018798829
483,312,63200,5,0,0:0:0:0:
440,322,63300,1,0,0:0:0:0:
397,334,63400,2,0,L|319:355,1,62.9999980773926
233,307,63600,2,0,L|293:290,1,62.9999980773926
386,196,63800,2,0,L|325:212,1,62.9999980773926
169,186,64000,2,0,L|229:169,1,62.9999980773926
334,114,64200,2,0,B|402:76|487:88|487:88|417:18|322:31,1,308.000009399414
246,84,64800,6,0,B|160:109|81:91|81:91|124:118|163:122,1,251.999992309571
281,180,65400,2,0,B|394:239|356:366|356:366|300:279|274:266|274:266|279:293|277:317,1,391.99998803711
194,348,66400,2,0,P|199:286|197:280,1,62.9999980773926
165,207,66600,6,0,P|196:203|226:212,1,62.9999980773926
370,171,66800,2,0,P|338:167|308:176,1,62.9999980773926
142,120,67000,2,0,P|173:116|203:125,1,62.9999980773926
386,79,67200,2,0,P|354:75|324:84,1,62.9999980773926
157,44,67400,2,0,B|238:64|318:9|318:9|218:89|175:202|175:202|211:178|229:148,1,462.000014099122
336,116,68200,2,0,P|292:166|281:228,1,125.999996154785
369,198,68600,2,0,B|389:264|341:340|221:348|188:241|188:241|87:307|4:242|4:242|89:235|126:163,1,616.000018798829
182,83,69600,5,0,0:0:0:0:
182,83,69700,1,0,0:0:0:0:
182,83,69800,2,0,L|190:165,1,62.9999980773926
263,225,70000,2,0,L|256:162,1,62.9999980773926
315,56,70200,2,0,L|321:118,1,62.9999980773926
388,238,70400,2,0,L|381:175,1,62.9999980773926
392,71,70600,2,0,B|393:33|421:8|421:8|509:90|474:233,1,308.000009399414
457,314,71200,6,0,B|365:274|395:186|395:186|341:267|268:271,1,308.000009399414
277,360,71800,2,0,B|198:351|165:271|184:220|251:185|251:185|190:205|117:193|177:161|93:154|22:186|22:186|75:139|70:47,1,616.000018798829
190,69,72800,2,0,P|246:67|256:63,1,62.9999980773926
327,21,73000,6,0,P|334:51|331:82,1,62.9999980773926
355,222,73200,2,0,P|347:191|350:160,1,62.9999980773926
409,4,73400,2,0,P|416:34|413:65,1,62.9999980773926
436,245,73600,2,0,P|428:214|431:183,1,62.9999980773926
475,64,73800,2,0,B|489:24|503:6|503:6|405:60|322:21|322:21|253:57|250:145|250:145|266:104|316:86,1,462.000014099122
385,113,74600,2,0,P|356:190|287:246,1,125.999996154785
251,162,74900,2,0,B|202:237|234:348|392:349|418:248|418:248|440:277|488:282|488:282|531:119|426:20,1,693.000021148682
277,47,76000,5,0,0:0:0:0:
277,47,76100,1,0,0:0:0:0:
277,47,76200,2,0,L|346:57,1,62.9999980773926
451,121,76400,2,0,L|388:111,1,62.9999980773926
234,137,76600,2,0,L|296:146,1,62.9999980773926
454,220,76800,2,0,L|391:210,1,62.9999980773926
158,241,77000,6,0,L|346:284,1,167.999994873047
454,322,77600,2,0,L|323:353,1,125.999996154785
206,346,78200,2,0,B|243:248|377:232|377:232|281:234|208:190,1,377.999988464356
206,346,80200,1,0,0:0:0:0:
61,52,81000,5,0,0:0:0:0:
61,52,81400,2,0,L|65:99,11,41.9999987182618
65,184,82600,2,0,L|61:225,7,41.9999987182618
52,317,83400,2,0,L|93:313,7,41.9999987182618
185,310,84200,2,0,L|226:313,3,41.9999987182618
328,328,84600,2,0,L|325:287,7,41.9999987182618
264,192,85400,2,0,L|261:233,3,41.9999987182618
345,139,85800,5,0,0:0:0:0:
56,59,86200,1,0,0:0:0:0:
83,302,86600,2,0,L|88:362,7,41.9999987182618
164,362,87400,5,0,0:0:0:0:
195,127,87800,2,0,L|203:52,9,41.9999987182618
425,160,89000,6,0,L|417:113,1,41.9999987182618
361,24,89200,2,0,L|352:71,2,41.9999987182618
336,287,89600,6,0,L|322:242,1,41.9999987182618
252,131,89800,2,0,L|242:189,5,41.9999987182618
233,272,90400,2,0,L|177:281,1,41.9999987182618
82,319,90600,2,0,L|139:326,3,41.9999987182618
239,313,91000,2,0,L|232:271,9,41.9999987182618
229,167,92000,6,0,L|285:186,1,41.9999987182618
390,203,92200,2,0,L|325:224,3,41.9999987182618
233,256,92600,2,0,L|287:265,3,41.9999987182618
401,289,93000,2,0,L|346:303,7,41.9999987182618
265,314,93800,6,0,L|277:249,3,41.9999987182618
285,174,94200,2,0,L|275:117,11,41.9999987182618
265,35,95400,2,0,L|323:48,5,41.9999987182618
168,42,96000,6,0,L|172:93,1,41.9999987182618
185,193,96200,2,0,L|208:143,7,41.9999987182618
251,68,97000,2,0,L|272:143,3,41.9999987182618
288,196,97400,2,0,L|331:204,9,41.9999987182618
437,215,98400,6,0,L|411:251,1,41.9999987182618
348,311,98600,2,0,L|288:300,3,41.9999987182618
208,293,99000,2,0,L|165:304,3,41.9999987182618
66,311,99400,2,0,L|86:255,7,41.9999987182618
110,166,100200,5,0,0:0:0:0:
365,236,100600,2,0,L|411:255,11,41.9999987182618
488,251,101800,6,0,L|471:200,1,41.9999987182618
452,130,102000,2,0,L|397:111,3,41.9999987182618
319,103,102400,6,0,L|335:145,1,41.9999987182618
355,219,102600,2,0,L|312:214,5,41.9999987182618
201,213,103200,2,0,P|225:277|370:314,1,209.999993591309
256,192,103800,12,0,105656,0:0:0:0:
