osu file format v14

[General]
AudioFilename: audio.mp3
AudioLeadIn: 0
PreviewTime: 54606
Countdown: 0
SampleSet: Normal
StackLeniency: 0.6
Mode: 0
LetterboxInBreaks: 0
WidescreenStoryboard: 0

[Editor]
DistanceSpacing: 0.5
BeatDivisor: 4
GridSize: 32
TimelineZoom: 1.100006

[Metadata]
Title:Way Back Home
TitleUnicode:Way Back Home
Artist:Krys Talk & Cole Sipe
ArtistUnicode:Krys Talk & Cole Sipe
Creator:Leann
Version:Insane
Source:
Tags:
BeatmapID:1795903
BeatmapSetID:859430

[Difficulty]
HPDrainRate:7
CircleSize:4.3
OverallDifficulty:8
ApproachRate:9.1
SliderMultiplier:0.9
SliderTickRate:1

[Events]
//Background and Video events
0,0,"anime-aesthetic-wallpaper.jpg",0,0
//Break Periods
//Storyboard Layer 0 (Background)
//Storyboard Layer 1 (Fail)
//Storyboard Layer 2 (Pass)
//Storyboard Layer 3 (Foreground)
//Storyboard Sound Samples

[TimingPoints]
3406,400,4,1,0,100,1,0
8006,-153.846153846153,4,1,0,100,0,0
9806,-100,4,1,0,100,0,0
11406,-62.5,4,1,0,100,0,0
11606,-100,4,1,0,100,0,0
17606,-133.333333333333,4,1,0,100,0,0
18606,-100,4,1,0,100,0,0
24006,-133.333333333333,4,1,0,100,0,0
25006,-100,4,1,0,100,0,0
28606,-45.4545454545455,4,1,0,100,0,0
32206,-71.4285714285714,4,1,0,100,0,0
34206,-41.6666666666667,4,1,0,100,0,0
38606,-100,4,1,0,100,0,0
40606,-43.4782608695652,4,1,0,100,0,0
44206,-41.6666666666667,4,1,0,100,0,0
46606,-66.6666666666667,4,1,0,100,0,0
47006,-41.6666666666667,4,1,0,100,0,0
48206,-100,4,1,0,100,0,0
48806,-41.6666666666667,4,1,0,100,0,0
52206,-133.333333333333,4,1,0,100,0,0
54506,-40,4,1,0,100,0,1
54606,-40,4,1,0,100,0,1
59006,-133.333333333333,4,1,0,100,0,1
59806,-40,4,1,0,100,0,1
62206,-58.8235294117647,4,1,0,100,0,1
62606,-40,4,1,0,100,0,1
64206,-133.333333333333,4,1,0,100,0,1
65206,-200,4,1,0,100,0,1
66206,-40,4,1,0,100,0,1
77006,-100,4,1,0,100,0,1
78806,-40,4,1,0,100,0,1
80106,-40,4,1,0,100,0,0
81006,-40,4,1,0,100,0,1
85806,-100,4,1,0,100,0,1
86406,-40,4,1,0,100,0,1
89806,-66.6666666666667,4,1,0,100,0,1
90706,-100,4,1,0,100,0,1
91606,-40,4,1,0,100,0,1
96206,-66.6666666666667,4,1,0,100,0,1
98406,-40,4,1,0,100,0,1
102006,-83.3333333333333,4,1,0,100,0,0

[HitObjects]
106,229,4206,6,0,L|163:229,1,45
220,143,4606,1,0,0:0:0:0:
220,143,4806,2,0,L|355:145,1,135
427,268,5806,1,0,0:0:0:0:
182,230,6406,5,0,0:0:0:0:
182,230,6606,2,0,B|120:183|120:183|172:145|178:103,1,180
295,85,7806,1,0,0:0:0:0:
130,261,8006,2,0,B|200:228|278:244|237:274|327:291|392:249,1,263.249987949372
367,112,10606,6,0,P|394:185|392:194,1,90
328,272,11206,1,0,0:0:0:0:
231,271,11406,2,0,L|192:182,1,72
158,125,12206,1,0,0:0:0:0:
45,190,12606,5,0,0:0:0:0:
94,246,12806,1,0,0:0:0:0:
156,289,13006,2,0,L|259:289,1,90
353,235,13606,2,0,P|383:179|387:136,1,90
185,157,14406,1,0,0:0:0:0:
256,192,14606,12,0,16206,0:0:0:0:
380,88,17006,5,0,0:0:0:0:
344,218,17206,1,0,0:0:0:0:
258,281,17406,1,0,0:0:0:0:
258,281,17606,2,0,B|227:261|212:183|255:209|241:144|219:113,1,168.750006437302
117,230,19406,6,0,P|204:286|235:273,1,135
332,230,20206,1,0,0:0:0:0:
387,107,20406,1,0,0:0:0:0:
237,87,20606,2,0,B|181:99|124:115|91:115|91:115|47:115|47:115|92:189|92:187,1,270
357,279,22606,1,0,0:0:0:0:
339,64,23406,6,0,L|287:68,1,45
213,79,23806,1,0,0:0:0:0:
60,182,24006,2,0,L|100:196,1,33.7500012874604
239,288,24406,2,0,L|278:281,1,33.7500012874604
416,164,24806,2,0,L|443:130,1,33.7500012874604
289,75,25206,1,0,0:0:0:0:
138,92,25606,2,0,B|103:138|103:138|164:194|178:286,1,225
326,304,27006,5,0,0:0:0:0:
375,226,27406,1,0,0:0:0:0:
393,145,27806,1,0,0:0:0:0:
323,83,28206,2,0,L|271:72,1,45
115,227,28606,6,0,B|93:328,2,99.0000030212403
225,46,29206,2,0,L|206:151,1,99.0000030212403
390,135,29606,1,0,0:0:0:0:
290,185,29806,2,0,B|222:206|191:204|168:197,1,99.0000030212403
109,112,30206,2,0,P|137:74|276:42,1,198.000006042481
277,43,30806,1,0,0:0:0:0:
349,122,31006,1,0,0:0:0:0:
258,297,31206,5,0,0:0:0:0:
213,275,31306,1,0,0:0:0:0:
177,239,31406,2,0,L|124:130,1,99.0000030212403
315,92,31806,2,0,L|370:205,1,99.0000030212403
264,309,32206,2,0,B|261:293|185:241|193:291|127:248|115:205,1,188.999994232178
195,104,33006,1,0,0:0:0:0:
338,86,33206,1,0,0:0:0:0:
392,210,33406,2,0,B|347:280|347:280|174:307,1,251.999992309571
80,128,34606,6,0,B|113:84|178:98|193:104,1,107.999996704102
273,280,35006,2,0,P|348:268|394:226,1,107.999996704102
448,175,35406,1,0,0:0:0:0:
448,175,35606,1,0,0:0:0:0:
326,71,35806,2,0,P|228:57|175:63,1,107.999996704102
109,144,36206,1,0,0:0:0:0:
109,144,36406,1,0,0:0:0:0:
139,314,36606,2,0,P|281:271|433:323,1,310.500005922318
438,324,37406,1,0,0:0:0:0:
274,108,37606,5,0,0:0:0:0:
267,106,37706,1,0,0:0:0:0:
260,104,37806,2,0,P|188:88|139:90,2,107.999996704102
258,294,38406,1,0,0:0:0:0:
406,265,38606,6,0,L|365:177,1,90
183,53,39206,2,0,L|222:135,1,90
215,279,39806,2,0,P|128:252|102:160,1,180
435,94,41006,5,0,0:0:0:0:
399,192,41206,1,0,0:0:0:0:
320,270,41406,2,0,P|270:275|205:257,1,103.500001974106
134,175,41806,5,0,0:0:0:0:
401,112,42206,1,0,0:0:0:0:
428,191,42606,1,0,0:0:0:0:
214,300,43006,5,0,0:0:0:0:
144,90,43406,1,0,0:0:0:0:
143,84,43806,1,0,0:0:0:0:
421,127,44006,5,0,0:0:0:0:
398,139,44106,1,0,0:0:0:0:
375,154,44206,2,0,P|313:183|256:193,1,107.999996704102
247,192,44506,1,0,0:0:0:0:
220,189,44606,2,0,P|130:204|98:234,2,107.999996704102
356,234,45406,5,0,0:0:0:0:
393,128,45806,1,0,0:0:0:0:
224,184,46206,1,0,0:0:0:0:
224,184,46406,1,0,0:0:0:0:
101,160,46606,2,0,P|146:80|188:57,1,135.000005149842
391,182,47406,5,0,0:0:0:0:
274,295,47606,2,0,P|230:280|187:232,1,107.999996704102
301,182,48006,1,0,0:0:0:0:
306,79,48206,2,0,P|240:66|177:87,1,135,0|0,0:3|0:3,0:3:0:0:
366,275,49406,1,0,0:0:0:0:
123,253,50406,5,0,0:0:0:0:
125,246,50506,1,0,0:0:0:0:
127,240,50606,1,0,0:0:0:0:
170,120,50806,2,0,P|226:75|273:68,1,107.999996704102
273,164,51206,1,0,0:0:0:0:
121,266,52206,6,0,L|166:272,1,33.7500012874604
354,219,52606,1,0,0:0:0:0:
354,219,52806,2,0,L|284:203,1,67.5000025749208
110,156,53606,1,0,0:0:0:0:
137,124,54006,1,0,0:0:0:0:
166,93,54406,1,0,0:0:0:0:
384,49,54606,6,0,B|405:121|382:197|358:153|339:227|369:313,1,225
358,267,55206,1,0,0:0:0:0:
188,299,55406,1,0,0:0:0:0:
147,258,55606,1,0,0:0:0:0:
137,58,55806,6,0,B|211:60|282:100|228:115|292:155|360:154,1,225,0|0,0:0|0:0,0:3:0:0:
334,152,56406,1,0,0:0:0:0:
232,330,56606,1,0,0:0:0:0:
89,286,56806,5,0,0:0:0:0:
112,226,56906,1,0,0:0:0:0:
138,169,57006,2,0,P|190:147|251:165,1,112.5
301,317,57406,1,0,0:0:0:0:
402,155,57606,5,0,0:0:0:0:
402,155,57806,2,0,L|294:67,1,112.5
163,85,58206,1,0,0:0:0:0:
252,165,58406,2,0,B|267:222|261:293,1,112.5
241,343,58806,1,0,0:0:0:0:
75,269,59006,2,0,L|112:137,1,135.000005149842
419,88,60206,5,0,0:0:0:0:
226,140,60406,1,0,0:0:0:0:
431,229,60606,1,0,0:0:0:0:
254,310,60806,1,0,0:0:0:0:
121,112,61006,5,0,0:0:0:0:
121,112,61206,2,0,B|127:159|157:233,1,112.5
215,323,61606,1,0,0:0:0:0:
278,191,61806,1,0,0:0:0:0:
394,299,62006,1,0,0:0:0:0:
403,92,62206,2,0,B|342:127|237:163,1,153.000002918243
137,54,62806,2,0,P|117:92|102:164,1,112.5
144,291,63206,5,0,0:0:0:0:
203,280,63306,1,0,0:0:0:0:
261,264,63406,1,0,0:0:0:0:
418,200,63606,2,0,L|293:118,1,112.5
266,107,64006,1,0,0:0:0:0:
84,79,64206,6,0,L|103:158,1,67.5000025749208
297,320,64806,6,0,L|274:244,1,67.5000025749208
403,74,65406,6,0,L|374:160,1,90
193,182,66606,5,0,0:0:0:0:
117,306,66806,1,0,0:0:0:0:
262,230,67006,1,0,0:0:0:0:
368,229,67206,2,0,L|294:138,1,112.5
133,68,67606,1,0,0:0:0:0:
133,68,67806,2,0,L|82:181,1,112.5
69,307,68206,5,0,0:0:0:0:
273,233,68406,1,0,0:0:0:0:
137,161,68606,2,0,P|170:117|230:82,1,112.5
388,108,69006,1,0,0:0:0:0:
332,311,69206,1,0,0:0:0:0:
332,311,69406,1,0,0:0:0:0:
148,111,69606,5,0,0:0:0:0:
125,171,69706,1,0,0:0:0:0:
150,229,69806,2,0,P|208:260|284:252,1,112.5
410,153,70206,5,0,0:0:0:0:
346,322,70406,1,0,0:0:0:0:
346,322,70606,2,0,B|272:337|220:313|243:288|171:264|106:271,1,225,0|0,0:3|0:3,0:3:0:0:
38,195,71206,2,0,B|249:97,1,225
254,90,71706,1,0,0:0:0:0:
268,80,71806,2,0,B|322:68|355:94|401:54,1,112.5
475,236,72206,1,0,0:0:0:0:
341,220,72406,1,0,0:0:0:0:
292,89,72606,2,0,P|246:137|227:186,1,112.5
72,316,73006,5,0,0:0:0:0:
218,277,73206,1,0,0:0:0:0:
353,214,73406,1,0,0:0:0:0:
232,120,73606,1,0,0:0:0:0:
232,120,73806,2,0,L|335:50,2,112.5
79,293,74406,5,0,0:0:0:0:
79,293,74606,2,0,P|148:303|212:293,1,112.5,0|0,0:1|0:1,0:1:0:0:
446,149,75006,6,0,B|367:171|305:135|333:114|266:98|190:100,1,225
83,71,75606,1,0,0:0:0:0:
182,290,75806,1,0,0:0:0:0:
420,199,76006,5,0,0:0:0:0:
414,195,76106,1,0,0:0:0:0:
408,191,76206,2,0,P|346:140|312:109,1,112.5
94,162,76606,2,0,P|91:251|110:286,1,112.5
348,303,77006,6,0,L|252:263,1,90
79,103,77606,2,0,P|127:106|177:124,1,90
456,185,78206,2,0,L|306:228,1,135
233,223,79006,5,0,0:0:0:0:
233,223,79206,1,0,0:0:0:0:
130,46,79406,2,0,P|156:84|186:109,1,56.25
417,42,79706,2,0,L|387:102,1,56.25
400,335,80006,2,0,L|346:308,1,56.25
232,229,80206,1,0,0:0:0:0:
126,78,81006,6,0,P|191:47|240:48,1,112.5
407,158,81406,2,0,P|325:160|283:193,1,112.5
104,121,81806,1,0,0:0:0:0:
275,255,82006,1,0,0:0:0:0:
113,286,82206,1,0,0:0:0:0:
256,92,82406,1,0,0:0:0:0:
432,277,82606,6,0,P|456:226|468:171,1,112.5
416,65,83006,1,0,0:0:0:0:
344,138,83206,2,0,B|324:193|242:207,1,112.5
137,150,83606,5,0,0:0:0:0:
31,309,83806,1,0,0:0:0:0:
149,118,84006,5,0,0:0:0:0:
148,341,84206,1,0,0:0:0:0:
164,89,84406,1,0,0:0:0:0:
352,87,84606,1,0,0:0:0:0:
356,92,84806,2,0,B|388:186|384:232|383:230,2,112.5
299,237,85406,1,0,0:0:0:0:
294,240,85606,1,0,0:0:0:0:
73,259,85806,6,0,L|48:268,2,22.5
246,72,86206,2,0,L|270:44,2,22.5
372,309,86606,5,0,0:0:0:0:
372,309,86806,2,0,B|255:275|170:192,1,225
143,82,87406,1,0,0:0:0:0:
429,98,87606,1,0,0:0:0:0:
384,152,87806,2,0,B|334:216|213:267|271:189|186:204|87:294,1,337.5
28,146,88606,5,0,0:0:0:0:
165,78,88806,1,0,0:0:0:0:
192,299,89006,1,0,0:0:0:0:
364,300,89206,2,0,B|413:247|435:200,1,112.5
430,209,89606,1,0,0:0:0:0:
94,73,89806,6,0,L|145:184,1,101.250003862381
231,291,90206,1,0,0:0:0:0:
394,302,90406,6,0,P|427:224|426:188,1,101.250003862381
354,79,90806,1,0,0:0:0:0:
272,270,91006,6,0,B|206:250|150:199,1,135
117,44,91806,1,0,0:0:0:0:
346,117,92006,1,0,0:0:0:0:
244,325,92206,1,0,0:0:0:0:
187,102,92406,1,0,0:0:0:0:
380,227,92606,1,0,0:0:0:0:
101,231,92806,1,0,0:0:0:0:
340,93,93006,6,0,P|407:85|464:107,2,112.5
175,240,93606,1,0,0:0:0:0:
362,239,93806,1,0,0:0:0:0:
232,78,94006,1,0,0:0:0:0:
106,118,94206,2,0,P|66:188|77:236,1,112.5
247,297,94606,5,0,0:0:0:0:
322,168,94806,1,0,0:0:0:0:
343,326,95006,1,0,0:0:0:0:
217,199,95206,1,0,0:0:0:0:
85,82,95406,2,0,P|157:115|221:122,1,112.5
374,277,95806,2,0,B|429:213|424:162|423:162,1,112.5
154,278,96206,6,0,P|117:194|110:126,1,135.000005149842
110,151,96806,1,0,0:0:0:0:
254,53,97006,1,0,0:0:0:0:
346,258,97206,1,0,0:0:0:0:
425,93,97406,6,0,P|323:135|279:152,1,135.000005149842
143,184,98006,1,0,0:0:0:0:
280,313,98206,2,0,P|339:309|368:297,1,67.5000025749208
425,147,98606,5,0,0:0:0:0:
375,128,98706,1,0,0:0:0:0:
323,135,98806,1,0,0:0:0:0:
100,211,99006,5,0,0:0:0:0:
145,237,99106,1,0,0:0:0:0:
198,239,99206,1,0,0:0:0:0:
455,302,99406,6,0,B|442:218|428:192,1,112.5,0|0,0:3|0:3,0:3:0:0:
313,96,99806,1,0,0:0:0:0:
290,306,100006,1,0,0:0:0:0:
401,210,100206,1,0,0:0:0:0:
192,134,100406,1,0,0:0:0:0:
64,130,100606,6,0,P|57:212|80:247,1,112.5
359,214,101006,2,0,P|279:182|260:153,1,112.5,0|0,0:3|0:3,0:3:0:0:
187,84,101406,1,0,0:0:0:0:
187,84,101606,1,0,0:0:0:0:
109,164,101806,1,0,0:0:0:0:
441,192,102006,6,0,P|389:141|341:129,1,107.999996704102
60,143,102606,2,0,L|161:206,1,107.999996704102
357,298,103206,2,0,P|406:228|395:190,1,107.999996704102
329,106,103806,1,0,0:0:0:0:
256,192,104006,12,0,105606,0:0:0:0:
