osu file format v14

[General]
AudioFilename: audio.mp3
AudioLeadIn: 0
PreviewTime: 105611
Countdown: 0
SampleSet: Soft
StackLeniency: 0.7
Mode: 3
LetterboxInBreaks: 0
SpecialStyle: 0
WidescreenStoryboard: 0

[Editor]
Bookmarks: 56554,58585,66554,94554,152919,159319,164119,225609,233609
DistanceSpacing: 0.6
BeatDivisor: 8
GridSize: 16
TimelineZoom: 3.599999

[Metadata]
Title:Last Wish
TitleUnicode:Last Wish
Artist:Kry.exe feat. Ice
ArtistUnicode:Kry.exe feat. Ice
Creator:Mich_
Version:This is your Last Wish.
Source:Beat Saber World Cup 2022
Tags:bswc 2022 grand finals tiebreaker hi-tech gothic hardcore drumstep otogecore speedcore orchestral melodic frenchcore breakcore instrumental electronic psytrance
BeatmapID:4072432
BeatmapSetID:1964175

[Difficulty]
HPDrainRate:8
CircleSize:4
OverallDifficulty:7.4
ApproachRate:5
SliderMultiplier:1.4
SliderTickRate:1

[Events]
//Background and Video events
0,0,"last wish 3.png",0,0
//Break Periods
//Storyboard Layer 0 (Background)
//Storyboard Layer 1 (Fail)
//Storyboard Layer 2 (Pass)
//Storyboard Layer 3 (Foreground)
//Storyboard Layer 4 (Overlay)
//Storyboard Sound Samples

[TimingPoints]
0,285.714285714286,4,2,1,50,1,0
0,-87.719298245614,4,2,1,50,0,0
71,-200,4,2,1,50,0,0
181.7,-188.679245283019,4,2,1,50,0,0
292.4,-178.571428571429,4,2,1,50,0,0
403.1,-166.666666666667,4,2,1,50,0,0
513.8,-158.730158730159,4,2,1,50,0,0
624.5,-151.515151515152,4,2,1,50,0,0
735.2,-144.927536231884,4,2,1,50,0,0
845.9,-138.888888888889,4,2,1,50,0,0
956.6,-131.578947368421,4,2,1,50,0,0
1067.3,-126.582278481013,4,2,1,50,0,0
1178,-121.951219512195,4,2,1,50,0,0
1288.7,-117.647058823529,4,2,1,50,0,0
1399.4,-113.636363636364,4,2,1,50,0,0
1510.1,-108.695652173913,4,2,1,50,0,0
1620.8,-105.263157894737,4,2,1,50,0,0
1731.5,-102.040816326531,4,2,1,50,0,0
1842.2,-99.009900990099,4,2,1,50,0,0
1952.9,-96.1538461538461,4,2,1,50,0,0
2063.6,-92.5925925925926,4,2,1,50,0,0
2174.3,-90.0900900900901,4,2,1,50,0,0
2285,-87.719298245614,4,2,1,50,0,0
34285,272.727272727273,4,2,1,50,1,0
34285,-91.743119266055,4,2,1,50,0,0
36468,260.869565217391,4,2,1,50,1,0
36468,-96.1538461538461,4,2,1,50,0,0
38554,250,4,2,1,50,1,0
42554,-100,4,2,1,50,0,1
61554,-100,4,2,1,50,0,0
62554,-100,4,2,1,50,0,1
65554,-100,4,2,1,50,0,0
98554,240,4,2,1,50,1,0
98554,-104.166666666667,4,2,1,50,0,0
99514,230.769230769231,4,2,1,50,1,0
99514,-108.695652173913,4,2,1,50,0,0
100438,222.222222222222,4,2,1,50,1,0
100438,-112.359550561798,4,2,1,50,0,0
101326,214.285714285714,4,2,1,50,1,0
101326,-116.279069767442,4,2,1,50,0,0
105611,-116.279069767442,4,2,1,50,0,1
133040,-116.279069767442,4,2,1,50,0,0
139898,206.896551724138,4,2,1,50,1,0
139898,-120.481927710843,4,2,1,50,0,0
146519,200,4,2,1,50,1,0
146519,-125,4,2,1,50,0,0
165719,-125,4,2,1,50,0,1
189719,214.285714285714,4,2,1,50,1,0
189719,-116.279069767442,4,2,1,50,0,1
190147,230.769230769231,4,2,1,50,1,0
190147,-108.695652173913,4,2,1,50,0,1
190609,250,4,2,1,50,1,1
191609,-100,4,2,1,50,0,0
257609,-100,4,2,1,50,0,1
289609,-100,4,2,1,50,0,0
305609,-100,4,2,1,50,0,1
319609,-100,4,2,1,50,0,0
321609,-100,4,2,1,50,0,1
322109,-100,4,2,1,50,0,0
326109,125,4,2,1,50,1,0
326109,-200,4,2,1,50,0,1
328109,62.5,4,2,1,50,1,0
328109,-400,4,2,1,50,0,1
330109,125,4,2,1,50,1,0
330109,-200,4,2,1,50,0,0

[HitObjects]
192,192,71,128,0,2285:0:0:0:0:
448,192,2285,5,0,0:0:0:0:
64,192,2285,128,0,2357:0:0:0:0:
320,192,2357,1,0,0:0:0:0:
192,192,2428,1,0,0:0:0:0:
64,192,2500,1,0,0:0:0:0:
448,192,2571,1,0,0:0:0:0:
192,192,2642,1,0,0:0:0:0:
64,192,2714,128,0,2785:0:0:0:0:
448,192,2785,1,0,0:0:0:0:
320,192,2857,1,0,0:0:0:0:
192,192,2928,1,0,0:0:0:0:
320,192,3000,1,0,0:0:0:0:
448,192,3071,1,0,0:0:0:0:
64,192,3142,1,0,0:0:0:0:
192,192,3214,1,0,0:0:0:0:
448,192,3285,1,0,0:0:0:0:
64,192,3357,1,0,0:0:0:0:
192,192,3428,128,0,3500:0:0:0:0:
320,192,3500,1,0,0:0:0:0:
448,192,3571,1,0,0:0:0:0:
64,192,3642,1,0,0:0:0:0:
320,192,3714,1,0,0:0:0:0:
64,192,3785,1,0,0:0:0:0:
192,192,3857,128,0,3928:0:0:0:0:
448,192,3928,1,0,0:0:0:0:
320,192,4000,1,0,0:0:0:0:
192,192,4071,1,0,0:0:0:0:
64,192,4142,1,0,0:0:0:0:
192,192,4214,1,0,0:0:0:0:
320,192,4285,1,0,0:0:0:0:
448,192,4357,1,0,0:0:0:0:
192,192,4428,1,0,0:0:0:0:
64,192,4500,1,0,0:0:0:0:
448,192,4571,128,0,4642:0:0:0:0:
320,192,4642,1,0,0:0:0:0:
192,192,4714,1,0,0:0:0:0:
64,192,4785,1,0,0:0:0:0:
320,192,4857,1,0,0:0:0:0:
192,192,4928,1,0,0:0:0:0:
448,192,5000,128,0,5071:0:0:0:0:
64,192,5071,1,0,0:0:0:0:
192,192,5142,1,0,0:0:0:0:
320,192,5214,1,0,0:0:0:0:
192,192,5285,1,0,0:0:0:0:
64,192,5357,1,0,0:0:0:0:
448,192,5428,1,0,0:0:0:0:
320,192,5500,1,0,0:0:0:0:
192,192,5571,1,0,0:0:0:0:
64,192,5642,1,0,0:0:0:0:
320,192,5714,128,0,5785:0:0:0:0:
448,192,5714,1,0,0:0:0:0:
192,192,5785,1,0,0:0:0:0:
64,192,5857,1,0,0:0:0:0:
448,192,5857,1,0,0:0:0:0:
320,192,5928,1,0,0:0:0:0:
192,192,5928,1,0,0:0:0:0:
64,192,6000,1,0,0:0:0:0:
448,192,6000,1,0,0:0:0:0:
320,192,6142,128,0,6214:0:0:0:0:
448,192,6142,1,0,0:0:0:0:
192,192,6285,1,0,0:0:0:0:
448,192,6285,1,0,0:0:0:0:
64,192,6357,1,0,0:0:0:0:
320,192,6357,1,0,0:0:0:0:
192,192,6428,1,0,0:0:0:0:
448,192,6428,1,0,0:0:0:0:
320,192,6571,1,0,0:0:0:0:
448,192,6571,1,0,0:0:0:0:
64,192,6571,1,0,0:0:0:0:
192,192,6642,1,0,0:0:0:0:
320,192,6714,1,0,0:0:0:0:
448,192,6785,1,0,0:0:0:0:
64,192,6857,128,0,7428:0:0:0:0:
192,192,6857,128,0,6928:0:0:0:0:
320,192,6857,1,0,0:0:0:0:
448,192,6928,128,0,7000:0:0:0:0:
192,192,7000,128,0,7071:0:0:0:0:
448,192,7071,128,0,7142:0:0:0:0:
320,192,7142,128,0,7214:0:0:0:0:
192,192,7214,128,0,7285:0:0:0:0:
320,192,7285,128,0,7357:0:0:0:0:
192,192,7357,128,0,7428:0:0:0:0:
320,192,7428,128,0,7500:0:0:0:0:
448,192,7500,128,0,7571:0:0:0:0:
64,192,7571,128,0,7642:0:0:0:0:
448,192,7642,128,0,7714:0:0:0:0:
192,192,7714,128,0,7785:0:0:0:0:
64,192,7785,128,0,7857:0:0:0:0:
320,192,7857,128,0,7928:0:0:0:0:
192,192,7928,128,0,8000:0:0:0:0:
448,192,8000,128,0,8071:0:0:0:0:
64,192,8071,128,0,8142:0:0:0:0:
448,192,8142,128,0,8214:0:0:0:0:
64,192,8214,128,0,8285:0:0:0:0:
320,192,8285,128,0,8357:0:0:0:0:
64,192,8357,128,0,8428:0:0:0:0:
320,192,8428,128,0,8500:0:0:0:0:
192,192,8500,128,0,8571:0:0:0:0:
448,192,8571,128,0,8642:0:0:0:0:
64,192,8642,128,0,8714:0:0:0:0:
320,192,8714,128,0,8785:0:0:0:0:
192,192,8785,128,0,8857:0:0:0:0:
64,192,8857,128,0,8928:0:0:0:0:
448,192,8928,128,0,9000:0:0:0:0:
192,192,9000,128,0,9071:0:0:0:0:
320,192,9071,128,0,9142:0:0:0:0:
64,192,9142,128,0,9214:0:0:0:0:
448,192,9142,128,0,9214:0:0:0:0:
320,192,9214,128,0,9285:0:0:0:0:
64,192,9285,128,0,9428:0:0:0:0:
448,192,9285,128,0,9357:0:0:0:0:
192,192,9357,128,0,9428:0:0:0:0:
448,192,9428,128,0,9500:0:0:0:0:
192,192,9500,128,0,9571:0:0:0:0:
64,192,9571,128,0,9714:0:0:0:0:
320,192,9571,128,0,9642:0:0:0:0:
192,192,9642,128,0,9714:0:0:0:0:
320,192,9714,128,0,9785:0:0:0:0:
448,192,9785,128,0,9857:0:0:0:0:
64,192,9857,128,0,10000:0:0:0:0:
192,192,9857,128,0,10000:0:0:0:0:
320,192,9928,128,0,10000:0:0:0:0:
448,192,10000,128,0,10071:0:0:0:0:
320,192,10071,128,0,10142:0:0:0:0:
192,192,10142,128,0,10285:0:0:0:0:
64,192,10142,128,0,10285:0:0:0:0:
448,192,10214,128,0,10285:0:0:0:0:
320,192,10285,128,0,10357:0:0:0:0:
64,192,10357,128,0,10428:0:0:0:0:
320,192,10428,128,0,10571:0:0:0:0:
448,192,10428,128,0,10571:0:0:0:0:
64,192,10500,128,0,10571:0:0:0:0:
192,192,10571,128,0,10642:0:0:0:0:
64,192,10642,128,0,10714:0:0:0:0:
320,192,10714,128,0,10857:0:0:0:0:
448,192,10714,128,0,10857:0:0:0:0:
192,192,10785,128,0,10857:0:0:0:0:
64,192,10857,128,0,10928:0:0:0:0:
320,192,10928,128,0,11000:0:0:0:0:
192,192,11000,128,0,11071:0:0:0:0:
448,192,11000,128,0,11142:0:0:0:0:
64,192,11071,128,0,11142:0:0:0:0:
192,192,11142,128,0,11214:0:0:0:0:
320,192,11214,128,0,11285:0:0:0:0:
448,192,11285,128,0,11428:0:0:0:0:
64,192,11285,128,0,11357:0:0:0:0:
192,192,11357,128,0,11428:0:0:0:0:
320,192,11428,1,0,0:0:0:0:
64,192,11428,1,0,0:0:0:0:
448,192,11714,128,0,11785:0:0:0:0:
192,192,11785,128,0,11857:0:0:0:0:
448,192,11857,128,0,11928:0:0:0:0:
192,192,11928,128,0,12000:0:0:0:0:
320,192,12000,128,0,12071:0:0:0:0:
192,192,12071,128,0,12142:0:0:0:0:
320,192,12142,128,0,12214:0:0:0:0:
192,192,12214,128,0,12285:0:0:0:0:
64,192,12285,128,0,12357:0:0:0:0:
320,192,12357,128,0,12428:0:0:0:0:
64,192,12428,128,0,12500:0:0:0:0:
192,192,12500,128,0,12571:0:0:0:0:
320,192,12571,1,0,0:0:0:0:
448,192,12571,1,0,0:0:0:0:
64,192,12571,1,0,0:0:0:0:
448,192,12642,1,0,0:0:0:0:
192,192,12642,1,0,0:0:0:0:
320,192,12642,1,0,0:0:0:0:
192,192,12785,1,0,0:0:0:0:
320,192,12785,1,0,0:0:0:0:
448,192,12785,1,0,0:0:0:0:
64,192,12928,1,0,0:0:0:0:
192,192,12928,1,0,0:0:0:0:
320,192,12928,1,0,0:0:0:0:
320,192,13071,1,0,0:0:0:0:
448,192,13071,1,0,0:0:0:0:
64,192,13071,1,0,0:0:0:0:
192,192,13214,1,0,0:0:0:0:
64,192,13214,1,0,0:0:0:0:
448,192,13214,1,0,0:0:0:0:
320,192,13357,1,0,0:0:0:0:
448,192,13357,1,0,0:0:0:0:
64,192,13357,1,0,0:0:0:0:
320,192,13428,1,0,0:0:0:0:
448,192,13428,1,0,0:0:0:0:
192,192,13428,128,0,13500:0:0:0:0:
320,192,13571,1,0,0:0:0:0:
448,192,13571,1,0,0:0:0:0:
192,192,13571,128,0,13642:0:0:0:0:
64,192,13714,128,0,13928:0:0:0:0:
448,192,13714,128,0,13785:0:0:0:0:
320,192,13714,128,0,13928:0:0:0:0:
192,192,13714,1,0,0:0:0:0:
448,192,13857,128,0,13928:0:0:0:0:
192,192,14000,128,0,14214:0:0:0:0:
64,192,14000,128,0,14071:0:0:0:0:
448,192,14000,128,0,14214:0:0:0:0:
64,192,14142,128,0,14214:0:0:0:0:
64,192,14285,128,0,14500:0:0:0:0:
192,192,14285,128,0,14375:0:0:0:0:
320,192,14285,128,0,14500:0:0:0:0:
192,192,14428,128,0,14500:0:0:0:0:
448,192,14571,128,0,14785:0:0:0:0:
320,192,14571,128,0,14660:0:0:0:0:
192,192,14571,128,0,14785:0:0:0:0:
320,192,14714,128,0,14785:0:0:0:0:
192,192,14857,128,0,15071:0:0:0:0:
64,192,14857,128,0,15071:0:0:0:0:
448,192,14857,128,0,14964:0:0:0:0:
448,192,15000,128,0,15071:0:0:0:0:
64,192,15142,128,0,15357:0:0:0:0:
320,192,15142,128,0,15357:0:0:0:0:
192,192,15142,128,0,15250:0:0:0:0:
192,192,15285,128,0,15357:0:0:0:0:
320,192,15428,128,0,15642:0:0:0:0:
64,192,15428,128,0,15642:0:0:0:0:
448,192,15428,128,0,15535:0:0:0:0:
448,192,15571,128,0,15642:0:0:0:0:
192,192,15714,128,0,15928:0:0:0:0:
64,192,15714,128,0,15857:0:0:0:0:
320,192,15714,128,0,15821:0:0:0:0:
448,192,15857,1,0,0:0:0:0:
320,192,15857,128,0,15928:0:0:0:0:
64,192,15928,1,0,0:0:0:0:
320,192,16000,128,0,16071:0:0:0:0:
192,192,16000,128,0,16071:0:0:0:0:
448,192,16000,128,0,16071:0:0:0:0:
64,192,16071,128,0,16142:0:0:0:0:
192,192,16142,128,0,16214:0:0:0:0:
448,192,16142,128,0,16214:0:0:0:0:
320,192,16214,128,0,16285:0:0:0:0:
448,192,16285,128,0,16357:0:0:0:0:
64,192,16285,128,0,16357:0:0:0:0:
192,192,16285,128,0,16357:0:0:0:0:
320,192,16357,128,0,16428:0:0:0:0:
192,192,16428,128,0,16500:0:0:0:0:
64,192,16428,128,0,16500:0:0:0:0:
448,192,16500,128,0,16571:0:0:0:0:
64,192,16571,128,0,16642:0:0:0:0:
320,192,16571,128,0,16642:0:0:0:0:
192,192,16571,128,0,16642:0:0:0:0:
448,192,16642,128,0,16714:0:0:0:0:
192,192,16714,128,0,16785:0:0:0:0:
320,192,16714,128,0,16785:0:0:0:0:
64,192,16785,128,0,16857:0:0:0:0:
192,192,16857,128,0,16928:0:0:0:0:
320,192,16857,128,0,16928:0:0:0:0:
448,192,16857,128,0,16928:0:0:0:0:
64,192,16928,128,0,17000:0:0:0:0:
448,192,17000,128,0,17071:0:0:0:0:
192,192,17000,128,0,17071:0:0:0:0:
320,192,17071,128,0,17142:0:0:0:0:
64,192,17142,128,0,17214:0:0:0:0:
448,192,17142,128,0,17214:0:0:0:0:
192,192,17142,128,0,17214:0:0:0:0:
320,192,17214,128,0,17285:0:0:0:0:
64,192,17285,128,0,17357:0:0:0:0:
448,192,17285,1,0,0:0:0:0:
192,192,17357,128,0,17428:0:0:0:0:
448,192,17428,128,0,17500:0:0:0:0:
64,192,17428,128,0,17500:0:0:0:0:
320,192,17428,1,0,0:0:0:0:
192,192,17500,128,0,17571:0:0:0:0:
448,192,17571,128,0,17642:0:0:0:0:
64,192,17571,1,0,0:0:0:0:
320,192,17642,128,0,17714:0:0:0:0:
448,192,17714,128,0,17785:0:0:0:0:
64,192,17714,128,0,17785:0:0:0:0:
192,192,17714,1,0,0:0:0:0:
320,192,17785,128,0,17857:0:0:0:0:
64,192,17857,128,0,17928:0:0:0:0:
448,192,17857,1,0,0:0:0:0:
192,192,17928,128,0,18000:0:0:0:0:
320,192,18000,1,0,0:0:0:0:
448,192,18000,1,0,0:0:0:0:
64,192,18000,1,0,0:0:0:0:
320,192,18142,1,0,0:0:0:0:
192,192,18142,1,0,0:0:0:0:
64,192,18142,1,0,0:0:0:0:
64,192,18285,128,0,18500:0:0:0:0:
448,192,18285,128,0,18500:0:0:0:0:
192,192,18285,128,0,18357:0:0:0:0:
320,192,18285,1,0,0:0:0:0:
192,192,18428,128,0,18500:0:0:0:0:
64,192,18571,128,0,18785:0:0:0:0:
320,192,18571,128,0,18785:0:0:0:0:
448,192,18571,128,0,18642:0:0:0:0:
448,192,18714,128,0,18785:0:0:0:0:
320,192,18857,128,0,19071:0:0:0:0:
192,192,18857,128,0,19071:0:0:0:0:
64,192,18857,128,0,18946:0:0:0:0:
64,192,19000,128,0,19071:0:0:0:0:
192,192,19142,128,0,19357:0:0:0:0:
448,192,19142,128,0,19357:0:0:0:0:
320,192,19142,128,0,19232:0:0:0:0:
320,192,19285,128,0,19357:0:0:0:0:
64,192,19428,128,0,19642:0:0:0:0:
320,192,19428,128,0,19642:0:0:0:0:
448,192,19428,128,0,19535:0:0:0:0:
192,192,19428,1,0,0:0:0:0:
448,192,19571,128,0,19642:0:0:0:0:
192,192,19714,128,0,19928:0:0:0:0:
320,192,19714,128,0,19928:0:0:0:0:
64,192,19714,128,0,19821:0:0:0:0:
64,192,19857,128,0,19928:0:0:0:0:
64,192,20000,128,0,20214:0:0:0:0:
448,192,20000,128,0,20214:0:0:0:0:
192,192,20000,128,0,20107:0:0:0:0:
192,192,20142,128,0,20214:0:0:0:0:
192,192,20285,128,0,20500:0:0:0:0:
448,192,20285,128,0,20428:0:0:0:0:
320,192,20285,128,0,20392:0:0:0:0:
64,192,20428,1,0,0:0:0:0:
320,192,20428,128,0,20500:0:0:0:0:
448,192,20500,1,0,0:0:0:0:
192,192,20571,128,0,20642:0:0:0:0:
64,192,20571,128,0,20642:0:0:0:0:
320,192,20571,128,0,20642:0:0:0:0:
448,192,20642,128,0,20714:0:0:0:0:
64,192,20714,128,0,20785:0:0:0:0:
320,192,20714,128,0,20785:0:0:0:0:
192,192,20785,128,0,20857:0:0:0:0:
320,192,20857,128,0,20928:0:0:0:0:
448,192,20857,128,0,20928:0:0:0:0:
64,192,20857,128,0,20928:0:0:0:0:
192,192,20928,128,0,21000:0:0:0:0:
320,192,21000,128,0,21071:0:0:0:0:
448,192,21000,128,0,21071:0:0:0:0:
64,192,21071,128,0,21142:0:0:0:0:
448,192,21142,128,0,21214:0:0:0:0:
192,192,21142,128,0,21214:0:0:0:0:
320,192,21142,128,0,21214:0:0:0:0:
64,192,21214,128,0,21285:0:0:0:0:
320,192,21285,128,0,21357:0:0:0:0:
192,192,21285,128,0,21357:0:0:0:0:
448,192,21357,128,0,21428:0:0:0:0:
320,192,21428,128,0,21500:0:0:0:0:
64,192,21428,128,0,21500:0:0:0:0:
192,192,21428,128,0,21500:0:0:0:0:
448,192,21500,128,0,21571:0:0:0:0:
64,192,21571,128,0,21642:0:0:0:0:
448,192,21642,128,0,21714:0:0:0:0:
320,192,21714,128,0,21785:0:0:0:0:
64,192,21714,1,0,0:0:0:0:
192,192,21785,128,0,21857:0:0:0:0:
448,192,21857,128,0,21928:0:0:0:0:
320,192,21857,1,0,0:0:0:0:
192,192,21928,1,0,0:0:0:0:
64,192,21928,128,0,22000:0:0:0:0:
448,192,22000,1,0,0:0:0:0:
320,192,22000,128,0,22071:0:0:0:0:
192,192,22071,128,0,22142:0:0:0:0:
64,192,22142,1,0,0:0:0:0:
448,192,22142,128,0,22214:0:0:0:0:
320,192,22214,128,0,22285:0:0:0:0:
448,192,22285,1,0,0:0:0:0:
64,192,22285,128,0,22357:0:0:0:0:
320,192,22357,1,0,0:0:0:0:
192,192,22357,128,0,22428:0:0:0:0:
448,192,22428,128,0,22500:0:0:0:0:
64,192,22428,1,0,0:0:0:0:
192,192,22500,128,0,22571:0:0:0:0:
320,192,22571,1,0,0:0:0:0:
448,192,22571,128,0,22642:0:0:0:0:
192,192,22642,1,0,0:0:0:0:
64,192,22642,128,0,22714:0:0:0:0:
448,192,22714,1,0,0:0:0:0:
320,192,22714,128,0,22785:0:0:0:0:
192,192,22785,128,0,22857:0:0:0:0:
64,192,22785,1,0,0:0:0:0:
320,192,22857,128,0,23142:0:0:0:0:
448,192,22857,128,0,22928:0:0:0:0:
64,192,22928,128,0,23000:0:0:0:0:
448,192,23000,128,0,23071:0:0:0:0:
64,192,23071,1,0,0:0:0:0:
192,192,23142,128,0,23428:0:0:0:0:
448,192,23142,128,0,23214:0:0:0:0:
64,192,23214,1,0,0:0:0:0:
320,192,23285,128,0,23357:0:0:0:0:
64,192,23357,128,0,23428:0:0:0:0:
448,192,23428,128,0,23714:0:0:0:0:
320,192,23428,128,0,23500:0:0:0:0:
64,192,23500,1,0,0:0:0:0:
192,192,23571,128,0,23642:0:0:0:0:
320,192,23642,1,0,0:0:0:0:
64,192,23714,128,0,24000:0:0:0:0:
192,192,23714,128,0,23785:0:0:0:0:
320,192,23785,1,0,0:0:0:0:
448,192,23857,1,0,0:0:0:0:
192,192,23928,1,0,0:0:0:0:
448,192,24000,128,0,24285:0:0:0:0:
320,192,24000,128,0,24071:0:0:0:0:
64,192,24071,128,0,24142:0:0:0:0:
320,192,24142,128,0,24214:0:0:0:0:
64,192,24214,1,0,0:0:0:0:
192,192,24285,128,0,24571:0:0:0:0:
320,192,24285,128,0,24357:0:0:0:0:
64,192,24357,1,0,0:0:0:0:
448,192,24428,128,0,24500:0:0:0:0:
320,192,24500,128,0,24571:0:0:0:0:
64,192,24571,128,0,24857:0:0:0:0:
448,192,24571,128,0,24642:0:0:0:0:
320,192,24642,1,0,0:0:0:0:
192,192,24714,128,0,24785:0:0:0:0:
448,192,24785,1,0,0:0:0:0:
192,192,24857,128,0,25142:0:0:0:0:
320,192,24857,128,0,24928:0:0:0:0:
448,192,24928,1,0,0:0:0:0:
64,192,25000,1,0,0:0:0:0:
320,192,25071,1,0,0:0:0:0:
64,192,25142,128,0,25214:0:0:0:0:
448,192,25142,128,0,25214:0:0:0:0:
320,192,25214,128,0,25285:0:0:0:0:
64,192,25285,128,0,25357:0:0:0:0:
192,192,25285,128,0,25357:0:0:0:0:
448,192,25357,1,0,0:0:0:0:
192,192,25428,128,0,25500:0:0:0:0:
64,192,25428,128,0,25500:0:0:0:0:
320,192,25428,128,0,25500:0:0:0:0:
448,192,25500,1,0,0:0:0:0:
64,192,25571,128,0,25642:0:0:0:0:
320,192,25571,128,0,25642:0:0:0:0:
192,192,25642,128,0,25714:0:0:0:0:
320,192,25714,128,0,25785:0:0:0:0:
448,192,25714,128,0,25785:0:0:0:0:
64,192,25785,1,0,0:0:0:0:
320,192,25857,128,0,25928:0:0:0:0:
192,192,25857,128,0,25928:0:0:0:0:
64,192,25928,1,0,0:0:0:0:
192,192,26000,128,0,26071:0:0:0:0:
448,192,26000,128,0,26071:0:0:0:0:
320,192,26000,128,0,26071:0:0:0:0:
64,192,26071,1,0,0:0:0:0:
320,192,26142,1,0,0:0:0:0:
448,192,26142,1,0,0:0:0:0:
192,192,26214,1,0,0:0:0:0:
64,192,26285,128,0,26357:0:0:0:0:
448,192,26285,128,0,26357:0:0:0:0:
320,192,26357,128,0,26428:0:0:0:0:
192,192,26428,128,0,26500:0:0:0:0:
64,192,26428,128,0,26500:0:0:0:0:
448,192,26500,1,0,0:0:0:0:
320,192,26571,128,0,26642:0:0:0:0:
192,192,26571,128,0,26642:0:0:0:0:
64,192,26571,128,0,26642:0:0:0:0:
448,192,26642,1,0,0:0:0:0:
64,192,26714,128,0,26785:0:0:0:0:
320,192,26714,128,0,26785:0:0:0:0:
192,192,26785,128,0,26857:0:0:0:0:
320,192,26857,128,0,26928:0:0:0:0:
448,192,26857,128,0,26928:0:0:0:0:
64,192,26928,1,0,0:0:0:0:
192,192,27000,128,0,27071:0:0:0:0:
320,192,27000,128,0,27071:0:0:0:0:
448,192,27071,1,0,0:0:0:0:
320,192,27142,1,0,0:0:0:0:
64,192,27142,128,0,27214:0:0:0:0:
192,192,27142,128,0,27214:0:0:0:0:
192,192,27285,1,0,0:0:0:0:
320,192,27285,1,0,0:0:0:0:
448,192,27428,128,0,27500:0:0:0:0:
64,192,27428,128,0,27500:0:0:0:0:
192,192,27500,128,0,27571:0:0:0:0:
64,192,27571,128,0,27642:0:0:0:0:
192,192,27642,128,0,27714:0:0:0:0:
320,192,27714,128,0,27785:0:0:0:0:
64,192,27714,128,0,27785:0:0:0:0:
448,192,27714,128,0,27785:0:0:0:0:
192,192,27785,128,0,27857:0:0:0:0:
448,192,27857,128,0,27928:0:0:0:0:
192,192,27928,128,0,28000:0:0:0:0:
64,192,28000,128,0,28071:0:0:0:0:
320,192,28000,128,0,28071:0:0:0:0:
448,192,28071,128,0,28142:0:0:0:0:
64,192,28142,128,0,28214:0:0:0:0:
320,192,28214,128,0,28285:0:0:0:0:
192,192,28285,128,0,28357:0:0:0:0:
448,192,28285,128,0,28357:0:0:0:0:
64,192,28285,128,0,28357:0:0:0:0:
320,192,28357,128,0,28428:0:0:0:0:
192,192,28428,128,0,28500:0:0:0:0:
64,192,28428,128,0,28464:0:0:0:0:
448,192,28500,128,0,28535:0:0:0:0:
320,192,28500,128,0,28571:0:0:0:0:
192,192,28571,128,0,28642:0:0:0:0:
64,192,28571,128,0,28642:0:0:0:0:
448,192,28642,128,0,28714:0:0:0:0:
192,192,28714,128,0,28785:0:0:0:0:
64,192,28785,128,0,28857:0:0:0:0:
448,192,28857,128,0,28928:0:0:0:0:
192,192,28857,128,0,28928:0:0:0:0:
320,192,28857,128,0,28928:0:0:0:0:
64,192,28928,128,0,29000:0:0:0:0:
448,192,29000,128,0,29071:0:0:0:0:
320,192,29071,128,0,29142:0:0:0:0:
192,192,29142,128,0,29214:0:0:0:0:
64,192,29142,128,0,29214:0:0:0:0:
448,192,29214,128,0,29285:0:0:0:0:
64,192,29285,128,0,29357:0:0:0:0:
320,192,29357,128,0,29428:0:0:0:0:
64,192,29428,128,0,29500:0:0:0:0:
448,192,29428,128,0,29500:0:0:0:0:
192,192,29428,128,0,29500:0:0:0:0:
320,192,29500,128,0,29571:0:0:0:0:
64,192,29571,128,0,29642:0:0:0:0:
192,192,29571,128,0,29607:0:0:0:0:
448,192,29642,128,0,29714:0:0:0:0:
320,192,29642,128,0,29678:0:0:0:0:
64,192,29714,128,0,29785:0:0:0:0:
192,192,29714,1,0,0:0:0:0:
320,192,29785,128,0,29857:0:0:0:0:
192,192,29857,1,0,0:0:0:0:
448,192,29857,128,0,29928:0:0:0:0:
64,192,29928,128,0,30000:0:0:0:0:
320,192,30000,128,0,30071:0:0:0:0:
192,192,30000,128,0,30071:0:0:0:0:
448,192,30000,128,0,30071:0:0:0:0:
64,192,30071,1,0,0:0:0:0:
192,192,30142,128,0,30214:0:0:0:0:
448,192,30142,1,0,0:0:0:0:
320,192,30214,128,0,30285:0:0:0:0:
64,192,30285,1,0,0:0:0:0:
448,192,30285,128,0,30357:0:0:0:0:
192,192,30357,128,0,30428:0:0:0:0:
448,192,30428,1,0,0:0:0:0:
320,192,30428,128,0,30500:0:0:0:0:
192,192,30500,128,0,30571:0:0:0:0:
64,192,30571,128,0,30642:0:0:0:0:
448,192,30571,128,0,30642:0:0:0:0:
320,192,30571,128,0,30642:0:0:0:0:
192,192,30642,128,0,30714:0:0:0:0:
64,192,30714,1,0,0:0:0:0:
320,192,30714,128,0,30785:0:0:0:0:
448,192,30785,128,0,30857:0:0:0:0:
64,192,30857,128,0,30928:0:0:0:0:
192,192,30857,128,0,30892:0:0:0:0:
320,192,30928,128,0,31000:0:0:0:0:
448,192,30928,128,0,30964:0:0:0:0:
192,192,31000,128,0,31071:0:0:0:0:
64,192,31000,128,0,31035:0:0:0:0:
448,192,31071,128,0,31142:0:0:0:0:
320,192,31071,128,0,31107:0:0:0:0:
192,192,31142,128,0,31214:0:0:0:0:
64,192,31142,128,0,31214:0:0:0:0:
320,192,31214,128,0,31285:0:0:0:0:
448,192,31214,128,0,31250:0:0:0:0:
192,192,31285,128,0,31357:0:0:0:0:
64,192,31285,128,0,31321:0:0:0:0:
448,192,31357,128,0,31428:0:0:0:0:
320,192,31357,128,0,31392:0:0:0:0:
64,192,31428,128,0,31500:0:0:0:0:
192,192,31428,128,0,31464:0:0:0:0:
320,192,31500,128,0,31571:0:0:0:0:
448,192,31500,128,0,31535:0:0:0:0:
192,192,31571,128,0,31642:0:0:0:0:
64,192,31571,128,0,31607:0:0:0:0:
320,192,31642,128,0,31714:0:0:0:0:
448,192,31642,128,0,31678:0:0:0:0:
192,192,31714,1,0,0:0:0:0:
64,192,31714,1,0,0:0:0:0:
64,192,32000,128,0,32571:0:0:0:0:
448,192,32000,128,0,32285:0:0:0:0:
192,192,32000,128,0,32071:0:0:0:0:
192,192,32142,128,0,32214:0:0:0:0:
320,192,32285,128,0,32571:0:0:0:0:
448,192,32571,128,0,32642:0:0:0:0:
64,192,32714,128,0,32857:0:0:0:0:
320,192,32857,128,0,33000:0:0:0:0:
192,192,33000,128,0,33142:0:0:0:0:
448,192,33142,128,0,33214:0:0:0:0:
448,192,33357,128,0,33428:0:0:0:0:
64,192,33571,128,0,33642:0:0:0:0:
320,192,33714,128,0,33785:0:0:0:0:
192,192,33857,128,0,33928:0:0:0:0:
448,192,34142,1,0,0:0:0:0:
64,192,34142,1,0,0:0:0:0:
320,192,34142,128,0,34214:0:0:0:0:
64,192,34285,128,0,34557:0:0:0:0:
320,192,34285,128,0,34353:0:0:0:0:
448,192,34285,128,0,34694:0:0:0:0:
320,192,34421,128,0,34489:0:0:0:0:
192,192,34557,128,0,34625:0:0:0:0:
320,192,34694,128,0,34762:0:0:0:0:
64,192,34966,128,0,35103:0:0:0:0:
448,192,34966,128,0,35035:0:0:0:0:
192,192,35103,128,0,35171:0:0:0:0:
320,192,35239,1,0,0:0:0:0:
448,192,35239,128,0,35307:0:0:0:0:
192,192,35307,1,0,0:0:0:0:
320,192,35375,128,0,35716:0:0:0:0:
448,192,35375,128,0,35716:0:0:0:0:
64,192,35375,128,0,35716:0:0:0:0:
192,192,35785,128,0,36057:0:0:0:0:
64,192,35785,128,0,36057:0:0:0:0:
448,192,35785,128,0,36057:0:0:0:0:
448,192,36194,1,0,0:0:0:0:
64,192,36194,1,0,0:0:0:0:
320,192,36194,128,0,36330:0:0:0:0:
192,192,36330,128,0,36468:0:0:0:0:
320,192,36468,1,0,0:0:0:0:
448,192,36468,128,0,36728:0:0:0:0:
64,192,36468,128,0,36728:0:0:0:0:
192,192,36598,1,0,0:0:0:0:
320,192,36728,1,0,0:0:0:0:
64,192,36859,1,0,0:0:0:0:
448,192,36989,1,0,0:0:0:0:
192,192,37120,1,0,0:0:0:0:
320,192,37250,1,0,0:0:0:0:
64,192,37250,1,0,0:0:0:0:
192,192,37381,1,0,0:0:0:0:
448,192,37381,1,0,0:0:0:0:
320,192,37511,1,0,0:0:0:0:
64,192,37511,1,0,0:0:0:0:
192,192,37641,1,0,0:0:0:0:
448,192,37772,1,0,0:0:0:0:
64,192,37772,1,0,0:0:0:0:
320,192,37902,1,0,0:0:0:0:
192,192,38033,1,0,0:0:0:0:
64,192,38033,1,0,0:0:0:0:
448,192,38163,1,0,0:0:0:0:
320,192,38294,1,0,0:0:0:0:
192,192,38294,1,0,0:0:0:0:
64,192,38424,1,0,0:0:0:0:
320,192,38424,1,0,0:0:0:0:
192,192,38489,1,0,0:0:0:0:
320,192,38554,1,0,0:0:0:0:
448,192,38554,1,0,0:0:0:0:
192,192,38679,1,0,0:0:0:0:
64,192,38679,1,0,0:0:0:0:
448,192,38741,1,0,0:0:0:0:
320,192,38804,1,0,0:0:0:0:
192,192,38804,1,0,0:0:0:0:
64,192,38929,1,0,0:0:0:0:
448,192,38929,1,0,0:0:0:0:
192,192,38991,1,0,0:0:0:0:
448,192,39054,1,0,0:0:0:0:
320,192,39054,1,0,0:0:0:0:
64,192,39179,1,0,0:0:0:0:
448,192,39179,1,0,0:0:0:0:
320,192,39241,1,0,0:0:0:0:
192,192,39304,1,0,0:0:0:0:
64,192,39304,1,0,0:0:0:0:
192,192,39429,1,0,0:0:0:0:
448,192,39429,1,0,0:0:0:0:
320,192,39491,1,0,0:0:0:0:
64,192,39554,1,0,0:0:0:0:
448,192,39554,1,0,0:0:0:0:
320,192,39616,1,0,0:0:0:0:
192,192,39679,1,0,0:0:0:0:
64,192,39679,1,0,0:0:0:0:
448,192,39741,1,0,0:0:0:0:
192,192,39804,1,0,0:0:0:0:
320,192,39804,1,0,0:0:0:0:
64,192,39866,1,0,0:0:0:0:
192,192,39929,1,0,0:0:0:0:
448,192,39929,1,0,0:0:0:0:
320,192,39991,1,0,0:0:0:0:
64,192,40054,1,0,0:0:0:0:
192,192,40054,1,0,0:0:0:0:
320,192,40116,1,0,0:0:0:0:
64,192,40179,1,0,0:0:0:0:
192,192,40179,1,0,0:0:0:0:
320,192,40241,1,0,0:0:0:0:
448,192,40304,1,0,0:0:0:0:
192,192,40304,1,0,0:0:0:0:
320,192,40366,1,0,0:0:0:0:
64,192,40429,1,0,0:0:0:0:
448,192,40429,1,0,0:0:0:0:
192,192,40491,1,0,0:0:0:0:
320,192,40554,128,0,41554:0:0:0:0:
448,192,40554,128,0,41554:0:0:0:0:
192,192,40804,128,0,41554:0:0:0:0:
64,192,40929,128,0,41554:0:0:0:0:
64,192,42366,128,0,42554:0:0:0:0:
192,192,42554,128,0,42741:0:0:0:0:
320,192,42554,128,0,42741:0:0:0:0:
448,192,42554,128,0,42741:0:0:0:0:
64,192,42679,128,0,42741:0:0:0:0:
64,192,42804,128,0,42991:0:0:0:0:
192,192,42804,128,0,42991:0:0:0:0:
320,192,42804,128,0,42991:0:0:0:0:
448,192,42929,128,0,42991:0:0:0:0:
320,192,43054,128,0,43241:0:0:0:0:
448,192,43054,128,0,43241:0:0:0:0:
64,192,43054,128,0,43241:0:0:0:0:
192,192,43179,128,0,43241:0:0:0:0:
192,192,43304,128,0,43491:0:0:0:0:
64,192,43304,128,0,43491:0:0:0:0:
448,192,43304,128,0,43491:0:0:0:0:
320,192,43429,128,0,43491:0:0:0:0:
320,192,43554,128,0,43741:0:0:0:0:
448,192,43554,128,0,43741:0:0:0:0:
192,192,43554,128,0,43741:0:0:0:0:
64,192,43554,128,0,43616:0:0:0:0:
64,192,43804,128,0,43991:0:0:0:0:
320,192,43804,128,0,43991:0:0:0:0:
448,192,43804,128,0,43991:0:0:0:0:
192,192,43804,128,0,43866:0:0:0:0:
64,192,44054,128,0,44241:0:0:0:0:
192,192,44054,128,0,44179:0:0:0:0:
448,192,44054,128,0,44241:0:0:0:0:
320,192,44054,128,0,44116:0:0:0:0:
320,192,44179,128,0,44241:0:0:0:0:
192,192,44241,128,0,44304:0:0:0:0:
320,192,44304,128,0,44366:0:0:0:0:
448,192,44304,128,0,44366:0:0:0:0:
64,192,44304,128,0,44366:0:0:0:0:
320,192,44429,128,0,44491:0:0:0:0:
448,192,44429,128,0,44491:0:0:0:0:
64,192,44429,128,0,44491:0:0:0:0:
64,192,44554,128,0,44741:0:0:0:0:
448,192,44554,128,0,44741:0:0:0:0:
320,192,44554,128,0,44741:0:0:0:0:
192,192,44679,128,0,44741:0:0:0:0:
320,192,44804,128,0,44991:0:0:0:0:
448,192,44804,128,0,44991:0:0:0:0:
192,192,44804,128,0,44991:0:0:0:0:
64,192,44929,128,0,44991:0:0:0:0:
192,192,45054,128,0,45241:0:0:0:0:
320,192,45054,128,0,45241:0:0:0:0:
64,192,45054,128,0,45241:0:0:0:0:
448,192,45179,128,0,45241:0:0:0:0:
192,192,45304,128,0,45491:0:0:0:0:
64,192,45304,128,0,45491:0:0:0:0:
448,192,45304,128,0,45491:0:0:0:0:
320,192,45429,128,0,45491:0:0:0:0:
192,192,45554,128,0,45741:0:0:0:0:
320,192,45554,128,0,45741:0:0:0:0:
448,192,45554,128,0,45741:0:0:0:0:
64,192,45554,128,0,45616:0:0:0:0:
320,192,45804,128,0,45991:0:0:0:0:
448,192,45804,128,0,45991:0:0:0:0:
64,192,45804,128,0,45991:0:0:0:0:
192,192,45804,128,0,45866:0:0:0:0:
448,192,46054,128,0,46116:0:0:0:0:
64,192,46054,128,0,46116:0:0:0:0:
192,192,46054,128,0,46116:0:0:0:0:
192,192,46179,128,0,46241:0:0:0:0:
64,192,46179,128,0,46241:0:0:0:0:
448,192,46179,128,0,46241:0:0:0:0:
320,192,46304,128,0,46366:0:0:0:0:
448,192,46304,128,0,46366:0:0:0:0:
64,192,46304,128,0,46366:0:0:0:0:
192,192,46429,128,0,46491:0:0:0:0:
64,192,46429,128,0,46491:0:0:0:0:
448,192,46491,128,0,46554:0:0:0:0:
64,192,46554,128,0,46741:0:0:0:0:
192,192,46554,128,0,46741:0:0:0:0:
320,192,46554,128,0,46741:0:0:0:0:
448,192,46679,128,0,46741:0:0:0:0:
448,192,46804,128,0,46991:0:0:0:0:
320,192,46804,128,0,46866:0:0:0:0:
64,192,46804,128,0,46929:0:0:0:0:
192,192,46929,128,0,46960:0:0:0:0:
320,192,46960,128,0,46991:0:0:0:0:
64,192,46991,128,0,47022:0:0:0:0:
192,192,47022,128,0,47054:0:0:0:0:
448,192,47054,128,0,47241:0:0:0:0:
320,192,47054,128,0,47179:0:0:0:0:
192,192,47179,128,0,47241:0:0:0:0:
320,192,47241,128,0,47304:0:0:0:0:
192,192,47304,128,0,47491:0:0:0:0:
64,192,47304,128,0,47491:0:0:0:0:
448,192,47304,128,0,47491:0:0:0:0:
320,192,47429,128,0,47491:0:0:0:0:
64,192,47554,128,0,47741:0:0:0:0:
448,192,47554,128,0,47741:0:0:0:0:
320,192,47554,128,0,47741:0:0:0:0:
192,192,47679,128,0,47741:0:0:0:0:
64,192,47804,128,0,47929:0:0:0:0:
320,192,47804,128,0,47866:0:0:0:0:
192,192,47804,128,0,47929:0:0:0:0:
320,192,47929,128,0,47960:0:0:0:0:
448,192,47960,128,0,47991:0:0:0:0:
192,192,47991,128,0,48022:0:0:0:0:
320,192,48022,128,0,48054:0:0:0:0:
448,192,48054,128,0,48241:0:0:0:0:
64,192,48054,128,0,48241:0:0:0:0:
192,192,48179,128,0,48241:0:0:0:0:
320,192,48241,128,0,48304:0:0:0:0:
64,192,48304,128,0,48366:0:0:0:0:
192,192,48304,128,0,48366:0:0:0:0:
448,192,48304,128,0,48366:0:0:0:0:
64,192,48429,128,0,48491:0:0:0:0:
448,192,48429,128,0,48491:0:0:0:0:
320,192,48429,128,0,48491:0:0:0:0:
64,192,48554,128,0,48741:0:0:0:0:
448,192,48554,128,0,48741:0:0:0:0:
320,192,48554,128,0,48741:0:0:0:0:
192,192,48679,128,0,48741:0:0:0:0:
320,192,48804,128,0,48991:0:0:0:0:
448,192,48804,128,0,48991:0:0:0:0:
192,192,48804,128,0,48991:0:0:0:0:
64,192,48929,128,0,48991:0:0:0:0:
192,192,49054,128,0,49241:0:0:0:0:
320,192,49054,128,0,49241:0:0:0:0:
64,192,49054,128,0,49241:0:0:0:0:
448,192,49179,128,0,49241:0:0:0:0:
192,192,49304,128,0,49491:0:0:0:0:
64,192,49304,128,0,49491:0:0:0:0:
448,192,49304,128,0,49491:0:0:0:0:
320,192,49429,128,0,49491:0:0:0:0:
320,192,49554,128,0,49616:0:0:0:0:
448,192,49554,128,0,49616:0:0:0:0:
192,192,49616,128,0,49679:0:0:0:0:
64,192,49616,128,0,49679:0:0:0:0:
448,192,49679,1,0,0:0:0:0:
320,192,49710,1,0,0:0:0:0:
64,192,49741,1,0,0:0:0:0:
192,192,49772,1,0,0:0:0:0:
320,192,49804,128,0,49866:0:0:0:0:
448,192,49804,128,0,49866:0:0:0:0:
192,192,49866,128,0,49929:0:0:0:0:
64,192,49866,128,0,49929:0:0:0:0:
448,192,49929,1,0,0:0:0:0:
320,192,49960,1,0,0:0:0:0:
64,192,49991,1,0,0:0:0:0:
192,192,50022,1,0,0:0:0:0:
320,192,50054,128,0,50116:0:0:0:0:
448,192,50054,128,0,50116:0:0:0:0:
320,192,50179,128,0,50241:0:0:0:0:
448,192,50179,128,0,50241:0:0:0:0:
192,192,50304,128,0,50366:0:0:0:0:
64,192,50304,128,0,50366:0:0:0:0:
320,192,50366,128,0,50429:0:0:0:0:
448,192,50366,128,0,50429:0:0:0:0:
192,192,50429,128,0,50491:0:0:0:0:
64,192,50429,128,0,50491:0:0:0:0:
320,192,50491,128,0,50554:0:0:0:0:
192,192,50554,128,0,50741:0:0:0:0:
64,192,50554,128,0,50741:0:0:0:0:
448,192,50554,128,0,50741:0:0:0:0:
320,192,50679,128,0,50741:0:0:0:0:
448,192,50804,128,0,50991:0:0:0:0:
320,192,50804,128,0,50991:0:0:0:0:
64,192,50804,128,0,50991:0:0:0:0:
192,192,50929,128,0,50991:0:0:0:0:
320,192,51054,128,0,51241:0:0:0:0:
192,192,51054,128,0,51241:0:0:0:0:
64,192,51054,128,0,51241:0:0:0:0:
448,192,51179,128,0,51241:0:0:0:0:
192,192,51304,128,0,51491:0:0:0:0:
320,192,51304,128,0,51491:0:0:0:0:
448,192,51304,128,0,51491:0:0:0:0:
64,192,51429,128,0,51491:0:0:0:0:
192,192,51554,128,0,51741:0:0:0:0:
448,192,51554,128,0,51741:0:0:0:0:
64,192,51554,128,0,51741:0:0:0:0:
320,192,51554,128,0,51616:0:0:0:0:
320,192,51804,128,0,51991:0:0:0:0:
448,192,51804,128,0,51991:0:0:0:0:
64,192,51804,128,0,51991:0:0:0:0:
192,192,51804,128,0,51866:0:0:0:0:
64,192,52054,128,0,52241:0:0:0:0:
448,192,52054,128,0,52116:0:0:0:0:
192,192,52054,128,0,52241:0:0:0:0:
320,192,52054,128,0,52179:0:0:0:0:
448,192,52179,128,0,52241:0:0:0:0:
320,192,52241,128,0,52304:0:0:0:0:
192,192,52304,128,0,52366:0:0:0:0:
64,192,52304,128,0,52366:0:0:0:0:
448,192,52304,128,0,52366:0:0:0:0:
320,192,52429,128,0,52491:0:0:0:0:
448,192,52429,128,0,52491:0:0:0:0:
64,192,52429,128,0,52491:0:0:0:0:
64,192,52554,128,0,52741:0:0:0:0:
448,192,52554,128,0,52741:0:0:0:0:
320,192,52554,128,0,52741:0:0:0:0:
192,192,52679,128,0,52741:0:0:0:0:
320,192,52804,128,0,52991:0:0:0:0:
448,192,52804,128,0,52991:0:0:0:0:
192,192,52804,128,0,52991:0:0:0:0:
64,192,52929,128,0,52991:0:0:0:0:
192,192,53054,128,0,53241:0:0:0:0:
320,192,53054,128,0,53241:0:0:0:0:
64,192,53054,128,0,53241:0:0:0:0:
448,192,53179,128,0,53241:0:0:0:0:
192,192,53304,128,0,53491:0:0:0:0:
64,192,53304,128,0,53491:0:0:0:0:
448,192,53304,128,0,53491:0:0:0:0:
320,192,53429,128,0,53491:0:0:0:0:
192,192,53554,128,0,53741:0:0:0:0:
320,192,53554,128,0,53741:0:0:0:0:
448,192,53554,128,0,53741:0:0:0:0:
64,192,53554,128,0,53616:0:0:0:0:
320,192,53804,128,0,53991:0:0:0:0:
448,192,53804,128,0,53991:0:0:0:0:
64,192,53804,128,0,53991:0:0:0:0:
192,192,53804,128,0,53866:0:0:0:0:
448,192,54054,128,0,54116:0:0:0:0:
64,192,54054,128,0,54116:0:0:0:0:
192,192,54054,128,0,54116:0:0:0:0:
192,192,54179,128,0,54241:0:0:0:0:
64,192,54179,128,0,54241:0:0:0:0:
448,192,54179,128,0,54241:0:0:0:0:
320,192,54304,128,0,54366:0:0:0:0:
448,192,54304,128,0,54366:0:0:0:0:
64,192,54304,128,0,54366:0:0:0:0:
192,192,54429,128,0,54491:0:0:0:0:
64,192,54429,128,0,54491:0:0:0:0:
320,192,54491,128,0,54554:0:0:0:0:
448,192,54554,128,0,54741:0:0:0:0:
64,192,54554,128,0,54741:0:0:0:0:
192,192,54554,128,0,54741:0:0:0:0:
320,192,54679,128,0,54741:0:0:0:0:
448,192,54804,128,0,54991:0:0:0:0:
320,192,54804,128,0,54866:0:0:0:0:
64,192,54804,128,0,54929:0:0:0:0:
192,192,54929,128,0,54960:0:0:0:0:
320,192,54960,128,0,54991:0:0:0:0:
64,192,54991,128,0,55022:0:0:0:0:
192,192,55022,128,0,55054:0:0:0:0:
448,192,55054,128,0,55241:0:0:0:0:
320,192,55054,128,0,55179:0:0:0:0:
192,192,55179,128,0,55241:0:0:0:0:
320,192,55241,128,0,55304:0:0:0:0:
192,192,55304,128,0,55491:0:0:0:0:
64,192,55304,128,0,55491:0:0:0:0:
448,192,55304,128,0,55491:0:0:0:0:
320,192,55429,128,0,55491:0:0:0:0:
64,192,55554,128,0,55741:0:0:0:0:
448,192,55554,128,0,55741:0:0:0:0:
320,192,55554,128,0,55741:0:0:0:0:
192,192,55679,128,0,55741:0:0:0:0:
64,192,55804,128,0,55929:0:0:0:0:
320,192,55804,128,0,55866:0:0:0:0:
192,192,55804,128,0,55929:0:0:0:0:
320,192,55929,128,0,55960:0:0:0:0:
448,192,55960,128,0,55991:0:0:0:0:
192,192,55991,128,0,56022:0:0:0:0:
320,192,56022,128,0,56054:0:0:0:0:
448,192,56054,128,0,56241:0:0:0:0:
64,192,56054,128,0,56241:0:0:0:0:
192,192,56179,128,0,56241:0:0:0:0:
320,192,56241,128,0,56304:0:0:0:0:
64,192,56304,128,0,56366:0:0:0:0:
192,192,56304,128,0,56366:0:0:0:0:
448,192,56304,128,0,56366:0:0:0:0:
64,192,56429,128,0,56491:0:0:0:0:
448,192,56429,128,0,56491:0:0:0:0:
320,192,56429,128,0,56491:0:0:0:0:
192,192,56554,1,0,0:0:0:0:
64,192,56554,1,0,0:0:0:0:
448,192,56554,1,0,0:0:0:0:
448,192,56679,1,0,0:0:0:0:
320,192,56679,1,0,0:0:0:0:
64,192,56804,1,0,0:0:0:0:
192,192,56804,1,0,0:0:0:0:
320,192,56804,1,0,0:0:0:0:
448,192,56929,1,0,0:0:0:0:
320,192,56929,1,0,0:0:0:0:
64,192,57054,1,0,0:0:0:0:
448,192,57054,1,0,0:0:0:0:
192,192,57054,1,0,0:0:0:0:
64,192,57179,1,0,0:0:0:0:
448,192,57179,1,0,0:0:0:0:
320,192,57179,1,0,0:0:0:0:
192,192,57241,1,0,0:0:0:0:
448,192,57304,1,0,0:0:0:0:
64,192,57304,1,0,0:0:0:0:
320,192,57429,1,0,0:0:0:0:
192,192,57429,1,0,0:0:0:0:
192,192,57554,1,0,0:0:0:0:
320,192,57554,1,0,0:0:0:0:
448,192,57554,1,0,0:0:0:0:
64,192,57679,1,0,0:0:0:0:
448,192,57679,1,0,0:0:0:0:
320,192,57741,1,0,0:0:0:0:
64,192,57804,1,0,0:0:0:0:
192,192,57804,1,0,0:0:0:0:
448,192,57804,1,0,0:0:0:0:
320,192,57866,1,0,0:0:0:0:
448,192,57929,1,0,0:0:0:0:
64,192,57929,1,0,0:0:0:0:
192,192,57991,1,0,0:0:0:0:
320,192,58054,1,0,0:0:0:0:
448,192,58054,1,0,0:0:0:0:
64,192,58054,1,0,0:0:0:0:
192,192,58179,1,0,0:0:0:0:
64,192,58179,1,0,0:0:0:0:
448,192,58179,1,0,0:0:0:0:
192,192,58304,128,0,58366:0:0:0:0:
320,192,58304,128,0,58366:0:0:0:0:
448,192,58304,128,0,58366:0:0:0:0:
192,192,58429,128,0,58491:0:0:0:0:
64,192,58429,128,0,58491:0:0:0:0:
448,192,58491,128,0,58554:0:0:0:0:
192,192,58554,128,0,58679:0:0:0:0:
64,192,58554,128,0,58699:0:0:0:0:
320,192,58595,128,0,58741:0:0:0:0:
448,192,58595,128,0,58720:0:0:0:0:
64,192,58804,128,0,58949:0:0:0:0:
448,192,58804,128,0,58929:0:0:0:0:
320,192,58845,128,0,58970:0:0:0:0:
192,192,58845,128,0,58991:0:0:0:0:
192,192,59054,128,0,59199:0:0:0:0:
448,192,59054,128,0,59179:0:0:0:0:
64,192,59095,128,0,59241:0:0:0:0:
320,192,59095,128,0,59220:0:0:0:0:
320,192,59304,128,0,59429:0:0:0:0:
448,192,59304,128,0,59449:0:0:0:0:
64,192,59345,128,0,59470:0:0:0:0:
192,192,59345,128,0,59491:0:0:0:0:
320,192,59554,128,0,59741:0:0:0:0:
64,192,59554,128,0,59720:0:0:0:0:
448,192,59595,128,0,59699:0:0:0:0:
192,192,59595,128,0,59679:0:0:0:0:
192,192,59804,128,0,59929:0:0:0:0:
448,192,59804,128,0,59949:0:0:0:0:
320,192,59845,128,0,59970:0:0:0:0:
64,192,59845,128,0,59991:0:0:0:0:
192,192,60054,128,0,60241:0:0:0:0:
320,192,60054,128,0,60179:0:0:0:0:
448,192,60095,128,0,60220:0:0:0:0:
64,192,60095,128,0,60220:0:0:0:0:
64,192,60304,128,0,60397:0:0:0:0:
320,192,60304,128,0,60397:0:0:0:0:
448,192,60304,128,0,60397:0:0:0:0:
192,192,60429,128,0,60491:0:0:0:0:
64,192,60429,128,0,60522:0:0:0:0:
320,192,60491,128,0,60554:0:0:0:0:
192,192,60554,128,0,60679:0:0:0:0:
448,192,60554,128,0,60741:0:0:0:0:
64,192,60595,128,0,60699:0:0:0:0:
320,192,60595,128,0,60720:0:0:0:0:
192,192,60804,128,0,60949:0:0:0:0:
64,192,60804,128,0,60991:0:0:0:0:
320,192,60845,128,0,60929:0:0:0:0:
448,192,60845,128,0,60908:0:0:0:0:
192,192,61054,128,0,61179:0:0:0:0:
64,192,61054,128,0,61199:0:0:0:0:
320,192,61095,128,0,61220:0:0:0:0:
448,192,61095,128,0,61241:0:0:0:0:
320,192,61304,128,0,61470:0:0:0:0:
448,192,61304,128,0,61429:0:0:0:0:
64,192,61345,128,0,61491:0:0:0:0:
192,192,61345,128,0,61449:0:0:0:0:
64,192,61554,128,0,61616:0:0:0:0:
192,192,61554,128,0,62554:0:0:0:0:
320,192,61554,128,0,61804:0:0:0:0:
448,192,61554,128,0,62054:0:0:0:0:
320,192,62554,1,0,0:0:0:0:
448,192,62554,1,0,0:0:0:0:
64,192,62554,1,0,0:0:0:0:
192,192,62679,1,0,0:0:0:0:
320,192,62679,1,0,0:0:0:0:
448,192,62804,1,0,0:0:0:0:
192,192,62804,1,0,0:0:0:0:
64,192,62804,1,0,0:0:0:0:
320,192,62866,1,0,0:0:0:0:
64,192,62929,1,0,0:0:0:0:
448,192,62929,1,0,0:0:0:0:
192,192,63054,1,0,0:0:0:0:
320,192,63054,1,0,0:0:0:0:
448,192,63054,1,0,0:0:0:0:
64,192,63179,1,0,0:0:0:0:
192,192,63179,1,0,0:0:0:0:
320,192,63241,1,0,0:0:0:0:
64,192,63304,1,0,0:0:0:0:
448,192,63304,1,0,0:0:0:0:
192,192,63366,1,0,0:0:0:0:
320,192,63429,1,0,0:0:0:0:
448,192,63429,1,0,0:0:0:0:
64,192,63429,1,0,0:0:0:0:
192,192,63554,1,0,0:0:0:0:
64,192,63554,1,0,0:0:0:0:
448,192,63554,1,0,0:0:0:0:
320,192,63679,1,0,0:0:0:0:
192,192,63679,1,0,0:0:0:0:
320,192,63804,1,0,0:0:0:0:
448,192,63804,1,0,0:0:0:0:
64,192,63804,1,0,0:0:0:0:
192,192,63866,1,0,0:0:0:0:
64,192,63929,1,0,0:0:0:0:
448,192,63929,1,0,0:0:0:0:
192,192,64054,1,0,0:0:0:0:
320,192,64054,1,0,0:0:0:0:
448,192,64054,1,0,0:0:0:0:
64,192,64179,1,0,0:0:0:0:
320,192,64179,1,0,0:0:0:0:
64,192,64304,1,0,0:0:0:0:
448,192,64304,1,0,0:0:0:0:
192,192,64366,1,0,0:0:0:0:
320,192,64429,1,0,0:0:0:0:
448,192,64429,1,0,0:0:0:0:
64,192,64491,1,0,0:0:0:0:
192,192,64554,1,0,0:0:0:0:
320,192,64554,1,0,0:0:0:0:
448,192,64554,1,0,0:0:0:0:
64,192,64679,1,0,0:0:0:0:
192,192,64679,1,0,0:0:0:0:
192,192,64804,1,0,0:0:0:0:
320,192,64804,1,0,0:0:0:0:
64,192,64804,1,0,0:0:0:0:
320,192,64929,1,0,0:0:0:0:
448,192,64929,1,0,0:0:0:0:
192,192,64991,1,0,0:0:0:0:
64,192,65054,1,0,0:0:0:0:
448,192,65054,1,0,0:0:0:0:
320,192,65054,1,0,0:0:0:0:
64,192,65179,1,0,0:0:0:0:
192,192,65179,1,0,0:0:0:0:
320,192,65241,1,0,0:0:0:0:
448,192,65304,1,0,0:0:0:0:
64,192,65304,1,0,0:0:0:0:
192,192,65366,1,0,0:0:0:0:
64,192,65429,1,0,0:0:0:0:
448,192,65429,1,0,0:0:0:0:
320,192,65429,1,0,0:0:0:0:
192,192,65491,1,0,0:0:0:0:
320,192,65554,128,0,65960:0:0:0:0:
448,192,65554,128,0,66007:0:0:0:0:
64,192,65554,128,0,65929:0:0:0:0:
192,192,66429,128,0,66554:0:0:0:0:
320,192,66554,1,0,0:0:0:0:
448,192,66554,128,0,66616:0:0:0:0:
64,192,66554,128,0,66616:0:0:0:0:
192,192,66679,1,0,0:0:0:0:
448,192,66804,1,0,0:0:0:0:
64,192,66804,1,0,0:0:0:0:
448,192,66929,1,0,0:0:0:0:
192,192,66929,1,0,0:0:0:0:
192,192,67304,1,0,0:0:0:0:
448,192,67554,1,0,0:0:0:0:
64,192,67554,1,0,0:0:0:0:
192,192,67679,1,0,0:0:0:0:
64,192,67804,1,0,0:0:0:0:
320,192,67804,1,0,0:0:0:0:
192,192,67929,1,0,0:0:0:0:
448,192,67929,1,0,0:0:0:0:
448,192,68054,1,0,0:0:0:0:
320,192,68116,1,0,0:0:0:0:
320,192,68241,1,0,0:0:0:0:
64,192,68304,1,0,0:0:0:0:
448,192,68304,1,0,0:0:0:0:
192,192,68429,1,0,0:0:0:0:
320,192,68554,1,0,0:0:0:0:
192,192,68679,1,0,0:0:0:0:
64,192,68804,1,0,0:0:0:0:
448,192,68804,1,0,0:0:0:0:
320,192,68929,1,0,0:0:0:0:
448,192,68929,1,0,0:0:0:0:
192,192,69179,1,0,0:0:0:0:
448,192,69179,1,0,0:0:0:0:
320,192,69554,1,0,0:0:0:0:
64,192,69554,1,0,0:0:0:0:
448,192,69679,1,0,0:0:0:0:
64,192,69804,1,0,0:0:0:0:
192,192,69929,1,0,0:0:0:0:
320,192,69929,1,0,0:0:0:0:
448,192,70179,1,0,0:0:0:0:
192,192,70241,1,0,0:0:0:0:
64,192,70304,1,0,0:0:0:0:
320,192,70429,1,0,0:0:0:0:
64,192,70554,1,0,0:0:0:0:
192,192,70554,1,0,0:0:0:0:
320,192,70679,1,0,0:0:0:0:
448,192,70804,1,0,0:0:0:0:
64,192,70804,1,0,0:0:0:0:
192,192,70929,1,0,0:0:0:0:
448,192,70929,1,0,0:0:0:0:
320,192,71304,1,0,0:0:0:0:
64,192,71554,1,0,0:0:0:0:
448,192,71554,1,0,0:0:0:0:
320,192,71679,1,0,0:0:0:0:
192,192,71804,1,0,0:0:0:0:
448,192,71804,1,0,0:0:0:0:
448,192,71929,1,0,0:0:0:0:
320,192,71929,1,0,0:0:0:0:
64,192,72054,1,0,0:0:0:0:
320,192,72116,1,0,0:0:0:0:
320,192,72241,1,0,0:0:0:0:
64,192,72304,1,0,0:0:0:0:
448,192,72429,1,0,0:0:0:0:
192,192,72554,1,0,0:0:0:0:
320,192,72554,1,0,0:0:0:0:
64,192,72679,1,0,0:0:0:0:
320,192,72804,1,0,0:0:0:0:
192,192,72866,1,0,0:0:0:0:
320,192,72929,1,0,0:0:0:0:
448,192,73054,1,0,0:0:0:0:
192,192,73179,1,0,0:0:0:0:
64,192,73304,1,0,0:0:0:0:
192,192,73554,1,0,0:0:0:0:
448,192,73554,1,0,0:0:0:0:
320,192,73929,1,0,0:0:0:0:
192,192,73929,1,0,0:0:0:0:
320,192,74304,1,0,0:0:0:0:
64,192,74304,1,0,0:0:0:0:
192,192,74429,128,0,74554:0:0:0:0:
448,192,74554,1,0,0:0:0:0:
64,192,74554,1,0,0:0:0:0:
320,192,74679,1,0,0:0:0:0:
192,192,74804,1,0,0:0:0:0:
64,192,74804,1,0,0:0:0:0:
64,192,74929,1,0,0:0:0:0:
448,192,74929,1,0,0:0:0:0:
192,192,75179,1,0,0:0:0:0:
320,192,75304,1,0,0:0:0:0:
64,192,75429,1,0,0:0:0:0:
192,192,75554,1,0,0:0:0:0:
320,192,75554,1,0,0:0:0:0:
64,192,75804,1,0,0:0:0:0:
192,192,75929,1,0,0:0:0:0:
448,192,76054,1,0,0:0:0:0:
64,192,76116,1,0,0:0:0:0:
64,192,76241,1,0,0:0:0:0:
448,192,76304,1,0,0:0:0:0:
320,192,76429,1,0,0:0:0:0:
64,192,76554,1,0,0:0:0:0:
448,192,76554,1,0,0:0:0:0:
192,192,76679,1,0,0:0:0:0:
320,192,76804,1,0,0:0:0:0:
448,192,76804,1,0,0:0:0:0:
192,192,76929,1,0,0:0:0:0:
64,192,76929,1,0,0:0:0:0:
320,192,77054,1,0,0:0:0:0:
64,192,77179,1,0,0:0:0:0:
448,192,77179,1,0,0:0:0:0:
64,192,77554,1,0,0:0:0:0:
320,192,77554,1,0,0:0:0:0:
192,192,77679,1,0,0:0:0:0:
448,192,77804,1,0,0:0:0:0:
64,192,77804,1,0,0:0:0:0:
192,192,77929,1,0,0:0:0:0:
448,192,77929,1,0,0:0:0:0:
320,192,78304,1,0,0:0:0:0:
192,192,78429,1,0,0:0:0:0:
64,192,78554,1,0,0:0:0:0:
448,192,78554,1,0,0:0:0:0:
192,192,78616,1,0,0:0:0:0:
448,192,78679,1,0,0:0:0:0:
192,192,78741,1,0,0:0:0:0:
448,192,78804,1,0,0:0:0:0:
64,192,78804,1,0,0:0:0:0:
320,192,78929,1,0,0:0:0:0:
192,192,78929,1,0,0:0:0:0:
64,192,79054,1,0,0:0:0:0:
320,192,79054,1,0,0:0:0:0:
448,192,79179,1,0,0:0:0:0:
64,192,79179,1,0,0:0:0:0:
320,192,79241,1,0,0:0:0:0:
192,192,79304,1,0,0:0:0:0:
448,192,79304,1,0,0:0:0:0:
64,192,79429,1,0,0:0:0:0:
320,192,79429,1,0,0:0:0:0:
448,192,79554,1,0,0:0:0:0:
64,192,79554,1,0,0:0:0:0:
192,192,79616,1,0,0:0:0:0:
448,192,79679,1,0,0:0:0:0:
320,192,79679,1,0,0:0:0:0:
192,192,79741,1,0,0:0:0:0:
448,192,79804,1,0,0:0:0:0:
64,192,79804,1,0,0:0:0:0:
320,192,79929,1,0,0:0:0:0:
448,192,79929,1,0,0:0:0:0:
64,192,80054,1,0,0:0:0:0:
192,192,80054,1,0,0:0:0:0:
448,192,80179,1,0,0:0:0:0:
64,192,80179,1,0,0:0:0:0:
320,192,80241,1,0,0:0:0:0:
192,192,80304,1,0,0:0:0:0:
448,192,80304,1,0,0:0:0:0:
64,192,80429,1,0,0:0:0:0:
192,192,80429,1,0,0:0:0:0:
320,192,80491,1,0,0:0:0:0:
192,192,80554,1,0,0:0:0:0:
448,192,80554,1,0,0:0:0:0:
64,192,80679,1,0,0:0:0:0:
320,192,80741,1,0,0:0:0:0:
192,192,80741,1,0,0:0:0:0:
448,192,80804,1,0,0:0:0:0:
64,192,80804,1,0,0:0:0:0:
192,192,80929,1,0,0:0:0:0:
448,192,80929,1,0,0:0:0:0:
320,192,81054,1,0,0:0:0:0:
192,192,81054,1,0,0:0:0:0:
192,192,81179,1,0,0:0:0:0:
320,192,81179,1,0,0:0:0:0:
448,192,81241,1,0,0:0:0:0:
64,192,81241,1,0,0:0:0:0:
192,192,81304,1,0,0:0:0:0:
64,192,81429,1,0,0:0:0:0:
320,192,81429,128,0,81554:0:0:0:0:
64,192,81554,128,0,81616:0:0:0:0:
192,192,81554,128,0,81616:0:0:0:0:
448,192,81554,128,0,81616:0:0:0:0:
320,192,81741,128,0,81804:0:0:0:0:
448,192,81741,128,0,81804:0:0:0:0:
64,192,81741,128,0,81804:0:0:0:0:
64,192,81929,128,0,81991:0:0:0:0:
192,192,81929,128,0,81991:0:0:0:0:
320,192,81929,128,0,81991:0:0:0:0:
192,192,82054,128,0,82116:0:0:0:0:
320,192,82054,128,0,82116:0:0:0:0:
448,192,82054,128,0,82116:0:0:0:0:
192,192,82429,128,0,82554:0:0:0:0:
320,192,82554,128,0,82741:0:0:0:0:
448,192,82554,128,0,82991:0:0:0:0:
64,192,82554,128,0,83179:0:0:0:0:
320,192,82804,128,0,83179:0:0:0:0:
192,192,82929,1,0,0:0:0:0:
448,192,83054,128,0,83179:0:0:0:0:
64,192,83241,1,0,0:0:0:0:
192,192,83429,1,0,0:0:0:0:
320,192,83554,1,0,0:0:0:0:
448,192,83554,1,0,0:0:0:0:
192,192,83679,1,0,0:0:0:0:
64,192,83804,1,0,0:0:0:0:
448,192,83929,1,0,0:0:0:0:
192,192,83929,1,0,0:0:0:0:
320,192,84304,1,0,0:0:0:0:
64,192,84304,1,0,0:0:0:0:
192,192,84554,1,0,0:0:0:0:
320,192,84679,1,0,0:0:0:0:
64,192,84804,1,0,0:0:0:0:
448,192,84804,1,0,0:0:0:0:
192,192,84929,1,0,0:0:0:0:
320,192,84929,1,0,0:0:0:0:
192,192,85054,1,0,0:0:0:0:
64,192,85054,1,0,0:0:0:0:
320,192,85241,1,0,0:0:0:0:
192,192,85429,1,0,0:0:0:0:
64,192,85554,1,0,0:0:0:0:
448,192,85554,1,0,0:0:0:0:
192,192,85679,1,0,0:0:0:0:
320,192,85804,1,0,0:0:0:0:
448,192,85929,1,0,0:0:0:0:
64,192,85929,1,0,0:0:0:0:
320,192,86304,1,0,0:0:0:0:
64,192,86304,1,0,0:0:0:0:
192,192,86554,128,0,87554:0:0:0:0:
448,192,86554,1,0,0:0:0:0:
320,192,86679,1,0,0:0:0:0:
64,192,86804,1,0,0:0:0:0:
448,192,86804,1,0,0:0:0:0:
448,192,86929,1,0,0:0:0:0:
320,192,86929,1,0,0:0:0:0:
64,192,87054,1,0,0:0:0:0:
320,192,87054,1,0,0:0:0:0:
448,192,87241,1,0,0:0:0:0:
64,192,87429,1,0,0:0:0:0:
320,192,87554,128,0,88554:0:0:0:0:
448,192,87554,1,0,0:0:0:0:
64,192,87679,1,0,0:0:0:0:
192,192,87804,1,0,0:0:0:0:
448,192,87929,1,0,0:0:0:0:
64,192,87929,1,0,0:0:0:0:
192,192,88054,1,0,0:0:0:0:
448,192,88179,1,0,0:0:0:0:
64,192,88304,1,0,0:0:0:0:
192,192,88304,1,0,0:0:0:0:
64,192,88554,128,0,89491:0:0:0:0:
448,192,88554,1,0,0:0:0:0:
320,192,88679,1,0,0:0:0:0:
192,192,88804,1,0,0:0:0:0:
448,192,88929,1,0,0:0:0:0:
320,192,89054,1,0,0:0:0:0:
192,192,89179,1,0,0:0:0:0:
448,192,89304,1,0,0:0:0:0:
320,192,89366,1,0,0:0:0:0:
448,192,89429,1,0,0:0:0:0:
320,192,89491,1,0,0:0:0:0:
192,192,89554,128,0,89679:0:0:0:0:
64,192,89554,128,0,89679:0:0:0:0:
448,192,89554,128,0,89679:0:0:0:0:
320,192,89741,128,0,89866:0:0:0:0:
448,192,89741,128,0,89866:0:0:0:0:
64,192,89741,128,0,89866:0:0:0:0:
192,192,89929,128,0,89991:0:0:0:0:
64,192,89929,128,0,89991:0:0:0:0:
320,192,89929,128,0,89991:0:0:0:0:
192,192,90054,128,0,90116:0:0:0:0:
320,192,90054,128,0,90116:0:0:0:0:
448,192,90054,128,0,90116:0:0:0:0:
192,192,90179,128,0,90241:0:0:0:0:
320,192,90179,128,0,90241:0:0:0:0:
448,192,90179,128,0,90241:0:0:0:0:
64,192,90304,128,0,90366:0:0:0:0:
192,192,90304,128,0,90366:0:0:0:0:
320,192,90304,128,0,90366:0:0:0:0:
448,192,90429,128,0,90491:0:0:0:0:
192,192,90429,128,0,90491:0:0:0:0:
64,192,90429,128,0,90491:0:0:0:0:
320,192,90554,128,0,90741:0:0:0:0:
448,192,90554,128,0,90991:0:0:0:0:
64,192,90554,128,0,91179:0:0:0:0:
320,192,90804,128,0,91491:0:0:0:0:
192,192,90929,1,0,0:0:0:0:
448,192,91054,128,0,91491:0:0:0:0:
64,192,91241,128,0,91491:0:0:0:0:
192,192,91429,1,0,0:0:0:0:
192,192,91554,128,0,91866:0:0:0:0:
64,192,91554,128,0,91866:0:0:0:0:
320,192,91554,128,0,91866:0:0:0:0:
320,192,91929,128,0,92241:0:0:0:0:
192,192,91929,128,0,92241:0:0:0:0:
448,192,91929,128,0,92241:0:0:0:0:
192,192,92304,128,0,92491:0:0:0:0:
64,192,92304,128,0,92491:0:0:0:0:
448,192,92304,128,0,92491:0:0:0:0:
320,192,92554,128,0,92991:0:0:0:0:
192,192,92554,128,0,92866:0:0:0:0:
64,192,92554,128,0,93179:0:0:0:0:
448,192,92804,1,0,0:0:0:0:
192,192,92929,128,0,93491:0:0:0:0:
320,192,93054,128,0,93491:0:0:0:0:
64,192,93241,128,0,93491:0:0:0:0:
448,192,93429,5,0,0:0:0:0:
192,192,93554,128,0,93866:0:0:0:0:
320,192,93554,128,0,93866:0:0:0:0:
448,192,93554,128,0,93866:0:0:0:0:
64,192,93929,128,0,94241:0:0:0:0:
448,192,93929,128,0,94241:0:0:0:0:
320,192,93929,128,0,94241:0:0:0:0:
192,192,94304,128,0,94491:0:0:0:0:
64,192,94304,128,0,94491:0:0:0:0:
448,192,94304,128,0,94491:0:0:0:0:
448,192,94554,128,0,94616:0:0:0:0:
64,192,94554,1,0,0:0:0:0:
320,192,94616,1,0,0:0:0:0:
64,192,94679,128,0,94741:0:0:0:0:
448,192,94741,1,0,0:0:0:0:
320,192,94804,128,0,94866:0:0:0:0:
64,192,94866,1,0,0:0:0:0:
192,192,94929,128,0,94991:0:0:0:0:
320,192,94991,1,0,0:0:0:0:
448,192,95054,128,0,95116:0:0:0:0:
64,192,95054,1,0,0:0:0:0:
320,192,95116,1,0,0:0:0:0:
64,192,95179,128,0,95241:0:0:0:0:
448,192,95241,1,0,0:0:0:0:
192,192,95304,128,0,95366:0:0:0:0:
64,192,95366,1,0,0:0:0:0:
448,192,95429,128,0,95491:0:0:0:0:
192,192,95491,1,0,0:0:0:0:
320,192,95554,128,0,95616:0:0:0:0:
64,192,95554,1,0,0:0:0:0:
448,192,95616,1,0,0:0:0:0:
64,192,95679,128,0,95741:0:0:0:0:
192,192,95679,1,0,0:0:0:0:
320,192,95741,1,0,0:0:0:0:
448,192,95804,128,0,95866:0:0:0:0:
192,192,95804,1,0,0:0:0:0:
64,192,95866,1,0,0:0:0:0:
192,192,95929,128,0,95991:0:0:0:0:
320,192,95929,1,0,0:0:0:0:
448,192,95991,1,0,0:0:0:0:
320,192,96054,128,0,96116:0:0:0:0:
64,192,96054,1,0,0:0:0:0:
192,192,96116,1,0,0:0:0:0:
64,192,96179,128,0,96241:0:0:0:0:
448,192,96179,1,0,0:0:0:0:
320,192,96241,1,0,0:0:0:0:
448,192,96304,128,0,96366:0:0:0:0:
192,192,96304,1,0,0:0:0:0:
64,192,96366,1,0,0:0:0:0:
320,192,96429,128,0,96491:0:0:0:0:
448,192,96429,1,0,0:0:0:0:
192,192,96491,1,0,0:0:0:0:
448,192,96554,5,0,0:0:0:0:
64,192,96554,1,0,0:0:0:0:
320,192,96595,1,0,0:0:0:0:
192,192,96637,1,0,0:0:0:0:
448,192,96679,1,0,0:0:0:0:
320,192,96720,1,0,0:0:0:0:
64,192,96762,1,0,0:0:0:0:
448,192,96804,1,0,0:0:0:0:
192,192,96845,1,0,0:0:0:0:
320,192,96887,1,0,0:0:0:0:
64,192,96929,1,0,0:0:0:0:
192,192,96970,1,0,0:0:0:0:
320,192,97012,1,0,0:0:0:0:
448,192,97054,1,0,0:0:0:0:
64,192,97095,1,0,0:0:0:0:
192,192,97137,1,0,0:0:0:0:
448,192,97179,1,0,0:0:0:0:
320,192,97220,1,0,0:0:0:0:
64,192,97262,1,0,0:0:0:0:
448,192,97304,1,0,0:0:0:0:
192,192,97345,1,0,0:0:0:0:
320,192,97387,1,0,0:0:0:0:
64,192,97429,1,0,0:0:0:0:
448,192,97470,1,0,0:0:0:0:
320,192,97512,1,0,0:0:0:0:
64,192,97554,1,0,0:0:0:0:
192,192,97554,1,0,0:0:0:0:
448,192,97595,1,0,0:0:0:0:
64,192,97637,1,0,0:0:0:0:
320,192,97679,1,0,0:0:0:0:
192,192,97720,1,0,0:0:0:0:
448,192,97762,1,0,0:0:0:0:
64,192,97804,1,0,0:0:0:0:
320,192,97845,1,0,0:0:0:0:
192,192,97887,1,0,0:0:0:0:
448,192,97929,1,0,0:0:0:0:
64,192,97970,1,0,0:0:0:0:
320,192,98012,1,0,0:0:0:0:
192,192,98054,1,0,0:0:0:0:
448,192,98095,1,0,0:0:0:0:
64,192,98137,1,0,0:0:0:0:
320,192,98179,1,0,0:0:0:0:
192,192,98220,1,0,0:0:0:0:
448,192,98262,1,0,0:0:0:0:
64,192,98304,128,0,98470:0:0:0:0:
320,192,98345,128,0,98429:0:0:0:0:
448,192,98387,128,0,98512:0:0:0:0:
192,192,98429,128,0,98512:0:0:0:0:
320,192,98470,128,0,98512:0:0:0:0:
64,192,98512,128,0,98554:0:0:0:0:
192,192,98554,128,0,99274:0:0:0:0:
448,192,98554,128,0,99274:0:0:0:0:
320,192,98554,128,0,99514:0:0:0:0:
64,192,98794,1,0,0:0:0:0:
64,192,99034,128,0,99214:0:0:0:0:
64,192,99274,1,0,0:0:0:0:
64,192,99514,1,0,0:0:0:0:
448,192,99514,128,0,102183:0:0:0:0:
64,192,99744,1,0,0:0:0:0:
64,192,99975,1,0,0:0:0:0:
64,192,100206,1,0,0:0:0:0:
64,192,100437,1,0,0:0:0:0:
64,192,100660,1,0,0:0:0:0:
64,192,100882,1,0,0:0:0:0:
64,192,101104,1,0,0:0:0:0:
64,192,101326,1,0,0:0:0:0:
64,192,101540,1,0,0:0:0:0:
64,192,101754,1,0,0:0:0:0:
320,192,101861,1,0,0:0:0:0:
192,192,101915,1,0,0:0:0:0:
64,192,101968,1,0,0:0:0:0:
320,192,102022,1,0,0:0:0:0:
192,192,102076,128,0,102129:0:0:0:0:
320,192,102129,128,0,102183:0:0:0:0:
192,192,102183,128,0,102236:0:0:0:0:
64,192,102183,1,0,0:0:0:0:
64,192,102397,1,0,0:0:0:0:
192,192,102397,128,0,102451:0:0:0:0:
64,192,102611,1,0,0:0:0:0:
192,192,102611,128,0,102665:0:0:0:0:
64,192,102826,1,0,0:0:0:0:
192,192,102826,128,0,102879:0:0:0:0:
64,192,103040,1,0,0:0:0:0:
320,192,103040,128,0,103093:0:0:0:0:
64,192,103254,1,0,0:0:0:0:
320,192,103254,128,0,103308:0:0:0:0:
64,192,103468,1,0,0:0:0:0:
320,192,103468,128,0,103522:0:0:0:0:
64,192,103683,5,0,0:0:0:0:
320,192,103683,128,0,103736:0:0:0:0:
64,192,103897,1,0,0:0:0:0:
448,192,103897,128,0,103951:0:0:0:0:
192,192,104004,1,0,0:0:0:0:
320,192,104004,128,0,104058:0:0:0:0:
192,192,104111,1,0,0:0:0:0:
64,192,104111,128,0,104165:0:0:0:0:
448,192,104218,1,0,0:0:0:0:
320,192,104218,128,0,104272:0:0:0:0:
64,192,104326,1,0,0:0:0:0:
448,192,104326,128,0,104379:0:0:0:0:
320,192,104433,1,0,0:0:0:0:
192,192,104433,128,0,104486:0:0:0:0:
448,192,104540,1,0,0:0:0:0:
64,192,104540,128,0,104593:0:0:0:0:
320,192,104593,128,0,104647:0:0:0:0:
192,192,104647,128,0,104701:0:0:0:0:
320,192,104701,128,0,104754:0:0:0:0:
192,192,104754,1,0,0:0:0:0:
64,192,104754,1,0,0:0:0:0:
448,192,104754,1,0,0:0:0:0:
320,192,104968,128,0,105076:0:0:0:0:
192,192,105076,128,0,105129:0:0:0:0:
448,192,105183,128,0,105290:0:0:0:0:
64,192,105196,128,0,105290:0:0:0:0:
192,192,105343,128,0,105558:0:0:0:0:
320,192,105397,128,0,105558:0:0:0:0:
320,192,105611,128,0,105772:0:0:0:0:
448,192,105611,128,0,105772:0:0:0:0:
64,192,105611,128,0,105826:0:0:0:0:
192,192,105826,1,0,0:0:0:0:
320,192,105861,1,0,0:0:0:0:
448,192,105897,1,0,0:0:0:0:
64,192,105933,1,0,0:0:0:0:
192,192,105968,1,0,0:0:0:0:
448,192,106004,1,0,0:0:0:0:
64,192,106040,128,0,106093:0:0:0:0:
320,192,106040,1,0,0:0:0:0:
192,192,106093,128,0,106147:0:0:0:0:
448,192,106147,128,0,106201:0:0:0:0:
320,192,106201,128,0,106254:0:0:0:0:
192,192,106254,128,0,106361:0:0:0:0:
64,192,106308,128,0,106361:0:0:0:0:
448,192,106361,128,0,106522:0:0:0:0:
320,192,106361,128,0,106415:0:0:0:0:
192,192,106415,128,0,106576:0:0:0:0:
320,192,106468,128,0,106629:0:0:0:0:
64,192,106522,128,0,106629:0:0:0:0:
448,192,106576,128,0,106683:0:0:0:0:
192,192,106629,128,0,106736:0:0:0:0:
320,192,106683,128,0,106843:0:0:0:0:
64,192,106683,128,0,106790:0:0:0:0:
448,192,106736,128,0,106843:0:0:0:0:
192,192,106790,128,0,106897:0:0:0:0:
64,192,106843,128,0,106951:0:0:0:0:
320,192,106897,128,0,107111:0:0:0:0:
448,192,106897,128,0,107004:0:0:0:0:
192,192,106951,128,0,107058:0:0:0:0:
64,192,107004,128,0,107165:0:0:0:0:
448,192,107058,128,0,107272:0:0:0:0:
192,192,107111,128,0,107218:0:0:0:0:
320,192,107165,128,0,107272:0:0:0:0:
64,192,107218,128,0,107272:0:0:0:0:
192,192,107272,128,0,107325:0:0:0:0:
320,192,107325,128,0,107433:0:0:0:0:
448,192,107325,128,0,107433:0:0:0:0:
192,192,107433,1,0,0:0:0:0:
64,192,107468,1,0,0:0:0:0:
448,192,107504,1,0,0:0:0:0:
320,192,107540,1,0,0:0:0:0:
192,192,107575,1,0,0:0:0:0:
64,192,107611,1,0,0:0:0:0:
448,192,107647,1,0,0:0:0:0:
320,192,107683,1,0,0:0:0:0:
192,192,107718,1,0,0:0:0:0:
448,192,107754,128,0,107915:0:0:0:0:
64,192,107754,128,0,107968:0:0:0:0:
320,192,107754,128,0,107968:0:0:0:0:
192,192,107968,128,0,108022:0:0:0:0:
448,192,108022,128,0,108129:0:0:0:0:
64,192,108075,128,0,108263:0:0:0:0:
192,192,108075,128,0,108156:0:0:0:0:
320,192,108129,128,0,108209:0:0:0:0:
448,192,108183,128,0,108370:0:0:0:0:
192,192,108236,128,0,108317:0:0:0:0:
320,192,108290,128,0,108343:0:0:0:0:
64,192,108343,128,0,108450:0:0:0:0:
192,192,108397,128,0,108477:0:0:0:0:
320,192,108397,128,0,108531:0:0:0:0:
448,192,108450,128,0,108531:0:0:0:0:
64,192,108504,128,0,108558:0:0:0:0:
192,192,108558,128,0,108611:0:0:0:0:
320,192,108611,128,0,108665:0:0:0:0:
448,192,108611,128,0,108665:0:0:0:0:
64,192,108611,128,0,108665:0:0:0:0:
192,192,108718,128,0,108772:0:0:0:0:
64,192,108718,128,0,108772:0:0:0:0:
320,192,108772,128,0,108825:0:0:0:0:
448,192,108825,128,0,108879:0:0:0:0:
192,192,108879,128,0,108933:0:0:0:0:
320,192,108933,128,0,108986:0:0:0:0:
448,192,108986,128,0,109040:0:0:0:0:
192,192,109040,1,0,0:0:0:0:
64,192,109075,1,0,0:0:0:0:
320,192,109111,1,0,0:0:0:0:
448,192,109147,1,0,0:0:0:0:
64,192,109200,1,0,0:0:0:0:
192,192,109241,1,0,0:0:0:0:
448,192,109281,1,0,0:0:0:0:
320,192,109321,1,0,0:0:0:0:
192,192,109361,128,0,109468:0:0:0:0:
64,192,109468,128,0,109522:0:0:0:0:
320,192,109468,128,0,109522:0:0:0:0:
448,192,109522,128,0,109611:0:0:0:0:
320,192,109575,128,0,109665:0:0:0:0:
192,192,109629,128,0,109718:0:0:0:0:
448,192,109683,128,0,109772:0:0:0:0:
64,192,109683,128,0,109718:0:0:0:0:
320,192,109736,128,0,109825:0:0:0:0:
192,192,109790,128,0,109879:0:0:0:0:
64,192,109790,128,0,109933:0:0:0:0:
448,192,109843,128,0,109986:0:0:0:0:
320,192,109897,128,0,110093:0:0:0:0:
192,192,109950,128,0,110040:0:0:0:0:
64,192,110004,128,0,110040:0:0:0:0:
448,192,110058,128,0,110147:0:0:0:0:
192,192,110111,128,0,110200:0:0:0:0:
64,192,110111,128,0,110254:0:0:0:0:
320,192,110165,128,0,110272:0:0:0:0:
448,192,110218,128,0,110254:0:0:0:0:
192,192,110272,128,0,110308:0:0:0:0:
320,192,110325,128,0,110392:0:0:0:0:
448,192,110325,128,0,110406:0:0:0:0:
64,192,110325,128,0,110379:0:0:0:0:
448,192,110486,128,0,110540:0:0:0:0:
192,192,110500,128,0,110553:0:0:0:0:
64,192,110513,128,0,110567:0:0:0:0:
192,192,110647,128,0,110700:0:0:0:0:
320,192,110660,128,0,110714:0:0:0:0:
448,192,110674,128,0,110727:0:0:0:0:
64,192,110754,128,0,110843:0:0:0:0:
192,192,110754,128,0,110950:0:0:0:0:
320,192,110808,128,0,110897:0:0:0:0:
448,192,110861,128,0,111004:0:0:0:0:
64,192,110915,128,0,111111:0:0:0:0:
320,192,110968,128,0,111058:0:0:0:0:
192,192,111022,128,0,111111:0:0:0:0:
448,192,111075,128,0,111111:0:0:0:0:
320,192,111129,128,0,111165:0:0:0:0:
64,192,111183,128,0,111236:0:0:0:0:
192,192,111183,128,0,111236:0:0:0:0:
448,192,111183,128,0,111236:0:0:0:0:
64,192,111290,1,0,0:0:0:0:
320,192,111303,1,0,0:0:0:0:
192,192,111397,128,0,111486:0:0:0:0:
320,192,111450,128,0,111540:0:0:0:0:
448,192,111504,128,0,111540:0:0:0:0:
64,192,111504,128,0,111540:0:0:0:0:
192,192,111558,128,0,111593:0:0:0:0:
320,192,111611,128,0,111665:0:0:0:0:
64,192,111629,128,0,111683:0:0:0:0:
192,192,111718,128,0,111772:0:0:0:0:
448,192,111736,128,0,111790:0:0:0:0:
320,192,111825,128,0,111879:0:0:0:0:
64,192,111825,128,0,111879:0:0:0:0:
192,192,111933,128,0,111986:0:0:0:0:
448,192,111950,128,0,112004:0:0:0:0:
192,192,112040,128,0,112093:0:0:0:0:
64,192,112040,128,0,112093:0:0:0:0:
320,192,112040,1,0,0:0:0:0:
448,192,112147,1,0,0:0:0:0:
64,192,112147,1,0,0:0:0:0:
320,192,112254,1,0,0:0:0:0:
192,192,112254,128,0,112308:0:0:0:0:
448,192,112272,128,0,112325:0:0:0:0:
64,192,112361,128,0,112415:0:0:0:0:
320,192,112379,128,0,112433:0:0:0:0:
192,192,112468,128,0,112575:0:0:0:0:
64,192,112468,128,0,112683:0:0:0:0:
448,192,112468,128,0,112611:0:0:0:0:
192,192,112611,128,0,112683:0:0:0:0:
320,192,112683,128,0,112754:0:0:0:0:
448,192,112683,128,0,112754:0:0:0:0:
192,192,112754,128,0,112825:0:0:0:0:
448,192,112825,128,0,112861:0:0:0:0:
320,192,112897,128,0,113040:0:0:0:0:
192,192,112897,128,0,113075:0:0:0:0:
64,192,112897,128,0,113111:0:0:0:0:
448,192,113040,128,0,113111:0:0:0:0:
192,192,113111,128,0,113183:0:0:0:0:
320,192,113111,128,0,113183:0:0:0:0:
64,192,113183,128,0,113254:0:0:0:0:
320,192,113254,128,0,113290:0:0:0:0:
448,192,113325,128,0,113540:0:0:0:0:
192,192,113325,128,0,113468:0:0:0:0:
64,192,113325,128,0,113504:0:0:0:0:
320,192,113468,128,0,113540:0:0:0:0:
192,192,113540,128,0,113611:0:0:0:0:
64,192,113540,128,0,113611:0:0:0:0:
320,192,113611,128,0,113683:0:0:0:0:
448,192,113683,128,0,113718:0:0:0:0:
192,192,113754,128,0,113968:0:0:0:0:
64,192,113754,128,0,113897:0:0:0:0:
320,192,113754,128,0,113897:0:0:0:0:
448,192,113897,128,0,113968:0:0:0:0:
320,192,113968,128,0,114040:0:0:0:0:
64,192,113968,128,0,114040:0:0:0:0:
192,192,114040,128,0,114111:0:0:0:0:
64,192,114111,128,0,114147:0:0:0:0:
320,192,114183,128,0,114361:0:0:0:0:
448,192,114183,128,0,114397:0:0:0:0:
192,192,114183,128,0,114325:0:0:0:0:
64,192,114325,128,0,114397:0:0:0:0:
192,192,114397,128,0,114468:0:0:0:0:
320,192,114397,128,0,114468:0:0:0:0:
448,192,114468,128,0,114540:0:0:0:0:
192,192,114540,128,0,114575:0:0:0:0:
448,192,114611,128,0,114825:0:0:0:0:
320,192,114611,128,0,114790:0:0:0:0:
64,192,114611,128,0,114718:0:0:0:0:
64,192,114754,128,0,114825:0:0:0:0:
192,192,114825,128,0,114897:0:0:0:0:
320,192,114825,128,0,114897:0:0:0:0:
448,192,114897,128,0,114968:0:0:0:0:
64,192,114968,128,0,115004:0:0:0:0:
192,192,115040,128,0,115093:0:0:0:0:
320,192,115053,128,0,115107:0:0:0:0:
448,192,115067,128,0,115120:0:0:0:0:
64,192,115147,128,0,115200:0:0:0:0:
192,192,115147,128,0,115200:0:0:0:0:
448,192,115254,128,0,115308:0:0:0:0:
64,192,115254,128,0,115308:0:0:0:0:
320,192,115254,1,0,0:0:0:0:
320,192,115361,128,0,115415:0:0:0:0:
448,192,115415,128,0,115468:0:0:0:0:
192,192,115468,128,0,115522:0:0:0:0:
64,192,115468,128,0,115575:0:0:0:0:
320,192,115522,128,0,115575:0:0:0:0:
448,192,115575,128,0,115629:0:0:0:0:
192,192,115575,128,0,115683:0:0:0:0:
64,192,115629,128,0,115683:0:0:0:0:
320,192,115683,128,0,115736:0:0:0:0:
448,192,115700,128,0,115754:0:0:0:0:
64,192,115790,128,0,115897:0:0:0:0:
192,192,115808,128,0,115897:0:0:0:0:
320,192,115897,128,0,115968:0:0:0:0:
448,192,115897,1,0,0:0:0:0:
192,192,115933,128,0,116004:0:0:0:0:
64,192,115968,128,0,116040:0:0:0:0:
448,192,116004,128,0,116058:0:0:0:0:
64,192,116111,128,0,116218:0:0:0:0:
192,192,116147,128,0,116236:0:0:0:0:
320,192,116183,128,0,116254:0:0:0:0:
448,192,116218,128,0,116272:0:0:0:0:
448,192,116325,128,0,116433:0:0:0:0:
64,192,116325,128,0,116379:0:0:0:0:
320,192,116361,128,0,116468:0:0:0:0:
192,192,116397,128,0,116504:0:0:0:0:
64,192,116433,128,0,116540:0:0:0:0:
448,192,116540,1,0,0:0:0:0:
192,192,116593,1,0,0:0:0:0:
320,192,116647,1,0,0:0:0:0:
448,192,116647,1,0,0:0:0:0:
64,192,116754,128,0,116825:0:0:0:0:
320,192,116790,128,0,116861:0:0:0:0:
448,192,116825,128,0,116897:0:0:0:0:
192,192,116861,128,0,116915:0:0:0:0:
64,192,116968,128,0,117022:0:0:0:0:
192,192,116968,128,0,117075:0:0:0:0:
320,192,117004,128,0,117093:0:0:0:0:
448,192,117040,128,0,117111:0:0:0:0:
64,192,117075,128,0,117129:0:0:0:0:
320,192,117183,128,0,117236:0:0:0:0:
448,192,117183,128,0,117236:0:0:0:0:
192,192,117218,128,0,117272:0:0:0:0:
64,192,117254,128,0,117290:0:0:0:0:
320,192,117290,1,0,0:0:0:0:
448,192,117290,1,0,0:0:0:0:
192,192,117397,128,0,117450:0:0:0:0:
320,192,117397,128,0,117450:0:0:0:0:
64,192,117397,128,0,117611:0:0:0:0:
448,192,117504,128,0,117558:0:0:0:0:
192,192,117504,128,0,117558:0:0:0:0:
320,192,117558,1,0,0:0:0:0:
448,192,117611,1,0,0:0:0:0:
192,192,117611,128,0,117718:0:0:0:0:
64,192,117718,128,0,117825:0:0:0:0:
448,192,117852,128,0,117906:0:0:0:0:
448,192,117959,128,0,118067:0:0:0:0:
320,192,118174,128,0,118227:0:0:0:0:
320,192,118281,128,0,118388:0:0:0:0:
192,192,118415,128,0,118522:0:0:0:0:
448,192,118522,128,0,118629:0:0:0:0:
320,192,118629,128,0,118736:0:0:0:0:
192,192,118736,128,0,118843:0:0:0:0:
320,192,118843,128,0,118950:0:0:0:0:
64,192,118950,128,0,119004:0:0:0:0:
192,192,119004,128,0,119058:0:0:0:0:
448,192,119058,128,0,119218:0:0:0:0:
64,192,119218,1,0,0:0:0:0:
192,192,119218,1,0,0:0:0:0:
320,192,119272,128,0,119325:0:0:0:0:
192,192,119325,128,0,119540:0:0:0:0:
64,192,119325,128,0,119486:0:0:0:0:
448,192,119325,128,0,119540:0:0:0:0:
320,192,119540,1,0,0:0:0:0:
64,192,119575,1,0,0:0:0:0:
448,192,119611,1,0,0:0:0:0:
320,192,119647,1,0,0:0:0:0:
192,192,119683,1,0,0:0:0:0:
64,192,119718,1,0,0:0:0:0:
448,192,119754,128,0,119808:0:0:0:0:
320,192,119754,128,0,119808:0:0:0:0:
192,192,119808,128,0,119861:0:0:0:0:
320,192,119861,128,0,119915:0:0:0:0:
64,192,119915,128,0,119968:0:0:0:0:
448,192,119968,128,0,120022:0:0:0:0:
192,192,120022,128,0,120075:0:0:0:0:
64,192,120075,128,0,120236:0:0:0:0:
320,192,120075,128,0,120183:0:0:0:0:
448,192,120129,128,0,120290:0:0:0:0:
192,192,120183,128,0,120343:0:0:0:0:
320,192,120236,128,0,120397:0:0:0:0:
64,192,120290,128,0,120343:0:0:0:0:
448,192,120343,128,0,120450:0:0:0:0:
192,192,120397,128,0,120504:0:0:0:0:
64,192,120397,128,0,120558:0:0:0:0:
320,192,120450,128,0,120611:0:0:0:0:
448,192,120504,128,0,120558:0:0:0:0:
192,192,120558,128,0,120665:0:0:0:0:
64,192,120611,128,0,120718:0:0:0:0:
448,192,120611,128,0,120879:0:0:0:0:
320,192,120665,128,0,120772:0:0:0:0:
192,192,120718,128,0,120825:0:0:0:0:
64,192,120772,128,0,120986:0:0:0:0:
320,192,120825,128,0,120933:0:0:0:0:
192,192,120879,128,0,120986:0:0:0:0:
448,192,120933,128,0,121040:0:0:0:0:
320,192,120986,128,0,121040:0:0:0:0:
64,192,121040,128,0,121254:0:0:0:0:
192,192,121040,128,0,121093:0:0:0:0:
320,192,121093,128,0,121147:0:0:0:0:
448,192,121147,128,0,121200:0:0:0:0:
192,192,121200,128,0,121254:0:0:0:0:
448,192,121254,128,0,121415:0:0:0:0:
192,192,121308,128,0,121415:0:0:0:0:
320,192,121361,128,0,121468:0:0:0:0:
64,192,121415,128,0,121575:0:0:0:0:
192,192,121468,128,0,121629:0:0:0:0:
448,192,121468,128,0,121522:0:0:0:0:
320,192,121522,128,0,121683:0:0:0:0:
448,192,121575,128,0,121736:0:0:0:0:
64,192,121629,128,0,121736:0:0:0:0:
192,192,121683,128,0,121790:0:0:0:0:
320,192,121736,128,0,121843:0:0:0:0:
448,192,121790,128,0,121950:0:0:0:0:
64,192,121790,128,0,121897:0:0:0:0:
192,192,121843,128,0,122058:0:0:0:0:
320,192,121897,128,0,122004:0:0:0:0:
64,192,121950,128,0,122058:0:0:0:0:
448,192,122004,128,0,122111:0:0:0:0:
320,192,122058,128,0,122111:0:0:0:0:
64,192,122111,128,0,122192:0:0:0:0:
192,192,122125,128,0,122192:0:0:0:0:
320,192,122245,128,0,122299:0:0:0:0:
448,192,122259,128,0,122299:0:0:0:0:
192,192,122325,128,0,122379:0:0:0:0:
64,192,122325,128,0,122433:0:0:0:0:
448,192,122433,128,0,122486:0:0:0:0:
192,192,122433,128,0,122486:0:0:0:0:
320,192,122540,128,0,122593:0:0:0:0:
64,192,122558,128,0,122611:0:0:0:0:
192,192,122674,128,0,122727:0:0:0:0:
64,192,122687,128,0,122741:0:0:0:0:
320,192,122754,1,0,0:0:0:0:
448,192,122790,1,0,0:0:0:0:
192,192,122825,1,0,0:0:0:0:
64,192,122861,1,0,0:0:0:0:
448,192,122897,1,0,0:0:0:0:
320,192,122933,1,0,0:0:0:0:
64,192,122968,128,0,123022:0:0:0:0:
192,192,122986,128,0,123040:0:0:0:0:
448,192,123075,128,0,123129:0:0:0:0:
64,192,123129,128,0,123183:0:0:0:0:
192,192,123183,128,0,123236:0:0:0:0:
320,192,123183,128,0,123236:0:0:0:0:
448,192,123183,128,0,123236:0:0:0:0:
192,192,123290,128,0,123343:0:0:0:0:
64,192,123308,128,0,123361:0:0:0:0:
320,192,123397,128,0,123450:0:0:0:0:
448,192,123415,128,0,123468:0:0:0:0:
64,192,123504,128,0,123558:0:0:0:0:
192,192,123504,128,0,123571:0:0:0:0:
64,192,123611,128,0,123665:0:0:0:0:
320,192,123629,128,0,123683:0:0:0:0:
192,192,123718,128,0,123772:0:0:0:0:
448,192,123736,128,0,123790:0:0:0:0:
192,192,123825,128,0,123879:0:0:0:0:
320,192,123825,128,0,123897:0:0:0:0:
448,192,123933,128,0,123986:0:0:0:0:
64,192,123950,128,0,124004:0:0:0:0:
192,192,124040,128,0,124093:0:0:0:0:
320,192,124040,128,0,124093:0:0:0:0:
448,192,124040,128,0,124093:0:0:0:0:
320,192,124147,128,0,124200:0:0:0:0:
64,192,124165,128,0,124218:0:0:0:0:
192,192,124254,128,0,124308:0:0:0:0:
448,192,124272,128,0,124325:0:0:0:0:
320,192,124361,128,0,124415:0:0:0:0:
192,192,124379,128,0,124433:0:0:0:0:
64,192,124468,128,0,124575:0:0:0:0:
448,192,124468,1,0,0:0:0:0:
320,192,124504,128,0,124611:0:0:0:0:
192,192,124540,128,0,124593:0:0:0:0:
448,192,124575,128,0,124629:0:0:0:0:
192,192,124683,128,0,124790:0:0:0:0:
320,192,124718,128,0,124808:0:0:0:0:
448,192,124754,128,0,124825:0:0:0:0:
64,192,124790,128,0,124843:0:0:0:0:
320,192,124897,128,0,125004:0:0:0:0:
192,192,124897,1,0,0:0:0:0:
64,192,124933,128,0,125022:0:0:0:0:
448,192,124968,128,0,125040:0:0:0:0:
192,192,125004,128,0,125058:0:0:0:0:
320,192,125111,128,0,125218:0:0:0:0:
192,192,125147,128,0,125236:0:0:0:0:
64,192,125183,128,0,125254:0:0:0:0:
448,192,125218,128,0,125272:0:0:0:0:
192,192,125325,128,0,125397:0:0:0:0:
320,192,125361,128,0,125468:0:0:0:0:
448,192,125397,128,0,125450:0:0:0:0:
64,192,125433,128,0,125486:0:0:0:0:
192,192,125450,128,0,125504:0:0:0:0:
448,192,125540,128,0,125611:0:0:0:0:
320,192,125540,1,0,0:0:0:0:
64,192,125575,128,0,125683:0:0:0:0:
192,192,125611,128,0,125665:0:0:0:0:
320,192,125647,128,0,125700:0:0:0:0:
448,192,125665,128,0,125718:0:0:0:0:
64,192,125754,128,0,125825:0:0:0:0:
192,192,125754,1,0,0:0:0:0:
320,192,125790,128,0,125861:0:0:0:0:
192,192,125861,1,0,0:0:0:0:
448,192,125861,1,0,0:0:0:0:
320,192,125968,1,0,0:0:0:0:
448,192,125968,1,0,0:0:0:0:
64,192,126040,1,0,0:0:0:0:
192,192,126111,1,0,0:0:0:0:
64,192,126183,128,0,126236:0:0:0:0:
448,192,126183,128,0,126254:0:0:0:0:
192,192,126290,128,0,126343:0:0:0:0:
64,192,126308,128,0,126361:0:0:0:0:
320,192,126397,128,0,126450:0:0:0:0:
448,192,126415,128,0,126468:0:0:0:0:
192,192,126504,128,0,126558:0:0:0:0:
64,192,126522,128,0,126575:0:0:0:0:
448,192,126611,128,0,126718:0:0:0:0:
320,192,126611,128,0,126772:0:0:0:0:
192,192,126611,128,0,126772:0:0:0:0:
448,192,126825,128,0,126879:0:0:0:0:
192,192,126843,128,0,126897:0:0:0:0:
64,192,126933,128,0,126986:0:0:0:0:
320,192,126933,128,0,127004:0:0:0:0:
448,192,127040,128,0,127093:0:0:0:0:
192,192,127058,128,0,127111:0:0:0:0:
320,192,127147,128,0,127200:0:0:0:0:
192,192,127165,128,0,127218:0:0:0:0:
64,192,127254,128,0,127308:0:0:0:0:
320,192,127254,128,0,127325:0:0:0:0:
192,192,127361,128,0,127415:0:0:0:0:
320,192,127379,128,0,127433:0:0:0:0:
192,192,127468,128,0,127683:0:0:0:0:
64,192,127468,128,0,127629:0:0:0:0:
448,192,127468,128,0,127629:0:0:0:0:
320,192,127575,128,0,127683:0:0:0:0:
448,192,127683,128,0,127736:0:0:0:0:
192,192,127736,128,0,127790:0:0:0:0:
320,192,127790,128,0,127843:0:0:0:0:
64,192,127843,128,0,127897:0:0:0:0:
192,192,127897,128,0,128058:0:0:0:0:
320,192,127897,128,0,127950:0:0:0:0:
448,192,127897,128,0,128058:0:0:0:0:
64,192,127950,128,0,128031:0:0:0:0:
320,192,128004,128,0,128058:0:0:0:0:
64,192,128111,128,0,128245:0:0:0:0:
320,192,128165,128,0,128245:0:0:0:0:
192,192,128218,128,0,128299:0:0:0:0:
448,192,128272,128,0,128352:0:0:0:0:
64,192,128325,128,0,128406:0:0:0:0:
320,192,128325,128,0,128513:0:0:0:0:
192,192,128379,128,0,128459:0:0:0:0:
448,192,128433,128,0,128567:0:0:0:0:
64,192,128486,128,0,128567:0:0:0:0:
192,192,128540,128,0,128593:0:0:0:0:
320,192,128593,128,0,128647:0:0:0:0:
64,192,128647,1,0,0:0:0:0:
448,192,128647,1,0,0:0:0:0:
320,192,128754,128,0,128915:0:0:0:0:
448,192,128808,128,0,128915:0:0:0:0:
64,192,128861,128,0,128915:0:0:0:0:
64,192,128968,1,0,0:0:0:0:
448,192,128968,1,0,0:0:0:0:
320,192,129075,128,0,129129:0:0:0:0:
192,192,129129,128,0,129183:0:0:0:0:
448,192,129183,1,0,0:0:0:0:
64,192,129183,1,0,0:0:0:0:
320,192,129183,128,0,129236:0:0:0:0:
448,192,129290,128,0,129370:0:0:0:0:
64,192,129290,1,0,0:0:0:0:
320,192,129343,128,0,129477:0:0:0:0:
64,192,129397,128,0,129558:0:0:0:0:
448,192,129450,128,0,129558:0:0:0:0:
192,192,129504,128,0,129558:0:0:0:0:
320,192,129558,128,0,129611:0:0:0:0:
448,192,129611,1,0,0:0:0:0:
64,192,129611,128,0,129718:0:0:0:0:
192,192,129647,128,0,129754:0:0:0:0:
320,192,129683,128,0,129736:0:0:0:0:
448,192,129718,128,0,129772:0:0:0:0:
448,192,129825,128,0,129933:0:0:0:0:
320,192,129861,128,0,129950:0:0:0:0:
192,192,129897,128,0,129968:0:0:0:0:
64,192,129933,128,0,129986:0:0:0:0:
448,192,130040,128,0,130093:0:0:0:0:
320,192,130040,128,0,130093:0:0:0:0:
192,192,130058,128,0,130111:0:0:0:0:
448,192,130147,128,0,130200:0:0:0:0:
64,192,130165,128,0,130218:0:0:0:0:
192,192,130254,128,0,130308:0:0:0:0:
64,192,130272,128,0,130325:0:0:0:0:
448,192,130361,128,0,130415:0:0:0:0:
192,192,130361,128,0,130415:0:0:0:0:
64,192,130379,128,0,130433:0:0:0:0:
320,192,130468,128,0,130522:0:0:0:0:
448,192,130486,128,0,130540:0:0:0:0:
320,192,130575,128,0,130629:0:0:0:0:
448,192,130593,128,0,130647:0:0:0:0:
64,192,130683,128,0,130790:0:0:0:0:
192,192,130683,1,0,0:0:0:0:
448,192,130718,128,0,130825:0:0:0:0:
320,192,130754,128,0,130808:0:0:0:0:
192,192,130790,128,0,130843:0:0:0:0:
64,192,130897,128,0,131111:0:0:0:0:
448,192,130897,128,0,131058:0:0:0:0:
192,192,130897,128,0,131058:0:0:0:0:
320,192,131004,128,0,131111:0:0:0:0:
192,192,131111,128,0,131165:0:0:0:0:
448,192,131129,128,0,131183:0:0:0:0:
192,192,131218,128,0,131272:0:0:0:0:
448,192,131236,128,0,131290:0:0:0:0:
64,192,131325,1,0,0:0:0:0:
320,192,131325,1,0,0:0:0:0:
448,192,131433,1,0,0:0:0:0:
64,192,131433,1,0,0:0:0:0:
192,192,131486,1,0,0:0:0:0:
448,192,131540,1,0,0:0:0:0:
320,192,131540,1,0,0:0:0:0:
192,192,131647,1,0,0:0:0:0:
64,192,131647,1,0,0:0:0:0:
448,192,131754,1,0,0:0:0:0:
64,192,131754,128,0,131861:0:0:0:0:
192,192,131754,128,0,131861:0:0:0:0:
320,192,131861,128,0,131915:0:0:0:0:
448,192,131861,128,0,131915:0:0:0:0:
192,192,131968,128,0,132022:0:0:0:0:
448,192,131968,128,0,132022:0:0:0:0:
320,192,132075,1,0,0:0:0:0:
64,192,132075,1,0,0:0:0:0:
192,192,132075,1,0,0:0:0:0:
192,192,132183,128,0,132236:0:0:0:0:
320,192,132183,128,0,132236:0:0:0:0:
448,192,132183,1,0,0:0:0:0:
64,192,132290,128,0,132343:0:0:0:0:
320,192,132290,128,0,132343:0:0:0:0:
64,192,132397,1,0,0:0:0:0:
192,192,132397,128,0,132450:0:0:0:0:
448,192,132397,128,0,132450:0:0:0:0:
320,192,132504,128,0,132558:0:0:0:0:
192,192,132504,128,0,132558:0:0:0:0:
320,192,132611,1,0,0:0:0:0:
64,192,132611,1,0,0:0:0:0:
448,192,132611,1,0,0:0:0:0:
192,192,132718,1,0,0:0:0:0:
320,192,132718,1,0,0:0:0:0:
64,192,132772,1,0,0:0:0:0:
448,192,132772,1,0,0:0:0:0:
192,192,132825,128,0,132986:0:0:0:0:
320,192,132825,128,0,132986:0:0:0:0:
448,192,132933,128,0,132986:0:0:0:0:
64,192,132933,128,0,132986:0:0:0:0:
320,192,133040,128,0,133308:0:0:0:0:
192,192,133040,128,0,133093:0:0:0:0:
64,192,133040,128,0,133200:0:0:0:0:
192,192,133147,128,0,133415:0:0:0:0:
64,192,133254,128,0,133415:0:0:0:0:
320,192,133361,128,0,133415:0:0:0:0:
64,192,133468,128,0,133736:0:0:0:0:
192,192,133468,128,0,133522:0:0:0:0:
448,192,133468,128,0,133629:0:0:0:0:
192,192,133575,128,0,133843:0:0:0:0:
448,192,133683,128,0,133843:0:0:0:0:
64,192,133790,128,0,133843:0:0:0:0:
192,192,133897,128,0,133950:0:0:0:0:
320,192,133897,128,0,134058:0:0:0:0:
448,192,133897,128,0,134165:0:0:0:0:
192,192,134004,128,0,134272:0:0:0:0:
64,192,134022,128,0,134147:0:0:0:0:
320,192,134111,128,0,134272:0:0:0:0:
448,192,134218,128,0,134272:0:0:0:0:
64,192,134236,128,0,134290:0:0:0:0:
448,192,134325,128,0,134486:0:0:0:0:
320,192,134325,128,0,134504:0:0:0:0:
192,192,134325,128,0,134397:0:0:0:0:
64,192,134433,128,0,134593:0:0:0:0:
192,192,134450,128,0,134611:0:0:0:0:
448,192,134540,128,0,134700:0:0:0:0:
320,192,134558,128,0,134700:0:0:0:0:
64,192,134647,128,0,134700:0:0:0:0:
192,192,134665,128,0,134700:0:0:0:0:
64,192,134754,128,0,134808:0:0:0:0:
192,192,134754,128,0,135022:0:0:0:0:
448,192,134754,128,0,134915:0:0:0:0:
64,192,134861,128,0,135129:0:0:0:0:
448,192,134968,128,0,135129:0:0:0:0:
192,192,135075,128,0,135129:0:0:0:0:
320,192,135183,128,0,135236:0:0:0:0:
448,192,135183,128,0,135343:0:0:0:0:
64,192,135183,128,0,135450:0:0:0:0:
320,192,135290,128,0,135558:0:0:0:0:
448,192,135397,128,0,135558:0:0:0:0:
64,192,135504,128,0,135558:0:0:0:0:
192,192,135611,128,0,135665:0:0:0:0:
320,192,135611,128,0,135879:0:0:0:0:
448,192,135611,128,0,135772:0:0:0:0:
192,192,135718,128,0,135986:0:0:0:0:
448,192,135825,128,0,135986:0:0:0:0:
320,192,135933,128,0,135986:0:0:0:0:
192,192,136040,128,0,136308:0:0:0:0:
64,192,136040,128,0,136093:0:0:0:0:
448,192,136040,128,0,136200:0:0:0:0:
64,192,136147,128,0,136415:0:0:0:0:
448,192,136254,128,0,136415:0:0:0:0:
192,192,136361,128,0,136415:0:0:0:0:
320,192,136468,128,0,136683:0:0:0:0:
448,192,136468,128,0,136511:0:0:0:0:
64,192,136511,128,0,136554:0:0:0:0:
192,192,136554,128,0,136597:0:0:0:0:
448,192,136597,128,0,136640:0:0:0:0:
64,192,136640,128,0,136683:0:0:0:0:
192,192,136683,128,0,136897:0:0:0:0:
448,192,136725,128,0,136768:0:0:0:0:
320,192,136768,128,0,136811:0:0:0:0:
64,192,136811,128,0,136854:0:0:0:0:
448,192,136854,128,0,136897:0:0:0:0:
320,192,136897,128,0,137111:0:0:0:0:
64,192,136940,128,0,136983:0:0:0:0:
192,192,136983,128,0,137025:0:0:0:0:
448,192,137025,128,0,137068:0:0:0:0:
64,192,137068,128,0,137111:0:0:0:0:
192,192,137111,128,0,137283:0:0:0:0:
448,192,137154,128,0,137197:0:0:0:0:
64,192,137197,128,0,137240:0:0:0:0:
320,192,137240,128,0,137283:0:0:0:0:
192,192,137325,128,0,137379:0:0:0:0:
64,192,137325,128,0,137486:0:0:0:0:
448,192,137325,128,0,137593:0:0:0:0:
192,192,137433,128,0,137611:0:0:0:0:
320,192,137450,128,0,137575:0:0:0:0:
64,192,137540,128,0,137700:0:0:0:0:
448,192,137647,128,0,137700:0:0:0:0:
192,192,137665,128,0,137700:0:0:0:0:
320,192,137754,128,0,137928:0:0:0:0:
448,192,137754,128,0,137915:0:0:0:0:
64,192,137754,128,0,137808:0:0:0:0:
64,192,137861,128,0,138022:0:0:0:0:
192,192,137875,128,0,138035:0:0:0:0:
448,192,137968,128,0,138129:0:0:0:0:
320,192,137982,128,0,138129:0:0:0:0:
64,192,138075,128,0,138129:0:0:0:0:
192,192,138089,128,0,138129:0:0:0:0:
320,192,138183,128,0,138236:0:0:0:0:
448,192,138183,128,0,138236:0:0:0:0:
192,192,138183,128,0,138343:0:0:0:0:
320,192,138290,128,0,138450:0:0:0:0:
448,192,138290,128,0,138558:0:0:0:0:
192,192,138397,128,0,138558:0:0:0:0:
320,192,138504,128,0,138558:0:0:0:0:
64,192,138611,128,0,138665:0:0:0:0:
192,192,138611,128,0,138879:0:0:0:0:
320,192,138611,128,0,138879:0:0:0:0:
64,192,138718,128,0,138772:0:0:0:0:
64,192,138825,128,0,138986:0:0:0:0:
192,192,138933,128,0,138986:0:0:0:0:
320,192,138933,128,0,138986:0:0:0:0:
320,192,139040,128,0,139093:0:0:0:0:
448,192,139040,128,0,139093:0:0:0:0:
64,192,139040,128,0,139200:0:0:0:0:
320,192,139147,128,0,139200:0:0:0:0:
448,192,139147,128,0,139308:0:0:0:0:
320,192,139254,128,0,139308:0:0:0:0:
64,192,139254,128,0,139415:0:0:0:0:
320,192,139361,128,0,139415:0:0:0:0:
448,192,139361,128,0,139415:0:0:0:0:
192,192,139468,128,0,139522:0:0:0:0:
64,192,139468,128,0,139629:0:0:0:0:
448,192,139468,128,0,139736:0:0:0:0:
192,192,139575,128,0,139843:0:0:0:0:
64,192,139683,128,0,139843:0:0:0:0:
448,192,139790,128,0,139843:0:0:0:0:
192,192,139898,128,0,140156:0:0:0:0:
320,192,139898,128,0,139949:0:0:0:0:
448,192,139898,128,0,140053:0:0:0:0:
320,192,140001,128,0,140260:0:0:0:0:
448,192,140104,128,0,140260:0:0:0:0:
64,192,140104,128,0,140156:0:0:0:0:
192,192,140208,128,0,140260:0:0:0:0:
192,192,140311,128,0,140570:0:0:0:0:
64,192,140311,128,0,140466:0:0:0:0:
448,192,140311,128,0,140363:0:0:0:0:
320,192,140311,1,0,0:0:0:0:
448,192,140415,128,0,140673:0:0:0:0:
320,192,140518,128,0,140673:0:0:0:0:
64,192,140518,128,0,140673:0:0:0:0:
192,192,140622,128,0,140673:0:0:0:0:
64,192,140725,128,0,140777:0:0:0:0:
448,192,140725,128,0,140984:0:0:0:0:
320,192,140725,128,0,140880:0:0:0:0:
64,192,140829,128,0,141087:0:0:0:0:
192,192,140829,128,0,140880:0:0:0:0:
320,192,140932,128,0,141087:0:0:0:0:
448,192,141035,128,0,141087:0:0:0:0:
64,192,141139,128,0,141191:0:0:0:0:
192,192,141139,128,0,141294:0:0:0:0:
320,192,141139,128,0,141398:0:0:0:0:
448,192,141139,1,0,0:0:0:0:
64,192,141242,128,0,141501:0:0:0:0:
192,192,141346,128,0,141501:0:0:0:0:
320,192,141449,128,0,141501:0:0:0:0:
64,192,141553,128,0,141604:0:0:0:0:
192,192,141553,128,0,141708:0:0:0:0:
448,192,141553,128,0,141708:0:0:0:0:
64,192,141656,128,0,141811:0:0:0:0:
192,192,141760,128,0,141915:0:0:0:0:
448,192,141760,128,0,141915:0:0:0:0:
64,192,141863,128,0,141915:0:0:0:0:
192,192,141966,128,0,142122:0:0:0:0:
320,192,141966,128,0,142225:0:0:0:0:
448,192,141966,128,0,142018:0:0:0:0:
64,192,141966,1,0,0:0:0:0:
448,192,142070,128,0,142329:0:0:0:0:
64,192,142173,128,0,142329:0:0:0:0:
192,192,142173,128,0,142329:0:0:0:0:
320,192,142277,128,0,142329:0:0:0:0:
64,192,142380,128,0,142535:0:0:0:0:
192,192,142380,128,0,142639:0:0:0:0:
448,192,142380,128,0,142432:0:0:0:0:
448,192,142484,128,0,142742:0:0:0:0:
320,192,142484,128,0,142535:0:0:0:0:
64,192,142587,128,0,142742:0:0:0:0:
192,192,142691,128,0,142742:0:0:0:0:
192,192,142794,1,0,0:0:0:0:
64,192,142794,128,0,142846:0:0:0:0:
320,192,142794,128,0,142949:0:0:0:0:
448,192,142794,128,0,143053:0:0:0:0:
64,192,142898,128,0,143156:0:0:0:0:
320,192,143001,128,0,143156:0:0:0:0:
448,192,143104,128,0,143156:0:0:0:0:
192,192,143208,128,0,143363:0:0:0:0:
64,192,143208,128,0,143260:0:0:0:0:
320,192,143208,128,0,143466:0:0:0:0:
64,192,143311,128,0,143570:0:0:0:0:
192,192,143415,128,0,143570:0:0:0:0:
448,192,143415,128,0,143466:0:0:0:0:
320,192,143518,128,0,143570:0:0:0:0:
64,192,143622,128,0,143777:0:0:0:0:
448,192,143622,128,0,143673:0:0:0:0:
320,192,143622,128,0,143880:0:0:0:0:
192,192,143622,1,0,0:0:0:0:
448,192,143725,128,0,143984:0:0:0:0:
192,192,143829,128,0,143984:0:0:0:0:
64,192,143829,128,0,143984:0:0:0:0:
320,192,143932,128,0,143984:0:0:0:0:
64,192,144035,128,0,144087:0:0:0:0:
448,192,144035,128,0,144294:0:0:0:0:
192,192,144035,128,0,144191:0:0:0:0:
320,192,144139,128,0,144191:0:0:0:0:
64,192,144139,128,0,144398:0:0:0:0:
192,192,144242,128,0,144398:0:0:0:0:
448,192,144346,128,0,144398:0:0:0:0:
192,192,144449,128,0,144501:0:0:0:0:
320,192,144449,128,0,144604:0:0:0:0:
448,192,144449,128,0,144708:0:0:0:0:
64,192,144449,1,0,0:0:0:0:
192,192,144553,128,0,144811:0:0:0:0:
320,192,144656,128,0,144811:0:0:0:0:
448,192,144760,128,0,144811:0:0:0:0:
64,192,144863,128,0,144915:0:0:0:0:
192,192,144863,128,0,145018:0:0:0:0:
320,192,144863,128,0,145018:0:0:0:0:
64,192,144966,128,0,145122:0:0:0:0:
192,192,145070,128,0,145225:0:0:0:0:
320,192,145070,128,0,145225:0:0:0:0:
64,192,145173,128,0,145225:0:0:0:0:
192,192,145277,128,0,145432:0:0:0:0:
320,192,145277,128,0,145535:0:0:0:0:
448,192,145277,128,0,145329:0:0:0:0:
64,192,145277,1,0,0:0:0:0:
448,192,145380,128,0,145639:0:0:0:0:
64,192,145484,128,0,145639:0:0:0:0:
192,192,145484,128,0,145639:0:0:0:0:
320,192,145587,128,0,145639:0:0:0:0:
192,192,145691,128,0,145846:0:0:0:0:
320,192,145691,128,0,145949:0:0:0:0:
448,192,145691,128,0,145742:0:0:0:0:
64,192,145794,128,0,145846:0:0:0:0:
448,192,145794,128,0,146053:0:0:0:0:
192,192,145898,128,0,146053:0:0:0:0:
320,192,146001,128,0,146053:0:0:0:0:
448,192,146104,1,0,0:0:0:0:
64,192,146104,128,0,146156:0:0:0:0:
192,192,146104,128,0,146260:0:0:0:0:
320,192,146104,128,0,146363:0:0:0:0:
64,192,146208,128,0,146466:0:0:0:0:
192,192,146311,128,0,146466:0:0:0:0:
320,192,146415,128,0,146466:0:0:0:0:
448,192,146518,128,0,146669:0:0:0:0:
64,192,146519,128,0,146569:0:0:0:0:
192,192,146519,128,0,146769:0:0:0:0:
64,192,146619,128,0,146769:0:0:0:0:
448,192,146719,128,0,146869:0:0:0:0:
192,192,146819,128,0,146869:0:0:0:0:
64,192,146819,128,0,146869:0:0:0:0:
320,192,146919,128,0,146969:0:0:0:0:
448,192,146919,128,0,147069:0:0:0:0:
64,192,146919,128,0,147069:0:0:0:0:
192,192,146919,1,0,0:0:0:0:
320,192,147019,128,0,147169:0:0:0:0:
64,192,147119,128,0,147169:0:0:0:0:
448,192,147119,128,0,147269:0:0:0:0:
320,192,147219,128,0,147269:0:0:0:0:
64,192,147219,128,0,147269:0:0:0:0:
192,192,147319,128,0,147469:0:0:0:0:
320,192,147319,128,0,147469:0:0:0:0:
448,192,147319,128,0,147369:0:0:0:0:
448,192,147419,128,0,147569:0:0:0:0:
320,192,147519,128,0,147669:0:0:0:0:
192,192,147519,128,0,147669:0:0:0:0:
448,192,147619,128,0,147669:0:0:0:0:
192,192,147719,128,0,147869:0:0:0:0:
320,192,147719,128,0,147869:0:0:0:0:
64,192,147719,128,0,147769:0:0:0:0:
448,192,147719,1,0,0:0:0:0:
64,192,147819,128,0,147969:0:0:0:0:
192,192,147919,128,0,147969:0:0:0:0:
320,192,147919,128,0,148069:0:0:0:0:
64,192,148019,128,0,148069:0:0:0:0:
192,192,148019,128,0,148069:0:0:0:0:
320,192,148119,128,0,148169:0:0:0:0:
448,192,148119,128,0,148369:0:0:0:0:
64,192,148119,128,0,148269:0:0:0:0:
320,192,148219,128,0,148369:0:0:0:0:
64,192,148319,128,0,148469:0:0:0:0:
320,192,148419,128,0,148469:0:0:0:0:
448,192,148419,128,0,148469:0:0:0:0:
64,192,148519,128,0,148669:0:0:0:0:
192,192,148519,128,0,148569:0:0:0:0:
448,192,148519,128,0,148669:0:0:0:0:
320,192,148519,1,0,0:0:0:0:
192,192,148619,128,0,148769:0:0:0:0:
448,192,148719,128,0,148869:0:0:0:0:
64,192,148719,128,0,148769:0:0:0:0:
64,192,148819,128,0,148869:0:0:0:0:
192,192,148819,128,0,148869:0:0:0:0:
192,192,148919,128,0,149069:0:0:0:0:
320,192,148919,128,0,149069:0:0:0:0:
448,192,148919,128,0,148969:0:0:0:0:
448,192,149019,128,0,149169:0:0:0:0:
192,192,149119,128,0,149269:0:0:0:0:
320,192,149119,128,0,149269:0:0:0:0:
448,192,149219,128,0,149269:0:0:0:0:
64,192,149319,128,0,149469:0:0:0:0:
192,192,149319,128,0,149369:0:0:0:0:
320,192,149319,128,0,149469:0:0:0:0:
448,192,149319,1,0,0:0:0:0:
192,192,149419,128,0,149569:0:0:0:0:
320,192,149519,128,0,149669:0:0:0:0:
64,192,149519,128,0,149569:0:0:0:0:
192,192,149619,128,0,149669:0:0:0:0:
64,192,149619,128,0,149669:0:0:0:0:
192,192,149719,128,0,149869:0:0:0:0:
320,192,149719,128,0,149969:0:0:0:0:
448,192,149719,128,0,149769:0:0:0:0:
448,192,149819,128,0,149969:0:0:0:0:
192,192,149919,128,0,150069:0:0:0:0:
320,192,150019,128,0,150069:0:0:0:0:
448,192,150019,128,0,150069:0:0:0:0:
64,192,150119,128,0,150269:0:0:0:0:
192,192,150119,128,0,150169:0:0:0:0:
448,192,150119,128,0,150269:0:0:0:0:
320,192,150119,1,0,0:0:0:0:
192,192,150219,128,0,150369:0:0:0:0:
448,192,150319,128,0,150469:0:0:0:0:
64,192,150319,128,0,150469:0:0:0:0:
192,192,150419,128,0,150469:0:0:0:0:
320,192,150519,128,0,150769:0:0:0:0:
448,192,150519,128,0,150569:0:0:0:0:
64,192,150519,128,0,150669:0:0:0:0:
448,192,150619,128,0,150769:0:0:0:0:
64,192,150719,128,0,150869:0:0:0:0:
320,192,150819,128,0,150869:0:0:0:0:
448,192,150819,128,0,150869:0:0:0:0:
64,192,150919,1,0,0:0:0:0:
192,192,150919,128,0,150969:0:0:0:0:
320,192,150919,128,0,151069:0:0:0:0:
448,192,150919,128,0,151069:0:0:0:0:
192,192,151019,128,0,151169:0:0:0:0:
320,192,151119,128,0,151269:0:0:0:0:
448,192,151119,128,0,151269:0:0:0:0:
192,192,151219,128,0,151269:0:0:0:0:
192,192,151319,128,0,151569:0:0:0:0:
320,192,151319,128,0,151469:0:0:0:0:
64,192,151319,128,0,151369:0:0:0:0:
64,192,151419,128,0,151569:0:0:0:0:
320,192,151519,128,0,151669:0:0:0:0:
64,192,151619,128,0,151669:0:0:0:0:
192,192,151619,128,0,151669:0:0:0:0:
64,192,151719,128,0,151869:0:0:0:0:
320,192,151719,128,0,151769:0:0:0:0:
448,192,151719,128,0,151869:0:0:0:0:
192,192,151719,1,0,0:0:0:0:
320,192,151819,128,0,151969:0:0:0:0:
448,192,151919,128,0,152069:0:0:0:0:
64,192,151919,128,0,152069:0:0:0:0:
320,192,152019,128,0,152069:0:0:0:0:
192,192,152119,128,0,152369:0:0:0:0:
448,192,152119,128,0,152169:0:0:0:0:
64,192,152119,128,0,152269:0:0:0:0:
448,192,152219,128,0,152369:0:0:0:0:
64,192,152319,128,0,152469:0:0:0:0:
192,192,152419,128,0,152469:0:0:0:0:
448,192,152419,128,0,152469:0:0:0:0:
448,192,152519,1,0,0:0:0:0:
64,192,152519,128,0,152569:0:0:0:0:
192,192,152519,128,0,152669:0:0:0:0:
320,192,152519,128,0,152669:0:0:0:0:
64,192,152619,128,0,152769:0:0:0:0:
192,192,152719,128,0,152869:0:0:0:0:
320,192,152719,128,0,152869:0:0:0:0:
64,192,152819,128,0,152869:0:0:0:0:
448,192,152919,128,0,153169:0:0:0:0:
192,192,152919,128,0,153069:0:0:0:0:
320,192,153019,128,0,153269:0:0:0:0:
64,192,153119,128,0,153269:0:0:0:0:
192,192,153119,128,0,153269:0:0:0:0:
448,192,153219,128,0,153319:0:0:0:0:
320,192,153319,128,0,153369:0:0:0:0:
192,192,153319,128,0,153369:0:0:0:0:
64,192,153319,128,0,153369:0:0:0:0:
64,192,153519,128,0,153569:0:0:0:0:
448,192,153519,128,0,153569:0:0:0:0:
320,192,153619,128,0,153669:0:0:0:0:
192,192,153619,128,0,153669:0:0:0:0:
192,192,153719,128,0,153769:0:0:0:0:
448,192,153719,128,0,153769:0:0:0:0:
64,192,153719,128,0,153769:0:0:0:0:
448,192,153819,128,0,153869:0:0:0:0:
320,192,153819,128,0,153869:0:0:0:0:
192,192,153919,128,0,153969:0:0:0:0:
64,192,153919,128,0,153969:0:0:0:0:
320,192,154019,128,0,154069:0:0:0:0:
448,192,154019,128,0,154069:0:0:0:0:
64,192,154119,128,0,154319:0:0:0:0:
192,192,154119,128,0,154319:0:0:0:0:
448,192,154119,128,0,154319:0:0:0:0:
320,192,154319,128,0,154519:0:0:0:0:
448,192,154519,128,0,154619:0:0:0:0:
192,192,154519,128,0,154619:0:0:0:0:
320,192,154619,128,0,154719:0:0:0:0:
64,192,154719,128,0,154819:0:0:0:0:
192,192,154719,128,0,154819:0:0:0:0:
448,192,154819,128,0,154919:0:0:0:0:
320,192,154919,128,0,154969:0:0:0:0:
192,192,154919,128,0,154969:0:0:0:0:
64,192,154919,128,0,154969:0:0:0:0:
64,192,155119,1,0,0:0:0:0:
448,192,155119,1,0,0:0:0:0:
192,192,155219,1,0,0:0:0:0:
320,192,155219,1,0,0:0:0:0:
192,192,155319,1,0,0:0:0:0:
64,192,155319,1,0,0:0:0:0:
448,192,155319,1,0,0:0:0:0:
320,192,155419,1,0,0:0:0:0:
448,192,155419,1,0,0:0:0:0:
192,192,155519,1,0,0:0:0:0:
64,192,155519,1,0,0:0:0:0:
320,192,155619,1,0,0:0:0:0:
448,192,155619,1,0,0:0:0:0:
64,192,155719,128,0,155919:0:0:0:0:
448,192,155719,128,0,155919:0:0:0:0:
192,192,155719,1,0,0:0:0:0:
320,192,155919,128,0,156019:0:0:0:0:
64,192,156119,128,0,156319:0:0:0:0:
448,192,156119,128,0,156319:0:0:0:0:
192,192,156319,128,0,156519:0:0:0:0:
320,192,156519,128,0,156569:0:0:0:0:
448,192,156519,128,0,156569:0:0:0:0:
64,192,156519,128,0,156569:0:0:0:0:
192,192,156719,1,0,0:0:0:0:
192,192,156819,1,0,0:0:0:0:
320,192,156919,1,0,0:0:0:0:
448,192,156919,1,0,0:0:0:0:
192,192,157019,1,0,0:0:0:0:
64,192,157019,1,0,0:0:0:0:
64,192,157119,128,0,157269:0:0:0:0:
448,192,157119,1,0,0:0:0:0:
320,192,157319,1,0,0:0:0:0:
192,192,157319,1,0,0:0:0:0:
64,192,157319,128,0,157519:0:0:0:0:
320,192,157519,128,0,157569:0:0:0:0:
448,192,157519,128,0,157569:0:0:0:0:
192,192,157619,128,0,157669:0:0:0:0:
64,192,157619,128,0,157669:0:0:0:0:
320,192,157669,128,0,157719:0:0:0:0:
448,192,157669,128,0,157719:0:0:0:0:
192,192,157719,128,0,157769:0:0:0:0:
64,192,157719,128,0,157769:0:0:0:0:
64,192,157819,128,0,157869:0:0:0:0:
320,192,157919,128,0,157969:0:0:0:0:
448,192,157919,128,0,157969:0:0:0:0:
448,192,158019,128,0,158069:0:0:0:0:
192,192,158119,1,0,0:0:0:0:
64,192,158119,1,0,0:0:0:0:
64,192,158219,1,0,0:0:0:0:
320,192,158319,1,0,0:0:0:0:
448,192,158319,1,0,0:0:0:0:
448,192,158419,1,0,0:0:0:0:
192,192,158519,1,0,0:0:0:0:
64,192,158519,1,0,0:0:0:0:
320,192,158569,1,0,0:0:0:0:
64,192,158619,1,0,0:0:0:0:
448,192,158619,1,0,0:0:0:0:
192,192,158669,1,0,0:0:0:0:
320,192,158719,1,0,0:0:0:0:
448,192,158719,1,0,0:0:0:0:
64,192,158769,1,0,0:0:0:0:
192,192,158819,1,0,0:0:0:0:
320,192,158819,1,0,0:0:0:0:
448,192,158869,1,0,0:0:0:0:
192,192,158919,128,0,158969:0:0:0:0:
64,192,158919,128,0,158969:0:0:0:0:
320,192,158969,128,0,159019:0:0:0:0:
448,192,159019,128,0,159069:0:0:0:0:
64,192,159019,128,0,159069:0:0:0:0:
192,192,159069,128,0,159119:0:0:0:0:
320,192,159119,128,0,159169:0:0:0:0:
448,192,159119,128,0,159219:0:0:0:0:
64,192,159169,128,0,159269:0:0:0:0:
192,192,159219,128,0,159269:0:0:0:0:
320,192,159219,128,0,159269:0:0:0:0:
448,192,159269,128,0,159319:0:0:0:0:
64,192,159319,128,0,159669:0:0:0:0:
192,192,159319,128,0,159719:0:0:0:0:
320,192,159319,128,0,159719:0:0:0:0:
64,192,159719,128,0,159785:0:0:0:0:
192,192,159785,128,0,159852:0:0:0:0:
64,192,159852,128,0,159919:0:0:0:0:
192,192,159919,128,0,159985:0:0:0:0:
64,192,159985,128,0,160052:0:0:0:0:
192,192,160052,128,0,160119:0:0:0:0:
64,192,160119,128,0,160185:0:0:0:0:
320,192,160185,128,0,160252:0:0:0:0:
64,192,160252,128,0,160319:0:0:0:0:
320,192,160319,128,0,160385:0:0:0:0:
64,192,160385,128,0,160452:0:0:0:0:
320,192,160452,128,0,160519:0:0:0:0:
64,192,160519,128,0,160585:0:0:0:0:
448,192,160585,128,0,160652:0:0:0:0:
64,192,160652,128,0,160719:0:0:0:0:
448,192,160719,128,0,160785:0:0:0:0:
64,192,160785,128,0,160852:0:0:0:0:
448,192,160852,128,0,160919:0:0:0:0:
64,192,160919,128,0,162669:0:0:0:0:
448,192,161069,128,0,162469:0:0:0:0:
320,192,162519,128,0,162619:0:0:0:0:
448,192,162519,128,0,162869:0:0:0:0:
64,192,162719,128,0,163069:0:0:0:0:
192,192,162719,128,0,162819:0:0:0:0:
448,192,162919,128,0,163269:0:0:0:0:
320,192,162919,128,0,163019:0:0:0:0:
64,192,163119,128,0,163469:0:0:0:0:
192,192,163119,128,0,163219:0:0:0:0:
448,192,163319,128,0,163369:0:0:0:0:
320,192,163319,128,0,163419:0:0:0:0:
448,192,163419,128,0,163669:0:0:0:0:
64,192,163519,128,0,163569:0:0:0:0:
192,192,163519,128,0,163619:0:0:0:0:
64,192,163619,128,0,163869:0:0:0:0:
448,192,163719,128,0,163769:0:0:0:0:
320,192,163719,128,0,163819:0:0:0:0:
448,192,163819,128,0,163919:0:0:0:0:
192,192,163919,1,0,0:0:0:0:
64,192,163919,128,0,163969:0:0:0:0:
320,192,163969,1,0,0:0:0:0:
448,192,163969,128,0,164019:0:0:0:0:
192,192,164019,1,0,0:0:0:0:
64,192,164019,128,0,164069:0:0:0:0:
320,192,164069,1,0,0:0:0:0:
448,192,164069,128,0,164119:0:0:0:0:
192,192,164119,1,0,0:0:0:0:
64,192,164119,1,0,0:0:0:0:
320,192,165319,128,0,165419:0:0:0:0:
448,192,165369,128,0,165519:0:0:0:0:
192,192,165519,128,0,165719:0:0:0:0:
320,192,165719,128,0,165819:0:0:0:0:
448,192,165719,128,0,165819:0:0:0:0:
64,192,165752,128,0,165819:0:0:0:0:
192,192,165785,128,0,165852:0:0:0:0:
192,192,165919,128,0,166019:0:0:0:0:
64,192,165919,128,0,166019:0:0:0:0:
320,192,165952,128,0,166019:0:0:0:0:
448,192,165985,128,0,166052:0:0:0:0:
320,192,166119,128,0,166219:0:0:0:0:
448,192,166119,128,0,166219:0:0:0:0:
64,192,166152,128,0,166219:0:0:0:0:
192,192,166185,128,0,166252:0:0:0:0:
192,192,166319,128,0,166419:0:0:0:0:
64,192,166319,128,0,166419:0:0:0:0:
448,192,166352,128,0,166419:0:0:0:0:
320,192,166385,128,0,166452:0:0:0:0:
64,192,166519,128,0,166619:0:0:0:0:
448,192,166519,128,0,166619:0:0:0:0:
192,192,166552,128,0,166619:0:0:0:0:
320,192,166585,128,0,166652:0:0:0:0:
448,192,166719,128,0,166819:0:0:0:0:
64,192,166719,128,0,166819:0:0:0:0:
320,192,166752,128,0,166819:0:0:0:0:
192,192,166785,128,0,166852:0:0:0:0:
64,192,166919,128,0,167019:0:0:0:0:
448,192,166919,128,0,167019:0:0:0:0:
192,192,166952,128,0,167019:0:0:0:0:
320,192,166985,128,0,167052:0:0:0:0:
448,192,167119,128,0,167169:0:0:0:0:
64,192,167119,128,0,167169:0:0:0:0:
320,192,167144,128,0,167194:0:0:0:0:
192,192,167219,128,0,167269:0:0:0:0:
64,192,167219,128,0,167269:0:0:0:0:
448,192,167269,128,0,167319:0:0:0:0:
192,192,167319,128,0,167419:0:0:0:0:
64,192,167319,128,0,167419:0:0:0:0:
320,192,167352,128,0,167419:0:0:0:0:
448,192,167385,128,0,167452:0:0:0:0:
448,192,167519,128,0,167619:0:0:0:0:
320,192,167519,128,0,167619:0:0:0:0:
192,192,167552,128,0,167619:0:0:0:0:
64,192,167585,128,0,167652:0:0:0:0:
64,192,167719,128,0,167819:0:0:0:0:
192,192,167719,128,0,167819:0:0:0:0:
448,192,167752,128,0,167819:0:0:0:0:
320,192,167785,128,0,167852:0:0:0:0:
320,192,167919,128,0,168019:0:0:0:0:
448,192,167919,128,0,168019:0:0:0:0:
64,192,167952,128,0,168019:0:0:0:0:
192,192,167985,128,0,168052:0:0:0:0:
64,192,168119,128,0,168169:0:0:0:0:
448,192,168119,128,0,168169:0:0:0:0:
320,192,168144,128,0,168194:0:0:0:0:
64,192,168219,128,0,168269:0:0:0:0:
448,192,168219,128,0,168269:0:0:0:0:
192,192,168244,128,0,168294:0:0:0:0:
320,192,168319,128,0,168419:0:0:0:0:
448,192,168319,128,0,168419:0:0:0:0:
192,192,168352,128,0,168419:0:0:0:0:
64,192,168385,128,0,168452:0:0:0:0:
64,192,168519,128,0,168619:0:0:0:0:
448,192,168519,128,0,168619:0:0:0:0:
320,192,168552,128,0,168619:0:0:0:0:
192,192,168585,128,0,168652:0:0:0:0:
192,192,168719,128,0,168819:0:0:0:0:
448,192,168719,128,0,168769:0:0:0:0:
64,192,168769,128,0,168869:0:0:0:0:
320,192,168819,128,0,168869:0:0:0:0:
448,192,168819,128,0,168869:0:0:0:0:
192,192,168869,128,0,168919:0:0:0:0:
64,192,168919,128,0,169019:0:0:0:0:
448,192,168919,128,0,169019:0:0:0:0:
320,192,168952,128,0,169019:0:0:0:0:
192,192,168985,128,0,169052:0:0:0:0:
192,192,169119,128,0,169219:0:0:0:0:
64,192,169119,128,0,169219:0:0:0:0:
320,192,169152,128,0,169219:0:0:0:0:
448,192,169185,128,0,169252:0:0:0:0:
192,192,169319,128,0,169419:0:0:0:0:
64,192,169319,128,0,169419:0:0:0:0:
448,192,169352,128,0,169419:0:0:0:0:
320,192,169385,128,0,169452:0:0:0:0:
320,192,169519,128,0,169569:0:0:0:0:
448,192,169519,128,0,169569:0:0:0:0:
192,192,169619,128,0,169669:0:0:0:0:
64,192,169619,128,0,169669:0:0:0:0:
448,192,169619,128,0,169769:0:0:0:0:
192,192,169719,128,0,169769:0:0:0:0:
64,192,169719,128,0,169769:0:0:0:0:
320,192,169819,128,0,169869:0:0:0:0:
448,192,169819,128,0,169869:0:0:0:0:
64,192,169819,128,0,169869:0:0:0:0:
64,192,169919,128,0,170019:0:0:0:0:
192,192,169919,128,0,170019:0:0:0:0:
320,192,169952,128,0,170019:0:0:0:0:
448,192,169985,128,0,170052:0:0:0:0:
64,192,170119,128,0,170219:0:0:0:0:
448,192,170119,128,0,170219:0:0:0:0:
320,192,170152,128,0,170219:0:0:0:0:
192,192,170185,128,0,170252:0:0:0:0:
192,192,170319,128,0,170369:0:0:0:0:
64,192,170319,128,0,170369:0:0:0:0:
320,192,170369,128,0,170419:0:0:0:0:
448,192,170369,128,0,170419:0:0:0:0:
64,192,170419,128,0,170469:0:0:0:0:
192,192,170419,128,0,170469:0:0:0:0:
448,192,170469,128,0,170519:0:0:0:0:
64,192,170519,128,0,170619:0:0:0:0:
192,192,170519,128,0,170619:0:0:0:0:
320,192,170552,128,0,170619:0:0:0:0:
448,192,170585,128,0,170652:0:0:0:0:
64,192,170719,128,0,170869:0:0:0:0:
320,192,170719,128,0,170769:0:0:0:0:
192,192,170819,128,0,170869:0:0:0:0:
320,192,170819,128,0,170869:0:0:0:0:
448,192,170819,128,0,170869:0:0:0:0:
64,192,170919,128,0,171019:0:0:0:0:
192,192,170919,128,0,171019:0:0:0:0:
448,192,170952,128,0,171019:0:0:0:0:
320,192,170985,128,0,171052:0:0:0:0:
320,192,171119,128,0,171219:0:0:0:0:
448,192,171119,128,0,171219:0:0:0:0:
192,192,171152,128,0,171219:0:0:0:0:
64,192,171185,128,0,171252:0:0:0:0:
320,192,171319,128,0,171419:0:0:0:0:
448,192,171319,128,0,171435:0:0:0:0:
64,192,171352,128,0,171452:0:0:0:0:
192,192,171419,128,0,171469:0:0:0:0:
320,192,171519,128,0,171635:0:0:0:0:
448,192,171519,128,0,171619:0:0:0:0:
64,192,171552,128,0,171652:0:0:0:0:
192,192,171619,128,0,171669:0:0:0:0:
320,192,171719,128,0,171769:0:0:0:0:
448,192,171719,128,0,171769:0:0:0:0:
64,192,171719,128,0,171769:0:0:0:0:
192,192,171819,128,0,171869:0:0:0:0:
64,192,171819,128,0,171869:0:0:0:0:
448,192,171819,128,0,171869:0:0:0:0:
320,192,171919,128,0,172019:0:0:0:0:
192,192,171919,128,0,171969:0:0:0:0:
64,192,171969,128,0,172069:0:0:0:0:
192,192,172019,128,0,172069:0:0:0:0:
448,192,172019,128,0,172069:0:0:0:0:
320,192,172069,128,0,172119:0:0:0:0:
64,192,172119,128,0,172269:0:0:0:0:
192,192,172119,128,0,172269:0:0:0:0:
448,192,172119,128,0,172269:0:0:0:0:
320,192,172319,128,0,172469:0:0:0:0:
448,192,172319,128,0,172469:0:0:0:0:
192,192,172319,128,0,172469:0:0:0:0:
64,192,172519,128,0,172669:0:0:0:0:
320,192,172519,128,0,172669:0:0:0:0:
448,192,172519,128,0,172669:0:0:0:0:
320,192,172719,128,0,172869:0:0:0:0:
192,192,172719,128,0,172869:0:0:0:0:
64,192,172719,128,0,172869:0:0:0:0:
64,192,172919,128,0,173069:0:0:0:0:
192,192,172919,128,0,173069:0:0:0:0:
448,192,172919,128,0,173069:0:0:0:0:
320,192,173119,128,0,173269:0:0:0:0:
448,192,173119,128,0,173269:0:0:0:0:
192,192,173119,128,0,173269:0:0:0:0:
320,192,173319,128,0,173469:0:0:0:0:
448,192,173319,128,0,173469:0:0:0:0:
64,192,173319,128,0,173469:0:0:0:0:
64,192,173519,128,0,173569:0:0:0:0:
320,192,173519,128,0,173669:0:0:0:0:
192,192,173519,1,0,0:0:0:0:
64,192,173619,128,0,173669:0:0:0:0:
192,192,173619,1,0,0:0:0:0:
448,192,173719,128,0,173769:0:0:0:0:
64,192,173719,128,0,173869:0:0:0:0:
320,192,173719,1,0,0:0:0:0:
448,192,173819,128,0,173869:0:0:0:0:
320,192,173819,1,0,0:0:0:0:
448,192,173919,128,0,174069:0:0:0:0:
192,192,173919,128,0,174069:0:0:0:0:
64,192,173919,128,0,174069:0:0:0:0:
320,192,173919,128,0,173969:0:0:0:0:
320,192,174119,128,0,174169:0:0:0:0:
64,192,174119,128,0,174269:0:0:0:0:
448,192,174119,1,0,0:0:0:0:
320,192,174219,128,0,174269:0:0:0:0:
192,192,174219,1,0,0:0:0:0:
448,192,174319,1,0,0:0:0:0:
320,192,174319,1,0,0:0:0:0:
64,192,174369,1,0,0:0:0:0:
192,192,174369,1,0,0:0:0:0:
448,192,174419,1,0,0:0:0:0:
320,192,174444,1,0,0:0:0:0:
64,192,174469,1,0,0:0:0:0:
192,192,174494,1,0,0:0:0:0:
448,192,174519,128,0,174669:0:0:0:0:
320,192,174519,1,0,0:0:0:0:
64,192,174619,128,0,174669:0:0:0:0:
192,192,174619,1,0,0:0:0:0:
320,192,174619,128,0,174669:0:0:0:0:
192,192,174719,1,0,0:0:0:0:
64,192,174719,128,0,174769:0:0:0:0:
192,192,174819,128,0,174969:0:0:0:0:
448,192,174819,128,0,174869:0:0:0:0:
320,192,174819,1,0,0:0:0:0:
320,192,174919,1,0,0:0:0:0:
448,192,174919,128,0,174969:0:0:0:0:
320,192,175019,128,0,175119:0:0:0:0:
64,192,175019,128,0,175069:0:0:0:0:
192,192,175019,1,0,0:0:0:0:
64,192,175119,128,0,175169:0:0:0:0:
192,192,175119,1,0,0:0:0:0:
320,192,175169,128,0,175219:0:0:0:0:
448,192,175219,128,0,175269:0:0:0:0:
192,192,175219,128,0,175269:0:0:0:0:
64,192,175269,128,0,175319:0:0:0:0:
448,192,175319,128,0,175469:0:0:0:0:
320,192,175331,128,0,175394:0:0:0:0:
192,192,175344,128,0,175419:0:0:0:0:
64,192,175369,128,0,175469:0:0:0:0:
320,192,175519,128,0,175669:0:0:0:0:
64,192,175531,128,0,175594:0:0:0:0:
192,192,175544,128,0,175619:0:0:0:0:
448,192,175569,128,0,175669:0:0:0:0:
192,192,175719,128,0,175869:0:0:0:0:
320,192,175731,128,0,175794:0:0:0:0:
64,192,175744,128,0,175819:0:0:0:0:
448,192,175769,128,0,175869:0:0:0:0:
320,192,175919,128,0,176069:0:0:0:0:
448,192,175931,128,0,175994:0:0:0:0:
192,192,175944,128,0,176019:0:0:0:0:
64,192,175969,128,0,176069:0:0:0:0:
192,192,176119,128,0,176181:0:0:0:0:
320,192,176131,128,0,176194:0:0:0:0:
448,192,176144,128,0,176206:0:0:0:0:
64,192,176219,128,0,176281:0:0:0:0:
192,192,176231,128,0,176294:0:0:0:0:
320,192,176244,128,0,176306:0:0:0:0:
448,192,176319,128,0,176469:0:0:0:0:
64,192,176331,128,0,176394:0:0:0:0:
320,192,176344,128,0,176419:0:0:0:0:
192,192,176369,128,0,176469:0:0:0:0:
320,192,176519,128,0,176581:0:0:0:0:
192,192,176531,128,0,176594:0:0:0:0:
64,192,176544,128,0,176606:0:0:0:0:
448,192,176619,128,0,176681:0:0:0:0:
320,192,176631,128,0,176694:0:0:0:0:
192,192,176644,128,0,176706:0:0:0:0:
448,192,176719,128,0,176769:0:0:0:0:
320,192,176731,128,0,176781:0:0:0:0:
64,192,176769,128,0,176819:0:0:0:0:
192,192,176781,128,0,176831:0:0:0:0:
448,192,176819,128,0,176869:0:0:0:0:
320,192,176831,128,0,176881:0:0:0:0:
64,192,176869,128,0,176919:0:0:0:0:
320,192,176919,1,0,0:0:0:0:
192,192,176919,1,0,0:0:0:0:
448,192,176919,1,0,0:0:0:0:
320,192,177019,1,0,0:0:0:0:
448,192,177019,1,0,0:0:0:0:
320,192,177119,1,0,0:0:0:0:
448,192,177119,1,0,0:0:0:0:
64,192,177119,1,0,0:0:0:0:
192,192,177219,1,0,0:0:0:0:
64,192,177219,1,0,0:0:0:0:
64,192,177319,1,0,0:0:0:0:
320,192,177319,1,0,0:0:0:0:
448,192,177319,1,0,0:0:0:0:
192,192,177369,1,0,0:0:0:0:
320,192,177419,1,0,0:0:0:0:
448,192,177419,1,0,0:0:0:0:
192,192,177469,1,0,0:0:0:0:
448,192,177519,1,0,0:0:0:0:
64,192,177519,1,0,0:0:0:0:
192,192,177619,1,0,0:0:0:0:
64,192,177619,1,0,0:0:0:0:
448,192,177719,1,0,0:0:0:0:
192,192,177719,1,0,0:0:0:0:
64,192,177719,1,0,0:0:0:0:
320,192,177819,1,0,0:0:0:0:
448,192,177819,1,0,0:0:0:0:
192,192,177919,1,0,0:0:0:0:
64,192,177919,1,0,0:0:0:0:
448,192,177919,1,0,0:0:0:0:
320,192,177969,1,0,0:0:0:0:
192,192,178019,1,0,0:0:0:0:
64,192,178019,1,0,0:0:0:0:
320,192,178069,1,0,0:0:0:0:
64,192,178119,1,0,0:0:0:0:
192,192,178119,1,0,0:0:0:0:
448,192,178119,1,0,0:0:0:0:
320,192,178219,1,0,0:0:0:0:
448,192,178219,1,0,0:0:0:0:
192,192,178269,1,0,0:0:0:0:
64,192,178319,1,0,0:0:0:0:
448,192,178319,1,0,0:0:0:0:
320,192,178369,1,0,0:0:0:0:
192,192,178419,1,0,0:0:0:0:
64,192,178419,1,0,0:0:0:0:
448,192,178469,1,0,0:0:0:0:
64,192,178519,128,0,178619:0:0:0:0:
192,192,178519,128,0,178619:0:0:0:0:
320,192,178552,128,0,178619:0:0:0:0:
448,192,178585,128,0,178652:0:0:0:0:
320,192,178719,128,0,178819:0:0:0:0:
448,192,178719,128,0,178819:0:0:0:0:
192,192,178752,128,0,178819:0:0:0:0:
64,192,178785,128,0,178852:0:0:0:0:
320,192,178919,128,0,178969:0:0:0:0:
448,192,178919,128,0,178969:0:0:0:0:
64,192,178919,128,0,179069:0:0:0:0:
320,192,179019,128,0,179069:0:0:0:0:
448,192,179019,128,0,179069:0:0:0:0:
64,192,179119,128,0,179169:0:0:0:0:
192,192,179119,128,0,179169:0:0:0:0:
448,192,179119,128,0,179169:0:0:0:0:
320,192,179219,128,0,179269:0:0:0:0:
64,192,179219,128,0,179269:0:0:0:0:
192,192,179269,128,0,179319:0:0:0:0:
64,192,179319,128,0,179469:0:0:0:0:
320,192,179319,128,0,179369:0:0:0:0:
448,192,179319,128,0,179369:0:0:0:0:
320,192,179419,128,0,179469:0:0:0:0:
448,192,179419,128,0,179469:0:0:0:0:
320,192,179519,128,0,179669:0:0:0:0:
64,192,179519,128,0,179569:0:0:0:0:
192,192,179519,128,0,179569:0:0:0:0:
192,192,179619,128,0,179669:0:0:0:0:
64,192,179619,128,0,179669:0:0:0:0:
192,192,179719,128,0,179819:0:0:0:0:
320,192,179719,128,0,179769:0:0:0:0:
448,192,179719,128,0,179769:0:0:0:0:
320,192,179819,128,0,179869:0:0:0:0:
448,192,179819,128,0,179869:0:0:0:0:
192,192,179869,128,0,179919:0:0:0:0:
64,192,179919,128,0,179969:0:0:0:0:
320,192,179919,128,0,179969:0:0:0:0:
448,192,180019,1,0,0:0:0:0:
320,192,180044,1,0,0:0:0:0:
64,192,180069,1,0,0:0:0:0:
192,192,180094,1,0,0:0:0:0:
320,192,180119,128,0,180169:0:0:0:0:
448,192,180119,128,0,180169:0:0:0:0:
320,192,180219,128,0,180269:0:0:0:0:
448,192,180219,128,0,180269:0:0:0:0:
64,192,180319,128,0,180369:0:0:0:0:
192,192,180319,128,0,180369:0:0:0:0:
448,192,180319,128,0,180469:0:0:0:0:
192,192,180419,128,0,180469:0:0:0:0:
64,192,180419,128,0,180469:0:0:0:0:
320,192,180519,128,0,180569:0:0:0:0:
448,192,180519,128,0,180569:0:0:0:0:
192,192,180569,128,0,180619:0:0:0:0:
64,192,180619,128,0,180669:0:0:0:0:
320,192,180619,128,0,180669:0:0:0:0:
448,192,180619,128,0,180669:0:0:0:0:
192,192,180719,128,0,180769:0:0:0:0:
64,192,180719,128,0,180769:0:0:0:0:
320,192,180769,128,0,180819:0:0:0:0:
64,192,180819,128,0,180869:0:0:0:0:
192,192,180819,128,0,180869:0:0:0:0:
448,192,180819,128,0,180869:0:0:0:0:
320,192,180919,128,0,180969:0:0:0:0:
448,192,180919,128,0,180969:0:0:0:0:
64,192,180919,128,0,181069:0:0:0:0:
192,192,181019,128,0,181069:0:0:0:0:
448,192,181019,128,0,181069:0:0:0:0:
320,192,181119,128,0,181269:0:0:0:0:
192,192,181119,128,0,181169:0:0:0:0:
64,192,181119,128,0,181169:0:0:0:0:
64,192,181219,128,0,181269:0:0:0:0:
448,192,181219,128,0,181269:0:0:0:0:
192,192,181319,128,0,181385:0:0:0:0:
64,192,181319,128,0,181385:0:0:0:0:
320,192,181385,128,0,181452:0:0:0:0:
448,192,181385,128,0,181452:0:0:0:0:
64,192,181452,128,0,181519:0:0:0:0:
320,192,181519,128,0,181585:0:0:0:0:
192,192,181519,128,0,181585:0:0:0:0:
448,192,181585,128,0,181652:0:0:0:0:
64,192,181585,128,0,181652:0:0:0:0:
320,192,181652,128,0,181719:0:0:0:0:
64,192,181719,128,0,181869:0:0:0:0:
192,192,181719,128,0,181869:0:0:0:0:
448,192,181744,128,0,181869:0:0:0:0:
320,192,181769,128,0,181869:0:0:0:0:
320,192,181919,128,0,182069:0:0:0:0:
448,192,181919,128,0,182069:0:0:0:0:
64,192,181944,128,0,182069:0:0:0:0:
192,192,181969,128,0,182069:0:0:0:0:
64,192,182119,128,0,182269:0:0:0:0:
192,192,182119,128,0,182269:0:0:0:0:
320,192,182144,128,0,182269:0:0:0:0:
448,192,182169,128,0,182269:0:0:0:0:
448,192,182319,128,0,182469:0:0:0:0:
320,192,182319,128,0,182469:0:0:0:0:
192,192,182344,128,0,182469:0:0:0:0:
64,192,182369,128,0,182469:0:0:0:0:
64,192,182519,128,0,182669:0:0:0:0:
448,192,182519,128,0,182669:0:0:0:0:
320,192,182544,128,0,182669:0:0:0:0:
192,192,182569,128,0,182669:0:0:0:0:
64,192,182719,128,0,182869:0:0:0:0:
448,192,182719,128,0,182869:0:0:0:0:
192,192,182744,128,0,182869:0:0:0:0:
320,192,182769,128,0,182869:0:0:0:0:
192,192,182919,128,0,183069:0:0:0:0:
64,192,182919,128,0,183069:0:0:0:0:
448,192,182944,128,0,183069:0:0:0:0:
320,192,182969,128,0,183069:0:0:0:0:
320,192,183119,128,0,183269:0:0:0:0:
448,192,183119,128,0,183269:0:0:0:0:
64,192,183144,128,0,183269:0:0:0:0:
192,192,183169,128,0,183269:0:0:0:0:
320,192,183319,128,0,183469:0:0:0:0:
448,192,183319,128,0,183469:0:0:0:0:
64,192,183319,128,0,183469:0:0:0:0:
192,192,183519,128,0,183669:0:0:0:0:
64,192,183519,128,0,183669:0:0:0:0:
448,192,183519,128,0,183669:0:0:0:0:
320,192,183719,128,0,183869:0:0:0:0:
192,192,183719,128,0,183869:0:0:0:0:
448,192,183719,128,0,183869:0:0:0:0:
448,192,183919,128,0,184019:0:0:0:0:
320,192,183919,128,0,184019:0:0:0:0:
192,192,183919,1,0,0:0:0:0:
192,192,184019,1,0,0:0:0:0:
64,192,184019,1,0,0:0:0:0:
320,192,184069,1,0,0:0:0:0:
448,192,184069,1,0,0:0:0:0:
192,192,184119,1,0,0:0:0:0:
64,192,184119,1,0,0:0:0:0:
192,192,184219,1,0,0:0:0:0:
64,192,184219,1,0,0:0:0:0:
64,192,184319,128,0,184469:0:0:0:0:
320,192,184319,1,0,0:0:0:0:
448,192,184319,1,0,0:0:0:0:
320,192,184419,1,0,0:0:0:0:
448,192,184419,1,0,0:0:0:0:
448,192,184519,128,0,184669:0:0:0:0:
192,192,184519,1,0,0:0:0:0:
64,192,184519,1,0,0:0:0:0:
192,192,184619,1,0,0:0:0:0:
64,192,184619,1,0,0:0:0:0:
320,192,184719,1,0,0:0:0:0:
448,192,184719,1,0,0:0:0:0:
64,192,184769,1,0,0:0:0:0:
192,192,184819,1,0,0:0:0:0:
320,192,184819,1,0,0:0:0:0:
448,192,184869,1,0,0:0:0:0:
192,192,184919,128,0,185019:0:0:0:0:
64,192,184919,128,0,185019:0:0:0:0:
320,192,184952,128,0,185035:0:0:0:0:
448,192,184985,128,0,185052:0:0:0:0:
320,192,185119,128,0,185219:0:0:0:0:
192,192,185119,128,0,185219:0:0:0:0:
448,192,185152,128,0,185235:0:0:0:0:
64,192,185185,128,0,185252:0:0:0:0:
320,192,185319,128,0,185419:0:0:0:0:
448,192,185319,128,0,185419:0:0:0:0:
64,192,185352,128,0,185435:0:0:0:0:
192,192,185385,128,0,185452:0:0:0:0:
192,192,185519,128,0,185556:0:0:0:0:
64,192,185519,128,0,185569:0:0:0:0:
448,192,185519,128,0,185669:0:0:0:0:
192,192,185619,128,0,185656:0:0:0:0:
64,192,185619,128,0,185669:0:0:0:0:
320,192,185719,128,0,185756:0:0:0:0:
448,192,185719,128,0,185769:0:0:0:0:
64,192,185719,128,0,185869:0:0:0:0:
320,192,185819,128,0,185856:0:0:0:0:
448,192,185819,128,0,185869:0:0:0:0:
64,192,185919,128,0,185969:0:0:0:0:
192,192,185919,128,0,185956:0:0:0:0:
320,192,185919,128,0,186019:0:0:0:0:
192,192,186019,128,0,186056:0:0:0:0:
64,192,186019,128,0,186069:0:0:0:0:
320,192,186069,128,0,186119:0:0:0:0:
448,192,186119,128,0,186169:0:0:0:0:
64,192,186119,128,0,186169:0:0:0:0:
192,192,186119,128,0,186156:0:0:0:0:
448,192,186219,128,0,186269:0:0:0:0:
320,192,186219,128,0,186256:0:0:0:0:
64,192,186219,128,0,186319:0:0:0:0:
320,192,186319,128,0,186356:0:0:0:0:
448,192,186319,128,0,186369:0:0:0:0:
192,192,186369,128,0,186419:0:0:0:0:
64,192,186419,128,0,186469:0:0:0:0:
448,192,186419,128,0,186469:0:0:0:0:
320,192,186469,128,0,186519:0:0:0:0:
64,192,186519,128,0,186652:0:0:0:0:
192,192,186519,128,0,186719:0:0:0:0:
448,192,186552,128,0,186685:0:0:0:0:
320,192,186919,128,0,187019:0:0:0:0:
448,192,186919,128,0,187119:0:0:0:0:
192,192,186969,128,0,187069:0:0:0:0:
64,192,187019,128,0,187269:0:0:0:0:
320,192,187069,128,0,187169:0:0:0:0:
192,192,187119,128,0,187219:0:0:0:0:
448,192,187169,128,0,187269:0:0:0:0:
320,192,187219,128,0,187269:0:0:0:0:
192,192,187269,128,0,187319:0:0:0:0:
64,192,187319,128,0,187519:0:0:0:0:
448,192,187319,128,0,187485:0:0:0:0:
320,192,187352,128,0,187452:0:0:0:0:
192,192,187719,128,0,187819:0:0:0:0:
64,192,187719,128,0,187919:0:0:0:0:
320,192,187769,128,0,187869:0:0:0:0:
448,192,187819,128,0,188069:0:0:0:0:
192,192,187869,128,0,187969:0:0:0:0:
320,192,187919,128,0,188019:0:0:0:0:
64,192,187969,128,0,188069:0:0:0:0:
192,192,188019,128,0,188069:0:0:0:0:
320,192,188069,128,0,188119:0:0:0:0:
64,192,188119,128,0,188219:0:0:0:0:
448,192,188119,128,0,188219:0:0:0:0:
192,192,188119,128,0,188219:0:0:0:0:
320,192,188169,128,0,188244:0:0:0:0:
320,192,188319,128,0,188419:0:0:0:0:
448,192,188319,128,0,188419:0:0:0:0:
64,192,188319,128,0,188419:0:0:0:0:
192,192,188369,128,0,188444:0:0:0:0:
192,192,188519,128,0,188619:0:0:0:0:
320,192,188519,128,0,188619:0:0:0:0:
64,192,188519,128,0,188619:0:0:0:0:
448,192,188569,128,0,188644:0:0:0:0:
192,192,188719,128,0,188819:0:0:0:0:
448,192,188719,128,0,188819:0:0:0:0:
320,192,188719,128,0,188819:0:0:0:0:
64,192,188769,128,0,188844:0:0:0:0:
448,192,188919,128,0,188969:0:0:0:0:
64,192,188919,128,0,189069:0:0:0:0:
320,192,188919,1,0,0:0:0:0:
448,192,189019,128,0,189069:0:0:0:0:
320,192,189019,1,0,0:0:0:0:
64,192,189119,128,0,189169:0:0:0:0:
448,192,189119,128,0,189269:0:0:0:0:
192,192,189119,1,0,0:0:0:0:
64,192,189219,128,0,189269:0:0:0:0:
192,192,189219,1,0,0:0:0:0:
448,192,189319,128,0,189369:0:0:0:0:
320,192,189319,1,0,0:0:0:0:
64,192,189369,128,0,189419:0:0:0:0:
192,192,189369,1,0,0:0:0:0:
448,192,189419,128,0,189469:0:0:0:0:
320,192,189419,1,0,0:0:0:0:
64,192,189469,128,0,189519:0:0:0:0:
192,192,189469,1,0,0:0:0:0:
448,192,189519,1,0,0:0:0:0:
320,192,189544,1,0,0:0:0:0:
192,192,189569,1,0,0:0:0:0:
64,192,189594,1,0,0:0:0:0:
448,192,189619,1,0,0:0:0:0:
320,192,189644,1,0,0:0:0:0:
192,192,189669,1,0,0:0:0:0:
64,192,189694,1,0,0:0:0:0:
448,192,189719,128,0,189879:0:0:0:0:
320,192,189719,128,0,189879:0:0:0:0:
192,192,189772,128,0,189879:0:0:0:0:
448,192,189933,128,0,190094:0:0:0:0:
64,192,189933,128,0,190094:0:0:0:0:
192,192,189933,128,0,190094:0:0:0:0:
320,192,190147,128,0,190320:0:0:0:0:
192,192,190147,128,0,190320:0:0:0:0:
64,192,190147,128,0,190320:0:0:0:0:
192,192,190377,128,0,190550:0:0:0:0:
448,192,190377,128,0,190550:0:0:0:0:
320,192,190377,128,0,190550:0:0:0:0:
64,192,190608,128,0,190796:0:0:0:0:
192,192,190608,1,0,0:0:0:0:
448,192,190609,128,0,190796:0:0:0:0:
320,192,190734,128,0,190796:0:0:0:0:
192,192,190734,128,0,190796:0:0:0:0:
320,192,190859,128,0,191046:0:0:0:0:
192,192,190859,128,0,191046:0:0:0:0:
64,192,190859,1,0,0:0:0:0:
448,192,190984,128,0,191046:0:0:0:0:
64,192,190984,128,0,191046:0:0:0:0:
320,192,191109,128,0,191296:0:0:0:0:
64,192,191109,128,0,191296:0:0:0:0:
192,192,191109,1,0,0:0:0:0:
448,192,191234,128,0,191296:0:0:0:0:
192,192,191234,128,0,191296:0:0:0:0:
64,192,191359,128,0,191421:0:0:0:0:
320,192,191359,128,0,191421:0:0:0:0:
448,192,191359,128,0,191421:0:0:0:0:
192,192,191421,128,0,191484:0:0:0:0:
320,192,191484,128,0,191546:0:0:0:0:
448,192,191546,128,0,191609:0:0:0:0:
320,192,191609,128,0,191671:0:0:0:0:
64,192,191609,128,0,191671:0:0:0:0:
192,192,191609,128,0,191671:0:0:0:0:
448,192,193609,128,0,193671:0:0:0:0:
64,192,193609,128,0,193671:0:0:0:0:
192,192,193609,1,0,0:0:0:0:
320,192,193984,1,0,0:0:0:0:
64,192,194359,1,0,0:0:0:0:
448,192,194609,1,0,0:0:0:0:
192,192,195109,1,0,0:0:0:0:
320,192,195359,1,0,0:0:0:0:
192,192,195609,128,0,195671:0:0:0:0:
448,192,195609,1,0,0:0:0:0:
320,192,195859,1,0,0:0:0:0:
64,192,195984,1,0,0:0:0:0:
192,192,196234,1,0,0:0:0:0:
320,192,196359,1,0,0:0:0:0:
448,192,196484,1,0,0:0:0:0:
64,192,196609,1,0,0:0:0:0:
320,192,196734,1,0,0:0:0:0:
192,192,196984,1,0,0:0:0:0:
448,192,197234,1,0,0:0:0:0:
64,192,197359,1,0,0:0:0:0:
320,192,197484,1,0,0:0:0:0:
192,192,197609,1,0,0:0:0:0:
64,192,197609,128,0,197671:0:0:0:0:
320,192,198609,1,0,0:0:0:0:
192,192,198984,1,0,0:0:0:0:
64,192,199359,1,0,0:0:0:0:
448,192,199484,1,0,0:0:0:0:
64,192,199609,1,0,0:0:0:0:
192,192,199734,1,0,0:0:0:0:
320,192,199984,1,0,0:0:0:0:
192,192,200234,1,0,0:0:0:0:
448,192,200359,1,0,0:0:0:0:
64,192,200484,1,0,0:0:0:0:
320,192,200609,1,0,0:0:0:0:
192,192,200609,128,0,200671:0:0:0:0:
448,192,200734,1,0,0:0:0:0:
64,192,200984,1,0,0:0:0:0:
320,192,201234,1,0,0:0:0:0:
192,192,201359,1,0,0:0:0:0:
64,192,201484,1,0,0:0:0:0:
320,192,201609,1,0,0:0:0:0:
448,192,201609,128,0,201671:0:0:0:0:
192,192,201984,1,0,0:0:0:0:
448,192,202359,1,0,0:0:0:0:
64,192,202609,1,0,0:0:0:0:
320,192,202984,1,0,0:0:0:0:
192,192,203234,1,0,0:0:0:0:
64,192,203609,1,0,0:0:0:0:
448,192,203609,128,0,203671:0:0:0:0:
320,192,203984,1,0,0:0:0:0:
192,192,204359,1,0,0:0:0:0:
320,192,204484,1,0,0:0:0:0:
448,192,204609,1,0,0:0:0:0:
64,192,204734,1,0,0:0:0:0:
320,192,204984,1,0,0:0:0:0:
192,192,205234,1,0,0:0:0:0:
64,192,205359,1,0,0:0:0:0:
448,192,205484,1,0,0:0:0:0:
320,192,205609,1,0,0:0:0:0:
192,192,205609,1,0,0:0:0:0:
64,192,205609,128,0,205671:0:0:0:0:
448,192,206609,1,0,0:0:0:0:
192,192,206609,1,0,0:0:0:0:
320,192,206984,1,0,0:0:0:0:
64,192,207359,1,0,0:0:0:0:
192,192,207609,1,0,0:0:0:0:
448,192,207734,1,0,0:0:0:0:
64,192,207984,1,0,0:0:0:0:
320,192,208359,1,0,0:0:0:0:
64,192,208609,128,0,208859:0:0:0:0:
448,192,208609,1,0,0:0:0:0:
192,192,208734,1,0,0:0:0:0:
320,192,208859,128,0,209109:0:0:0:0:
448,192,208859,1,0,0:0:0:0:
64,192,208984,1,0,0:0:0:0:
192,192,209109,128,0,209359:0:0:0:0:
448,192,209234,1,0,0:0:0:0:
64,192,209359,1,0,0:0:0:0:
320,192,209609,128,0,209671:0:0:0:0:
448,192,209609,1,0,0:0:0:0:
64,192,209609,1,0,0:0:0:0:
192,192,209984,1,0,0:0:0:0:
448,192,209984,128,0,210046:0:0:0:0:
64,192,210359,1,0,0:0:0:0:
320,192,210359,128,0,210421:0:0:0:0:
192,192,210484,128,0,210546:0:0:0:0:
64,192,210609,1,0,0:0:0:0:
320,192,210609,128,0,210671:0:0:0:0:
448,192,210609,128,0,210671:0:0:0:0:
320,192,210984,128,0,211046:0:0:0:0:
448,192,211109,1,0,0:0:0:0:
64,192,211109,128,0,211171:0:0:0:0:
192,192,211234,128,0,211296:0:0:0:0:
320,192,211359,1,0,0:0:0:0:
448,192,211359,128,0,211421:0:0:0:0:
64,192,211359,128,0,211421:0:0:0:0:
448,192,211609,1,0,0:0:0:0:
192,192,211609,128,0,211671:0:0:0:0:
64,192,211609,128,0,211671:0:0:0:0:
320,192,211859,1,0,0:0:0:0:
192,192,211984,1,0,0:0:0:0:
64,192,211984,128,0,212046:0:0:0:0:
448,192,212234,1,0,0:0:0:0:
64,192,212359,1,0,0:0:0:0:
192,192,212359,128,0,212421:0:0:0:0:
320,192,212484,1,0,0:0:0:0:
448,192,212484,128,0,212546:0:0:0:0:
192,192,212609,1,0,0:0:0:0:
64,192,212609,128,0,212671:0:0:0:0:
320,192,212609,128,0,212671:0:0:0:0:
448,192,212734,1,0,0:0:0:0:
192,192,212734,128,0,212796:0:0:0:0:
320,192,212734,128,0,212796:0:0:0:0:
64,192,212984,1,0,0:0:0:0:
448,192,212984,128,0,213046:0:0:0:0:
320,192,213234,1,0,0:0:0:0:
192,192,213359,1,0,0:0:0:0:
64,192,213359,128,0,213421:0:0:0:0:
320,192,213359,128,0,213421:0:0:0:0:
448,192,213484,1,0,0:0:0:0:
192,192,213484,128,0,213546:0:0:0:0:
320,192,213546,128,0,213609:0:0:0:0:
64,192,213609,1,0,0:0:0:0:
192,192,213609,128,0,213671:0:0:0:0:
448,192,213609,128,0,213671:0:0:0:0:
320,192,213984,128,0,214046:0:0:0:0:
320,192,214359,128,0,214421:0:0:0:0:
192,192,214484,128,0,214546:0:0:0:0:
448,192,214609,128,0,214671:0:0:0:0:
64,192,214609,1,0,0:0:0:0:
192,192,214984,1,0,0:0:0:0:
320,192,214984,128,0,215046:0:0:0:0:
320,192,215234,128,0,215296:0:0:0:0:
64,192,215359,128,0,215421:0:0:0:0:
448,192,215359,128,0,215421:0:0:0:0:
192,192,215359,1,0,0:0:0:0:
320,192,215484,1,0,0:0:0:0:
448,192,215609,128,0,215671:0:0:0:0:
64,192,215609,1,0,0:0:0:0:
320,192,215734,1,0,0:0:0:0:
192,192,215984,1,0,0:0:0:0:
448,192,216234,1,0,0:0:0:0:
64,192,216359,1,0,0:0:0:0:
192,192,216359,128,0,216421:0:0:0:0:
320,192,216484,1,0,0:0:0:0:
448,192,216484,128,0,216546:0:0:0:0:
64,192,216609,128,0,216671:0:0:0:0:
192,192,216609,1,0,0:0:0:0:
448,192,216609,128,0,216671:0:0:0:0:
320,192,216734,1,0,0:0:0:0:
192,192,216984,1,0,0:0:0:0:
448,192,216984,128,0,217046:0:0:0:0:
64,192,216984,128,0,217046:0:0:0:0:
320,192,217234,1,0,0:0:0:0:
192,192,217359,1,0,0:0:0:0:
448,192,217359,128,0,217421:0:0:0:0:
64,192,217484,1,0,0:0:0:0:
320,192,217484,128,0,217546:0:0:0:0:
192,192,217546,128,0,217609:0:0:0:0:
320,192,217609,1,0,0:0:0:0:
64,192,217609,128,0,217671:0:0:0:0:
448,192,217609,128,0,217671:0:0:0:0:
192,192,217984,1,0,0:0:0:0:
448,192,217984,128,0,218046:0:0:0:0:
64,192,218359,1,0,0:0:0:0:
320,192,218359,128,0,218421:0:0:0:0:
192,192,218484,128,0,218546:0:0:0:0:
64,192,218609,1,0,0:0:0:0:
320,192,218609,128,0,218671:0:0:0:0:
448,192,218609,128,0,218671:0:0:0:0:
320,192,218984,128,0,219046:0:0:0:0:
448,192,219109,1,0,0:0:0:0:
64,192,219109,128,0,219171:0:0:0:0:
192,192,219234,128,0,219296:0:0:0:0:
320,192,219359,1,0,0:0:0:0:
448,192,219359,128,0,219421:0:0:0:0:
64,192,219359,128,0,219421:0:0:0:0:
448,192,219609,1,0,0:0:0:0:
192,192,219609,128,0,219671:0:0:0:0:
64,192,219609,128,0,219671:0:0:0:0:
320,192,219859,1,0,0:0:0:0:
192,192,219984,1,0,0:0:0:0:
64,192,219984,128,0,220046:0:0:0:0:
448,192,220234,1,0,0:0:0:0:
64,192,220359,1,0,0:0:0:0:
192,192,220359,128,0,220421:0:0:0:0:
320,192,220484,1,0,0:0:0:0:
448,192,220484,128,0,220546:0:0:0:0:
192,192,220609,1,0,0:0:0:0:
64,192,220609,128,0,220671:0:0:0:0:
320,192,220609,128,0,220671:0:0:0:0:
448,192,220734,1,0,0:0:0:0:
192,192,220734,128,0,220796:0:0:0:0:
320,192,220734,128,0,220796:0:0:0:0:
64,192,220984,1,0,0:0:0:0:
448,192,220984,128,0,221046:0:0:0:0:
320,192,221234,1,0,0:0:0:0:
192,192,221359,1,0,0:0:0:0:
64,192,221359,128,0,221421:0:0:0:0:
320,192,221359,128,0,221421:0:0:0:0:
448,192,221484,1,0,0:0:0:0:
192,192,221484,128,0,221546:0:0:0:0:
320,192,221546,128,0,221609:0:0:0:0:
64,192,221609,1,0,0:0:0:0:
192,192,221609,128,0,221671:0:0:0:0:
448,192,221609,128,0,221671:0:0:0:0:
320,192,221984,128,0,222046:0:0:0:0:
192,192,222359,128,0,222421:0:0:0:0:
192,192,222484,128,0,222546:0:0:0:0:
64,192,222609,128,0,222671:0:0:0:0:
448,192,222609,128,0,222671:0:0:0:0:
320,192,222609,1,0,0:0:0:0:
192,192,222984,1,0,0:0:0:0:
320,192,222984,128,0,223046:0:0:0:0:
320,192,223234,128,0,223296:0:0:0:0:
448,192,223359,128,0,223421:0:0:0:0:
192,192,223359,128,0,223421:0:0:0:0:
64,192,223359,1,0,0:0:0:0:
64,192,223609,128,0,223859:0:0:0:0:
448,192,223609,128,0,223859:0:0:0:0:
320,192,223609,1,0,0:0:0:0:
192,192,223734,1,0,0:0:0:0:
320,192,223984,1,0,0:0:0:0:
64,192,224359,1,0,0:0:0:0:
448,192,224609,5,0,0:0:0:0:
320,192,224609,128,0,225359:0:0:0:0:
192,192,224734,1,0,0:0:0:0:
448,192,224859,1,0,0:0:0:0:
64,192,224984,1,0,0:0:0:0:
192,192,225609,128,0,226609:0:0:0:0:
64,192,225609,128,0,225734:0:0:0:0:
448,192,225734,128,0,225859:0:0:0:0:
64,192,225859,128,0,225984:0:0:0:0:
320,192,225984,128,0,226109:0:0:0:0:
448,192,226109,128,0,226234:0:0:0:0:
64,192,226234,128,0,226296:0:0:0:0:
320,192,226296,128,0,226359:0:0:0:0:
448,192,226359,128,0,226484:0:0:0:0:
64,192,226484,128,0,226609:0:0:0:0:
320,192,226609,128,0,227609:0:0:0:0:
448,192,226609,128,0,226734:0:0:0:0:
192,192,226734,128,0,226859:0:0:0:0:
448,192,226984,128,0,227109:0:0:0:0:
192,192,227109,128,0,227234:0:0:0:0:
64,192,227234,128,0,227359:0:0:0:0:
448,192,227359,128,0,227484:0:0:0:0:
192,192,227484,128,0,227609:0:0:0:0:
64,192,227609,128,0,229609:0:0:0:0:
448,192,227609,128,0,227734:0:0:0:0:
192,192,227734,128,0,227859:0:0:0:0:
448,192,227984,128,0,228109:0:0:0:0:
192,192,228109,128,0,228234:0:0:0:0:
320,192,228234,128,0,228359:0:0:0:0:
448,192,228359,128,0,228484:0:0:0:0:
192,192,228484,128,0,228546:0:0:0:0:
192,192,228609,128,0,228671:0:0:0:0:
320,192,228671,128,0,228734:0:0:0:0:
192,192,228734,128,0,228859:0:0:0:0:
448,192,228859,128,0,228984:0:0:0:0:
320,192,228984,128,0,229234:0:0:0:0:
192,192,229234,128,0,229359:0:0:0:0:
448,192,229359,128,0,229484:0:0:0:0:
320,192,229484,128,0,229609:0:0:0:0:
192,192,229609,128,0,229734:0:0:0:0:
448,192,229609,128,0,233609:0:0:0:0:
64,192,229734,128,0,229859:0:0:0:0:
192,192,229984,128,0,230109:0:0:0:0:
64,192,230109,128,0,230296:0:0:0:0:
320,192,230359,128,0,230484:0:0:0:0:
64,192,230484,128,0,230609:0:0:0:0:
192,192,230609,128,0,230734:0:0:0:0:
64,192,230734,128,0,230859:0:0:0:0:
192,192,230984,128,0,231109:0:0:0:0:
64,192,231109,128,0,231234:0:0:0:0:
320,192,231234,128,0,231359:0:0:0:0:
64,192,231359,128,0,231484:0:0:0:0:
192,192,231484,128,0,231609:0:0:0:0:
320,192,231609,128,0,231671:0:0:0:0:
64,192,231671,128,0,231734:0:0:0:0:
192,192,231734,128,0,231859:0:0:0:0:
320,192,231859,128,0,231984:0:0:0:0:
64,192,231984,128,0,232234:0:0:0:0:
320,192,232234,128,0,232359:0:0:0:0:
192,192,232359,128,0,232484:0:0:0:0:
320,192,232484,128,0,232609:0:0:0:0:
64,192,232609,128,0,232734:0:0:0:0:
192,192,232734,128,0,232859:0:0:0:0:
64,192,232859,128,0,232984:0:0:0:0:
320,192,232984,128,0,233234:0:0:0:0:
192,192,233234,128,0,233359:0:0:0:0:
64,192,233359,128,0,233484:0:0:0:0:
320,192,233484,128,0,233609:0:0:0:0:
192,192,233609,128,0,235609:0:0:0:0:
64,192,233609,128,0,233734:0:0:0:0:
320,192,233734,128,0,233859:0:0:0:0:
64,192,233859,128,0,233984:0:0:0:0:
448,192,233859,1,0,0:0:0:0:
320,192,233984,128,0,234109:0:0:0:0:
448,192,234109,128,0,234234:0:0:0:0:
64,192,234234,128,0,234296:0:0:0:0:
320,192,234296,128,0,234359:0:0:0:0:
448,192,234359,128,0,234484:0:0:0:0:
64,192,234359,1,0,0:0:0:0:
64,192,234484,128,0,234609:0:0:0:0:
320,192,234609,128,0,234734:0:0:0:0:
64,192,234734,128,0,234859:0:0:0:0:
448,192,234859,1,0,0:0:0:0:
320,192,234984,128,0,235109:0:0:0:0:
64,192,235109,128,0,235234:0:0:0:0:
320,192,235234,128,0,235359:0:0:0:0:
64,192,235359,1,0,0:0:0:0:
448,192,235359,128,0,235484:0:0:0:0:
320,192,235484,128,0,235609:0:0:0:0:
64,192,235609,128,0,237609:0:0:0:0:
448,192,235609,128,0,235734:0:0:0:0:
192,192,235734,128,0,235859:0:0:0:0:
448,192,235859,1,0,0:0:0:0:
448,192,235984,128,0,236109:0:0:0:0:
192,192,236109,128,0,236234:0:0:0:0:
448,192,236234,128,0,236359:0:0:0:0:
192,192,236359,1,0,0:0:0:0:
320,192,236359,128,0,236484:0:0:0:0:
448,192,236484,128,0,236609:0:0:0:0:
192,192,236609,128,0,236671:0:0:0:0:
320,192,236671,128,0,236734:0:0:0:0:
192,192,236734,128,0,236859:0:0:0:0:
320,192,236859,128,0,236984:0:0:0:0:
448,192,236859,1,0,0:0:0:0:
448,192,236984,128,0,237234:0:0:0:0:
320,192,237234,128,0,237359:0:0:0:0:
192,192,237359,1,0,0:0:0:0:
448,192,237359,128,0,237484:0:0:0:0:
192,192,237484,128,0,237609:0:0:0:0:
320,192,237609,128,0,239546:0:0:0:0:
448,192,237609,128,0,237734:0:0:0:0:
192,192,237734,128,0,237859:0:0:0:0:
64,192,237859,1,0,0:0:0:0:
448,192,237984,128,0,238109:0:0:0:0:
192,192,238109,128,0,238234:0:0:0:0:
64,192,238359,1,0,0:0:0:0:
448,192,238359,128,0,238484:0:0:0:0:
192,192,238484,128,0,238609:0:0:0:0:
64,192,238609,128,0,238734:0:0:0:0:
448,192,238734,128,0,238859:0:0:0:0:
64,192,238859,1,0,0:0:0:0:
64,192,238984,128,0,239109:0:0:0:0:
448,192,239109,128,0,239234:0:0:0:0:
192,192,239234,128,0,239359:0:0:0:0:
64,192,239359,1,0,0:0:0:0:
448,192,239359,128,0,239484:0:0:0:0:
64,192,239484,128,0,239609:0:0:0:0:
320,192,239609,128,0,239796:0:0:0:0:
448,192,239609,128,0,239671:0:0:0:0:
64,192,239671,128,0,239734:0:0:0:0:
192,192,239734,128,0,239859:0:0:0:0:
320,192,239859,128,0,239921:0:0:0:0:
64,192,239859,128,0,239984:0:0:0:0:
448,192,239859,1,0,0:0:0:0:
192,192,239984,128,0,240171:0:0:0:0:
448,192,239984,128,0,240234:0:0:0:0:
192,192,240234,128,0,240296:0:0:0:0:
64,192,240234,128,0,240359:0:0:0:0:
320,192,240359,128,0,240546:0:0:0:0:
448,192,240359,128,0,240484:0:0:0:0:
192,192,240359,1,0,0:0:0:0:
192,192,240484,128,0,240609:0:0:0:0:
320,192,240609,128,0,240796:0:0:0:0:
64,192,240609,128,0,240734:0:0:0:0:
192,192,240734,128,0,240859:0:0:0:0:
320,192,240859,128,0,240921:0:0:0:0:
448,192,240859,128,0,240984:0:0:0:0:
64,192,240859,1,0,0:0:0:0:
192,192,240984,128,0,241171:0:0:0:0:
64,192,240984,128,0,241234:0:0:0:0:
192,192,241234,128,0,241296:0:0:0:0:
448,192,241234,1,0,0:0:0:0:
192,192,241359,128,0,241609:0:0:0:0:
448,192,241359,1,0,0:0:0:0:
64,192,241359,1,0,0:0:0:0:
320,192,241484,1,0,0:0:0:0:
320,192,241609,128,0,242609:0:0:0:0:
448,192,241609,128,0,242609:0:0:0:0:
64,192,241609,128,0,242609:0:0:0:0:
192,192,241859,1,0,0:0:0:0:
192,192,242359,1,0,0:0:0:0:
192,192,242859,1,0,0:0:0:0:
192,192,243359,1,0,0:0:0:0:
192,192,243609,128,0,244609:0:0:0:0:
64,192,243609,128,0,244609:0:0:0:0:
448,192,243609,128,0,244609:0:0:0:0:
320,192,243859,1,0,0:0:0:0:
320,192,244359,1,0,0:0:0:0:
320,192,244859,1,0,0:0:0:0:
320,192,245359,1,0,0:0:0:0:
448,192,245609,128,0,245796:0:0:0:0:
320,192,245609,128,0,245671:0:0:0:0:
64,192,245609,128,0,245734:0:0:0:0:
320,192,245734,128,0,246234:0:0:0:0:
64,192,245796,128,0,245921:0:0:0:0:
448,192,245859,128,0,246171:0:0:0:0:
192,192,245859,1,0,0:0:0:0:
64,192,245984,128,0,246421:0:0:0:0:
448,192,246234,128,0,246296:0:0:0:0:
320,192,246296,128,0,246609:0:0:0:0:
448,192,246359,128,0,246609:0:0:0:0:
192,192,246359,1,0,0:0:0:0:
64,192,246484,128,0,246609:0:0:0:0:
192,192,246609,128,0,246734:0:0:0:0:
320,192,246734,128,0,246859:0:0:0:0:
448,192,246859,1,0,0:0:0:0:
64,192,246984,128,0,247234:0:0:0:0:
192,192,247234,128,0,247359:0:0:0:0:
448,192,247359,1,0,0:0:0:0:
320,192,247359,128,0,247484:0:0:0:0:
448,192,247484,128,0,247609:0:0:0:0:
320,192,247609,128,0,247734:0:0:0:0:
192,192,247609,128,0,247671:0:0:0:0:
64,192,247609,128,0,247796:0:0:0:0:
192,192,247734,128,0,248296:0:0:0:0:
320,192,247796,128,0,247921:0:0:0:0:
64,192,247859,128,0,248171:0:0:0:0:
448,192,247859,1,0,0:0:0:0:
320,192,247984,128,0,248234:0:0:0:0:
64,192,248234,128,0,248421:0:0:0:0:
320,192,248296,128,0,248609:0:0:0:0:
192,192,248359,128,0,248546:0:0:0:0:
448,192,248359,1,0,0:0:0:0:
64,192,248484,128,0,248609:0:0:0:0:
192,192,248609,128,0,248734:0:0:0:0:
448,192,248734,128,0,248859:0:0:0:0:
64,192,248859,1,0,0:0:0:0:
320,192,248984,128,0,249234:0:0:0:0:
192,192,249234,128,0,249359:0:0:0:0:
320,192,249359,128,0,249484:0:0:0:0:
64,192,249359,1,0,0:0:0:0:
448,192,249484,128,0,249609:0:0:0:0:
64,192,249609,128,0,250046:0:0:0:0:
320,192,249609,128,0,249734:0:0:0:0:
192,192,249609,128,0,249921:0:0:0:0:
448,192,249734,128,0,249796:0:0:0:0:
320,192,249796,128,0,249859:0:0:0:0:
448,192,249859,128,0,249984:0:0:0:0:
192,192,249984,128,0,250109:0:0:0:0:
320,192,250109,128,0,250421:0:0:0:0:
448,192,250109,128,0,250546:0:0:0:0:
64,192,250109,128,0,250234:0:0:0:0:
192,192,250234,128,0,250296:0:0:0:0:
64,192,250296,128,0,250359:0:0:0:0:
192,192,250359,128,0,250484:0:0:0:0:
320,192,250484,128,0,250609:0:0:0:0:
64,192,250609,128,0,250921:0:0:0:0:
448,192,250609,128,0,251046:0:0:0:0:
192,192,250609,128,0,250734:0:0:0:0:
320,192,250734,128,0,250796:0:0:0:0:
192,192,250796,128,0,250859:0:0:0:0:
320,192,250859,128,0,250984:0:0:0:0:
64,192,250984,128,0,251109:0:0:0:0:
192,192,251109,128,0,251484:0:0:0:0:
320,192,251109,128,0,251421:0:0:0:0:
448,192,251109,128,0,251234:0:0:0:0:
64,192,251234,128,0,251296:0:0:0:0:
448,192,251296,128,0,251359:0:0:0:0:
64,192,251359,128,0,251484:0:0:0:0:
320,192,251484,128,0,251609:0:0:0:0:
64,192,251609,128,0,252046:0:0:0:0:
448,192,251609,128,0,251734:0:0:0:0:
192,192,251609,128,0,251921:0:0:0:0:
320,192,251734,128,0,251796:0:0:0:0:
448,192,251796,128,0,251859:0:0:0:0:
320,192,251859,128,0,251984:0:0:0:0:
192,192,251984,128,0,252109:0:0:0:0:
320,192,252109,128,0,252421:0:0:0:0:
448,192,252109,128,0,252546:0:0:0:0:
64,192,252109,128,0,252234:0:0:0:0:
192,192,252234,128,0,252296:0:0:0:0:
64,192,252296,128,0,252359:0:0:0:0:
192,192,252359,128,0,252484:0:0:0:0:
320,192,252484,128,0,252609:0:0:0:0:
64,192,252609,128,0,252921:0:0:0:0:
448,192,252609,128,0,253046:0:0:0:0:
192,192,252609,128,0,252734:0:0:0:0:
320,192,252734,128,0,252796:0:0:0:0:
192,192,252796,128,0,252859:0:0:0:0:
320,192,252859,128,0,252984:0:0:0:0:
64,192,252984,128,0,253109:0:0:0:0:
192,192,253109,128,0,253484:0:0:0:0:
320,192,253109,128,0,253421:0:0:0:0:
448,192,253109,128,0,253234:0:0:0:0:
64,192,253234,128,0,253296:0:0:0:0:
448,192,253296,128,0,253359:0:0:0:0:
64,192,253359,128,0,253484:0:0:0:0:
320,192,253484,128,0,253609:0:0:0:0:
448,192,253609,128,0,253671:0:0:0:0:
64,192,253609,128,0,253734:0:0:0:0:
192,192,253609,128,0,253796:0:0:0:0:
448,192,253734,128,0,253796:0:0:0:0:
64,192,253796,128,0,253859:0:0:0:0:
320,192,253859,128,0,253984:0:0:0:0:
448,192,253859,128,0,254046:0:0:0:0:
192,192,253859,128,0,253921:0:0:0:0:
192,192,253984,128,0,254046:0:0:0:0:
320,192,254046,128,0,254109:0:0:0:0:
64,192,254109,128,0,254171:0:0:0:0:
192,192,254109,128,0,254296:0:0:0:0:
448,192,254109,128,0,254234:0:0:0:0:
64,192,254234,128,0,254296:0:0:0:0:
448,192,254296,128,0,254359:0:0:0:0:
192,192,254359,128,0,254421:0:0:0:0:
320,192,254359,128,0,254546:0:0:0:0:
64,192,254359,128,0,254484:0:0:0:0:
192,192,254484,128,0,254546:0:0:0:0:
64,192,254546,128,0,254609:0:0:0:0:
192,192,254609,128,0,254796:0:0:0:0:
320,192,254609,128,0,254734:0:0:0:0:
448,192,254609,128,0,254671:0:0:0:0:
448,192,254734,128,0,254796:0:0:0:0:
320,192,254796,128,0,254859:0:0:0:0:
192,192,254859,128,0,255046:0:0:0:0:
64,192,254859,128,0,254921:0:0:0:0:
448,192,254859,128,0,254984:0:0:0:0:
64,192,254984,128,0,255046:0:0:0:0:
448,192,255046,128,0,255109:0:0:0:0:
192,192,255109,128,0,255234:0:0:0:0:
64,192,255109,128,0,255296:0:0:0:0:
320,192,255109,128,0,255171:0:0:0:0:
320,192,255234,128,0,255296:0:0:0:0:
192,192,255296,128,0,255359:0:0:0:0:
320,192,255359,128,0,255546:0:0:0:0:
448,192,255359,128,0,255421:0:0:0:0:
64,192,255359,128,0,255484:0:0:0:0:
448,192,255484,128,0,255546:0:0:0:0:
64,192,255546,128,0,255609:0:0:0:0:
320,192,255609,128,0,255671:0:0:0:0:
192,192,255609,128,0,255671:0:0:0:0:
448,192,255609,128,0,255671:0:0:0:0:
64,192,255671,128,0,255734:0:0:0:0:
448,192,255734,128,0,255796:0:0:0:0:
320,192,255734,128,0,255796:0:0:0:0:
192,192,255796,128,0,255859:0:0:0:0:
64,192,255859,128,0,255921:0:0:0:0:
320,192,255859,128,0,255921:0:0:0:0:
448,192,255859,128,0,255921:0:0:0:0:
192,192,255921,128,0,255984:0:0:0:0:
64,192,255984,128,0,256046:0:0:0:0:
448,192,255984,128,0,256046:0:0:0:0:
320,192,256046,128,0,256109:0:0:0:0:
192,192,256109,128,0,256171:0:0:0:0:
64,192,256109,128,0,256171:0:0:0:0:
448,192,256109,128,0,256171:0:0:0:0:
320,192,256171,128,0,256234:0:0:0:0:
64,192,256234,128,0,256296:0:0:0:0:
448,192,256234,128,0,256296:0:0:0:0:
192,192,256296,128,0,256359:0:0:0:0:
320,192,256359,128,0,256421:0:0:0:0:
448,192,256359,128,0,256421:0:0:0:0:
192,192,256421,128,0,256484:0:0:0:0:
64,192,256421,128,0,256484:0:0:0:0:
320,192,256484,128,0,256546:0:0:0:0:
448,192,256484,128,0,256546:0:0:0:0:
192,192,256546,128,0,256609:0:0:0:0:
64,192,256546,128,0,256609:0:0:0:0:
320,192,256609,128,0,256671:0:0:0:0:
448,192,256609,128,0,256671:0:0:0:0:
448,192,257609,128,0,257796:0:0:0:0:
64,192,257609,128,0,257702:0:0:0:0:
320,192,257609,1,0,0:0:0:0:
192,192,257609,1,0,0:0:0:0:
320,192,257734,128,0,257796:0:0:0:0:
64,192,257734,128,0,257796:0:0:0:0:
192,192,257796,128,0,257859:0:0:0:0:
320,192,257859,128,0,258046:0:0:0:0:
64,192,257859,128,0,258046:0:0:0:0:
448,192,257859,128,0,257952:0:0:0:0:
192,192,257984,128,0,258046:0:0:0:0:
448,192,257984,128,0,258234:0:0:0:0:
192,192,258109,128,0,258234:0:0:0:0:
320,192,258109,128,0,258202:0:0:0:0:
320,192,258234,128,0,258296:0:0:0:0:
64,192,258234,128,0,258296:0:0:0:0:
192,192,258296,128,0,258359:0:0:0:0:
320,192,258359,128,0,258546:0:0:0:0:
448,192,258359,128,0,258452:0:0:0:0:
64,192,258359,128,0,258546:0:0:0:0:
192,192,258484,128,0,258546:0:0:0:0:
448,192,258484,128,0,258609:0:0:0:0:
192,192,258609,128,0,258796:0:0:0:0:
320,192,258609,128,0,258702:0:0:0:0:
320,192,258734,128,0,258796:0:0:0:0:
64,192,258734,128,0,258859:0:0:0:0:
448,192,258859,128,0,259046:0:0:0:0:
320,192,258859,128,0,258952:0:0:0:0:
192,192,258859,128,0,258952:0:0:0:0:
320,192,258984,128,0,259046:0:0:0:0:
64,192,258984,128,0,259234:0:0:0:0:
448,192,259109,128,0,259296:0:0:0:0:
192,192,259109,128,0,259202:0:0:0:0:
320,192,259234,128,0,259296:0:0:0:0:
192,192,259234,128,0,259359:0:0:0:0:
320,192,259359,128,0,259546:0:0:0:0:
64,192,259359,128,0,259546:0:0:0:0:
448,192,259359,128,0,259452:0:0:0:0:
192,192,259484,128,0,259546:0:0:0:0:
448,192,259484,128,0,259609:0:0:0:0:
320,192,259609,128,0,259796:0:0:0:0:
192,192,259609,128,0,259702:0:0:0:0:
448,192,259734,128,0,259859:0:0:0:0:
192,192,259734,128,0,259796:0:0:0:0:
320,192,259859,128,0,259921:0:0:0:0:
192,192,259859,128,0,260046:0:0:0:0:
64,192,259859,128,0,259952:0:0:0:0:
448,192,259921,128,0,259984:0:0:0:0:
64,192,259984,128,0,260109:0:0:0:0:
320,192,259984,128,0,260046:0:0:0:0:
448,192,260109,128,0,260296:0:0:0:0:
320,192,260109,128,0,260202:0:0:0:0:
192,192,260234,128,0,260359:0:0:0:0:
320,192,260234,128,0,260296:0:0:0:0:
448,192,260359,128,0,260546:0:0:0:0:
64,192,260359,128,0,260452:0:0:0:0:
320,192,260359,128,0,260484:0:0:0:0:
64,192,260484,128,0,260546:0:0:0:0:
192,192,260484,128,0,260546:0:0:0:0:
320,192,260546,128,0,260609:0:0:0:0:
448,192,260609,128,0,260734:0:0:0:0:
192,192,260609,128,0,260702:0:0:0:0:
320,192,260734,128,0,260859:0:0:0:0:
192,192,260734,128,0,260796:0:0:0:0:
192,192,260859,128,0,260952:0:0:0:0:
64,192,260859,128,0,260952:0:0:0:0:
448,192,260859,128,0,261046:0:0:0:0:
320,192,260984,128,0,261109:0:0:0:0:
64,192,260984,128,0,261046:0:0:0:0:
192,192,261109,128,0,261296:0:0:0:0:
448,192,261109,128,0,261202:0:0:0:0:
64,192,261171,128,0,261234:0:0:0:0:
320,192,261234,128,0,261296:0:0:0:0:
448,192,261234,128,0,261359:0:0:0:0:
320,192,261359,128,0,261421:0:0:0:0:
192,192,261359,128,0,261421:0:0:0:0:
64,192,261359,128,0,261421:0:0:0:0:
192,192,261484,128,0,261546:0:0:0:0:
320,192,261484,128,0,261546:0:0:0:0:
448,192,261484,128,0,261546:0:0:0:0:
192,192,261609,128,0,261796:0:0:0:0:
320,192,261609,128,0,261702:0:0:0:0:
64,192,261609,128,0,261671:0:0:0:0:
448,192,261609,1,0,0:0:0:0:
320,192,261734,128,0,261859:0:0:0:0:
448,192,261734,128,0,261796:0:0:0:0:
64,192,261859,128,0,262046:0:0:0:0:
192,192,261859,128,0,261952:0:0:0:0:
448,192,261859,128,0,261952:0:0:0:0:
192,192,261984,128,0,262109:0:0:0:0:
320,192,261984,128,0,262046:0:0:0:0:
64,192,262109,128,0,262202:0:0:0:0:
320,192,262109,128,0,262296:0:0:0:0:
64,192,262234,128,0,262296:0:0:0:0:
448,192,262234,128,0,262296:0:0:0:0:
192,192,262296,128,0,262359:0:0:0:0:
320,192,262359,128,0,262546:0:0:0:0:
64,192,262359,128,0,262546:0:0:0:0:
448,192,262359,128,0,262452:0:0:0:0:
448,192,262484,128,0,262609:0:0:0:0:
192,192,262484,128,0,262546:0:0:0:0:
192,192,262609,128,0,262702:0:0:0:0:
320,192,262609,128,0,262796:0:0:0:0:
192,192,262734,128,0,262796:0:0:0:0:
448,192,262734,128,0,262859:0:0:0:0:
64,192,262859,128,0,263046:0:0:0:0:
192,192,262859,128,0,262952:0:0:0:0:
320,192,262859,128,0,262952:0:0:0:0:
192,192,262984,128,0,263109:0:0:0:0:
448,192,262984,128,0,263046:0:0:0:0:
64,192,263109,128,0,263202:0:0:0:0:
448,192,263109,128,0,263296:0:0:0:0:
64,192,263234,128,0,263296:0:0:0:0:
320,192,263234,128,0,263296:0:0:0:0:
192,192,263296,128,0,263359:0:0:0:0:
320,192,263359,128,0,263421:0:0:0:0:
64,192,263359,128,0,263546:0:0:0:0:
448,192,263359,128,0,263452:0:0:0:0:
448,192,263484,128,0,263546:0:0:0:0:
320,192,263484,128,0,263609:0:0:0:0:
192,192,263609,128,0,263702:0:0:0:0:
64,192,263609,128,0,263796:0:0:0:0:
192,192,263734,128,0,263796:0:0:0:0:
448,192,263734,128,0,263796:0:0:0:0:
320,192,263796,128,0,263859:0:0:0:0:
64,192,263859,128,0,263952:0:0:0:0:
448,192,263859,128,0,263952:0:0:0:0:
192,192,263859,128,0,263984:0:0:0:0:
448,192,263984,128,0,264046:0:0:0:0:
64,192,263984,128,0,264046:0:0:0:0:
192,192,264046,128,0,264109:0:0:0:0:
448,192,264109,128,0,264296:0:0:0:0:
320,192,264109,128,0,264202:0:0:0:0:
320,192,264234,128,0,264296:0:0:0:0:
64,192,264234,128,0,264296:0:0:0:0:
192,192,264296,128,0,264359:0:0:0:0:
64,192,264359,128,0,264452:0:0:0:0:
320,192,264359,128,0,264546:0:0:0:0:
448,192,264359,128,0,264546:0:0:0:0:
64,192,264484,128,0,264609:0:0:0:0:
192,192,264484,128,0,264546:0:0:0:0:
448,192,264609,128,0,264796:0:0:0:0:
192,192,264609,128,0,264702:0:0:0:0:
192,192,264734,128,0,264796:0:0:0:0:
64,192,264734,128,0,264859:0:0:0:0:
192,192,264859,128,0,265046:0:0:0:0:
320,192,264859,128,0,264952:0:0:0:0:
448,192,264859,128,0,265046:0:0:0:0:
320,192,264984,128,0,265109:0:0:0:0:
64,192,264984,128,0,265046:0:0:0:0:
64,192,265109,128,0,265171:0:0:0:0:
448,192,265109,128,0,265171:0:0:0:0:
192,192,265109,128,0,265171:0:0:0:0:
320,192,265234,128,0,265296:0:0:0:0:
448,192,265234,128,0,265296:0:0:0:0:
64,192,265234,128,0,265296:0:0:0:0:
192,192,265296,128,0,265359:0:0:0:0:
320,192,265359,128,0,265421:0:0:0:0:
448,192,265359,128,0,265421:0:0:0:0:
192,192,265421,128,0,265484:0:0:0:0:
64,192,265421,128,0,265484:0:0:0:0:
320,192,265484,128,0,265546:0:0:0:0:
448,192,265484,128,0,265546:0:0:0:0:
192,192,265546,128,0,265609:0:0:0:0:
64,192,265609,128,0,265702:0:0:0:0:
448,192,265609,128,0,265796:0:0:0:0:
320,192,265609,1,0,0:0:0:0:
320,192,265734,128,0,265796:0:0:0:0:
64,192,265734,128,0,265796:0:0:0:0:
192,192,265796,128,0,265859:0:0:0:0:
320,192,265859,128,0,266046:0:0:0:0:
64,192,265859,128,0,266046:0:0:0:0:
448,192,265859,128,0,265952:0:0:0:0:
192,192,265984,128,0,266046:0:0:0:0:
448,192,265984,128,0,266234:0:0:0:0:
192,192,266109,128,0,266234:0:0:0:0:
320,192,266109,128,0,266202:0:0:0:0:
320,192,266234,128,0,266296:0:0:0:0:
64,192,266234,128,0,266296:0:0:0:0:
192,192,266296,128,0,266359:0:0:0:0:
320,192,266359,128,0,266546:0:0:0:0:
448,192,266359,128,0,266452:0:0:0:0:
64,192,266359,128,0,266546:0:0:0:0:
192,192,266484,128,0,266546:0:0:0:0:
448,192,266484,128,0,266609:0:0:0:0:
192,192,266609,128,0,266796:0:0:0:0:
320,192,266609,128,0,266702:0:0:0:0:
64,192,266734,128,0,266859:0:0:0:0:
320,192,266734,128,0,266796:0:0:0:0:
192,192,266859,128,0,266952:0:0:0:0:
448,192,266859,128,0,267046:0:0:0:0:
320,192,266859,128,0,266952:0:0:0:0:
320,192,266984,128,0,267046:0:0:0:0:
64,192,266984,128,0,267234:0:0:0:0:
448,192,267109,128,0,267296:0:0:0:0:
192,192,267109,128,0,267202:0:0:0:0:
192,192,267234,128,0,267359:0:0:0:0:
320,192,267234,128,0,267296:0:0:0:0:
64,192,267359,128,0,267546:0:0:0:0:
448,192,267359,128,0,267452:0:0:0:0:
320,192,267359,128,0,267546:0:0:0:0:
192,192,267484,128,0,267546:0:0:0:0:
448,192,267484,128,0,267609:0:0:0:0:
320,192,267609,128,0,267796:0:0:0:0:
192,192,267609,128,0,267702:0:0:0:0:
448,192,267734,128,0,267859:0:0:0:0:
192,192,267734,128,0,267796:0:0:0:0:
320,192,267859,128,0,267921:0:0:0:0:
192,192,267859,128,0,268046:0:0:0:0:
64,192,267859,128,0,267952:0:0:0:0:
448,192,267921,128,0,267984:0:0:0:0:
64,192,267984,128,0,268109:0:0:0:0:
320,192,267984,128,0,268046:0:0:0:0:
448,192,268109,128,0,268296:0:0:0:0:
320,192,268109,128,0,268202:0:0:0:0:
192,192,268234,128,0,268359:0:0:0:0:
320,192,268234,128,0,268296:0:0:0:0:
448,192,268359,128,0,268546:0:0:0:0:
64,192,268359,128,0,268452:0:0:0:0:
320,192,268359,128,0,268484:0:0:0:0:
64,192,268484,128,0,268546:0:0:0:0:
192,192,268484,128,0,268546:0:0:0:0:
320,192,268546,128,0,268609:0:0:0:0:
448,192,268609,128,0,268734:0:0:0:0:
192,192,268609,128,0,268702:0:0:0:0:
320,192,268734,128,0,268859:0:0:0:0:
192,192,268734,128,0,268796:0:0:0:0:
192,192,268859,128,0,269046:0:0:0:0:
448,192,268859,128,0,268952:0:0:0:0:
64,192,268859,128,0,268952:0:0:0:0:
320,192,268984,128,0,269109:0:0:0:0:
64,192,268984,128,0,269046:0:0:0:0:
448,192,269109,128,0,269234:0:0:0:0:
192,192,269109,128,0,269202:0:0:0:0:
320,192,269234,128,0,269296:0:0:0:0:
192,192,269234,128,0,269296:0:0:0:0:
448,192,269296,128,0,269359:0:0:0:0:
320,192,269359,128,0,269421:0:0:0:0:
192,192,269359,128,0,269421:0:0:0:0:
64,192,269359,128,0,269421:0:0:0:0:
192,192,269484,128,0,269546:0:0:0:0:
320,192,269484,128,0,269546:0:0:0:0:
448,192,269484,128,0,269546:0:0:0:0:
64,192,269609,128,0,269702:0:0:0:0:
192,192,269609,128,0,269796:0:0:0:0:
448,192,269609,128,0,269671:0:0:0:0:
320,192,269609,1,0,0:0:0:0:
64,192,269734,128,0,269859:0:0:0:0:
320,192,269734,128,0,269796:0:0:0:0:
320,192,269859,128,0,270046:0:0:0:0:
448,192,269859,128,0,269952:0:0:0:0:
192,192,269859,128,0,269921:0:0:0:0:
64,192,269921,128,0,269984:0:0:0:0:
192,192,269984,128,0,270109:0:0:0:0:
448,192,269984,128,0,270046:0:0:0:0:
448,192,270109,128,0,270202:0:0:0:0:
320,192,270109,128,0,270296:0:0:0:0:
448,192,270234,128,0,270359:0:0:0:0:
192,192,270234,128,0,270296:0:0:0:0:
320,192,270359,128,0,270546:0:0:0:0:
192,192,270359,128,0,270452:0:0:0:0:
64,192,270359,128,0,270421:0:0:0:0:
448,192,270421,128,0,270484:0:0:0:0:
192,192,270484,128,0,270609:0:0:0:0:
64,192,270484,128,0,270546:0:0:0:0:
64,192,270609,128,0,270796:0:0:0:0:
448,192,270609,128,0,270702:0:0:0:0:
448,192,270734,128,0,270796:0:0:0:0:
192,192,270734,128,0,270796:0:0:0:0:
64,192,270859,128,0,270984:0:0:0:0:
448,192,270859,128,0,271046:0:0:0:0:
192,192,270859,128,0,270952:0:0:0:0:
192,192,270984,128,0,271046:0:0:0:0:
320,192,270984,128,0,271046:0:0:0:0:
192,192,271109,128,0,271296:0:0:0:0:
320,192,271109,128,0,271202:0:0:0:0:
320,192,271234,128,0,271296:0:0:0:0:
64,192,271234,128,0,271296:0:0:0:0:
320,192,271359,128,0,271546:0:0:0:0:
64,192,271359,128,0,271452:0:0:0:0:
192,192,271359,128,0,271484:0:0:0:0:
64,192,271484,128,0,271546:0:0:0:0:
448,192,271484,128,0,271546:0:0:0:0:
320,192,271609,128,0,271859:0:0:0:0:
448,192,271609,128,0,271734:0:0:0:0:
64,192,271609,128,0,271671:0:0:0:0:
192,192,271671,128,0,271796:0:0:0:0:
64,192,271734,128,0,271796:0:0:0:0:
448,192,271796,128,0,271921:0:0:0:0:
192,192,271859,128,0,272109:0:0:0:0:
64,192,271859,128,0,271984:0:0:0:0:
320,192,271921,128,0,272046:0:0:0:0:
448,192,271984,128,0,272046:0:0:0:0:
64,192,272046,128,0,272171:0:0:0:0:
320,192,272109,128,0,272359:0:0:0:0:
448,192,272109,128,0,272234:0:0:0:0:
192,192,272171,128,0,272296:0:0:0:0:
64,192,272234,128,0,272296:0:0:0:0:
448,192,272296,128,0,272484:0:0:0:0:
192,192,272359,128,0,272546:0:0:0:0:
64,192,272359,128,0,272421:0:0:0:0:
320,192,272421,128,0,272546:0:0:0:0:
64,192,272484,128,0,272546:0:0:0:0:
448,192,272546,128,0,272609:0:0:0:0:
192,192,272609,128,0,272796:0:0:0:0:
64,192,272609,128,0,272702:0:0:0:0:
64,192,272734,128,0,272796:0:0:0:0:
448,192,272796,128,0,272859:0:0:0:0:
320,192,272859,128,0,273046:0:0:0:0:
192,192,272859,128,0,272952:0:0:0:0:
64,192,272859,128,0,273046:0:0:0:0:
192,192,272984,128,0,273046:0:0:0:0:
448,192,272984,128,0,273046:0:0:0:0:
320,192,273109,128,0,273171:0:0:0:0:
448,192,273109,128,0,273171:0:0:0:0:
192,192,273109,128,0,273171:0:0:0:0:
192,192,273234,128,0,273296:0:0:0:0:
64,192,273234,128,0,273296:0:0:0:0:
320,192,273234,128,0,273296:0:0:0:0:
320,192,273359,128,0,273421:0:0:0:0:
448,192,273359,128,0,273421:0:0:0:0:
192,192,273421,128,0,273484:0:0:0:0:
64,192,273421,128,0,273484:0:0:0:0:
320,192,273484,128,0,273546:0:0:0:0:
448,192,273484,128,0,273546:0:0:0:0:
192,192,273546,128,0,273609:0:0:0:0:
448,192,273609,128,0,273796:0:0:0:0:
64,192,273609,128,0,273702:0:0:0:0:
320,192,273609,1,0,0:0:0:0:
64,192,273734,128,0,273796:0:0:0:0:
320,192,273734,128,0,273796:0:0:0:0:
192,192,273796,128,0,273859:0:0:0:0:
448,192,273859,128,0,273952:0:0:0:0:
64,192,273859,128,0,274046:0:0:0:0:
320,192,273859,128,0,274046:0:0:0:0:
448,192,273984,128,0,274234:0:0:0:0:
192,192,273984,128,0,274046:0:0:0:0:
320,192,274109,128,0,274202:0:0:0:0:
192,192,274109,128,0,274234:0:0:0:0:
64,192,274234,128,0,274296:0:0:0:0:
320,192,274234,128,0,274296:0:0:0:0:
192,192,274296,128,0,274359:0:0:0:0:
64,192,274359,128,0,274546:0:0:0:0:
448,192,274359,128,0,274452:0:0:0:0:
320,192,274359,128,0,274546:0:0:0:0:
448,192,274484,128,0,274609:0:0:0:0:
192,192,274484,128,0,274546:0:0:0:0:
320,192,274609,128,0,274702:0:0:0:0:
192,192,274609,128,0,274796:0:0:0:0:
64,192,274734,128,0,274859:0:0:0:0:
320,192,274734,128,0,274796:0:0:0:0:
320,192,274859,128,0,274952:0:0:0:0:
448,192,274859,128,0,275046:0:0:0:0:
192,192,274859,128,0,274952:0:0:0:0:
64,192,274984,128,0,275234:0:0:0:0:
320,192,274984,128,0,275046:0:0:0:0:
192,192,275109,128,0,275202:0:0:0:0:
448,192,275109,128,0,275296:0:0:0:0:
192,192,275234,128,0,275359:0:0:0:0:
320,192,275234,128,0,275296:0:0:0:0:
448,192,275359,128,0,275452:0:0:0:0:
64,192,275359,128,0,275546:0:0:0:0:
320,192,275359,128,0,275546:0:0:0:0:
448,192,275484,128,0,275609:0:0:0:0:
192,192,275484,128,0,275546:0:0:0:0:
192,192,275609,128,0,275702:0:0:0:0:
320,192,275609,128,0,275796:0:0:0:0:
192,192,275734,128,0,275796:0:0:0:0:
448,192,275734,128,0,275859:0:0:0:0:
64,192,275859,128,0,275952:0:0:0:0:
192,192,275859,128,0,276046:0:0:0:0:
320,192,275859,128,0,275921:0:0:0:0:
448,192,275921,128,0,275984:0:0:0:0:
320,192,275984,128,0,276046:0:0:0:0:
64,192,275984,128,0,276109:0:0:0:0:
320,192,276109,128,0,276202:0:0:0:0:
448,192,276109,128,0,276296:0:0:0:0:
192,192,276234,128,0,276359:0:0:0:0:
320,192,276234,128,0,276296:0:0:0:0:
64,192,276359,128,0,276452:0:0:0:0:
448,192,276359,128,0,276546:0:0:0:0:
320,192,276359,128,0,276484:0:0:0:0:
192,192,276484,128,0,276546:0:0:0:0:
64,192,276484,128,0,276546:0:0:0:0:
320,192,276546,128,0,276609:0:0:0:0:
192,192,276609,128,0,276702:0:0:0:0:
64,192,276609,128,0,276796:0:0:0:0:
320,192,276734,128,0,276859:0:0:0:0:
192,192,276734,128,0,276796:0:0:0:0:
64,192,276859,128,0,276952:0:0:0:0:
448,192,276859,128,0,277046:0:0:0:0:
192,192,276859,128,0,276952:0:0:0:0:
64,192,276984,128,0,277046:0:0:0:0:
320,192,276984,128,0,277109:0:0:0:0:
192,192,277109,128,0,277171:0:0:0:0:
448,192,277109,128,0,277202:0:0:0:0:
320,192,277171,128,0,277234:0:0:0:0:
448,192,277234,128,0,277359:0:0:0:0:
192,192,277234,128,0,277296:0:0:0:0:
64,192,277359,128,0,277421:0:0:0:0:
192,192,277359,128,0,277421:0:0:0:0:
320,192,277359,128,0,277421:0:0:0:0:
448,192,277484,128,0,277546:0:0:0:0:
320,192,277484,128,0,277546:0:0:0:0:
64,192,277484,128,0,277546:0:0:0:0:
64,192,277609,128,0,277671:0:0:0:0:
192,192,277609,128,0,277796:0:0:0:0:
320,192,277609,128,0,277702:0:0:0:0:
448,192,277609,1,0,0:0:0:0:
320,192,277734,128,0,277859:0:0:0:0:
448,192,277734,128,0,277796:0:0:0:0:
192,192,277859,128,0,277952:0:0:0:0:
64,192,277859,128,0,278046:0:0:0:0:
448,192,277859,128,0,277984:0:0:0:0:
320,192,277984,128,0,278046:0:0:0:0:
192,192,277984,128,0,278109:0:0:0:0:
320,192,278109,128,0,278296:0:0:0:0:
64,192,278109,128,0,278202:0:0:0:0:
448,192,278234,128,0,278296:0:0:0:0:
64,192,278234,128,0,278296:0:0:0:0:
192,192,278296,128,0,278359:0:0:0:0:
448,192,278359,128,0,278452:0:0:0:0:
64,192,278359,128,0,278546:0:0:0:0:
320,192,278359,128,0,278546:0:0:0:0:
192,192,278484,128,0,278546:0:0:0:0:
448,192,278484,128,0,278609:0:0:0:0:
192,192,278609,128,0,278796:0:0:0:0:
320,192,278609,128,0,278702:0:0:0:0:
448,192,278734,128,0,278796:0:0:0:0:
320,192,278734,128,0,278859:0:0:0:0:
448,192,278859,128,0,279046:0:0:0:0:
64,192,278859,128,0,278952:0:0:0:0:
192,192,278859,128,0,278952:0:0:0:0:
320,192,278984,128,0,279046:0:0:0:0:
192,192,278984,128,0,279109:0:0:0:0:
64,192,279109,128,0,279202:0:0:0:0:
448,192,279109,128,0,279296:0:0:0:0:
320,192,279234,128,0,279296:0:0:0:0:
64,192,279234,128,0,279296:0:0:0:0:
192,192,279296,128,0,279359:0:0:0:0:
320,192,279359,128,0,279546:0:0:0:0:
448,192,279359,128,0,279452:0:0:0:0:
64,192,279359,128,0,279546:0:0:0:0:
192,192,279484,128,0,279546:0:0:0:0:
448,192,279484,128,0,279609:0:0:0:0:
192,192,279609,128,0,279702:0:0:0:0:
64,192,279609,128,0,279796:0:0:0:0:
448,192,279734,128,0,279796:0:0:0:0:
192,192,279734,128,0,279796:0:0:0:0:
320,192,279796,128,0,279859:0:0:0:0:
448,192,279859,128,0,279952:0:0:0:0:
64,192,279859,128,0,279952:0:0:0:0:
192,192,279859,128,0,279984:0:0:0:0:
64,192,279984,128,0,280046:0:0:0:0:
448,192,279984,128,0,280046:0:0:0:0:
192,192,280046,128,0,280109:0:0:0:0:
320,192,280109,128,0,280202:0:0:0:0:
448,192,280109,128,0,280296:0:0:0:0:
64,192,280234,128,0,280296:0:0:0:0:
320,192,280234,128,0,280296:0:0:0:0:
192,192,280296,128,0,280359:0:0:0:0:
448,192,280359,128,0,280546:0:0:0:0:
320,192,280359,128,0,280546:0:0:0:0:
64,192,280359,128,0,280452:0:0:0:0:
192,192,280484,128,0,280546:0:0:0:0:
64,192,280484,128,0,280609:0:0:0:0:
192,192,280609,128,0,280702:0:0:0:0:
448,192,280609,128,0,280796:0:0:0:0:
64,192,280734,128,0,280859:0:0:0:0:
192,192,280734,128,0,280796:0:0:0:0:
320,192,280859,128,0,280952:0:0:0:0:
192,192,280859,128,0,281046:0:0:0:0:
448,192,280859,128,0,281046:0:0:0:0:
64,192,280984,128,0,281109:0:0:0:0:
320,192,280984,128,0,281046:0:0:0:0:
448,192,281109,128,0,281171:0:0:0:0:
192,192,281109,128,0,281171:0:0:0:0:
320,192,281109,128,0,281171:0:0:0:0:
448,192,281234,128,0,281296:0:0:0:0:
320,192,281234,128,0,281296:0:0:0:0:
64,192,281234,128,0,281296:0:0:0:0:
192,192,281296,128,0,281359:0:0:0:0:
448,192,281359,128,0,281421:0:0:0:0:
320,192,281359,128,0,281421:0:0:0:0:
64,192,281421,128,0,281484:0:0:0:0:
192,192,281421,128,0,281484:0:0:0:0:
448,192,281484,128,0,281546:0:0:0:0:
320,192,281484,128,0,281546:0:0:0:0:
192,192,281546,128,0,281609:0:0:0:0:
320,192,281609,1,0,0:0:0:0:
448,192,281609,128,0,281796:0:0:0:0:
64,192,281609,128,0,281702:0:0:0:0:
64,192,281734,128,0,281796:0:0:0:0:
320,192,281734,128,0,281796:0:0:0:0:
192,192,281796,128,0,281859:0:0:0:0:
448,192,281859,128,0,281952:0:0:0:0:
64,192,281859,128,0,282046:0:0:0:0:
320,192,281859,128,0,281921:0:0:0:0:
320,192,281984,128,0,282046:0:0:0:0:
448,192,281984,128,0,282234:0:0:0:0:
192,192,281984,128,0,282046:0:0:0:0:
192,192,282109,128,0,282234:0:0:0:0:
320,192,282109,128,0,282202:0:0:0:0:
64,192,282234,128,0,282296:0:0:0:0:
320,192,282234,128,0,282296:0:0:0:0:
192,192,282296,128,0,282359:0:0:0:0:
64,192,282359,128,0,282452:0:0:0:0:
448,192,282359,128,0,282546:0:0:0:0:
320,192,282359,128,0,282421:0:0:0:0:
64,192,282484,128,0,282609:0:0:0:0:
192,192,282484,128,0,282546:0:0:0:0:
320,192,282484,128,0,282546:0:0:0:0:
320,192,282609,128,0,282702:0:0:0:0:
192,192,282609,128,0,282796:0:0:0:0:
320,192,282734,128,0,282796:0:0:0:0:
64,192,282734,128,0,282859:0:0:0:0:
320,192,282859,128,0,282952:0:0:0:0:
448,192,282859,128,0,283046:0:0:0:0:
192,192,282859,128,0,283046:0:0:0:0:
320,192,282984,128,0,283046:0:0:0:0:
64,192,282984,128,0,283234:0:0:0:0:
192,192,283109,128,0,283202:0:0:0:0:
448,192,283109,128,0,283296:0:0:0:0:
192,192,283234,128,0,283296:0:0:0:0:
320,192,283234,128,0,283359:0:0:0:0:
192,192,283359,128,0,283452:0:0:0:0:
448,192,283359,128,0,283546:0:0:0:0:
64,192,283359,128,0,283421:0:0:0:0:
192,192,283484,128,0,283546:0:0:0:0:
64,192,283484,128,0,283609:0:0:0:0:
320,192,283484,128,0,283546:0:0:0:0:
192,192,283609,128,0,283702:0:0:0:0:
320,192,283609,128,0,283796:0:0:0:0:
192,192,283734,128,0,283796:0:0:0:0:
448,192,283734,128,0,283859:0:0:0:0:
320,192,283859,128,0,283921:0:0:0:0:
192,192,283859,128,0,283952:0:0:0:0:
64,192,283859,128,0,283921:0:0:0:0:
448,192,283921,128,0,283984:0:0:0:0:
192,192,283984,128,0,284046:0:0:0:0:
320,192,283984,128,0,284046:0:0:0:0:
64,192,283984,128,0,284109:0:0:0:0:
320,192,284109,128,0,284202:0:0:0:0:
448,192,284109,128,0,284296:0:0:0:0:
320,192,284234,128,0,284296:0:0:0:0:
192,192,284234,128,0,284359:0:0:0:0:
320,192,284359,128,0,284484:0:0:0:0:
64,192,284359,128,0,284452:0:0:0:0:
448,192,284359,128,0,284421:0:0:0:0:
448,192,284484,128,0,284546:0:0:0:0:
192,192,284484,128,0,284546:0:0:0:0:
64,192,284484,128,0,284546:0:0:0:0:
320,192,284546,128,0,284609:0:0:0:0:
192,192,284609,128,0,284702:0:0:0:0:
64,192,284609,128,0,284796:0:0:0:0:
192,192,284734,128,0,284796:0:0:0:0:
320,192,284734,128,0,284859:0:0:0:0:
64,192,284859,128,0,284952:0:0:0:0:
448,192,284859,128,0,284921:0:0:0:0:
192,192,284859,128,0,285046:0:0:0:0:
64,192,284984,128,0,285046:0:0:0:0:
320,192,284984,128,0,285046:0:0:0:0:
448,192,284984,128,0,285109:0:0:0:0:
320,192,285109,128,0,285296:0:0:0:0:
192,192,285109,128,0,285202:0:0:0:0:
192,192,285234,128,0,285296:0:0:0:0:
448,192,285296,128,0,285359:0:0:0:0:
64,192,285359,128,0,285484:0:0:0:0:
192,192,285359,128,0,285421:0:0:0:0:
320,192,285359,128,0,285421:0:0:0:0:
448,192,285484,128,0,285546:0:0:0:0:
320,192,285484,128,0,285609:0:0:0:0:
192,192,285484,128,0,285546:0:0:0:0:
448,192,285609,128,0,285671:0:0:0:0:
64,192,285609,128,0,285702:0:0:0:0:
192,192,285609,128,0,285796:0:0:0:0:
320,192,285734,128,0,285796:0:0:0:0:
64,192,285734,128,0,285859:0:0:0:0:
192,192,285859,128,0,285921:0:0:0:0:
320,192,285859,128,0,285921:0:0:0:0:
448,192,285859,128,0,285952:0:0:0:0:
64,192,285921,128,0,285984:0:0:0:0:
320,192,285984,128,0,286046:0:0:0:0:
192,192,285984,128,0,286109:0:0:0:0:
448,192,285984,128,0,286046:0:0:0:0:
64,192,286109,128,0,286171:0:0:0:0:
448,192,286109,128,0,286202:0:0:0:0:
320,192,286109,128,0,286296:0:0:0:0:
192,192,286234,128,0,286296:0:0:0:0:
448,192,286234,128,0,286359:0:0:0:0:
320,192,286359,128,0,286452:0:0:0:0:
64,192,286359,128,0,286421:0:0:0:0:
192,192,286359,128,0,286452:0:0:0:0:
448,192,286421,128,0,286484:0:0:0:0:
64,192,286484,128,0,286546:0:0:0:0:
192,192,286484,128,0,286546:0:0:0:0:
448,192,286546,128,0,286609:0:0:0:0:
320,192,286546,128,0,286609:0:0:0:0:
192,192,286609,128,0,286702:0:0:0:0:
64,192,286609,128,0,286796:0:0:0:0:
192,192,286734,128,0,286796:0:0:0:0:
448,192,286734,128,0,286796:0:0:0:0:
448,192,286859,128,0,286952:0:0:0:0:
64,192,286859,128,0,287046:0:0:0:0:
320,192,286859,128,0,286921:0:0:0:0:
448,192,286984,128,0,287046:0:0:0:0:
320,192,286984,128,0,287046:0:0:0:0:
448,192,287109,128,0,287171:0:0:0:0:
192,192,287109,128,0,287296:0:0:0:0:
64,192,287109,128,0,287202:0:0:0:0:
320,192,287234,128,0,287296:0:0:0:0:
64,192,287234,128,0,287296:0:0:0:0:
448,192,287359,128,0,287452:0:0:0:0:
192,192,287359,128,0,287484:0:0:0:0:
320,192,287359,128,0,287452:0:0:0:0:
448,192,287484,128,0,287546:0:0:0:0:
64,192,287484,128,0,287546:0:0:0:0:
320,192,287484,128,0,287546:0:0:0:0:
192,192,287546,128,0,287609:0:0:0:0:
320,192,287609,128,0,287671:0:0:0:0:
448,192,287609,128,0,287734:0:0:0:0:
64,192,287671,128,0,287796:0:0:0:0:
192,192,287734,128,0,287796:0:0:0:0:
320,192,287734,128,0,287859:0:0:0:0:
448,192,287796,128,0,287921:0:0:0:0:
64,192,287859,128,0,287921:0:0:0:0:
192,192,287859,128,0,287984:0:0:0:0:
320,192,287921,128,0,288046:0:0:0:0:
448,192,287984,128,0,288109:0:0:0:0:
64,192,287984,128,0,288046:0:0:0:0:
192,192,288046,128,0,288171:0:0:0:0:
320,192,288109,128,0,288171:0:0:0:0:
64,192,288109,128,0,288234:0:0:0:0:
448,192,288171,128,0,288296:0:0:0:0:
192,192,288234,128,0,288359:0:0:0:0:
320,192,288234,128,0,288296:0:0:0:0:
64,192,288296,128,0,288421:0:0:0:0:
448,192,288359,128,0,288421:0:0:0:0:
320,192,288359,128,0,288546:0:0:0:0:
192,192,288421,128,0,288484:0:0:0:0:
64,192,288484,128,0,288546:0:0:0:0:
448,192,288484,128,0,288546:0:0:0:0:
192,192,288546,128,0,288609:0:0:0:0:
64,192,288609,128,0,288734:0:0:0:0:
448,192,288609,128,0,288734:0:0:0:0:
320,192,288609,128,0,288734:0:0:0:0:
64,192,288796,128,0,288921:0:0:0:0:
192,192,288796,128,0,288921:0:0:0:0:
448,192,288796,128,0,288921:0:0:0:0:
448,192,288984,128,0,289109:0:0:0:0:
320,192,288984,128,0,289109:0:0:0:0:
192,192,288984,128,0,289046:0:0:0:0:
64,192,289109,128,0,289171:0:0:0:0:
192,192,289109,1,0,0:0:0:0:
448,192,289171,128,0,289234:0:0:0:0:
320,192,289171,1,0,0:0:0:0:
64,192,289234,128,0,289296:0:0:0:0:
192,192,289234,1,0,0:0:0:0:
448,192,289296,128,0,289359:0:0:0:0:
320,192,289296,1,0,0:0:0:0:
64,192,289359,128,0,289390:0:0:0:0:
192,192,289390,128,0,289421:0:0:0:0:
448,192,289421,128,0,289452:0:0:0:0:
320,192,289452,128,0,289484:0:0:0:0:
64,192,289484,128,0,289515:0:0:0:0:
192,192,289515,128,0,289546:0:0:0:0:
448,192,289546,128,0,289577:0:0:0:0:
320,192,289577,128,0,289609:0:0:0:0:
64,192,289609,128,0,289671:0:0:0:0:
192,192,289609,128,0,289921:0:0:0:0:
64,192,289734,128,0,289796:0:0:0:0:
320,192,289796,128,0,289859:0:0:0:0:
64,192,289859,128,0,290609:0:0:0:0:
192,192,289984,128,0,290234:0:0:0:0:
320,192,290234,128,0,290296:0:0:0:0:
192,192,290296,128,0,290421:0:0:0:0:
320,192,290359,128,0,290484:0:0:0:0:
192,192,290484,128,0,290609:0:0:0:0:
448,192,290609,128,0,290734:0:0:0:0:
64,192,290734,128,0,290796:0:0:0:0:
192,192,290984,128,0,291234:0:0:0:0:
320,192,291234,128,0,291359:0:0:0:0:
64,192,291359,128,0,291484:0:0:0:0:
192,192,291484,128,0,291609:0:0:0:0:
448,192,291609,128,0,291734:0:0:0:0:
320,192,291609,128,0,291671:0:0:0:0:
320,192,291734,128,0,291796:0:0:0:0:
448,192,291796,128,0,291859:0:0:0:0:
320,192,291859,128,0,291984:0:0:0:0:
448,192,291984,128,0,292234:0:0:0:0:
320,192,292234,128,0,292296:0:0:0:0:
448,192,292296,128,0,292359:0:0:0:0:
64,192,292359,1,0,0:0:0:0:
192,192,292359,128,0,292484:0:0:0:0:
320,192,292484,128,0,292609:0:0:0:0:
448,192,292484,1,0,0:0:0:0:
64,192,292609,128,0,292734:0:0:0:0:
192,192,292609,1,0,0:0:0:0:
448,192,292734,128,0,292796:0:0:0:0:
320,192,292734,1,0,0:0:0:0:
192,192,292984,128,0,293234:0:0:0:0:
64,192,292984,1,0,0:0:0:0:
320,192,293234,128,0,293359:0:0:0:0:
448,192,293234,1,0,0:0:0:0:
448,192,293359,128,0,293484:0:0:0:0:
192,192,293359,1,0,0:0:0:0:
320,192,293484,128,0,293609:0:0:0:0:
64,192,293484,1,0,0:0:0:0:
192,192,293609,128,0,293671:0:0:0:0:
64,192,293609,128,0,293734:0:0:0:0:
192,192,293734,128,0,293796:0:0:0:0:
64,192,293796,128,0,293859:0:0:0:0:
192,192,293859,128,0,293984:0:0:0:0:
64,192,293984,128,0,294234:0:0:0:0:
320,192,294234,128,0,294296:0:0:0:0:
192,192,294296,128,0,294359:0:0:0:0:
448,192,294359,128,0,294484:0:0:0:0:
64,192,294484,128,0,294609:0:0:0:0:
192,192,294609,128,0,294734:0:0:0:0:
320,192,294609,1,0,0:0:0:0:
448,192,294734,128,0,294796:0:0:0:0:
64,192,294984,128,0,295234:0:0:0:0:
192,192,294984,1,0,0:0:0:0:
320,192,295234,128,0,295296:0:0:0:0:
192,192,295359,128,0,295421:0:0:0:0:
64,192,295359,1,0,0:0:0:0:
448,192,295484,128,0,295546:0:0:0:0:
320,192,295484,1,0,0:0:0:0:
192,192,295609,1,0,0:0:0:0:
64,192,295609,1,0,0:0:0:0:
448,192,295734,1,0,0:0:0:0:
192,192,295984,1,0,0:0:0:0:
320,192,296234,1,0,0:0:0:0:
64,192,296359,1,0,0:0:0:0:
448,192,296484,1,0,0:0:0:0:
192,192,296609,1,0,0:0:0:0:
320,192,296734,1,0,0:0:0:0:
192,192,296984,1,0,0:0:0:0:
320,192,297234,1,0,0:0:0:0:
448,192,297359,1,0,0:0:0:0:
64,192,297484,1,0,0:0:0:0:
320,192,297609,128,0,298609:0:0:0:0:
448,192,297609,128,0,298609:0:0:0:0:
192,192,297609,1,0,0:0:0:0:
64,192,297984,1,0,0:0:0:0:
192,192,298359,1,0,0:0:0:0:
64,192,298609,1,0,0:0:0:0:
320,192,298984,1,0,0:0:0:0:
192,192,299234,1,0,0:0:0:0:
448,192,299609,1,0,0:0:0:0:
64,192,299609,128,0,299671:0:0:0:0:
320,192,299984,1,0,0:0:0:0:
192,192,300359,1,0,0:0:0:0:
320,192,300484,1,0,0:0:0:0:
64,192,300609,1,0,0:0:0:0:
448,192,300734,1,0,0:0:0:0:
192,192,300984,1,0,0:0:0:0:
64,192,301234,1,0,0:0:0:0:
320,192,301359,1,0,0:0:0:0:
192,192,301484,1,0,0:0:0:0:
320,192,301609,1,0,0:0:0:0:
448,192,301609,128,0,301671:0:0:0:0:
320,192,301859,1,0,0:0:0:0:
448,192,301859,1,0,0:0:0:0:
320,192,302109,1,0,0:0:0:0:
448,192,302109,1,0,0:0:0:0:
320,192,302359,1,0,0:0:0:0:
448,192,302359,1,0,0:0:0:0:
64,192,302484,1,0,0:0:0:0:
192,192,302484,1,0,0:0:0:0:
320,192,302546,1,0,0:0:0:0:
448,192,302546,1,0,0:0:0:0:
192,192,302609,1,0,0:0:0:0:
64,192,302609,128,0,302671:0:0:0:0:
192,192,302859,1,0,0:0:0:0:
64,192,302859,1,0,0:0:0:0:
320,192,302984,128,0,303046:0:0:0:0:
192,192,303109,1,0,0:0:0:0:
64,192,303109,1,0,0:0:0:0:
192,192,303359,1,0,0:0:0:0:
64,192,303359,1,0,0:0:0:0:
448,192,303359,128,0,303421:0:0:0:0:
320,192,303484,1,0,0:0:0:0:
448,192,303484,1,0,0:0:0:0:
192,192,303546,1,0,0:0:0:0:
64,192,303546,1,0,0:0:0:0:
320,192,303609,1,0,0:0:0:0:
448,192,303609,128,0,303671:0:0:0:0:
320,192,303734,128,0,303796:0:0:0:0:
448,192,303734,1,0,0:0:0:0:
192,192,303859,1,0,0:0:0:0:
64,192,303859,1,0,0:0:0:0:
192,192,303984,128,0,304046:0:0:0:0:
64,192,303984,1,0,0:0:0:0:
320,192,304109,1,0,0:0:0:0:
448,192,304109,1,0,0:0:0:0:
320,192,304234,1,0,0:0:0:0:
448,192,304234,1,0,0:0:0:0:
192,192,304359,1,0,0:0:0:0:
64,192,304359,128,0,304421:0:0:0:0:
320,192,304484,1,0,0:0:0:0:
448,192,304484,1,0,0:0:0:0:
192,192,304546,1,0,0:0:0:0:
64,192,304546,1,0,0:0:0:0:
320,192,304609,1,0,0:0:0:0:
448,192,304609,1,0,0:0:0:0:
320,192,304734,128,0,304796:0:0:0:0:
64,192,304859,128,0,304921:0:0:0:0:
448,192,304890,128,0,304952:0:0:0:0:
192,192,304968,128,0,305015:0:0:0:0:
320,192,304984,128,0,305046:0:0:0:0:
64,192,305109,128,0,305265:0:0:0:0:
448,192,305109,128,0,305265:0:0:0:0:
320,192,305327,128,0,305484:0:0:0:0:
192,192,305374,128,0,305546:0:0:0:0:
64,192,305609,128,0,305859:0:0:0:0:
192,192,305609,128,0,305796:0:0:0:0:
320,192,305609,128,0,305796:0:0:0:0:
320,192,305859,1,0,0:0:0:0:
448,192,305890,1,0,0:0:0:0:
64,192,305921,1,0,0:0:0:0:
192,192,305952,1,0,0:0:0:0:
320,192,305984,1,0,0:0:0:0:
448,192,306015,1,0,0:0:0:0:
64,192,306046,1,0,0:0:0:0:
192,192,306077,1,0,0:0:0:0:
448,192,306109,1,0,0:0:0:0:
320,192,306109,128,0,306192:0:0:0:0:
64,192,306150,128,0,306234:0:0:0:0:
448,192,306234,128,0,306296:0:0:0:0:
192,192,306296,128,0,306359:0:0:0:0:
320,192,306359,128,0,306546:0:0:0:0:
64,192,306359,128,0,306421:0:0:0:0:
448,192,306421,128,0,306609:0:0:0:0:
64,192,306484,128,0,306671:0:0:0:0:
192,192,306546,128,0,306796:0:0:0:0:
320,192,306609,128,0,306734:0:0:0:0:
448,192,306671,128,0,306796:0:0:0:0:
64,192,306734,128,0,306859:0:0:0:0:
320,192,306796,128,0,306921:0:0:0:0:
192,192,306859,128,0,307046:0:0:0:0:
448,192,306859,128,0,306984:0:0:0:0:
64,192,306921,128,0,307171:0:0:0:0:
320,192,306984,128,0,307109:0:0:0:0:
448,192,307046,128,0,307359:0:0:0:0:
192,192,307109,128,0,307234:0:0:0:0:
320,192,307171,128,0,307296:0:0:0:0:
64,192,307234,128,0,307296:0:0:0:0:
192,192,307296,128,0,307484:0:0:0:0:
64,192,307359,128,0,307421:0:0:0:0:
320,192,307359,128,0,307546:0:0:0:0:
448,192,307421,128,0,307546:0:0:0:0:
64,192,307484,128,0,307546:0:0:0:0:
192,192,307546,128,0,307609:0:0:0:0:
320,192,307609,128,0,307734:0:0:0:0:
448,192,307609,128,0,307734:0:0:0:0:
192,192,307734,1,0,0:0:0:0:
64,192,307765,1,0,0:0:0:0:
448,192,307796,1,0,0:0:0:0:
320,192,307827,1,0,0:0:0:0:
64,192,307859,1,0,0:0:0:0:
192,192,307900,1,0,0:0:0:0:
320,192,307942,1,0,0:0:0:0:
448,192,307984,1,0,0:0:0:0:
64,192,308025,1,0,0:0:0:0:
320,192,308067,1,0,0:0:0:0:
64,192,308109,128,0,308171:0:0:0:0:
192,192,308109,128,0,308296:0:0:0:0:
448,192,308109,128,0,308296:0:0:0:0:
64,192,308234,128,0,308296:0:0:0:0:
320,192,308234,128,0,308296:0:0:0:0:
192,192,308359,128,0,308515:0:0:0:0:
320,192,308359,128,0,308452:0:0:0:0:
448,192,308421,128,0,308702:0:0:0:0:
64,192,308484,128,0,308577:0:0:0:0:
320,192,308546,128,0,308640:0:0:0:0:
192,192,308609,128,0,308765:0:0:0:0:
64,192,308671,128,0,308765:0:0:0:0:
320,192,308734,128,0,308827:0:0:0:0:
448,192,308796,128,0,308952:0:0:0:0:
192,192,308859,128,0,308921:0:0:0:0:
64,192,308859,128,0,309015:0:0:0:0:
320,192,308921,128,0,309015:0:0:0:0:
192,192,308984,128,0,309046:0:0:0:0:
448,192,309046,128,0,309109:0:0:0:0:
64,192,309109,128,0,309171:0:0:0:0:
192,192,309109,128,0,309171:0:0:0:0:
320,192,309109,128,0,309171:0:0:0:0:
448,192,309171,128,0,309234:0:0:0:0:
192,192,309234,128,0,309343:0:0:0:0:
320,192,309296,128,0,309405:0:0:0:0:
64,192,309359,128,0,309530:0:0:0:0:
448,192,309359,128,0,309468:0:0:0:0:
192,192,309421,128,0,309530:0:0:0:0:
320,192,309484,128,0,309530:0:0:0:0:
448,192,309546,128,0,309593:0:0:0:0:
64,192,309609,1,0,0:0:0:0:
192,192,309609,1,0,0:0:0:0:
320,192,309650,1,0,0:0:0:0:
448,192,309692,1,0,0:0:0:0:
64,192,309734,1,0,0:0:0:0:
320,192,309775,1,0,0:0:0:0:
192,192,309817,1,0,0:0:0:0:
64,192,309859,1,0,0:0:0:0:
320,192,309900,1,0,0:0:0:0:
448,192,309942,1,0,0:0:0:0:
192,192,309984,128,0,310109:0:0:0:0:
320,192,310109,128,0,310171:0:0:0:0:
448,192,310109,128,0,310171:0:0:0:0:
64,192,310109,128,0,310171:0:0:0:0:
192,192,310171,128,0,310234:0:0:0:0:
64,192,310234,128,0,310296:0:0:0:0:
448,192,310234,1,0,0:0:0:0:
320,192,310275,1,0,0:0:0:0:
192,192,310317,1,0,0:0:0:0:
320,192,310359,128,0,310588:0:0:0:0:
448,192,310359,128,0,310463:0:0:0:0:
64,192,310359,128,0,310400:0:0:0:0:
192,192,310421,128,0,310525:0:0:0:0:
64,192,310484,128,0,310775:0:0:0:0:
448,192,310546,128,0,310650:0:0:0:0:
192,192,310609,128,0,310734:0:0:0:0:
320,192,310671,128,0,310775:0:0:0:0:
448,192,310734,128,0,310838:0:0:0:0:
192,192,310796,128,0,310900:0:0:0:0:
64,192,310859,128,0,310963:0:0:0:0:
320,192,310859,128,0,311025:0:0:0:0:
448,192,310921,128,0,311025:0:0:0:0:
192,192,310984,128,0,311025:0:0:0:0:
64,192,311046,128,0,311088:0:0:0:0:
448,192,311109,128,0,311202:0:0:0:0:
320,192,311124,128,0,311218:0:0:0:0:
192,192,311140,128,0,311234:0:0:0:0:
64,192,311296,128,0,311390:0:0:0:0:
192,192,311312,128,0,311405:0:0:0:0:
320,192,311327,128,0,311421:0:0:0:0:
448,192,311484,128,0,311546:0:0:0:0:
320,192,311499,128,0,311562:0:0:0:0:
192,192,311515,128,0,311577:0:0:0:0:
320,192,311609,128,0,311775:0:0:0:0:
448,192,311609,128,0,311713:0:0:0:0:
192,192,311671,128,0,311775:0:0:0:0:
64,192,311734,128,0,311838:0:0:0:0:
448,192,311796,128,0,311900:0:0:0:0:
320,192,311859,128,0,312025:0:0:0:0:
192,192,311859,128,0,311963:0:0:0:0:
64,192,311921,128,0,312025:0:0:0:0:
448,192,311984,128,0,312025:0:0:0:0:
192,192,312046,128,0,312088:0:0:0:0:
64,192,312109,1,0,0:0:0:0:
320,192,312109,1,0,0:0:0:0:
448,192,312109,1,0,0:0:0:0:
192,192,312234,128,0,312359:0:0:0:0:
320,192,312234,128,0,312359:0:0:0:0:
64,192,312359,128,0,312525:0:0:0:0:
448,192,312359,128,0,312463:0:0:0:0:
320,192,312421,128,0,312525:0:0:0:0:
192,192,312484,128,0,312525:0:0:0:0:
448,192,312546,128,0,312588:0:0:0:0:
64,192,312609,128,0,312671:0:0:0:0:
320,192,312629,128,0,312692:0:0:0:0:
448,192,312734,128,0,312796:0:0:0:0:
192,192,312754,128,0,312817:0:0:0:0:
448,192,312859,128,0,312921:0:0:0:0:
320,192,312859,128,0,312921:0:0:0:0:
64,192,312879,128,0,312942:0:0:0:0:
64,192,312984,128,0,313046:0:0:0:0:
320,192,313004,128,0,313067:0:0:0:0:
192,192,313109,128,0,313171:0:0:0:0:
64,192,313109,128,0,313296:0:0:0:0:
448,192,313109,128,0,313234:0:0:0:0:
320,192,313234,128,0,313296:0:0:0:0:
192,192,313234,128,0,313296:0:0:0:0:
320,192,313359,128,0,313421:0:0:0:0:
448,192,313359,128,0,313421:0:0:0:0:
192,192,313379,128,0,313442:0:0:0:0:
64,192,313484,128,0,313546:0:0:0:0:
320,192,313504,128,0,313567:0:0:0:0:
64,192,313609,128,0,313796:0:0:0:0:
448,192,313609,128,0,313734:0:0:0:0:
192,192,313692,128,0,313775:0:0:0:0:
448,192,313775,128,0,313859:0:0:0:0:
64,192,313859,128,0,313984:0:0:0:0:
320,192,313859,128,0,314046:0:0:0:0:
192,192,313859,128,0,314046:0:0:0:0:
448,192,313942,128,0,314025:0:0:0:0:
64,192,314025,128,0,314109:0:0:0:0:
192,192,314109,128,0,314296:0:0:0:0:
320,192,314109,128,0,314234:0:0:0:0:
64,192,314192,128,0,314275:0:0:0:0:
320,192,314275,128,0,314359:0:0:0:0:
192,192,314359,128,0,314484:0:0:0:0:
448,192,314359,128,0,314546:0:0:0:0:
64,192,314359,128,0,314546:0:0:0:0:
320,192,314442,128,0,314525:0:0:0:0:
192,192,314525,128,0,314609:0:0:0:0:
64,192,314609,128,0,314796:0:0:0:0:
448,192,314609,128,0,314734:0:0:0:0:
192,192,314692,128,0,314775:0:0:0:0:
448,192,314775,128,0,314859:0:0:0:0:
64,192,314859,128,0,314984:0:0:0:0:
320,192,314859,128,0,315046:0:0:0:0:
192,192,314859,128,0,315046:0:0:0:0:
448,192,314942,128,0,315025:0:0:0:0:
64,192,315025,128,0,315109:0:0:0:0:
192,192,315109,128,0,315296:0:0:0:0:
320,192,315109,128,0,315234:0:0:0:0:
64,192,315192,128,0,315275:0:0:0:0:
320,192,315275,128,0,315359:0:0:0:0:
448,192,315359,128,0,315546:0:0:0:0:
64,192,315359,128,0,315546:0:0:0:0:
192,192,315359,128,0,315421:0:0:0:0:
320,192,315442,128,0,315525:0:0:0:0:
192,192,315525,128,0,315609:0:0:0:0:
448,192,315609,128,0,315796:0:0:0:0:
64,192,315609,128,0,315734:0:0:0:0:
320,192,315692,128,0,315775:0:0:0:0:
64,192,315775,128,0,315859:0:0:0:0:
448,192,315859,128,0,316046:0:0:0:0:
320,192,315859,128,0,315984:0:0:0:0:
192,192,315859,128,0,316046:0:0:0:0:
64,192,315942,128,0,316025:0:0:0:0:
320,192,316025,128,0,316109:0:0:0:0:
192,192,316109,128,0,316234:0:0:0:0:
448,192,316109,128,0,316234:0:0:0:0:
320,192,316192,128,0,316275:0:0:0:0:
192,192,316275,128,0,316359:0:0:0:0:
448,192,316359,128,0,316546:0:0:0:0:
64,192,316359,128,0,316546:0:0:0:0:
320,192,316359,128,0,316484:0:0:0:0:
192,192,316442,128,0,316525:0:0:0:0:
320,192,316525,128,0,316609:0:0:0:0:
64,192,316609,128,0,316671:0:0:0:0:
192,192,316624,128,0,316687:0:0:0:0:
448,192,316640,128,0,316702:0:0:0:0:
320,192,316734,128,0,316796:0:0:0:0:
64,192,316734,128,0,316796:0:0:0:0:
320,192,316859,128,0,316921:0:0:0:0:
192,192,316859,128,0,316921:0:0:0:0:
448,192,316859,128,0,316921:0:0:0:0:
448,192,316984,128,0,317025:0:0:0:0:
192,192,317046,128,0,317192:0:0:0:0:
320,192,317109,128,0,317254:0:0:0:0:
64,192,317171,128,0,317254:0:0:0:0:
448,192,317234,128,0,317275:0:0:0:0:
192,192,317296,128,0,317338:0:0:0:0:
320,192,317359,128,0,317421:0:0:0:0:
448,192,317359,128,0,317421:0:0:0:0:
64,192,317359,128,0,317421:0:0:0:0:
64,192,317484,128,0,317609:0:0:0:0:
192,192,317504,128,0,317609:0:0:0:0:
448,192,317609,128,0,317692:0:0:0:0:
320,192,317609,128,0,317671:0:0:0:0:
192,192,317650,128,0,317754:0:0:0:0:
64,192,317692,128,0,317796:0:0:0:0:
320,192,317734,128,0,317796:0:0:0:0:
192,192,317859,128,0,317942:0:0:0:0:
64,192,317859,128,0,317921:0:0:0:0:
320,192,317900,128,0,317984:0:0:0:0:
448,192,317942,128,0,318025:0:0:0:0:
64,192,317984,128,0,318046:0:0:0:0:
64,192,318109,128,0,318213:0:0:0:0:
448,192,318109,128,0,318171:0:0:0:0:
192,192,318150,128,0,318254:0:0:0:0:
320,192,318192,128,0,318296:0:0:0:0:
448,192,318234,128,0,318338:0:0:0:0:
64,192,318359,128,0,318421:0:0:0:0:
192,192,318359,128,0,318546:0:0:0:0:
320,192,318359,128,0,318421:0:0:0:0:
448,192,318484,128,0,318546:0:0:0:0:
64,192,318484,128,0,318546:0:0:0:0:
448,192,318609,128,0,318692:0:0:0:0:
192,192,318609,128,0,318734:0:0:0:0:
64,192,318609,128,0,318671:0:0:0:0:
320,192,318650,128,0,318775:0:0:0:0:
64,192,318734,128,0,318796:0:0:0:0:
448,192,318859,128,0,318942:0:0:0:0:
320,192,318859,128,0,318921:0:0:0:0:
192,192,318900,128,0,318984:0:0:0:0:
64,192,318942,128,0,319025:0:0:0:0:
320,192,318984,128,0,319046:0:0:0:0:
64,192,319109,128,0,319171:0:0:0:0:
192,192,319109,128,0,319171:0:0:0:0:
320,192,319150,128,0,319213:0:0:0:0:
448,192,319192,128,0,319234:0:0:0:0:
64,192,319234,1,0,0:0:0:0:
192,192,319275,1,0,0:0:0:0:
320,192,319359,128,0,319421:0:0:0:0:
64,192,319359,128,0,319421:0:0:0:0:
192,192,319359,128,0,319421:0:0:0:0:
320,192,319484,128,0,319546:0:0:0:0:
448,192,319484,128,0,319546:0:0:0:0:
192,192,319546,128,0,319609:0:0:0:0:
448,192,319609,5,0,0:0:0:0:
64,192,319609,128,0,319734:0:0:0:0:
192,192,319734,128,0,319827:0:0:0:0:
448,192,319890,128,0,319952:0:0:0:0:
448,192,320015,128,0,320140:0:0:0:0:
320,192,320265,128,0,320327:0:0:0:0:
320,192,320390,128,0,320484:0:0:0:0:
192,192,320546,128,0,320671:0:0:0:0:
448,192,320671,128,0,320796:0:0:0:0:
320,192,320796,128,0,320921:0:0:0:0:
192,192,320921,128,0,321046:0:0:0:0:
448,192,321046,128,0,321171:0:0:0:0:
64,192,321171,128,0,321280:0:0:0:0:
192,192,321218,128,0,321280:0:0:0:0:
320,192,321280,128,0,321405:0:0:0:0:
192,192,321405,128,0,321468:0:0:0:0:
64,192,321515,128,0,321577:0:0:0:0:
448,192,321515,128,0,321577:0:0:0:0:
64,192,321609,128,0,322109:0:0:0:0:
448,192,321609,128,0,322109:0:0:0:0:
192,192,321609,128,0,322109:0:0:0:0:
320,192,321609,128,0,322109:0:0:0:0:
448,192,323025,1,0,0:0:0:0:
64,192,323109,5,0,0:0:0:0:
448,192,323192,1,0,0:0:0:0:
64,192,323275,1,0,0:0:0:0:
448,192,323359,1,0,0:0:0:0:
64,192,323442,1,0,0:0:0:0:
448,192,323525,1,0,0:0:0:0:
64,192,323609,1,0,0:0:0:0:
448,192,323692,1,0,0:0:0:0:
64,192,323775,1,0,0:0:0:0:
448,192,323859,128,0,323900:0:0:0:0:
64,192,323942,128,0,323984:0:0:0:0:
448,192,324025,128,0,324067:0:0:0:0:
64,192,324109,128,0,324150:0:0:0:0:
448,192,324192,128,0,324254:0:0:0:0:
64,192,324275,128,0,324338:0:0:0:0:
448,192,324359,128,0,324421:0:0:0:0:
64,192,324442,128,0,324504:0:0:0:0:
448,192,324525,128,0,324609:0:0:0:0:
64,192,324609,128,0,324692:0:0:0:0:
448,192,324692,128,0,324775:0:0:0:0:
64,192,324775,128,0,324859:0:0:0:0:
448,192,324859,128,0,324963:0:0:0:0:
64,192,324942,128,0,325046:0:0:0:0:
448,192,325025,128,0,325129:0:0:0:0:
64,192,325109,128,0,325213:0:0:0:0:
448,192,325192,128,0,325317:0:0:0:0:
64,192,325275,128,0,325400:0:0:0:0:
448,192,325359,128,0,325484:0:0:0:0:
64,192,325442,128,0,325567:0:0:0:0:
448,192,325525,128,0,325609:0:0:0:0:
192,192,325609,128,0,326067:0:0:0:0:
320,192,325692,128,0,326067:0:0:0:0:
448,192,326109,1,0,0:0:0:0:
320,192,326109,1,0,0:0:0:0:
64,192,326171,1,0,0:0:0:0:
192,192,326171,1,0,0:0:0:0:
448,192,326234,1,0,0:0:0:0:
320,192,326234,1,0,0:0:0:0:
64,192,326296,1,0,0:0:0:0:
192,192,326296,1,0,0:0:0:0:
448,192,326359,1,0,0:0:0:0:
320,192,326359,1,0,0:0:0:0:
64,192,326421,1,0,0:0:0:0:
192,192,326421,1,0,0:0:0:0:
448,192,326484,1,0,0:0:0:0:
320,192,326484,1,0,0:0:0:0:
64,192,326546,1,0,0:0:0:0:
192,192,326546,1,0,0:0:0:0:
448,192,326609,1,0,0:0:0:0:
320,192,326609,1,0,0:0:0:0:
64,192,326671,1,0,0:0:0:0:
192,192,326671,1,0,0:0:0:0:
448,192,326734,1,0,0:0:0:0:
320,192,326734,1,0,0:0:0:0:
64,192,326796,1,0,0:0:0:0:
192,192,326796,1,0,0:0:0:0:
448,192,326859,1,0,0:0:0:0:
320,192,326859,1,0,0:0:0:0:
64,192,326921,1,0,0:0:0:0:
192,192,326921,1,0,0:0:0:0:
448,192,326984,1,0,0:0:0:0:
320,192,326984,1,0,0:0:0:0:
64,192,327046,1,0,0:0:0:0:
192,192,327046,1,0,0:0:0:0:
448,192,327109,1,0,0:0:0:0:
320,192,327109,1,0,0:0:0:0:
64,192,327171,1,0,0:0:0:0:
192,192,327171,1,0,0:0:0:0:
448,192,327234,1,0,0:0:0:0:
320,192,327234,1,0,0:0:0:0:
64,192,327296,1,0,0:0:0:0:
192,192,327296,1,0,0:0:0:0:
448,192,327359,1,0,0:0:0:0:
320,192,327359,1,0,0:0:0:0:
64,192,327421,1,0,0:0:0:0:
192,192,327421,1,0,0:0:0:0:
448,192,327484,1,0,0:0:0:0:
320,192,327484,1,0,0:0:0:0:
64,192,327546,1,0,0:0:0:0:
192,192,327546,1,0,0:0:0:0:
448,192,327609,1,0,0:0:0:0:
320,192,327609,1,0,0:0:0:0:
64,192,327671,1,0,0:0:0:0:
192,192,327671,1,0,0:0:0:0:
448,192,327734,1,0,0:0:0:0:
320,192,327734,1,0,0:0:0:0:
64,192,327796,1,0,0:0:0:0:
192,192,327796,1,0,0:0:0:0:
448,192,327859,1,0,0:0:0:0:
320,192,327859,1,0,0:0:0:0:
64,192,327921,1,0,0:0:0:0:
192,192,327921,1,0,0:0:0:0:
448,192,327984,1,0,0:0:0:0:
320,192,327984,1,0,0:0:0:0:
64,192,328046,1,0,0:0:0:0:
192,192,328046,1,0,0:0:0:0:
320,192,328109,1,0,0:0:0:0:
448,192,328140,1,0,0:0:0:0:
64,192,328171,1,0,0:0:0:0:
192,192,328202,1,0,0:0:0:0:
448,192,328234,1,0,0:0:0:0:
320,192,328265,1,0,0:0:0:0:
192,192,328296,1,0,0:0:0:0:
64,192,328327,1,0,0:0:0:0:
320,192,328359,1,0,0:0:0:0:
448,192,328390,1,0,0:0:0:0:
64,192,328421,1,0,0:0:0:0:
192,192,328452,1,0,0:0:0:0:
320,192,328484,1,0,0:0:0:0:
448,192,328515,1,0,0:0:0:0:
192,192,328546,1,0,0:0:0:0:
64,192,328577,1,0,0:0:0:0:
448,192,328609,1,0,0:0:0:0:
320,192,328640,1,0,0:0:0:0:
192,192,328671,1,0,0:0:0:0:
64,192,328702,1,0,0:0:0:0:
448,192,328734,1,0,0:0:0:0:
320,192,328765,1,0,0:0:0:0:
64,192,328796,1,0,0:0:0:0:
192,192,328827,1,0,0:0:0:0:
320,192,328859,1,0,0:0:0:0:
448,192,328890,1,0,0:0:0:0:
64,192,328921,1,0,0:0:0:0:
192,192,328952,1,0,0:0:0:0:
448,192,328984,1,0,0:0:0:0:
320,192,329015,1,0,0:0:0:0:
192,192,329046,1,0,0:0:0:0:
64,192,329077,1,0,0:0:0:0:
320,192,329109,1,0,0:0:0:0:
448,192,329140,1,0,0:0:0:0:
64,192,329171,1,0,0:0:0:0:
192,192,329202,1,0,0:0:0:0:
320,192,329234,1,0,0:0:0:0:
448,192,329265,1,0,0:0:0:0:
192,192,329296,1,0,0:0:0:0:
64,192,329327,1,0,0:0:0:0:
320,192,329359,1,0,0:0:0:0:
448,192,329390,1,0,0:0:0:0:
64,192,329421,1,0,0:0:0:0:
192,192,329452,1,0,0:0:0:0:
320,192,329484,1,0,0:0:0:0:
448,192,329515,1,0,0:0:0:0:
64,192,329546,1,0,0:0:0:0:
192,192,329577,1,0,0:0:0:0:
448,192,329609,1,0,0:0:0:0:
320,192,329640,1,0,0:0:0:0:
192,192,329671,1,0,0:0:0:0:
64,192,329702,1,0,0:0:0:0:
448,192,329734,1,0,0:0:0:0:
320,192,329765,1,0,0:0:0:0:
64,192,329796,1,0,0:0:0:0:
192,192,329827,1,0,0:0:0:0:
320,192,329859,1,0,0:0:0:0:
448,192,329890,1,0,0:0:0:0:
192,192,329921,1,0,0:0:0:0:
64,192,329952,1,0,0:0:0:0:
448,192,329984,1,0,0:0:0:0:
320,192,330015,1,0,0:0:0:0:
64,192,330046,1,0,0:0:0:0:
192,192,330077,1,0,0:0:0:0:
320,192,330109,128,0,330859:0:0:0:0:
448,192,330109,128,0,330859:0:0:0:0:
192,192,330234,128,0,330859:0:0:0:0:
64,192,330234,128,0,330859:0:0:0:0:
