osu file format v14

[General]
AudioFilename: audio.ogg
AudioLeadIn: 0
PreviewTime: 256603
Countdown: 0
SampleSet: Soft
StackLeniency: 0.7
Mode: 3
LetterboxInBreaks: 0
SpecialStyle: 0
WidescreenStoryboard: 0

[Editor]
Bookmarks: 95052
DistanceSpacing: 1.7
BeatDivisor: 4
GridSize: 32
TimelineZoom: 3.399997

[Metadata]
Title:Last Wish
TitleUnicode:Last Wish
Artist:Kry.exe feat. Ice
ArtistUnicode:Kry.exe feat. Ice
Creator:Critical_Star
Version:Wondrous Fantasy
Source:Beat Saber World Cup 2022
Tags:BSWC 2022 Grand Finals tiebreaker Hi-tech Gothic Hardcore Drumstep Otogecore Speedcore Orchestral Melodic Frenchcore Breakcore Instrumental Electronic Famoss
BeatmapID:3838922
BeatmapSetID:1866317

[Difficulty]
HPDrainRate:8
CircleSize:7
OverallDifficulty:7
ApproachRate:5
SliderMultiplier:1.5
SliderTickRate:1

[Events]
//Background and Video events
0,0,"LastWish.jpg",0,0
//Break Periods
//Storyboard Layer 0 (Background)
//Storyboard Layer 1 (Fail)
//Storyboard Layer 2 (Pass)
//Storyboard Layer 3 (Foreground)
//Storyboard Layer 4 (Overlay)
//Storyboard Sound Samples

[TimingPoints]
0,285.714285714286,4,2,1,30,1,0
0,-87.719298245614,4,2,1,30,0,0
34285,272.727272727273,4,2,1,30,1,0
34285,-91.743119266055,4,2,1,30,0,0
36466,260.869565217391,4,2,1,30,1,0
36466,-96.1538461538461,4,2,1,30,0,0
38552,250,4,2,1,30,1,0
38552,-100,4,2,1,30,0,0
42552,-100,4,2,1,30,0,1
56552,-100,4,2,1,30,0,0
58552,-100,4,2,1,30,0,1
61552,-100,4,2,1,30,0,0
98552,240,4,2,1,30,1,0
98552,-104.166666666667,4,2,1,30,0,0
99512,230.769230769231,4,2,1,30,1,0
99512,-108.695652173913,4,2,1,30,0,0
100435,222.222222222222,4,2,1,30,1,0
100435,-112.359550561798,4,2,1,30,0,0
101323,214.285714285714,4,2,1,30,1,0
101323,-116.279069767442,4,2,1,30,0,0
105608,-116.279069767442,4,2,1,30,0,1
117608,-116.279069767442,4,2,1,30,0,0
119322,-116.279069767442,4,2,1,30,0,1
133037,-116.279069767442,4,2,1,30,0,0
139894,206.896551724138,4,2,1,30,1,0
139894,-120.481927710843,4,2,1,30,0,1
146514,200,4,2,1,30,1,0
146514,-125,4,2,1,30,0,0
165714,-125,4,2,1,30,0,1
171314,-125,4,2,1,30,0,0
172114,-125,4,2,1,30,0,1
176914,-125,4,2,1,30,0,0
178514,-125,4,2,1,30,0,1
186514,-125,4,2,1,30,0,0
188114,-125,4,2,1,30,0,1
189714,214.285714285714,4,2,1,30,1,0
189714,-116.279069767442,4,2,1,30,0,1
190142,230.769230769231,4,2,1,30,1,0
190142,-108.695652173913,4,2,1,30,0,1
190603,250,4,2,1,30,1,0
190603,-100,4,2,1,30,0,1
191603,-100,4,2,1,30,0,0
257603,-100,4,2,1,30,0,1
289603,-100,4,2,1,30,0,0
326103,125,4,2,1,30,1,0
326103,-200,4,2,1,30,0,0
328103,62.5,4,2,1,30,1,0
328103,-400,4,2,1,30,0,0

[HitObjects]
36,192,2285,5,2,0:0:0:0:
109,192,2285,1,4,0:0:0:0:
256,192,2285,1,0,0:0:0:0:
329,192,2285,1,0,0:0:0:0:
475,192,2285,1,0,0:0:0:0:
182,192,2357,1,0,0:0:0:0:
109,192,2428,1,0,0:0:0:0:
402,192,2428,1,0,0:0:0:0:
256,192,2500,1,0,0:0:0:0:
182,192,2571,1,0,0:0:0:0:
475,192,2571,1,0,0:0:0:0:
329,192,2642,1,0,0:0:0:0:
36,192,2714,1,0,0:0:0:0:
256,192,2714,1,0,0:0:0:0:
475,192,2714,1,0,0:0:0:0:
182,192,2785,1,0,0:0:0:0:
109,192,2857,1,0,0:0:0:0:
329,192,2857,1,0,0:0:0:0:
402,192,2928,1,0,0:0:0:0:
36,192,3000,1,0,0:0:0:0:
256,192,3000,1,0,0:0:0:0:
329,192,3071,1,0,0:0:0:0:
182,192,3142,1,0,0:0:0:0:
475,192,3142,1,0,0:0:0:0:
256,192,3214,1,0,0:0:0:0:
109,192,3285,1,0,0:0:0:0:
402,192,3285,1,0,0:0:0:0:
182,192,3357,1,0,0:0:0:0:
36,192,3428,1,0,0:0:0:0:
329,192,3428,1,0,0:0:0:0:
475,192,3428,1,0,0:0:0:0:
182,192,3500,1,0,0:0:0:0:
109,192,3571,1,0,0:0:0:0:
402,192,3571,1,0,0:0:0:0:
256,192,3642,1,0,0:0:0:0:
182,192,3714,1,0,0:0:0:0:
475,192,3714,1,0,0:0:0:0:
329,192,3785,1,0,0:0:0:0:
36,192,3857,1,0,0:0:0:0:
256,192,3857,1,0,0:0:0:0:
475,192,3857,1,0,0:0:0:0:
182,192,3928,1,0,0:0:0:0:
109,192,4000,1,0,0:0:0:0:
329,192,4000,1,0,0:0:0:0:
402,192,4071,1,0,0:0:0:0:
36,192,4142,1,0,0:0:0:0:
256,192,4142,1,0,0:0:0:0:
329,192,4214,1,0,0:0:0:0:
182,192,4285,1,0,0:0:0:0:
475,192,4285,1,0,0:0:0:0:
256,192,4357,1,0,0:0:0:0:
109,192,4428,1,0,0:0:0:0:
402,192,4428,1,0,0:0:0:0:
182,192,4500,1,0,0:0:0:0:
36,192,4571,1,0,0:0:0:0:
256,192,4571,1,0,0:0:0:0:
475,192,4571,1,0,0:0:0:0:
182,192,4642,1,0,0:0:0:0:
109,192,4714,1,0,0:0:0:0:
402,192,4714,1,0,0:0:0:0:
256,192,4785,1,0,0:0:0:0:
182,192,4857,1,0,0:0:0:0:
475,192,4857,1,0,0:0:0:0:
329,192,4928,1,0,0:0:0:0:
36,192,5000,1,0,0:0:0:0:
256,192,5000,1,0,0:0:0:0:
475,192,5000,1,0,0:0:0:0:
182,192,5071,1,0,0:0:0:0:
109,192,5142,1,0,0:0:0:0:
329,192,5142,1,0,0:0:0:0:
402,192,5214,1,0,0:0:0:0:
36,192,5285,1,0,0:0:0:0:
256,192,5285,1,0,0:0:0:0:
329,192,5357,1,0,0:0:0:0:
182,192,5428,1,0,0:0:0:0:
475,192,5428,1,0,0:0:0:0:
256,192,5500,1,0,0:0:0:0:
109,192,5571,1,0,0:0:0:0:
402,192,5571,1,0,0:0:0:0:
182,192,5642,1,0,0:0:0:0:
36,192,5714,1,0,0:0:0:70:Kick 12.wav
329,192,5714,1,0,0:0:0:0:
475,192,5714,1,0,0:0:0:0:
182,192,5785,1,0,0:0:0:0:
109,192,5857,1,0,0:0:0:70:snare01.wav
402,192,5857,1,0,0:0:0:0:
256,192,5928,1,0,0:0:0:70:snare01.wav
329,192,5928,1,0,0:0:0:0:
36,192,6000,1,0,0:0:0:70:snare01.wav
182,192,6000,1,0,0:0:0:0:
475,192,6000,1,0,0:0:0:0:
329,192,6071,1,0,0:0:0:0:
109,192,6142,1,0,0:0:0:70:Kick 12.wav
256,192,6142,1,0,0:0:0:0:
402,192,6142,1,0,0:0:0:0:
182,192,6214,1,0,0:0:0:0:
36,192,6285,1,0,0:0:0:70:snare01.wav
329,192,6285,1,0,0:0:0:0:
475,192,6285,1,0,0:0:0:0:
182,192,6357,1,0,0:0:0:70:snare01.wav
402,192,6357,1,0,0:0:0:0:
109,192,6428,1,0,0:0:0:70:snare01.wav
256,192,6428,1,0,0:0:0:0:
475,192,6428,1,0,0:0:0:0:
329,192,6500,1,0,0:0:0:0:
36,192,6571,1,0,0:0:0:70:snare01.wav
182,192,6571,1,0,0:0:0:0:
475,192,6571,1,0,0:0:0:0:
256,192,6642,1,0,0:0:0:0:
109,192,6714,1,0,0:0:0:0:
402,192,6714,1,0,0:0:0:0:
182,192,6785,1,0,0:0:0:0:
329,192,6785,1,0,0:0:0:0:
36,192,6857,1,4,0:0:0:0:
256,192,6857,1,2,0:0:0:0:
402,192,6857,1,0,0:0:0:0:
475,192,6857,1,0,0:0:0:0:
182,192,6928,1,0,0:0:0:0:
36,192,7000,1,0,0:0:0:0:
329,192,7000,1,0,0:0:0:0:
402,192,7000,1,0,0:0:0:0:
182,192,7071,1,0,0:0:0:0:
109,192,7142,1,0,0:0:0:0:
329,192,7142,1,0,0:0:0:0:
475,192,7142,1,0,0:0:0:0:
256,192,7214,1,0,0:0:0:0:
36,192,7285,1,0,0:0:0:0:
109,192,7285,1,0,0:0:0:0:
402,192,7285,1,0,0:0:0:0:
475,192,7285,1,0,0:0:0:0:
256,192,7357,1,0,0:0:0:0:
182,192,7428,1,0,0:0:0:0:
475,192,7428,1,0,0:0:0:0:
109,192,7500,1,0,0:0:0:0:
402,192,7500,1,0,0:0:0:0:
36,192,7571,1,0,0:0:0:0:
256,192,7571,1,0,0:0:0:0:
182,192,7642,1,0,0:0:0:0:
475,192,7642,1,0,0:0:0:0:
109,192,7714,1,0,0:0:0:0:
402,192,7714,1,0,0:0:0:0:
36,192,7785,1,0,0:0:0:0:
329,192,7785,1,0,0:0:0:0:
182,192,7857,1,0,0:0:0:0:
475,192,7857,1,0,0:0:0:0:
109,192,7928,1,0,0:0:0:0:
402,192,7928,1,0,0:0:0:0:
36,192,8000,1,0,0:0:0:0:
256,192,8000,1,0,0:0:0:0:
329,192,8000,1,0,0:0:0:0:
475,192,8000,1,0,0:0:0:0:
182,192,8071,1,0,0:0:0:0:
36,192,8142,1,0,0:0:0:0:
329,192,8142,1,0,0:0:0:0:
402,192,8142,1,0,0:0:0:0:
182,192,8214,1,0,0:0:0:0:
109,192,8285,1,0,0:0:0:0:
329,192,8285,1,0,0:0:0:0:
475,192,8285,1,0,0:0:0:0:
256,192,8357,1,0,0:0:0:0:
36,192,8428,1,0,0:0:0:0:
109,192,8428,1,0,0:0:0:0:
402,192,8428,1,0,0:0:0:0:
475,192,8428,1,0,0:0:0:0:
256,192,8500,1,0,0:0:0:0:
182,192,8571,1,0,0:0:0:0:
475,192,8571,1,0,0:0:0:0:
109,192,8642,1,0,0:0:0:0:
402,192,8642,1,0,0:0:0:0:
36,192,8714,1,0,0:0:0:0:
256,192,8714,1,0,0:0:0:0:
182,192,8785,1,0,0:0:0:0:
475,192,8785,1,0,0:0:0:0:
109,192,8857,1,0,0:0:0:0:
402,192,8857,1,0,0:0:0:0:
36,192,8928,1,0,0:0:0:0:
329,192,8928,1,0,0:0:0:0:
182,192,9000,1,0,0:0:0:0:
475,192,9000,1,0,0:0:0:0:
109,192,9071,1,0,0:0:0:0:
402,192,9071,1,0,0:0:0:0:
36,192,9142,1,0,0:0:0:0:
256,192,9142,1,0,0:0:0:0:
329,192,9142,1,0,0:0:0:0:
475,192,9142,1,0,0:0:0:0:
182,192,9214,1,0,0:0:0:0:
36,192,9285,1,0,0:0:0:0:
329,192,9285,1,0,0:0:0:0:
402,192,9285,1,0,0:0:0:0:
182,192,9357,1,0,0:0:0:0:
109,192,9428,1,0,0:0:0:0:
329,192,9428,1,0,0:0:0:0:
475,192,9428,1,0,0:0:0:0:
256,192,9500,1,0,0:0:0:0:
36,192,9571,1,0,0:0:0:0:
109,192,9571,1,0,0:0:0:0:
402,192,9571,1,0,0:0:0:0:
475,192,9571,1,0,0:0:0:0:
256,192,9642,1,0,0:0:0:0:
182,192,9714,1,0,0:0:0:0:
475,192,9714,1,0,0:0:0:0:
109,192,9785,1,0,0:0:0:0:
402,192,9785,1,0,0:0:0:0:
36,192,9857,1,0,0:0:0:0:
256,192,9857,1,0,0:0:0:0:
182,192,9928,1,0,0:0:0:0:
475,192,9928,1,0,0:0:0:0:
109,192,10000,1,0,0:0:0:0:
402,192,10000,1,0,0:0:0:0:
36,192,10071,1,0,0:0:0:0:
329,192,10071,1,0,0:0:0:0:
182,192,10142,1,0,0:0:0:0:
475,192,10142,1,0,0:0:0:0:
109,192,10214,1,0,0:0:0:0:
402,192,10214,1,0,0:0:0:0:
36,192,10285,1,0,0:0:0:0:
256,192,10285,1,0,0:0:0:0:
329,192,10285,1,0,0:0:0:0:
475,192,10285,1,0,0:0:0:0:
182,192,10357,1,0,0:0:0:0:
36,192,10428,1,0,0:0:0:0:
329,192,10428,1,0,0:0:0:0:
402,192,10428,1,0,0:0:0:0:
182,192,10500,1,0,0:0:0:0:
109,192,10571,1,0,0:0:0:0:
329,192,10571,1,0,0:0:0:0:
475,192,10571,1,0,0:0:0:0:
256,192,10642,1,0,0:0:0:0:
36,192,10714,1,0,0:0:0:0:
109,192,10714,1,0,0:0:0:0:
402,192,10714,1,0,0:0:0:0:
475,192,10714,1,0,0:0:0:0:
256,192,10785,1,0,0:0:0:0:
182,192,10857,1,0,0:0:0:0:
475,192,10857,1,0,0:0:0:0:
109,192,10928,1,0,0:0:0:0:
402,192,10928,1,0,0:0:0:0:
36,192,11000,1,0,0:0:0:0:
256,192,11000,1,0,0:0:0:0:
182,192,11071,1,0,0:0:0:0:
475,192,11071,1,0,0:0:0:0:
109,192,11142,1,0,0:0:0:0:
402,192,11142,1,0,0:0:0:0:
36,192,11214,1,0,0:0:0:0:
329,192,11214,1,0,0:0:0:0:
182,192,11285,1,0,0:0:0:0:
475,192,11285,1,0,0:0:0:0:
109,192,11357,1,0,0:0:0:0:
402,192,11357,1,0,0:0:0:0:
36,192,11428,128,4,11928:0:0:0:0:
182,192,11428,128,2,11857:0:0:0:0:
256,192,11428,1,0,0:0:0:0:
329,192,11428,128,0,11785:0:0:0:0:
475,192,11428,128,0,11714:0:0:0:0:
402,192,11714,1,0,0:0:0:0:
475,192,11785,1,0,0:0:0:0:
329,192,11857,1,0,0:0:0:0:
402,192,11928,1,0,0:0:0:0:
36,192,12000,1,0,0:0:0:0:
256,192,12000,1,0,0:0:0:0:
329,192,12071,1,0,0:0:0:0:
182,192,12142,1,0,0:0:0:0:
475,192,12142,1,0,0:0:0:0:
256,192,12214,1,0,0:0:0:0:
109,192,12285,1,0,0:0:0:0:
402,192,12285,1,0,0:0:0:0:
182,192,12357,1,0,0:0:0:0:
36,192,12428,1,0,0:0:0:0:
329,192,12428,1,0,0:0:0:0:
109,192,12500,1,0,0:0:0:0:
36,192,12571,1,2,0:0:0:0:
182,192,12571,1,4,0:0:0:0:
256,192,12571,1,0,0:0:0:0:
402,192,12571,1,0,0:0:0:0:
475,192,12571,1,0,0:0:0:0:
36,192,12642,1,2,0:0:0:0:
182,192,12642,1,4,0:0:0:0:
256,192,12642,1,0,0:0:0:0:
402,192,12642,1,0,0:0:0:0:
475,192,12642,1,0,0:0:0:0:
36,192,12785,1,2,0:0:0:0:
109,192,12785,1,4,0:0:0:0:
329,192,12785,1,0,0:0:0:0:
402,192,12785,1,0,0:0:0:0:
475,192,12785,1,0,0:0:0:0:
36,192,12928,1,4,0:0:0:0:
109,192,12928,1,2,0:0:0:0:
329,192,12928,1,0,0:0:0:0:
402,192,12928,1,0,0:0:0:0:
475,192,12928,1,0,0:0:0:0:
36,192,13071,1,2,0:0:0:0:
109,192,13071,1,4,0:0:0:0:
182,192,13071,1,0,0:0:0:0:
329,192,13071,1,0,0:0:0:0:
475,192,13071,1,0,0:0:0:0:
36,192,13214,1,4,0:0:0:0:
109,192,13214,1,2,0:0:0:0:
182,192,13214,1,0,0:0:0:0:
329,192,13214,1,0,0:0:0:0:
475,192,13214,1,0,0:0:0:0:
36,192,13357,1,2,0:0:0:0:
109,192,13357,1,4,0:0:0:0:
256,192,13357,1,0,0:0:0:0:
329,192,13357,1,0,0:0:0:0:
475,192,13357,1,0,0:0:0:0:
36,192,13428,1,4,0:0:0:0:
109,192,13428,1,2,0:0:0:0:
256,192,13428,1,0,0:0:0:0:
329,192,13428,1,0,0:0:0:0:
475,192,13428,1,0,0:0:0:0:
36,192,13571,1,2,0:0:0:0:
182,192,13571,1,4,0:0:0:0:
256,192,13571,1,0,0:0:0:0:
329,192,13571,1,0,0:0:0:0:
475,192,13571,1,0,0:0:0:0:
36,192,13714,128,4,13928:0:0:0:0:
109,192,13714,1,2,0:0:0:0:
256,192,13714,1,0,0:0:0:0:
402,192,13714,128,0,13857:0:0:0:0:
475,192,13714,1,0,0:0:0:0:
182,192,13857,128,0,14071:0:0:0:0:
475,192,13857,1,0,0:0:0:0:
402,192,13928,1,0,0:0:0:0:
36,192,14000,128,2,14214:0:0:0:0:
109,192,14000,1,0,0:0:0:0:
256,192,14000,128,0,15857:0:0:0:0:
329,192,14000,1,0,0:0:0:0:
475,192,14000,128,0,14142:0:0:0:0:
182,192,14142,128,0,14357:0:0:0:0:
329,192,14142,1,0,0:0:0:0:
402,192,14214,1,0,0:0:0:0:
36,192,14285,128,2,14500:0:0:0:0:
109,192,14285,1,0,0:0:0:0:
329,192,14285,128,0,14428:0:0:0:0:
475,192,14285,1,0,0:0:0:0:
182,192,14428,128,0,14642:0:0:0:0:
475,192,14428,1,0,0:0:0:0:
402,192,14500,1,0,0:0:0:0:
36,192,14571,128,2,14785:0:0:0:0:
109,192,14571,1,0,0:0:0:0:
329,192,14571,1,0,0:0:0:0:
475,192,14571,128,0,14714:0:0:0:0:
182,192,14714,128,0,14928:0:0:0:0:
329,192,14714,1,0,0:0:0:0:
402,192,14785,1,0,0:0:0:0:
36,192,14857,128,2,15071:0:0:0:0:
109,192,14857,1,0,0:0:0:0:
329,192,14857,128,0,15000:0:0:0:0:
475,192,14857,1,0,0:0:0:0:
182,192,15000,128,0,15214:0:0:0:0:
475,192,15000,1,0,0:0:0:0:
402,192,15071,1,0,0:0:0:0:
36,192,15142,128,2,15357:0:0:0:0:
109,192,15142,1,0,0:0:0:0:
329,192,15142,1,0,0:0:0:0:
475,192,15142,128,0,15285:0:0:0:0:
182,192,15285,128,0,15500:0:0:0:0:
329,192,15285,1,0,0:0:0:0:
402,192,15357,1,0,0:0:0:0:
36,192,15428,128,2,15642:0:0:0:0:
109,192,15428,1,0,0:0:0:0:
329,192,15428,128,0,15571:0:0:0:0:
475,192,15428,1,0,0:0:0:0:
182,192,15571,128,0,15785:0:0:0:0:
475,192,15571,1,0,0:0:0:0:
402,192,15642,1,0,0:0:0:0:
36,192,15714,128,2,15857:0:0:0:0:
109,192,15714,1,0,0:0:0:0:
329,192,15714,1,0,0:0:0:0:
475,192,15714,128,0,15857:0:0:0:0:
109,192,15857,1,0,0:0:0:0:
402,192,15857,1,0,0:0:0:0:
182,192,15928,1,0,0:0:0:0:
329,192,15928,1,0,0:0:0:0:
36,192,16000,1,2,0:0:0:0:
109,192,16000,1,0,0:0:0:0:
402,192,16000,1,0,0:0:0:0:
475,192,16000,1,0,0:0:0:0:
256,192,16071,1,0,0:0:0:0:
402,192,16142,1,0,0:0:0:0:
475,192,16142,1,0,0:0:0:0:
256,192,16214,1,0,0:0:0:0:
36,192,16285,1,2,0:0:0:0:
109,192,16285,1,0,0:0:0:0:
402,192,16285,1,0,0:0:0:0:
475,192,16285,1,0,0:0:0:0:
182,192,16357,1,0,0:0:0:0:
329,192,16357,1,0,0:0:0:0:
36,192,16428,1,0,0:0:0:0:
109,192,16428,1,0,0:0:0:0:
182,192,16500,1,0,0:0:0:0:
329,192,16500,1,0,0:0:0:0:
36,192,16571,1,2,0:0:0:0:
109,192,16571,1,0,0:0:0:0:
402,192,16571,1,0,0:0:0:0:
475,192,16571,1,0,0:0:0:0:
256,192,16642,1,0,0:0:0:0:
402,192,16714,1,0,0:0:0:0:
475,192,16714,1,0,0:0:0:0:
256,192,16785,1,0,0:0:0:0:
36,192,16857,1,2,0:0:0:0:
109,192,16857,1,0,0:0:0:0:
402,192,16857,1,0,0:0:0:0:
475,192,16857,1,0,0:0:0:0:
182,192,16928,1,0,0:0:0:0:
329,192,16928,1,0,0:0:0:0:
36,192,17000,1,0,0:0:0:0:
109,192,17000,1,0,0:0:0:0:
182,192,17071,1,0,0:0:0:0:
329,192,17071,1,0,0:0:0:0:
36,192,17142,1,2,0:0:0:0:
109,192,17142,1,0,0:0:0:0:
402,192,17142,1,0,0:0:0:0:
475,192,17142,1,0,0:0:0:0:
256,192,17214,1,0,0:0:0:0:
36,192,17285,1,0,0:0:0:0:
402,192,17285,1,0,0:0:0:0:
475,192,17285,1,0,0:0:0:0:
256,192,17357,1,0,0:0:0:0:
36,192,17428,1,2,0:0:0:0:
109,192,17428,1,0,0:0:0:0:
402,192,17428,1,0,0:0:0:0:
475,192,17428,1,0,0:0:0:0:
182,192,17500,1,0,0:0:0:0:
329,192,17500,1,0,0:0:0:0:
36,192,17571,1,0,0:0:0:0:
109,192,17571,1,0,0:0:0:0:
475,192,17571,1,0,0:0:0:0:
182,192,17642,1,0,0:0:0:0:
329,192,17642,1,0,0:0:0:0:
36,192,17714,1,2,0:0:0:0:
109,192,17714,1,0,0:0:0:0:
402,192,17714,1,0,0:0:0:0:
475,192,17714,1,0,0:0:0:0:
256,192,17785,1,0,0:0:0:0:
36,192,17857,1,0,0:0:0:0:
109,192,17857,1,0,0:0:0:0:
402,192,17857,1,0,0:0:0:0:
256,192,17928,1,0,0:0:0:0:
36,192,18000,1,2,0:0:0:0:
109,192,18000,1,0,0:0:0:0:
182,192,18000,1,0,0:0:0:0:
475,192,18000,1,0,0:0:0:0:
329,192,18071,1,0,0:0:0:0:
36,192,18142,1,2,0:0:0:0:
109,192,18142,1,0,0:0:0:0:
182,192,18142,1,0,0:0:0:0:
475,192,18142,1,0,0:0:0:0:
329,192,18214,1,0,0:0:0:0:
36,192,18285,1,2,0:0:0:0:
109,192,18285,128,0,18428:0:0:0:0:
256,192,18285,1,0,0:0:0:0:
402,192,18285,1,0,0:0:0:0:
475,192,18285,128,0,18500:0:0:0:0:
36,192,18428,1,0,0:0:0:0:
329,192,18428,128,0,18642:0:0:0:0:
109,192,18500,1,0,0:0:0:0:
36,192,18571,128,2,18714:0:0:0:0:
182,192,18571,1,0,0:0:0:0:
256,192,18571,128,0,20428:0:0:0:0:
402,192,18571,1,0,0:0:0:0:
475,192,18571,128,0,18785:0:0:0:0:
182,192,18714,1,0,0:0:0:0:
329,192,18714,128,0,18928:0:0:0:0:
109,192,18785,1,0,0:0:0:0:
36,192,18857,1,2,0:0:0:0:
182,192,18857,128,0,19000:0:0:0:0:
402,192,18857,1,0,0:0:0:0:
475,192,18857,128,0,19071:0:0:0:0:
36,192,19000,1,0,0:0:0:0:
329,192,19000,128,0,19214:0:0:0:0:
109,192,19071,1,0,0:0:0:0:
36,192,19142,128,2,19285:0:0:0:0:
182,192,19142,1,0,0:0:0:0:
402,192,19142,1,0,0:0:0:0:
475,192,19142,128,0,19357:0:0:0:0:
182,192,19285,1,0,0:0:0:0:
329,192,19285,128,0,19500:0:0:0:0:
109,192,19357,1,0,0:0:0:0:
36,192,19428,1,2,0:0:0:0:
182,192,19428,128,0,19571:0:0:0:0:
402,192,19428,1,0,0:0:0:0:
475,192,19428,128,0,19642:0:0:0:0:
36,192,19571,1,0,0:0:0:0:
329,192,19571,128,0,19785:0:0:0:0:
109,192,19642,1,0,0:0:0:0:
36,192,19714,128,2,19857:0:0:0:0:
182,192,19714,1,0,0:0:0:0:
402,192,19714,1,0,0:0:0:0:
475,192,19714,128,0,19928:0:0:0:0:
182,192,19857,1,0,0:0:0:0:
329,192,19857,128,0,20071:0:0:0:0:
109,192,19928,1,0,0:0:0:0:
36,192,20000,1,2,0:0:0:0:
182,192,20000,128,0,20142:0:0:0:0:
402,192,20000,1,0,0:0:0:0:
475,192,20000,128,0,20214:0:0:0:0:
36,192,20142,1,0,0:0:0:0:
329,192,20142,128,0,20357:0:0:0:0:
109,192,20214,1,0,0:0:0:0:
36,192,20285,128,2,20428:0:0:0:0:
182,192,20285,1,0,0:0:0:0:
402,192,20285,1,0,0:0:0:0:
475,192,20285,128,0,20428:0:0:0:0:
109,192,20428,1,0,0:0:0:0:
402,192,20428,1,0,0:0:0:0:
182,192,20500,1,0,0:0:0:0:
329,192,20500,1,0,0:0:0:0:
36,192,20571,1,2,0:0:0:0:
256,192,20571,1,0,0:0:0:0:
402,192,20571,1,0,0:0:0:0:
475,192,20571,1,0,0:0:0:0:
109,192,20642,1,0,0:0:0:0:
182,192,20642,1,0,0:0:0:0:
329,192,20714,1,0,0:0:0:0:
402,192,20714,1,0,0:0:0:0:
36,192,20785,1,0,0:0:0:0:
109,192,20785,1,0,0:0:0:0:
182,192,20857,1,2,0:0:0:0:
256,192,20857,1,0,0:0:0:0:
329,192,20857,1,0,0:0:0:0:
475,192,20857,1,0,0:0:0:0:
36,192,20928,1,0,0:0:0:0:
109,192,20928,1,0,0:0:0:0:
329,192,21000,1,0,0:0:0:0:
402,192,21000,1,0,0:0:0:0:
109,192,21071,1,0,0:0:0:0:
182,192,21071,1,0,0:0:0:0:
36,192,21142,1,2,0:0:0:0:
329,192,21142,1,0,0:0:0:0:
402,192,21142,1,0,0:0:0:0:
475,192,21142,1,0,0:0:0:0:
182,192,21214,1,0,0:0:0:0:
256,192,21214,1,0,0:0:0:0:
402,192,21285,1,0,0:0:0:0:
475,192,21285,1,0,0:0:0:0:
36,192,21357,1,0,0:0:0:0:
109,192,21357,1,0,0:0:0:0:
256,192,21428,1,2,0:0:0:0:
329,192,21428,1,0,0:0:0:0:
402,192,21428,1,0,0:0:0:0:
475,192,21428,1,0,0:0:0:0:
109,192,21500,1,0,0:0:0:0:
182,192,21500,1,0,0:0:0:0:
329,192,21571,1,0,0:0:0:0:
475,192,21571,1,0,0:0:0:0:
256,192,21642,1,0,0:0:0:0:
402,192,21642,1,0,0:0:0:0:
36,192,21714,1,0,0:0:0:70:Kick 12.wav
109,192,21714,1,0,0:0:0:0:
329,192,21714,1,0,0:0:0:0:
182,192,21785,1,0,0:0:0:0:
475,192,21785,1,0,0:0:0:0:
36,192,21857,1,0,0:0:0:70:snare01.wav
256,192,21857,1,0,0:0:0:0:
329,192,21857,1,0,0:0:0:0:
109,192,21928,1,0,0:0:0:70:snare01.wav
402,192,21928,1,0,0:0:0:0:
475,192,21928,1,0,0:0:0:0:
36,192,22000,1,0,0:0:0:70:snare01.wav
182,192,22000,1,0,0:0:0:0:
329,192,22000,1,0,0:0:0:0:
256,192,22071,1,0,0:0:0:0:
475,192,22071,1,0,0:0:0:0:
109,192,22142,1,0,0:0:0:70:Kick 12.wav
182,192,22142,1,0,0:0:0:0:
402,192,22142,1,0,0:0:0:0:
36,192,22214,1,0,0:0:0:0:
256,192,22214,1,0,0:0:0:0:
329,192,22285,1,0,0:0:0:70:snare01.wav
402,192,22285,1,0,0:0:0:0:
475,192,22285,1,0,0:0:0:0:
109,192,22357,1,0,0:0:0:70:snare01.wav
182,192,22357,1,0,0:0:0:0:
256,192,22357,1,0,0:0:0:0:
329,192,22428,1,0,0:0:0:70:snare01.wav
402,192,22428,1,0,0:0:0:0:
475,192,22428,1,0,0:0:0:0:
36,192,22500,1,0,0:0:0:0:
109,192,22500,1,0,0:0:0:0:
182,192,22571,1,0,0:0:0:70:snare01.wav
329,192,22571,1,0,0:0:0:0:
402,192,22571,1,0,0:0:0:0:
475,192,22571,1,0,0:0:0:0:
36,192,22642,1,0,0:0:0:70:snare01.wav
109,192,22642,1,0,0:0:0:0:
256,192,22642,1,0,0:0:0:0:
182,192,22714,1,0,0:0:0:70:snare01.wav
402,192,22714,1,0,0:0:0:0:
475,192,22714,1,0,0:0:0:0:
36,192,22785,1,0,0:0:0:70:snare01.wav
109,192,22785,1,0,0:0:0:0:
182,192,22857,128,4,22904:0:0:0:0:
256,192,22857,128,2,22952:0:0:0:0:
329,192,22857,128,0,23000:0:0:0:0:
402,192,22857,128,0,23047:0:0:0:0:
475,192,22857,128,0,23095:0:0:0:0:
36,192,22904,128,0,23000:0:0:0:0:
109,192,22952,128,0,23047:0:0:0:0:
182,192,23000,128,0,23095:0:0:0:0:
256,192,23047,128,0,23142:0:0:0:0:
36,192,23142,1,2,0:0:0:0:
109,192,23142,1,8,0:0:0:0:
329,192,23142,1,0,0:0:0:0:
402,192,23142,1,0,0:0:0:0:
182,192,23285,1,0,0:0:0:0:
402,192,23285,1,0,0:0:0:0:
109,192,23357,1,0,0:0:0:0:
329,192,23357,1,0,0:0:0:0:
36,192,23428,1,2,0:0:0:0:
256,192,23428,1,0,0:0:0:0:
475,192,23428,1,0,0:0:0:0:
182,192,23500,1,0,0:0:0:0:
402,192,23500,1,0,0:0:0:0:
36,192,23571,1,0,0:0:0:0:
256,192,23571,1,0,0:0:0:0:
109,192,23642,1,0,0:0:0:0:
329,192,23642,1,0,0:0:0:0:
182,192,23714,1,2,0:0:0:0:
256,192,23714,1,8,0:0:0:0:
402,192,23714,1,0,0:0:0:0:
475,192,23714,1,0,0:0:0:0:
36,192,23785,1,0,0:0:0:0:
109,192,23785,1,0,0:0:0:0:
182,192,23857,1,0,0:0:0:0:
329,192,23857,1,0,0:0:0:0:
402,192,23928,1,0,0:0:0:0:
475,192,23928,1,0,0:0:0:0:
36,192,24000,128,2,24238:0:0:0:0:
109,192,24000,128,0,24190:0:0:0:0:
182,192,24000,128,0,24142:0:0:0:0:
256,192,24000,128,0,24095:0:0:0:0:
329,192,24000,128,0,24047:0:0:0:0:
475,192,24047,128,0,24142:0:0:0:0:
402,192,24095,128,0,24190:0:0:0:0:
329,192,24142,128,0,24238:0:0:0:0:
256,192,24190,128,0,24285:0:0:0:0:
109,192,24285,1,2,0:0:0:0:
182,192,24285,1,8,0:0:0:0:
402,192,24285,1,0,0:0:0:0:
475,192,24285,1,0,0:0:0:0:
109,192,24428,1,0,0:0:0:0:
329,192,24428,1,0,0:0:0:0:
182,192,24500,1,0,0:0:0:0:
402,192,24500,1,0,0:0:0:0:
36,192,24571,1,2,0:0:0:0:
256,192,24571,1,0,0:0:0:0:
475,192,24571,1,0,0:0:0:0:
109,192,24642,1,0,0:0:0:0:
329,192,24642,1,0,0:0:0:0:
256,192,24714,1,0,0:0:0:0:
475,192,24714,1,0,0:0:0:0:
182,192,24785,1,0,0:0:0:0:
402,192,24785,1,0,0:0:0:0:
36,192,24857,1,2,0:0:0:0:
109,192,24857,1,8,0:0:0:0:
256,192,24857,1,0,0:0:0:0:
329,192,24857,1,0,0:0:0:0:
402,192,24928,1,0,0:0:0:0:
475,192,24928,1,0,0:0:0:0:
182,192,25000,1,0,0:0:0:0:
329,192,25000,1,0,0:0:0:0:
36,192,25071,1,0,0:0:0:0:
109,192,25071,1,0,0:0:0:0:
182,192,25142,128,2,25190:0:0:0:0:
256,192,25142,128,0,25238:0:0:0:0:
329,192,25142,128,0,25285:0:0:0:0:
402,192,25142,128,0,25333:0:0:0:0:
475,192,25142,128,0,25380:0:0:0:0:
36,192,25190,128,0,25285:0:0:0:0:
109,192,25238,128,0,25333:0:0:0:0:
182,192,25285,128,0,25380:0:0:0:0:
256,192,25333,128,0,25428:0:0:0:0:
36,192,25428,1,2,0:0:0:0:
109,192,25428,1,8,0:0:0:0:
329,192,25428,1,0,0:0:0:0:
402,192,25428,1,0,0:0:0:0:
256,192,25500,1,0,0:0:0:0:
182,192,25571,1,0,0:0:0:0:
402,192,25571,1,0,0:0:0:0:
109,192,25642,1,0,0:0:0:0:
329,192,25642,1,0,0:0:0:0:
36,192,25714,1,2,0:0:0:0:
256,192,25714,1,0,0:0:0:0:
475,192,25714,1,0,0:0:0:0:
182,192,25785,1,0,0:0:0:0:
402,192,25785,1,0,0:0:0:0:
36,192,25857,1,0,0:0:0:0:
256,192,25857,1,0,0:0:0:0:
109,192,25928,1,0,0:0:0:0:
329,192,25928,1,0,0:0:0:0:
182,192,26000,1,2,0:0:0:0:
256,192,26000,1,8,0:0:0:0:
402,192,26000,1,0,0:0:0:0:
475,192,26000,1,0,0:0:0:0:
36,192,26071,1,0,0:0:0:0:
109,192,26071,1,0,0:0:0:0:
182,192,26142,1,0,0:0:0:0:
329,192,26142,1,0,0:0:0:0:
402,192,26214,1,0,0:0:0:0:
475,192,26214,1,0,0:0:0:0:
36,192,26285,128,2,26523:0:0:0:0:
109,192,26285,128,0,26476:0:0:0:0:
182,192,26285,128,0,26428:0:0:0:0:
256,192,26285,128,0,26380:0:0:0:0:
329,192,26285,128,0,26333:0:0:0:0:
475,192,26333,128,0,26428:0:0:0:0:
402,192,26380,128,0,26476:0:0:0:0:
329,192,26428,128,0,26523:0:0:0:0:
256,192,26476,128,0,26571:0:0:0:0:
109,192,26571,1,2,0:0:0:0:
182,192,26571,1,8,0:0:0:0:
402,192,26571,1,0,0:0:0:0:
475,192,26571,1,0,0:0:0:0:
256,192,26642,1,0,0:0:0:0:
109,192,26714,1,0,0:0:0:0:
329,192,26714,1,0,0:0:0:0:
182,192,26785,1,0,0:0:0:0:
402,192,26785,1,0,0:0:0:0:
36,192,26857,1,2,0:0:0:0:
256,192,26857,1,0,0:0:0:0:
475,192,26857,1,0,0:0:0:0:
109,192,26928,1,0,0:0:0:0:
329,192,26928,1,0,0:0:0:0:
256,192,27000,1,0,0:0:0:0:
475,192,27000,1,0,0:0:0:0:
182,192,27071,1,0,0:0:0:0:
402,192,27071,1,0,0:0:0:0:
36,192,27142,1,2,0:0:0:0:
109,192,27142,1,8,0:0:0:0:
256,192,27142,1,0,0:0:0:0:
329,192,27142,1,0,0:0:0:0:
475,192,27142,1,0,0:0:0:0:
36,192,27285,1,2,0:0:0:0:
182,192,27285,1,0,0:0:0:0:
329,192,27285,1,0,0:0:0:0:
475,192,27285,1,0,0:0:0:0:
36,192,27428,1,2,0:0:0:0:
256,192,27428,1,4,0:0:0:0:
402,192,27428,1,0,0:0:0:0:
475,192,27428,128,0,27500:0:0:0:0:
109,192,27500,1,0,0:0:0:0:
329,192,27500,128,0,27571:0:0:0:0:
182,192,27571,1,0,0:0:0:0:
475,192,27571,128,0,27642:0:0:0:0:
109,192,27642,1,0,0:0:0:0:
256,192,27642,128,0,27714:0:0:0:0:
36,192,27714,128,2,27785:0:0:0:0:
329,192,27714,1,8,0:0:0:0:
402,192,27714,1,0,0:0:0:0:
475,192,27714,1,0,0:0:0:0:
182,192,27785,128,0,27857:0:0:0:0:
256,192,27785,1,0,0:0:0:0:
36,192,27857,128,0,27928:0:0:0:0:
402,192,27857,1,0,0:0:0:0:
256,192,27928,128,0,28000:0:0:0:0:
329,192,27928,1,0,0:0:0:0:
36,192,28000,1,2,0:0:0:0:
109,192,28000,1,0,0:0:0:0:
182,192,28000,1,0,0:0:0:0:
475,192,28000,128,0,28071:0:0:0:0:
329,192,28071,1,0,0:0:0:0:
402,192,28071,128,0,28142:0:0:0:0:
109,192,28142,1,0,0:0:0:0:
256,192,28142,128,0,28214:0:0:0:0:
182,192,28214,128,0,28285:0:0:0:0:
475,192,28214,1,0,0:0:0:0:
36,192,28285,1,2,0:0:0:0:
109,192,28285,1,8,0:0:0:0:
256,192,28285,1,0,0:0:0:0:
402,192,28285,128,0,28357:0:0:0:0:
329,192,28357,128,0,28428:0:0:0:0:
475,192,28357,1,0,0:0:0:0:
36,192,28428,1,0,0:0:0:0:
182,192,28428,128,0,28500:0:0:0:0:
402,192,28428,1,0,0:0:0:0:
109,192,28500,128,0,28571:0:0:0:0:
329,192,28500,1,0,0:0:0:0:
36,192,28571,128,2,28642:0:0:0:0:
256,192,28571,1,0,0:0:0:0:
475,192,28571,1,0,0:0:0:0:
182,192,28642,128,0,28714:0:0:0:0:
402,192,28642,1,0,0:0:0:0:
36,192,28714,128,0,28785:0:0:0:0:
329,192,28714,1,0,0:0:0:0:
256,192,28785,128,0,28857:0:0:0:0:
402,192,28785,1,0,0:0:0:0:
36,192,28857,1,2,0:0:0:0:
109,192,28857,1,8,0:0:0:0:
182,192,28857,1,0,0:0:0:0:
475,192,28857,128,0,28928:0:0:0:0:
256,192,28928,1,0,0:0:0:0:
329,192,28928,128,0,29000:0:0:0:0:
109,192,29000,1,0,0:0:0:0:
475,192,29000,128,0,29071:0:0:0:0:
182,192,29071,1,0,0:0:0:0:
256,192,29071,128,0,29142:0:0:0:0:
36,192,29142,128,2,29214:0:0:0:0:
329,192,29142,1,0,0:0:0:0:
402,192,29142,1,0,0:0:0:0:
475,192,29142,1,0,0:0:0:0:
109,192,29214,128,0,29285:0:0:0:0:
182,192,29214,1,0,0:0:0:0:
256,192,29285,128,0,29357:0:0:0:0:
475,192,29285,1,0,0:0:0:0:
36,192,29357,1,0,0:0:0:0:
329,192,29357,128,0,29428:0:0:0:0:
109,192,29428,1,2,0:0:0:0:
182,192,29428,128,8,29500:0:0:0:0:
402,192,29428,1,0,0:0:0:0:
475,192,29428,1,0,0:0:0:0:
36,192,29500,1,0,0:0:0:0:
256,192,29500,128,0,29571:0:0:0:0:
182,192,29571,1,0,0:0:0:0:
329,192,29571,1,0,0:0:0:0:
402,192,29571,128,0,29642:0:0:0:0:
256,192,29642,1,0,0:0:0:0:
475,192,29642,128,0,29714:0:0:0:0:
36,192,29714,1,2,0:0:0:0:
109,192,29714,1,0,0:0:0:0:
329,192,29714,1,0,0:0:0:0:
402,192,29714,1,0,0:0:0:0:
182,192,29785,1,0,0:0:0:0:
36,192,29857,1,2,0:0:0:0:
256,192,29857,1,0,0:0:0:0:
402,192,29857,1,0,0:0:0:0:
475,192,29857,1,0,0:0:0:0:
182,192,29928,1,0,0:0:0:0:
36,192,30000,1,2,0:0:0:0:
256,192,30000,1,8,0:0:0:0:
329,192,30000,1,0,0:0:0:0:
475,192,30000,1,0,0:0:0:0:
109,192,30071,1,0,0:0:0:0:
182,192,30142,1,2,0:0:0:0:
329,192,30142,1,0,0:0:0:0:
402,192,30142,1,0,0:0:0:0:
475,192,30142,1,0,0:0:0:0:
109,192,30214,1,0,0:0:0:0:
36,192,30285,1,2,0:0:0:0:
182,192,30285,1,0,0:0:0:0:
256,192,30285,1,0,0:0:0:0:
402,192,30285,1,0,0:0:0:0:
329,192,30357,1,0,0:0:0:0:
109,192,30428,1,2,0:0:0:0:
182,192,30428,1,0,0:0:0:0:
402,192,30428,1,0,0:0:0:0:
475,192,30428,1,0,0:0:0:0:
256,192,30500,1,0,0:0:0:0:
36,192,30571,1,2,0:0:0:0:
109,192,30571,1,8,0:0:0:0:
329,192,30571,1,0,0:0:0:0:
475,192,30571,1,0,0:0:0:0:
182,192,30642,1,0,0:0:0:0:
36,192,30714,1,2,0:0:0:0:
256,192,30714,1,0,0:0:0:0:
402,192,30714,1,0,0:0:0:0:
475,192,30714,1,0,0:0:0:0:
109,192,30785,1,0,0:0:0:0:
36,192,30857,1,2,0:0:0:0:
329,192,30857,1,0,0:0:0:0:
475,192,30857,1,0,0:0:0:0:
182,192,30928,1,2,0:0:0:0:
36,192,31000,1,2,0:0:0:0:
329,192,31000,1,0,0:0:0:0:
475,192,31000,1,0,0:0:0:0:
182,192,31071,1,2,0:0:0:0:
36,192,31142,1,8,0:0:0:0:
256,192,31142,1,0,0:0:0:0:
402,192,31142,1,0,0:0:0:0:
109,192,31214,1,0,0:0:0:0:
36,192,31285,1,0,0:0:0:0:
256,192,31285,1,0,0:0:0:0:
402,192,31285,1,0,0:0:0:0:
109,192,31357,1,0,0:0:0:0:
329,192,31428,1,0,0:0:0:0:
475,192,31428,1,0,0:0:0:0:
36,192,31500,1,0,0:0:0:0:
182,192,31500,1,0,0:0:0:0:
329,192,31571,1,0,0:0:0:0:
475,192,31571,1,0,0:0:0:0:
36,192,31642,1,0,0:0:0:0:
182,192,31642,1,0,0:0:0:0:
109,192,31714,1,2,0:0:0:0:
256,192,31714,1,0,0:0:0:0:
402,192,31714,1,0,0:0:0:0:
475,192,31714,1,0,0:0:0:0:
36,192,32000,1,2,0:0:0:0:
109,192,32000,1,4,0:0:0:0:
182,192,32000,1,0,0:0:0:0:
256,192,32000,128,0,34000:0:0:0:0:
329,192,32000,1,0,0:0:0:0:
402,192,32000,1,0,0:0:0:0:
475,192,32000,1,0,0:0:0:0:
109,192,32142,1,0,0:0:0:0:
402,192,32285,128,0,32500:0:0:0:0:
36,192,32428,128,0,32642:0:0:0:0:
182,192,32428,1,0,0:0:0:0:
329,192,32500,1,0,0:0:0:0:
182,192,32571,128,0,32642:0:0:0:0:
475,192,32571,128,0,32642:0:0:0:0:
109,192,32714,128,0,32928:0:0:0:0:
402,192,32714,128,0,32928:0:0:0:0:
36,192,32857,128,0,33071:0:0:0:0:
475,192,32857,128,0,33071:0:0:0:0:
109,192,33000,128,0,33214:0:0:0:0:
402,192,33000,128,0,33214:0:0:0:0:
36,192,33142,128,0,33214:0:0:0:0:
475,192,33142,128,0,33214:0:0:0:0:
182,192,33357,128,0,33428:0:0:0:0:
329,192,33357,128,0,33428:0:0:0:0:
36,192,33571,128,0,33785:0:0:0:0:
475,192,33571,128,0,33785:0:0:0:0:
182,192,33714,128,0,33928:0:0:0:0:
329,192,33714,128,0,33928:0:0:0:0:
36,192,33857,128,0,33928:0:0:0:0:
475,192,33857,128,0,33928:0:0:0:0:
109,192,34000,1,0,0:0:0:0:
402,192,34000,1,0,0:0:0:0:
256,192,34071,1,0,0:0:0:0:
36,192,34142,1,2,0:0:0:0:
182,192,34142,1,0,0:0:0:0:
329,192,34142,1,0,0:0:0:0:
475,192,34142,1,0,0:0:0:0:
36,192,34285,128,2,34330:0:0:0:0:
109,192,34285,128,4,34375:0:0:0:0:
256,192,34285,1,0,0:0:0:0:
329,192,34285,128,0,34330:0:0:0:0:
402,192,34285,128,0,34375:0:0:0:0:
475,192,34285,128,0,34421:0:0:0:0:
182,192,34330,128,0,34421:0:0:0:0:
256,192,34375,128,0,34466:0:0:0:0:
329,192,34421,128,0,34512:0:0:0:0:
36,192,34466,128,0,34694:0:0:0:0:
402,192,34466,128,0,34557:0:0:0:0:
109,192,34512,128,0,34648:0:0:0:0:
475,192,34512,128,0,34603:0:0:0:0:
182,192,34557,128,0,34603:0:0:0:0:
329,192,34694,1,0,0:0:0:0:
36,192,34830,1,0,0:0:0:0:
475,192,34830,1,0,0:0:0:0:
36,192,34966,128,0,35171:0:0:0:0:
182,192,34966,128,0,35171:0:0:0:0:
329,192,35103,128,0,35307:0:0:0:0:
475,192,35103,128,0,35307:0:0:0:0:
36,192,35239,1,2,0:0:0:0:
109,192,35239,1,0,0:0:0:0:
182,192,35239,1,0,0:0:0:0:
36,192,35307,1,2,0:0:0:0:
109,192,35307,1,0,0:0:0:0:
182,192,35307,1,0,0:0:0:0:
256,192,35375,128,2,35557:0:0:0:0:
329,192,35375,128,4,35603:0:0:0:0:
402,192,35375,128,0,35648:0:0:0:0:
475,192,35375,128,0,35694:0:0:0:0:
36,192,35512,128,0,35603:0:0:0:0:
109,192,35557,128,0,35648:0:0:0:0:
182,192,35603,128,0,35694:0:0:0:0:
256,192,35648,128,0,35739:0:0:0:0:
329,192,35694,128,0,36012:0:0:0:0:
402,192,35739,128,0,35966:0:0:0:0:
36,192,35785,128,2,35966:0:0:0:0:
109,192,35785,128,4,35921:0:0:0:0:
182,192,35785,128,0,35875:0:0:0:0:
475,192,35785,128,0,35921:0:0:0:0:
256,192,35921,128,0,36057:0:0:0:0:
182,192,35966,128,0,36103:0:0:0:0:
109,192,36012,128,0,36148:0:0:0:0:
475,192,36012,128,0,36194:0:0:0:0:
36,192,36057,128,0,36194:0:0:0:0:
402,192,36057,128,0,36194:0:0:0:0:
329,192,36103,128,0,36194:0:0:0:0:
182,192,36194,1,2,0:0:0:0:
256,192,36194,1,0,0:0:0:0:
36,192,36466,1,2,0:0:0:0:
109,192,36466,1,4,0:0:0:0:
256,192,36466,1,0,0:0:0:0:
402,192,36466,1,0,0:0:0:0:
475,192,36466,1,0,0:0:0:0:
182,192,36596,1,0,0:0:0:0:
329,192,36596,1,0,0:0:0:0:
36,192,36661,1,0,0:0:0:0:
256,192,36726,1,0,0:0:0:0:
475,192,36726,1,0,0:0:0:0:
402,192,36792,1,0,0:0:0:0:
109,192,36857,1,0,0:0:0:0:
182,192,36857,1,0,0:0:0:0:
256,192,36922,1,0,0:0:0:0:
329,192,36987,1,0,0:0:0:0:
475,192,36987,1,0,0:0:0:0:
182,192,37052,1,0,0:0:0:0:
36,192,37118,1,0,0:0:0:0:
329,192,37118,1,0,0:0:0:0:
256,192,37183,1,0,0:0:0:0:
109,192,37248,1,0,0:0:0:0:
402,192,37248,1,0,0:0:0:0:
475,192,37313,1,0,0:0:0:0:
182,192,37379,1,0,0:0:0:0:
329,192,37379,1,0,0:0:0:0:
256,192,37444,1,0,0:0:0:0:
402,192,37509,1,0,0:0:0:0:
475,192,37509,1,0,0:0:0:0:
256,192,37574,1,0,0:0:0:0:
109,192,37639,1,0,0:0:0:0:
329,192,37639,1,0,0:0:0:0:
182,192,37705,1,0,0:0:0:0:
36,192,37770,1,0,0:0:0:0:
402,192,37770,1,0,0:0:0:0:
256,192,37835,1,0,0:0:0:0:
109,192,37900,1,0,0:0:0:0:
475,192,37900,1,0,0:0:0:0:
329,192,37966,1,0,0:0:0:0:
182,192,38031,1,2,0:0:0:0:
475,192,38031,1,0,0:0:0:0:
256,192,38096,1,0,0:0:0:0:
36,192,38161,1,0,0:0:0:0:
402,192,38161,1,0,0:0:0:0:
329,192,38226,1,0,0:0:0:0:
109,192,38292,1,2,0:0:0:0:
475,192,38292,1,0,0:0:0:0:
182,192,38357,1,0,0:0:0:0:
36,192,38422,1,2,0:0:0:0:
329,192,38422,1,0,0:0:0:0:
256,192,38487,1,2,0:0:0:0:
182,192,38552,1,2,0:0:0:0:
402,192,38552,1,0,0:0:0:0:
475,192,38552,1,0,0:0:0:0:
329,192,38614,1,0,0:0:0:0:
36,192,38677,1,2,0:0:0:0:
109,192,38677,1,0,0:0:0:0:
475,192,38677,1,0,0:0:0:0:
256,192,38739,1,0,0:0:0:0:
36,192,38802,1,2,0:0:0:0:
109,192,38802,1,0,0:0:0:0:
402,192,38802,1,0,0:0:0:0:
182,192,38864,1,0,0:0:0:0:
329,192,38927,1,2,0:0:0:0:
402,192,38927,1,0,0:0:0:0:
475,192,38927,1,0,0:0:0:0:
256,192,38989,1,0,0:0:0:0:
36,192,39052,1,2,0:0:0:0:
109,192,39052,1,0,0:0:0:0:
329,192,39052,1,0,0:0:0:0:
182,192,39114,1,0,0:0:0:0:
36,192,39177,1,2,0:0:0:0:
402,192,39177,1,0,0:0:0:0:
475,192,39177,1,0,0:0:0:0:
256,192,39239,1,0,0:0:0:0:
36,192,39302,1,2,0:0:0:0:
109,192,39302,1,0,0:0:0:0:
475,192,39302,1,0,0:0:0:0:
329,192,39364,1,0,0:0:0:0:
182,192,39427,1,2,0:0:0:0:
402,192,39427,1,0,0:0:0:0:
475,192,39427,1,0,0:0:0:0:
256,192,39489,1,0,0:0:0:0:
36,192,39552,1,2,0:0:0:0:
109,192,39552,1,0,0:0:0:0:
329,192,39552,1,0,0:0:0:0:
402,192,39614,1,2,0:0:0:0:
475,192,39614,1,0,0:0:0:0:
109,192,39677,1,2,0:0:0:0:
182,192,39677,1,0,0:0:0:0:
256,192,39677,1,0,0:0:0:0:
329,192,39739,1,2,0:0:0:0:
402,192,39739,1,0,0:0:0:0:
36,192,39802,1,2,0:0:0:0:
109,192,39802,1,0,0:0:0:0:
475,192,39802,1,0,0:0:0:0:
182,192,39864,1,2,0:0:0:0:
256,192,39864,1,0,0:0:0:0:
36,192,39927,1,2,0:0:0:0:
329,192,39927,1,0,0:0:0:0:
402,192,39927,1,0,0:0:0:0:
109,192,39989,1,2,0:0:0:0:
182,192,39989,1,0,0:0:0:0:
329,192,40052,1,2,0:0:0:0:
402,192,40052,1,0,0:0:0:0:
475,192,40052,1,0,0:0:0:0:
182,192,40114,1,2,0:0:0:0:
256,192,40114,1,0,0:0:0:0:
36,192,40177,1,2,0:0:0:0:
109,192,40177,1,0,0:0:0:0:
475,192,40177,1,0,0:0:0:0:
329,192,40239,1,2,0:0:0:0:
402,192,40239,1,0,0:0:0:0:
36,192,40302,1,2,0:0:0:0:
182,192,40302,1,0,0:0:0:0:
256,192,40302,1,0,0:0:0:0:
402,192,40364,1,2,0:0:0:0:
475,192,40364,1,0,0:0:0:0:
36,192,40427,1,2,0:0:0:0:
109,192,40427,1,0,0:0:0:0:
182,192,40427,1,0,0:0:0:0:
256,192,40489,1,2,0:0:0:0:
329,192,40489,1,0,0:0:0:0:
36,192,40552,128,2,41552:0:0:0:0:
109,192,40552,128,4,41302:0:0:0:0:
182,192,40552,128,0,41052:0:0:0:0:
402,192,40552,128,0,41552:0:0:0:0:
475,192,40552,128,0,41552:0:0:0:0:
329,192,40927,128,0,41552:0:0:0:0:
36,192,42552,1,4,0:0:0:0:
109,192,42552,1,0,0:0:0:70:electronic25.wav
182,192,42552,1,0,0:0:0:0:
329,192,42552,1,0,0:0:0:0:
402,192,42552,1,0,0:0:0:0:
475,192,42552,1,0,0:0:0:0:
36,192,42677,1,0,0:0:0:0:
109,192,42677,1,0,0:0:0:0:
256,192,42677,1,0,0:0:0:0:
402,192,42677,1,0,0:0:0:0:
36,192,42802,1,0,0:0:0:70:electronic25.wav
182,192,42802,1,0,0:0:0:0:
256,192,42802,1,0,0:0:0:0:
329,192,42802,1,0,0:0:0:0:
475,192,42802,1,0,0:0:0:0:
109,192,42927,1,0,0:0:0:0:
256,192,42927,1,0,0:0:0:0:
402,192,42927,1,0,0:0:0:0:
475,192,42927,1,0,0:0:0:0:
36,192,43052,1,0,0:0:0:70:electronic25.wav
109,192,43052,1,0,0:0:0:0:
182,192,43052,1,0,0:0:0:0:
329,192,43052,1,0,0:0:0:0:
475,192,43052,1,0,0:0:0:0:
36,192,43177,1,0,0:0:0:0:
182,192,43177,1,0,0:0:0:0:
329,192,43177,1,0,0:0:0:0:
402,192,43177,1,0,0:0:0:0:
36,192,43302,1,0,0:0:0:70:electronic25.wav
109,192,43302,1,0,0:0:0:0:
256,192,43302,1,0,0:0:0:0:
402,192,43302,1,0,0:0:0:0:
475,192,43302,1,0,0:0:0:0:
109,192,43427,1,0,0:0:0:0:
182,192,43427,1,0,0:0:0:0:
329,192,43427,1,0,0:0:0:0:
475,192,43427,1,0,0:0:0:0:
36,192,43552,1,0,0:0:0:70:electronic25.wav
182,192,43552,1,0,0:0:0:0:
256,192,43552,1,0,0:0:0:0:
402,192,43552,1,0,0:0:0:0:
475,192,43552,1,0,0:0:0:0:
109,192,43677,1,0,0:0:0:0:
256,192,43677,1,0,0:0:0:0:
329,192,43677,1,0,0:0:0:0:
36,192,43802,1,0,0:0:0:70:electronic25.wav
182,192,43802,1,0,0:0:0:0:
256,192,43802,1,0,0:0:0:0:
402,192,43802,1,0,0:0:0:0:
475,192,43802,1,0,0:0:0:0:
182,192,43927,1,0,0:0:0:0:
329,192,43927,1,0,0:0:0:0:
402,192,43927,1,0,0:0:0:0:
36,192,44052,1,0,0:0:0:70:electronic25.wav
109,192,44052,1,0,0:0:0:0:
256,192,44052,1,0,0:0:0:0:
329,192,44052,1,0,0:0:0:0:
475,192,44052,1,0,0:0:0:0:
182,192,44114,1,0,0:0:0:0:
329,192,44177,1,0,0:0:0:0:
402,192,44177,1,0,0:0:0:0:
475,192,44177,1,0,0:0:0:0:
256,192,44239,1,0,0:0:0:0:
36,192,44302,1,0,0:0:0:70:electronic25.wav
109,192,44302,1,0,0:0:0:0:
182,192,44302,1,0,0:0:0:0:
402,192,44302,1,0,0:0:0:0:
475,192,44302,1,0,0:0:0:0:
329,192,44364,1,0,0:0:0:0:
36,192,44427,1,0,0:0:0:70:electronic25.wav
109,192,44427,1,0,0:0:0:0:
182,192,44427,1,0,0:0:0:0:
402,192,44427,1,0,0:0:0:0:
475,192,44427,1,0,0:0:0:0:
329,192,44489,1,0,0:0:0:0:
36,192,44552,1,0,0:0:0:70:electronic25.wav
182,192,44552,1,0,0:0:0:0:
256,192,44552,1,0,0:0:0:0:
402,192,44552,1,0,0:0:0:0:
475,192,44552,1,0,0:0:0:0:
36,192,44677,1,0,0:0:0:0:
109,192,44677,1,0,0:0:0:0:
256,192,44677,1,0,0:0:0:0:
329,192,44677,1,0,0:0:0:0:
36,192,44802,1,0,0:0:0:70:electronic25.wav
182,192,44802,1,0,0:0:0:0:
329,192,44802,1,0,0:0:0:0:
402,192,44802,1,0,0:0:0:0:
475,192,44802,1,0,0:0:0:0:
109,192,44927,1,0,0:0:0:0:
256,192,44927,1,0,0:0:0:0:
402,192,44927,1,0,0:0:0:0:
475,192,44927,1,0,0:0:0:0:
36,192,45052,1,0,0:0:0:70:electronic25.wav
109,192,45052,1,0,0:0:0:0:
182,192,45052,1,0,0:0:0:0:
256,192,45052,1,0,0:0:0:0:
475,192,45052,1,0,0:0:0:0:
36,192,45177,1,0,0:0:0:0:
182,192,45177,1,0,0:0:0:0:
256,192,45177,1,0,0:0:0:0:
402,192,45177,1,0,0:0:0:0:
36,192,45302,1,0,0:0:0:70:electronic25.wav
109,192,45302,1,0,0:0:0:0:
329,192,45302,1,0,0:0:0:0:
402,192,45302,1,0,0:0:0:0:
475,192,45302,1,0,0:0:0:0:
109,192,45427,1,0,0:0:0:0:
182,192,45427,1,0,0:0:0:0:
256,192,45427,1,0,0:0:0:0:
475,192,45427,1,0,0:0:0:0:
36,192,45552,1,0,0:0:0:70:electronic25.wav
182,192,45552,1,0,0:0:0:0:
329,192,45552,1,0,0:0:0:0:
402,192,45552,1,0,0:0:0:0:
475,192,45552,1,0,0:0:0:0:
109,192,45677,1,0,0:0:0:0:
256,192,45677,1,0,0:0:0:0:
329,192,45677,1,0,0:0:0:0:
36,192,45802,1,0,0:0:0:70:electronic25.wav
182,192,45802,1,0,0:0:0:0:
256,192,45802,1,0,0:0:0:0:
402,192,45802,1,0,0:0:0:0:
475,192,45802,1,0,0:0:0:0:
182,192,45927,1,0,0:0:0:0:
329,192,45927,1,0,0:0:0:0:
402,192,45927,1,0,0:0:0:0:
36,192,46052,1,0,0:0:0:70:electronic25.wav
109,192,46052,1,0,0:0:0:0:
256,192,46052,1,0,0:0:0:0:
475,192,46052,1,0,0:0:0:0:
182,192,46114,1,0,0:0:0:0:
36,192,46177,1,0,0:0:0:70:electronic25.wav
109,192,46177,1,0,0:0:0:0:
402,192,46177,1,0,0:0:0:0:
475,192,46177,1,0,0:0:0:0:
329,192,46239,1,0,0:0:0:0:
36,192,46302,1,0,0:0:0:70:electronic25.wav
109,192,46302,1,0,0:0:0:0:
256,192,46302,1,0,0:0:0:0:
402,192,46302,1,0,0:0:0:0:
475,192,46302,1,0,0:0:0:0:
182,192,46364,1,0,0:0:0:0:
36,192,46427,1,0,0:0:0:70:electronic25.wav
109,192,46427,1,0,0:0:0:0:
402,192,46427,1,0,0:0:0:0:
475,192,46427,1,0,0:0:0:0:
256,192,46489,1,0,0:0:0:70:electronic25.wav
329,192,46489,1,0,0:0:0:0:
36,192,46552,1,0,0:0:0:70:electronic25.wav
109,192,46552,1,0,0:0:0:0:
182,192,46552,1,0,0:0:0:0:
402,192,46552,1,0,0:0:0:0:
475,192,46552,1,0,0:0:0:0:
36,192,46677,1,0,0:0:0:0:
109,192,46677,1,0,0:0:0:0:
256,192,46677,1,0,0:0:0:0:
329,192,46677,1,0,0:0:0:0:
36,192,46802,1,0,0:0:0:70:electronic25.wav
109,192,46802,1,0,0:0:0:0:
329,192,46802,1,0,0:0:0:0:
402,192,46802,1,0,0:0:0:0:
475,192,46802,1,0,0:0:0:0:
182,192,46864,1,0,0:0:0:0:
402,192,46927,1,0,0:0:0:0:
475,192,46927,1,0,0:0:0:0:
329,192,46968,1,0,0:0:0:0:
256,192,47010,1,0,0:0:0:0:
36,192,47052,1,0,0:0:0:70:electronic25.wav
109,192,47052,1,0,0:0:0:0:
182,192,47052,1,0,0:0:0:0:
402,192,47052,1,0,0:0:0:0:
475,192,47052,1,0,0:0:0:0:
36,192,47177,1,0,0:0:0:0:
109,192,47177,1,0,0:0:0:0:
329,192,47177,1,0,0:0:0:0:
182,192,47239,1,0,0:0:0:0:
256,192,47239,1,0,0:0:0:0:
402,192,47239,1,0,0:0:0:0:
36,192,47302,1,0,0:0:0:70:electronic25.wav
109,192,47302,1,0,0:0:0:0:
329,192,47302,1,0,0:0:0:0:
475,192,47302,1,0,0:0:0:0:
182,192,47364,1,0,0:0:0:0:
36,192,47427,1,0,0:0:0:0:
256,192,47427,1,0,0:0:0:0:
402,192,47427,1,0,0:0:0:0:
475,192,47427,1,0,0:0:0:0:
36,192,47552,1,0,0:0:0:70:electronic25.wav
109,192,47552,1,0,0:0:0:0:
182,192,47552,1,0,0:0:0:0:
329,192,47552,1,0,0:0:0:0:
475,192,47552,1,0,0:0:0:0:
182,192,47677,1,0,0:0:0:0:
256,192,47677,1,0,0:0:0:0:
402,192,47677,1,0,0:0:0:0:
475,192,47677,1,0,0:0:0:0:
36,192,47802,1,0,0:0:0:70:electronic25.wav
109,192,47802,1,0,0:0:0:0:
329,192,47802,1,0,0:0:0:0:
402,192,47802,1,0,0:0:0:0:
475,192,47802,1,0,0:0:0:0:
256,192,47864,1,0,0:0:0:0:
36,192,47927,1,0,0:0:0:0:
109,192,47927,1,0,0:0:0:0:
182,192,47968,1,0,0:0:0:0:
256,192,48010,1,0,0:0:0:0:
36,192,48052,1,0,0:0:0:70:electronic25.wav
109,192,48052,1,0,0:0:0:0:
329,192,48052,1,0,0:0:0:0:
402,192,48052,1,0,0:0:0:0:
475,192,48052,1,0,0:0:0:0:
182,192,48177,1,0,0:0:0:0:
402,192,48177,1,0,0:0:0:0:
475,192,48177,1,0,0:0:0:0:
109,192,48239,1,0,0:0:0:0:
256,192,48239,1,0,0:0:0:0:
329,192,48239,1,0,0:0:0:0:
36,192,48302,1,0,0:0:0:70:electronic25.wav
182,192,48302,1,0,0:0:0:0:
402,192,48302,1,0,0:0:0:0:
475,192,48302,1,0,0:0:0:0:
329,192,48364,1,0,0:0:0:0:
36,192,48427,1,0,0:0:0:70:electronic25.wav
109,192,48427,1,0,0:0:0:0:
256,192,48427,1,0,0:0:0:0:
402,192,48427,1,0,0:0:0:0:
475,192,48427,1,0,0:0:0:0:
36,192,48552,1,0,0:0:0:70:electronic25.wav
182,192,48552,1,0,0:0:0:0:
329,192,48552,1,0,0:0:0:0:
402,192,48552,1,0,0:0:0:0:
475,192,48552,1,0,0:0:0:0:
36,192,48677,1,0,0:0:0:0:
109,192,48677,1,0,0:0:0:0:
256,192,48677,1,0,0:0:0:0:
402,192,48677,1,0,0:0:0:0:
36,192,48802,1,0,0:0:0:70:electronic25.wav
182,192,48802,1,0,0:0:0:0:
256,192,48802,1,0,0:0:0:0:
329,192,48802,1,0,0:0:0:0:
475,192,48802,1,0,0:0:0:0:
109,192,48927,1,0,0:0:0:0:
182,192,48927,1,0,0:0:0:0:
329,192,48927,1,0,0:0:0:0:
475,192,48927,1,0,0:0:0:0:
36,192,49052,1,0,0:0:0:70:electronic25.wav
109,192,49052,1,0,0:0:0:0:
256,192,49052,1,0,0:0:0:0:
402,192,49052,1,0,0:0:0:0:
475,192,49052,1,0,0:0:0:0:
36,192,49177,1,0,0:0:0:0:
182,192,49177,1,0,0:0:0:0:
256,192,49177,1,0,0:0:0:0:
329,192,49177,1,0,0:0:0:0:
36,192,49302,1,0,0:0:0:70:electronic25.wav
182,192,49302,1,0,0:0:0:0:
329,192,49302,1,0,0:0:0:0:
402,192,49302,1,0,0:0:0:0:
475,192,49302,1,0,0:0:0:0:
109,192,49427,1,0,0:0:0:0:
256,192,49427,1,0,0:0:0:0:
402,192,49427,1,0,0:0:0:0:
475,192,49427,1,0,0:0:0:0:
36,192,49552,1,0,0:0:0:70:electronic25.wav
329,192,49552,1,0,0:0:0:0:
402,192,49552,1,0,0:0:0:0:
475,192,49552,1,0,0:0:0:0:
109,192,49614,1,0,0:0:0:70:electronic25.wav
182,192,49614,1,0,0:0:0:0:
256,192,49614,1,0,0:0:0:0:
36,192,49677,1,0,0:0:0:70:electronic25.wav
402,192,49677,1,0,0:0:0:0:
475,192,49677,1,0,0:0:0:0:
329,192,49708,1,0,0:0:0:70:electronic25.wav
256,192,49739,1,0,0:0:0:70:electronic25.wav
182,192,49770,1,0,0:0:0:70:electronic25.wav
36,192,49802,1,0,0:0:0:70:electronic25.wav
109,192,49802,1,0,0:0:0:0:
475,192,49802,1,0,0:0:0:0:
256,192,49864,1,0,0:0:0:70:electronic25.wav
329,192,49864,1,0,0:0:0:0:
402,192,49864,1,0,0:0:0:0:
36,192,49927,1,0,0:0:0:70:electronic25.wav
109,192,49927,1,0,0:0:0:0:
475,192,49927,1,0,0:0:0:0:
182,192,49958,1,0,0:0:0:70:electronic25.wav
256,192,49989,1,0,0:0:0:70:electronic25.wav
329,192,50020,1,0,0:0:0:70:electronic25.wav
36,192,50052,1,0,0:0:0:70:electronic25.wav
109,192,50052,1,0,0:0:0:0:
182,192,50052,1,0,0:0:0:0:
402,192,50052,1,0,0:0:0:0:
475,192,50052,1,0,0:0:0:0:
36,192,50177,1,0,0:0:0:70:electronic25.wav
109,192,50177,1,0,0:0:0:0:
256,192,50177,1,0,0:0:0:0:
329,192,50177,1,0,0:0:0:0:
36,192,50302,1,0,0:0:0:70:electronic25.wav
109,192,50302,1,0,0:0:0:0:
402,192,50302,1,0,0:0:0:0:
475,192,50302,1,0,0:0:0:0:
182,192,50364,1,0,0:0:0:70:electronic25.wav
256,192,50364,1,0,0:0:0:0:
329,192,50427,1,0,0:0:0:70:electronic25.wav
402,192,50427,1,0,0:0:0:0:
475,192,50427,1,0,0:0:0:0:
109,192,50489,1,0,0:0:0:70:electronic25.wav
182,192,50489,1,0,0:0:0:0:
36,192,50552,1,4,0:0:0:0:
256,192,50552,1,0,0:0:0:70:electronic25.wav
329,192,50552,1,0,0:0:0:0:
402,192,50552,1,0,0:0:0:0:
475,192,50552,1,0,0:0:0:0:
36,192,50677,1,0,0:0:0:0:
109,192,50677,1,0,0:0:0:0:
182,192,50677,1,0,0:0:0:0:
329,192,50677,1,0,0:0:0:0:
36,192,50802,1,0,0:0:0:70:electronic25.wav
182,192,50802,1,0,0:0:0:0:
256,192,50802,1,0,0:0:0:0:
402,192,50802,1,0,0:0:0:0:
475,192,50802,1,0,0:0:0:0:
109,192,50927,1,0,0:0:0:0:
256,192,50927,1,0,0:0:0:0:
329,192,50927,1,0,0:0:0:0:
475,192,50927,1,0,0:0:0:0:
36,192,51052,1,0,0:0:0:70:electronic25.wav
109,192,51052,1,0,0:0:0:0:
182,192,51052,1,0,0:0:0:0:
402,192,51052,1,0,0:0:0:0:
475,192,51052,1,0,0:0:0:0:
36,192,51177,1,0,0:0:0:0:
182,192,51177,1,0,0:0:0:0:
256,192,51177,1,0,0:0:0:0:
329,192,51177,1,0,0:0:0:0:
36,192,51302,1,0,0:0:0:70:electronic25.wav
109,192,51302,1,0,0:0:0:0:
256,192,51302,1,0,0:0:0:0:
402,192,51302,1,0,0:0:0:0:
475,192,51302,1,0,0:0:0:0:
182,192,51427,1,0,0:0:0:0:
329,192,51427,1,0,0:0:0:0:
402,192,51427,1,0,0:0:0:0:
475,192,51427,1,0,0:0:0:0:
36,192,51552,1,0,0:0:0:70:electronic25.wav
109,192,51552,1,0,0:0:0:0:
256,192,51552,1,0,0:0:0:0:
329,192,51552,1,0,0:0:0:0:
475,192,51552,1,0,0:0:0:0:
109,192,51677,1,0,0:0:0:0:
182,192,51677,1,0,0:0:0:0:
402,192,51677,1,0,0:0:0:0:
36,192,51802,1,0,0:0:0:70:electronic25.wav
182,192,51802,1,0,0:0:0:0:
256,192,51802,1,0,0:0:0:0:
402,192,51802,1,0,0:0:0:0:
475,192,51802,1,0,0:0:0:0:
109,192,51927,1,0,0:0:0:0:
256,192,51927,1,0,0:0:0:0:
329,192,51927,1,0,0:0:0:0:
36,192,52052,1,0,0:0:0:70:electronic25.wav
109,192,52052,1,0,0:0:0:0:
182,192,52052,1,0,0:0:0:0:
402,192,52052,1,0,0:0:0:0:
475,192,52052,1,0,0:0:0:0:
256,192,52114,1,0,0:0:0:0:
329,192,52177,1,0,0:0:0:0:
402,192,52177,1,0,0:0:0:0:
475,192,52177,1,0,0:0:0:0:
256,192,52239,1,0,0:0:0:0:
36,192,52302,1,0,0:0:0:70:electronic25.wav
109,192,52302,1,0,0:0:0:0:
182,192,52302,1,0,0:0:0:0:
402,192,52302,1,0,0:0:0:0:
475,192,52302,1,0,0:0:0:0:
329,192,52364,1,0,0:0:0:0:
36,192,52427,1,0,0:0:0:70:electronic25.wav
109,192,52427,1,0,0:0:0:0:
182,192,52427,1,0,0:0:0:0:
256,192,52427,1,0,0:0:0:0:
475,192,52427,1,0,0:0:0:0:
402,192,52489,1,0,0:0:0:0:
36,192,52552,1,0,0:0:0:70:electronic25.wav
109,192,52552,1,0,0:0:0:0:
182,192,52552,1,0,0:0:0:0:
256,192,52552,1,0,0:0:0:0:
329,192,52552,1,0,0:0:0:0:
36,192,52677,1,0,0:0:0:0:
182,192,52677,1,0,0:0:0:0:
329,192,52677,1,0,0:0:0:0:
402,192,52677,1,0,0:0:0:0:
36,192,52802,1,0,0:0:0:70:electronic25.wav
109,192,52802,1,0,0:0:0:0:
256,192,52802,1,0,0:0:0:0:
402,192,52802,1,0,0:0:0:0:
475,192,52802,1,0,0:0:0:0:
182,192,52927,1,0,0:0:0:0:
256,192,52927,1,0,0:0:0:0:
329,192,52927,1,0,0:0:0:0:
475,192,52927,1,0,0:0:0:0:
36,192,53052,1,0,0:0:0:70:electronic25.wav
109,192,53052,1,0,0:0:0:0:
182,192,53052,1,0,0:0:0:0:
402,192,53052,1,0,0:0:0:0:
475,192,53052,1,0,0:0:0:0:
36,192,53177,1,0,0:0:0:0:
182,192,53177,1,0,0:0:0:0:
329,192,53177,1,0,0:0:0:0:
402,192,53177,1,0,0:0:0:0:
36,192,53302,1,0,0:0:0:70:electronic25.wav
109,192,53302,1,0,0:0:0:0:
256,192,53302,1,0,0:0:0:0:
329,192,53302,1,0,0:0:0:0:
475,192,53302,1,0,0:0:0:0:
109,192,53427,1,0,0:0:0:0:
182,192,53427,1,0,0:0:0:0:
329,192,53427,1,0,0:0:0:0:
475,192,53427,1,0,0:0:0:0:
36,192,53552,1,0,0:0:0:70:electronic25.wav
109,192,53552,1,0,0:0:0:0:
256,192,53552,1,0,0:0:0:0:
402,192,53552,1,0,0:0:0:0:
475,192,53552,1,0,0:0:0:0:
182,192,53677,1,0,0:0:0:0:
329,192,53677,1,0,0:0:0:0:
402,192,53677,1,0,0:0:0:0:
36,192,53802,1,0,0:0:0:70:electronic25.wav
182,192,53802,1,0,0:0:0:0:
256,192,53802,1,0,0:0:0:0:
402,192,53802,1,0,0:0:0:0:
475,192,53802,1,0,0:0:0:0:
109,192,53927,1,0,0:0:0:0:
329,192,53927,1,0,0:0:0:0:
402,192,53927,1,0,0:0:0:0:
36,192,54052,1,0,0:0:0:70:electronic25.wav
109,192,54052,1,0,0:0:0:0:
182,192,54052,1,0,0:0:0:0:
256,192,54052,1,0,0:0:0:0:
475,192,54052,1,0,0:0:0:0:
329,192,54114,1,0,0:0:0:0:
36,192,54177,1,0,0:0:0:70:electronic25.wav
109,192,54177,1,0,0:0:0:0:
182,192,54177,1,0,0:0:0:0:
402,192,54177,1,0,0:0:0:0:
475,192,54177,1,0,0:0:0:0:
256,192,54239,1,0,0:0:0:0:
36,192,54302,1,0,0:0:0:70:electronic25.wav
109,192,54302,1,0,0:0:0:0:
329,192,54302,1,0,0:0:0:0:
402,192,54302,1,0,0:0:0:0:
475,192,54302,1,0,0:0:0:0:
182,192,54364,1,0,0:0:0:0:
256,192,54427,1,0,0:0:0:70:electronic25.wav
329,192,54427,1,0,0:0:0:0:
402,192,54427,1,0,0:0:0:0:
475,192,54427,1,0,0:0:0:0:
36,192,54489,1,0,0:0:0:70:electronic25.wav
109,192,54489,1,0,0:0:0:0:
182,192,54552,1,0,0:0:0:70:electronic25.wav
256,192,54552,1,0,0:0:0:0:
329,192,54552,1,0,0:0:0:0:
402,192,54552,1,0,0:0:0:0:
475,192,54552,1,0,0:0:0:0:
109,192,54677,1,0,0:0:0:0:
182,192,54677,1,0,0:0:0:0:
329,192,54677,1,0,0:0:0:0:
475,192,54677,1,0,0:0:0:0:
36,192,54802,1,0,0:0:0:70:electronic25.wav
109,192,54802,1,0,0:0:0:0:
256,192,54802,1,0,0:0:0:0:
402,192,54802,1,0,0:0:0:0:
475,192,54802,1,0,0:0:0:0:
329,192,54864,1,0,0:0:0:0:
36,192,54927,1,0,0:0:0:0:
182,192,54927,1,0,0:0:0:0:
256,192,54968,1,0,0:0:0:0:
329,192,55010,1,0,0:0:0:0:
36,192,55052,1,0,0:0:0:70:electronic25.wav
109,192,55052,1,0,0:0:0:0:
182,192,55052,1,0,0:0:0:0:
402,192,55052,1,0,0:0:0:0:
475,192,55052,1,0,0:0:0:0:
256,192,55177,1,0,0:0:0:0:
402,192,55177,1,0,0:0:0:0:
475,192,55177,1,0,0:0:0:0:
36,192,55239,1,0,0:0:0:0:
109,192,55239,1,0,0:0:0:0:
329,192,55239,1,0,0:0:0:0:
182,192,55302,1,0,0:0:0:70:electronic25.wav
256,192,55302,1,0,0:0:0:0:
402,192,55302,1,0,0:0:0:0:
475,192,55302,1,0,0:0:0:0:
109,192,55364,1,0,0:0:0:0:
36,192,55427,1,0,0:0:0:0:
329,192,55427,1,0,0:0:0:0:
402,192,55427,1,0,0:0:0:0:
475,192,55427,1,0,0:0:0:0:
36,192,55552,1,0,0:0:0:70:electronic25.wav
109,192,55552,1,0,0:0:0:0:
182,192,55552,1,0,0:0:0:0:
256,192,55552,1,0,0:0:0:0:
329,192,55552,1,0,0:0:0:0:
36,192,55677,1,0,0:0:0:0:
182,192,55677,1,0,0:0:0:0:
329,192,55677,1,0,0:0:0:0:
475,192,55677,1,0,0:0:0:0:
36,192,55802,1,0,0:0:0:70:electronic25.wav
109,192,55802,1,0,0:0:0:0:
256,192,55802,1,0,0:0:0:0:
402,192,55802,1,0,0:0:0:0:
475,192,55802,1,0,0:0:0:0:
182,192,55864,1,0,0:0:0:0:
329,192,55927,1,0,0:0:0:0:
402,192,55927,1,0,0:0:0:0:
256,192,55968,1,0,0:0:0:0:
182,192,56010,1,0,0:0:0:0:
36,192,56052,1,0,0:0:0:70:electronic25.wav
109,192,56052,1,0,0:0:0:0:
329,192,56052,1,0,0:0:0:0:
402,192,56052,1,0,0:0:0:0:
475,192,56052,1,0,0:0:0:0:
36,192,56177,1,0,0:0:0:0:
109,192,56177,1,0,0:0:0:0:
256,192,56177,1,0,0:0:0:0:
182,192,56239,1,0,0:0:0:0:
402,192,56239,1,0,0:0:0:0:
475,192,56239,1,0,0:0:0:0:
36,192,56302,1,0,0:0:0:70:electronic25.wav
109,192,56302,1,0,0:0:0:0:
256,192,56302,1,0,0:0:0:0:
329,192,56302,1,0,0:0:0:0:
402,192,56364,1,0,0:0:0:0:
36,192,56427,1,0,0:0:0:70:electronic25.wav
109,192,56427,1,0,0:0:0:0:
182,192,56427,1,0,0:0:0:0:
475,192,56427,1,0,0:0:0:0:
182,192,56552,1,4,0:0:0:0:
256,192,56552,1,0,0:0:0:70:amenbreak_kick2.wav
329,192,56552,1,0,0:0:0:0:
402,192,56552,1,0,0:0:0:0:
475,192,56552,1,0,0:0:0:0:
182,192,56677,1,0,0:0:0:0:
329,192,56677,1,0,0:0:0:0:
36,192,56802,1,0,0:0:0:70:amenbreak_snare2.wav
109,192,56802,1,0,0:0:0:0:
475,192,56802,1,0,0:0:0:0:
256,192,56927,1,0,0:0:0:0:
402,192,56927,1,0,0:0:0:0:
36,192,57052,1,0,0:0:0:70:amenbreak_kick2.wav
182,192,57052,1,0,0:0:0:0:
402,192,57052,1,0,0:0:0:0:
109,192,57177,1,0,0:0:0:70:amenbreak_snare2.wav
329,192,57177,1,0,0:0:0:0:
475,192,57177,1,0,0:0:0:0:
256,192,57239,1,0,0:0:0:0:
182,192,57302,1,0,0:0:0:0:
329,192,57364,1,0,0:0:0:0:
36,192,57427,1,0,0:0:0:70:amenbreak_kick2.wav
182,192,57427,1,0,0:0:0:0:
475,192,57427,1,0,0:0:0:0:
36,192,57552,1,0,0:0:0:70:amenbreak_kick2.wav
256,192,57552,1,0,0:0:0:0:
475,192,57552,1,0,0:0:0:0:
182,192,57677,1,0,0:0:0:0:
402,192,57677,1,0,0:0:0:0:
36,192,57802,1,0,0:0:0:70:amenbreak_snare2.wav
109,192,57802,1,0,0:0:0:0:
329,192,57802,1,0,0:0:0:0:
256,192,57864,1,0,0:0:0:0:
182,192,57927,1,0,0:0:0:0:
402,192,57927,1,0,0:0:0:0:
329,192,57989,1,0,0:0:0:0:
109,192,58052,1,0,0:0:0:70:amenbreak_kick2.wav
256,192,58052,1,0,0:0:0:0:
475,192,58052,1,0,0:0:0:0:
402,192,58114,1,0,0:0:0:0:
36,192,58177,1,0,0:0:0:70:amenbreak_snare2.wav
182,192,58177,1,0,0:0:0:0:
329,192,58177,1,0,0:0:0:0:
182,192,58302,1,0,0:0:0:70:electronic25.wav
256,192,58302,1,0,0:0:0:0:
402,192,58302,1,0,0:0:0:0:
475,192,58302,1,0,0:0:0:0:
36,192,58427,1,0,0:0:0:70:electronic25.wav
109,192,58427,1,0,0:0:0:0:
329,192,58427,1,0,0:0:0:0:
475,192,58427,1,0,0:0:0:0:
182,192,58489,1,0,0:0:0:70:electronic25.wav
256,192,58489,1,0,0:0:0:0:
36,192,58552,128,2,58593:0:0:0:0:
109,192,58552,128,0,58635:0:0:0:70:Kick 10.wav
329,192,58552,128,0,58593:0:0:0:0:
402,192,58552,128,0,58635:0:0:0:0:
475,192,58552,128,0,58677:0:0:0:0:
182,192,58593,128,0,58677:0:0:0:0:
256,192,58635,128,0,58718:0:0:0:0:
329,192,58677,128,0,58760:0:0:0:0:
402,192,58718,128,0,58885:0:0:0:0:
475,192,58760,128,0,58843:0:0:0:0:
36,192,58802,128,0,58927:0:0:0:70:Kick 10.wav
109,192,58802,128,0,58885:0:0:0:0:
182,192,58802,128,0,58843:0:0:0:0:
329,192,58843,128,0,58927:0:0:0:0:
256,192,58885,128,0,58968:0:0:0:0:
182,192,58927,128,0,59010:0:0:0:0:
109,192,58968,128,0,59135:0:0:0:0:
36,192,59010,128,0,59093:0:0:0:0:
329,192,59052,128,0,59093:0:0:0:70:Kick 10.wav
402,192,59052,128,0,59135:0:0:0:0:
475,192,59052,128,0,59177:0:0:0:0:
182,192,59093,128,0,59177:0:0:0:0:
256,192,59135,128,0,59218:0:0:0:0:
329,192,59177,128,0,59260:0:0:0:0:
402,192,59218,128,0,59385:0:0:0:0:
475,192,59260,128,0,59343:0:0:0:0:
36,192,59302,128,0,59427:0:0:0:70:Kick 10.wav
109,192,59302,128,0,59385:0:0:0:0:
182,192,59302,128,0,59343:0:0:0:0:
329,192,59343,128,0,59427:0:0:0:0:
256,192,59385,128,0,59468:0:0:0:0:
182,192,59427,128,0,59510:0:0:0:0:
109,192,59468,128,0,59635:0:0:0:0:
36,192,59510,128,0,59593:0:0:0:0:
329,192,59552,128,0,59593:0:0:0:70:Kick 10.wav
402,192,59552,128,0,59635:0:0:0:0:
475,192,59552,128,0,59677:0:0:0:0:
182,192,59593,128,0,59677:0:0:0:0:
256,192,59635,128,0,59718:0:0:0:0:
329,192,59677,128,0,59760:0:0:0:0:
402,192,59718,128,0,59885:0:0:0:0:
475,192,59760,128,0,59843:0:0:0:0:
36,192,59802,128,0,59927:0:0:0:70:Kick 10.wav
109,192,59802,128,0,59885:0:0:0:0:
182,192,59802,128,0,59843:0:0:0:0:
329,192,59843,128,0,59927:0:0:0:0:
256,192,59885,128,0,59968:0:0:0:0:
182,192,59927,128,0,60010:0:0:0:0:
109,192,59968,128,0,60135:0:0:0:0:
36,192,60010,128,0,60093:0:0:0:0:
329,192,60052,128,0,60093:0:0:0:70:Kick 10.wav
402,192,60052,128,0,60135:0:0:0:0:
475,192,60052,128,0,60177:0:0:0:0:
182,192,60093,128,0,60177:0:0:0:0:
256,192,60135,128,0,60218:0:0:0:0:
329,192,60177,128,0,60260:0:0:0:0:
402,192,60218,128,0,60302:0:0:0:0:
36,192,60302,1,0,0:0:0:70:Kick 10.wav
109,192,60302,1,0,0:0:0:0:
182,192,60302,1,0,0:0:0:0:
475,192,60302,1,0,0:0:0:0:
36,192,60427,1,0,0:0:0:70:Kick 10.wav
109,192,60427,1,0,0:0:0:0:
256,192,60427,1,0,0:0:0:0:
402,192,60427,1,0,0:0:0:0:
475,192,60427,1,0,0:0:0:0:
182,192,60489,1,0,0:0:0:70:Kick 10.wav
329,192,60489,1,0,0:0:0:0:
36,192,60552,128,0,60677:0:0:0:70:Kick 10.wav
109,192,60552,128,0,60635:0:0:0:0:
402,192,60552,128,0,60635:0:0:0:0:
475,192,60552,128,0,60593:0:0:0:0:
329,192,60593,128,0,60677:0:0:0:0:
256,192,60635,128,0,60718:0:0:0:0:
182,192,60677,128,0,60760:0:0:0:0:
109,192,60718,128,0,60885:0:0:0:0:
36,192,60760,128,0,60843:0:0:0:0:
329,192,60802,128,0,60843:0:0:0:70:Kick 10.wav
402,192,60802,128,0,60885:0:0:0:0:
475,192,60802,128,0,60927:0:0:0:0:
182,192,60843,128,0,60927:0:0:0:0:
256,192,60885,128,0,60968:0:0:0:0:
329,192,60927,128,0,61010:0:0:0:0:
402,192,60968,128,0,61135:0:0:0:0:
475,192,61010,128,0,61093:0:0:0:0:
36,192,61052,128,0,61177:0:0:0:70:Kick 10.wav
109,192,61052,128,0,61135:0:0:0:0:
182,192,61052,128,0,61093:0:0:0:0:
329,192,61093,128,0,61177:0:0:0:0:
256,192,61135,128,0,61218:0:0:0:0:
182,192,61177,128,0,61260:0:0:0:0:
109,192,61218,128,0,61385:0:0:0:0:
36,192,61260,128,0,61343:0:0:0:0:
329,192,61302,128,0,61343:0:0:0:70:Kick 10.wav
402,192,61302,128,0,61385:0:0:0:0:
475,192,61302,128,0,61427:0:0:0:0:
182,192,61343,128,0,61427:0:0:0:0:
256,192,61385,128,0,61468:0:0:0:0:
329,192,61427,128,0,61510:0:0:0:0:
402,192,61468,128,0,61552:0:0:0:0:
36,192,61552,128,4,62489:0:0:0:0:
109,192,61552,1,2,0:0:0:0:
182,192,61552,128,0,62489:0:0:0:0:
256,192,61552,128,0,62489:0:0:0:0:
475,192,61552,128,0,62489:0:0:0:0:
36,192,62552,1,4,0:0:0:0:
182,192,62552,1,0,0:0:0:70:amenbreak_kick2.wav
256,192,62552,1,0,0:0:0:0:
475,192,62552,1,0,0:0:0:0:
36,192,62677,1,0,0:0:0:0:
182,192,62677,1,0,0:0:0:0:
402,192,62677,1,0,0:0:0:0:
329,192,62739,1,0,0:0:0:0:
109,192,62802,1,0,0:0:0:70:amenbreak_snare2.wav
402,192,62802,1,0,0:0:0:0:
475,192,62802,1,0,0:0:0:0:
36,192,62927,1,0,0:0:0:0:
182,192,62927,1,0,0:0:0:0:
329,192,62927,1,0,0:0:0:0:
36,192,63052,1,0,0:0:0:70:amenbreak_kick2.wav
256,192,63052,1,0,0:0:0:0:
475,192,63052,1,0,0:0:0:0:
182,192,63177,1,0,0:0:0:70:amenbreak_snare2.wav
402,192,63177,1,0,0:0:0:0:
475,192,63177,1,0,0:0:0:0:
329,192,63239,1,0,0:0:0:0:
36,192,63302,1,0,0:0:0:0:
109,192,63302,1,0,0:0:0:0:
256,192,63302,1,0,0:0:0:0:
109,192,63427,1,0,0:0:0:70:amenbreak_kick2.wav
256,192,63427,1,0,0:0:0:0:
402,192,63427,1,0,0:0:0:0:
36,192,63552,1,0,0:0:0:70:amenbreak_kick2.wav
182,192,63552,1,0,0:0:0:0:
329,192,63552,1,0,0:0:0:0:
475,192,63552,1,0,0:0:0:0:
256,192,63677,1,0,0:0:0:0:
402,192,63677,1,0,0:0:0:0:
475,192,63677,1,0,0:0:0:0:
182,192,63739,1,0,0:0:0:0:
36,192,63802,1,0,0:0:0:70:amenbreak_snare2.wav
109,192,63802,1,0,0:0:0:0:
329,192,63802,1,0,0:0:0:0:
182,192,63927,1,0,0:0:0:0:
402,192,63927,1,0,0:0:0:0:
475,192,63927,1,0,0:0:0:0:
256,192,63989,1,0,0:0:0:0:
36,192,64052,1,0,0:0:0:70:amenbreak_kick2.wav
329,192,64052,1,0,0:0:0:0:
475,192,64052,1,0,0:0:0:0:
182,192,64114,1,0,0:0:0:0:
109,192,64177,1,0,0:0:0:70:amenbreak_snare2.wav
329,192,64177,1,0,0:0:0:0:
402,192,64177,1,0,0:0:0:0:
36,192,64302,1,0,0:0:0:0:
182,192,64302,1,0,0:0:0:0:
475,192,64302,1,0,0:0:0:0:
329,192,64364,1,0,0:0:0:0:
109,192,64427,1,0,0:0:0:0:
475,192,64427,1,0,0:0:0:0:
256,192,64489,1,0,0:0:0:0:
36,192,64552,1,0,0:0:0:70:amenbreak_kick2.wav
182,192,64552,1,0,0:0:0:0:
329,192,64552,1,0,0:0:0:0:
402,192,64552,1,0,0:0:0:0:
109,192,64677,1,0,0:0:0:0:
182,192,64677,1,0,0:0:0:0:
402,192,64677,1,0,0:0:0:0:
256,192,64739,1,0,0:0:0:0:
36,192,64802,1,0,0:0:0:70:amenbreak_snare2.wav
329,192,64802,1,0,0:0:0:0:
475,192,64802,1,0,0:0:0:0:
182,192,64927,1,0,0:0:0:0:
256,192,64927,1,0,0:0:0:0:
402,192,64927,1,0,0:0:0:0:
36,192,65052,1,0,0:0:0:70:amenbreak_kick2.wav
182,192,65052,1,0,0:0:0:0:
475,192,65052,1,0,0:0:0:0:
109,192,65177,1,0,0:0:0:70:amenbreak_snare2.wav
329,192,65177,1,0,0:0:0:0:
475,192,65177,1,0,0:0:0:0:
36,192,65302,1,0,0:0:0:0:
182,192,65302,1,0,0:0:0:0:
402,192,65302,1,0,0:0:0:0:
256,192,65364,1,0,0:0:0:0:
109,192,65427,1,0,0:0:0:70:amenbreak_kick2.wav
329,192,65427,1,0,0:0:0:0:
475,192,65427,1,0,0:0:0:0:
256,192,65489,1,0,0:0:0:0:
36,192,65552,128,0,65718:0:0:0:70:electronic25.wav
109,192,65552,128,0,65760:0:0:0:0:
182,192,65552,128,0,65802:0:0:0:0:
329,192,65552,128,0,65885:0:0:0:0:
402,192,65552,128,0,65927:0:0:0:0:
475,192,65552,128,0,65968:0:0:0:0:
36,192,65802,1,0,0:0:0:0:
109,192,65843,1,0,0:0:0:0:
182,192,65885,1,0,0:0:0:0:
256,192,65927,1,0,0:0:0:0:
329,192,65968,1,0,0:0:0:0:
402,192,66010,1,0,0:0:0:0:
36,192,66052,1,0,0:0:0:0:
475,192,66052,1,0,0:0:0:0:
36,192,66552,1,2,0:0:0:0:
109,192,66552,1,4,0:0:0:0:
256,192,66552,1,0,0:0:0:0:
329,192,66552,1,0,0:0:0:0:
475,192,66552,128,0,66802:0:0:0:0:
182,192,66677,1,0,0:0:0:0:
402,192,66677,128,0,67177:0:0:0:0:
36,192,66802,128,0,67177:0:0:0:0:
256,192,66802,1,0,0:0:0:0:
329,192,66802,128,0,67052:0:0:0:0:
182,192,66927,128,0,67239:0:0:0:0:
475,192,66927,128,0,67302:0:0:0:0:
36,192,67239,1,0,0:0:0:0:
182,192,67302,1,0,0:0:0:0:
402,192,67302,1,0,0:0:0:0:
36,192,67552,128,0,67802:0:0:0:0:
256,192,67552,1,0,0:0:0:0:
475,192,67552,1,0,0:0:0:0:
109,192,67677,128,0,68177:0:0:0:0:
182,192,67802,128,0,68052:0:0:0:0:
329,192,67802,1,0,0:0:0:0:
475,192,67802,1,0,0:0:0:0:
36,192,67927,128,0,68302:0:0:0:0:
402,192,67927,1,0,0:0:0:0:
329,192,68052,1,0,0:0:0:0:
475,192,68052,1,0,0:0:0:0:
256,192,68114,1,0,0:0:0:0:
402,192,68114,1,0,0:0:0:0:
256,192,68239,1,0,0:0:0:0:
402,192,68239,1,0,0:0:0:0:
182,192,68302,1,0,0:0:0:0:
329,192,68302,1,0,0:0:0:0:
109,192,68427,1,0,0:0:0:0:
256,192,68427,1,0,0:0:0:0:
36,192,68552,1,0,0:0:0:0:
182,192,68552,1,0,0:0:0:0:
475,192,68552,128,0,68802:0:0:0:0:
256,192,68677,1,0,0:0:0:0:
402,192,68677,128,0,69177:0:0:0:0:
36,192,68802,1,0,0:0:0:0:
109,192,68802,1,0,0:0:0:0:
329,192,68802,128,0,69052:0:0:0:0:
182,192,68927,128,0,69489:0:0:0:0:
475,192,68927,128,0,69302:0:0:0:0:
36,192,69177,128,0,69864:0:0:0:0:
109,192,69177,128,0,69489:0:0:0:0:
109,192,69552,128,0,69864:0:0:0:0:
256,192,69552,128,0,69864:0:0:0:0:
402,192,69552,128,0,69864:0:0:0:0:
475,192,69552,128,0,70114:0:0:0:0:
36,192,69927,128,0,70239:0:0:0:0:
182,192,69927,128,0,70239:0:0:0:0:
329,192,69927,128,0,70177:0:0:0:0:
475,192,70177,1,0,0:0:0:0:
329,192,70239,1,0,0:0:0:0:
36,192,70302,1,0,0:0:0:0:
182,192,70302,1,0,0:0:0:0:
109,192,70427,1,0,0:0:0:0:
256,192,70427,1,0,0:0:0:0:
36,192,70552,128,0,70802:0:0:0:0:
182,192,70552,1,0,0:0:0:0:
402,192,70552,1,0,0:0:0:0:
475,192,70552,1,0,0:0:0:0:
109,192,70677,128,0,71177:0:0:0:0:
329,192,70677,1,0,0:0:0:0:
182,192,70802,128,0,71052:0:0:0:0:
256,192,70802,1,0,0:0:0:0:
475,192,70802,128,0,71302:0:0:0:0:
36,192,70927,128,0,71302:0:0:0:0:
402,192,70927,128,0,71302:0:0:0:0:
109,192,71302,1,0,0:0:0:0:
329,192,71302,1,0,0:0:0:0:
36,192,71552,1,0,0:0:0:0:
256,192,71552,1,0,0:0:0:0:
475,192,71552,128,0,71802:0:0:0:0:
402,192,71677,128,0,72177:0:0:0:0:
36,192,71802,1,0,0:0:0:0:
182,192,71802,1,0,0:0:0:0:
329,192,71802,128,0,72052:0:0:0:0:
109,192,71927,1,0,0:0:0:0:
475,192,71927,128,0,72302:0:0:0:0:
36,192,72052,1,0,0:0:0:0:
182,192,72052,1,0,0:0:0:0:
109,192,72114,1,0,0:0:0:0:
256,192,72114,1,0,0:0:0:0:
109,192,72239,1,0,0:0:0:0:
256,192,72239,1,0,0:0:0:0:
182,192,72302,1,0,0:0:0:0:
329,192,72302,1,0,0:0:0:0:
256,192,72427,1,0,0:0:0:0:
402,192,72427,1,0,0:0:0:0:
36,192,72552,128,0,72802:0:0:0:0:
329,192,72552,1,0,0:0:0:0:
475,192,72552,1,0,0:0:0:0:
109,192,72677,128,0,73177:0:0:0:0:
256,192,72677,1,0,0:0:0:0:
182,192,72802,128,0,73052:0:0:0:0:
402,192,72802,1,0,0:0:0:0:
475,192,72802,1,0,0:0:0:0:
329,192,72864,1,0,0:0:0:0:
36,192,72927,128,0,73302:0:0:0:0:
475,192,72927,1,0,0:0:0:0:
256,192,73052,1,0,0:0:0:0:
402,192,73052,1,0,0:0:0:0:
182,192,73177,1,0,0:0:0:0:
329,192,73177,1,0,0:0:0:0:
109,192,73302,1,0,0:0:0:0:
256,192,73302,1,0,0:0:0:0:
36,192,73552,128,0,74239:0:0:0:0:
109,192,73552,128,0,73864:0:0:0:0:
256,192,73552,128,0,73864:0:0:0:0:
402,192,73552,128,0,73864:0:0:0:0:
182,192,73927,128,0,74239:0:0:0:0:
329,192,73927,128,0,74239:0:0:0:0:
475,192,73927,128,0,74239:0:0:0:0:
36,192,74302,1,0,0:0:0:0:
182,192,74302,1,0,0:0:0:0:
329,192,74302,1,0,0:0:0:0:
475,192,74302,1,0,0:0:0:0:
36,192,74552,1,2,0:0:0:0:
109,192,74552,1,0,0:0:0:0:
329,192,74552,1,0,0:0:0:0:
475,192,74552,128,0,74802:0:0:0:0:
182,192,74677,1,0,0:0:0:0:
402,192,74677,128,0,75177:0:0:0:0:
36,192,74802,128,0,75302:0:0:0:0:
109,192,74802,1,0,0:0:0:0:
329,192,74802,128,0,75052:0:0:0:0:
182,192,74927,128,0,75302:0:0:0:0:
475,192,74927,128,0,75302:0:0:0:0:
256,192,75052,1,0,0:0:0:0:
329,192,75177,1,0,0:0:0:0:
109,192,75302,1,0,0:0:0:0:
256,192,75302,1,0,0:0:0:0:
402,192,75302,1,0,0:0:0:0:
182,192,75427,1,0,0:0:0:0:
36,192,75552,128,0,75802:0:0:0:0:
329,192,75552,1,0,0:0:0:0:
402,192,75552,1,0,0:0:0:0:
475,192,75552,1,0,0:0:0:0:
109,192,75677,128,0,76177:0:0:0:0:
256,192,75677,1,0,0:0:0:0:
182,192,75802,128,0,76052:0:0:0:0:
329,192,75802,1,0,0:0:0:0:
475,192,75802,1,0,0:0:0:0:
36,192,75927,128,0,76302:0:0:0:0:
402,192,75927,1,0,0:0:0:0:
329,192,76052,1,0,0:0:0:0:
475,192,76052,1,0,0:0:0:0:
256,192,76114,1,0,0:0:0:0:
402,192,76114,1,0,0:0:0:0:
256,192,76239,1,0,0:0:0:0:
402,192,76239,1,0,0:0:0:0:
182,192,76302,1,0,0:0:0:0:
329,192,76302,1,0,0:0:0:0:
109,192,76427,1,0,0:0:0:0:
256,192,76427,1,0,0:0:0:0:
36,192,76552,1,0,0:0:0:0:
182,192,76552,1,0,0:0:0:0:
475,192,76552,128,0,76802:0:0:0:0:
256,192,76677,1,0,0:0:0:0:
402,192,76677,128,0,77177:0:0:0:0:
36,192,76802,1,0,0:0:0:0:
109,192,76802,1,0,0:0:0:0:
329,192,76802,128,0,77052:0:0:0:0:
182,192,76927,128,0,77489:0:0:0:0:
475,192,76927,128,0,77302:0:0:0:0:
256,192,77052,1,0,0:0:0:0:
36,192,77177,128,0,77864:0:0:0:0:
109,192,77177,128,0,77489:0:0:0:0:
329,192,77177,1,0,0:0:0:0:
402,192,77302,1,0,0:0:0:0:
475,192,77427,1,0,0:0:0:0:
109,192,77552,128,0,77864:0:0:0:0:
256,192,77552,128,0,77864:0:0:0:0:
402,192,77552,128,0,77864:0:0:0:0:
475,192,77552,128,0,78239:0:0:0:0:
36,192,77927,128,0,78239:0:0:0:0:
182,192,77927,128,0,78239:0:0:0:0:
329,192,77927,128,0,78239:0:0:0:0:
36,192,78302,1,0,0:0:0:0:
182,192,78302,1,0,0:0:0:0:
329,192,78302,1,0,0:0:0:0:
475,192,78302,1,0,0:0:0:0:
109,192,78427,1,0,0:0:0:0:
256,192,78427,1,0,0:0:0:0:
36,192,78552,1,0,0:0:0:0:
475,192,78552,1,0,0:0:0:0:
182,192,78614,1,0,0:0:0:0:
329,192,78614,1,0,0:0:0:0:
36,192,78677,1,0,0:0:0:0:
475,192,78677,1,0,0:0:0:0:
182,192,78739,1,0,0:0:0:0:
329,192,78739,1,0,0:0:0:0:
36,192,78802,1,0,0:0:0:0:
256,192,78802,1,0,0:0:0:0:
475,192,78802,1,0,0:0:0:0:
329,192,78927,1,0,0:0:0:0:
402,192,78927,1,0,0:0:0:0:
36,192,79052,1,0,0:0:0:0:
182,192,79052,1,0,0:0:0:0:
475,192,79052,1,0,0:0:0:0:
109,192,79177,1,0,0:0:0:0:
402,192,79177,1,0,0:0:0:0:
256,192,79239,1,0,0:0:0:0:
109,192,79302,1,0,0:0:0:0:
402,192,79302,1,0,0:0:0:0:
475,192,79302,1,0,0:0:0:0:
182,192,79427,1,0,0:0:0:0:
329,192,79427,1,0,0:0:0:0:
36,192,79552,1,0,0:0:0:0:
475,192,79552,1,0,0:0:0:0:
182,192,79614,1,0,0:0:0:0:
329,192,79614,1,0,0:0:0:0:
36,192,79677,1,0,0:0:0:0:
475,192,79677,1,0,0:0:0:0:
182,192,79739,1,0,0:0:0:0:
329,192,79739,1,0,0:0:0:0:
36,192,79802,1,0,0:0:0:0:
256,192,79802,1,0,0:0:0:0:
475,192,79802,1,0,0:0:0:0:
109,192,79927,1,0,0:0:0:0:
182,192,79927,1,0,0:0:0:0:
36,192,80052,1,0,0:0:0:0:
329,192,80052,1,0,0:0:0:0:
475,192,80052,1,0,0:0:0:0:
109,192,80177,1,0,0:0:0:0:
402,192,80177,1,0,0:0:0:0:
256,192,80239,1,0,0:0:0:0:
36,192,80302,1,0,0:0:0:0:
109,192,80302,1,0,0:0:0:0:
402,192,80302,1,0,0:0:0:0:
182,192,80427,1,0,0:0:0:0:
329,192,80427,1,0,0:0:0:0:
36,192,80552,1,0,0:0:0:0:
109,192,80552,1,0,0:0:0:0:
402,192,80552,1,0,0:0:0:0:
475,192,80552,1,0,0:0:0:0:
36,192,80677,1,0,0:0:0:0:
109,192,80677,1,0,0:0:0:0:
182,192,80739,1,0,0:0:0:0:
256,192,80739,1,0,0:0:0:0:
329,192,80739,1,0,0:0:0:0:
475,192,80739,1,0,0:0:0:0:
36,192,80802,1,0,0:0:0:0:
109,192,80802,1,0,0:0:0:0:
402,192,80802,1,0,0:0:0:0:
109,192,80927,1,0,0:0:0:0:
182,192,80927,1,0,0:0:0:0:
329,192,80927,1,0,0:0:0:0:
475,192,80927,1,0,0:0:0:0:
36,192,81052,1,0,0:0:0:0:
256,192,81052,1,0,0:0:0:0:
402,192,81052,1,0,0:0:0:0:
182,192,81052,1,0,0:0:0:0:
402,192,81177,1,0,0:0:0:0:
475,192,81177,1,0,0:0:0:0:
36,192,81239,1,0,0:0:0:0:
182,192,81239,1,0,0:0:0:0:
256,192,81239,1,0,0:0:0:0:
329,192,81239,1,0,0:0:0:0:
109,192,81302,1,0,0:0:0:0:
402,192,81302,1,0,0:0:0:0:
475,192,81302,1,0,0:0:0:0:
256,192,81364,1,0,0:0:0:0:
36,192,81427,1,0,0:0:0:0:
182,192,81427,1,0,0:0:0:0:
329,192,81427,1,0,0:0:0:0:
475,192,81427,1,0,0:0:0:0:
256,192,81489,1,0,0:0:0:0:
36,192,81552,1,2,0:0:0:0:
109,192,81552,1,4,0:0:0:0:
329,192,81552,1,0,0:0:0:0:
402,192,81552,1,0,0:0:0:0:
475,192,81552,1,0,0:0:0:0:
36,192,81739,1,4,0:0:0:0:
109,192,81739,1,2,0:0:0:0:
256,192,81739,1,0,0:0:0:0:
402,192,81739,1,0,0:0:0:0:
475,192,81739,1,0,0:0:0:0:
109,192,81927,1,2,0:0:0:0:
182,192,81927,1,4,0:0:0:0:
256,192,81927,1,0,0:0:0:0:
329,192,81927,1,0,0:0:0:0:
402,192,81927,1,0,0:0:0:0:
36,192,82052,128,4,82427:0:0:0:0:
109,192,82052,128,2,82489:0:0:0:0:
182,192,82052,128,0,82552:0:0:0:0:
329,192,82052,128,0,82552:0:0:0:0:
402,192,82052,128,0,82489:0:0:0:0:
475,192,82052,128,0,82427:0:0:0:0:
36,192,82552,128,2,83052:0:0:0:0:
109,192,82552,128,4,82927:0:0:0:0:
256,192,82552,1,0,0:0:0:0:
402,192,82552,128,0,82802:0:0:0:0:
475,192,82552,128,0,83239:0:0:0:0:
182,192,82802,1,0,0:0:0:0:
329,192,82802,1,0,0:0:0:0:
256,192,82927,1,0,0:0:0:0:
402,192,82927,1,0,0:0:0:0:
109,192,83052,1,0,0:0:0:0:
182,192,83052,1,0,0:0:0:0:
256,192,83239,1,0,0:0:0:0:
402,192,83239,1,0,0:0:0:0:
329,192,83427,1,0,0:0:0:0:
475,192,83427,1,0,0:0:0:0:
36,192,83552,128,0,84177:0:0:0:0:
182,192,83552,128,0,83802:0:0:0:0:
329,192,83552,128,0,84177:0:0:0:0:
402,192,83552,128,0,83802:0:0:0:0:
109,192,83927,128,0,84552:0:0:0:0:
256,192,83927,128,0,84552:0:0:0:0:
402,192,83927,128,0,84552:0:0:0:0:
475,192,83927,128,0,84177:0:0:0:0:
36,192,84302,128,0,84552:0:0:0:0:
182,192,84302,128,0,84552:0:0:0:0:
329,192,84302,128,0,84552:0:0:0:0:
475,192,84302,128,0,84552:0:0:0:0:
109,192,84802,1,0,0:0:0:0:
256,192,84802,1,0,0:0:0:0:
182,192,84927,1,0,0:0:0:0:
329,192,84927,1,0,0:0:0:0:
256,192,85052,1,0,0:0:0:0:
475,192,85052,1,0,0:0:0:0:
182,192,85239,1,0,0:0:0:0:
402,192,85239,1,0,0:0:0:0:
109,192,85427,1,0,0:0:0:0:
329,192,85427,1,0,0:0:0:0:
109,192,85552,128,0,85802:0:0:0:0:
182,192,85552,128,0,86177:0:0:0:0:
329,192,85552,128,0,85802:0:0:0:0:
475,192,85552,128,0,86177:0:0:0:0:
36,192,85927,128,0,86177:0:0:0:0:
109,192,85927,128,0,86552:0:0:0:0:
256,192,85927,128,0,86552:0:0:0:0:
402,192,85927,128,0,86552:0:0:0:0:
36,192,86302,128,0,86552:0:0:0:0:
182,192,86302,128,0,86552:0:0:0:0:
329,192,86302,128,0,86552:0:0:0:0:
475,192,86302,128,0,86552:0:0:0:0:
256,192,86802,1,0,0:0:0:0:
402,192,86802,1,0,0:0:0:0:
182,192,86927,1,0,0:0:0:0:
329,192,86927,1,0,0:0:0:0:
36,192,87052,1,0,0:0:0:0:
256,192,87052,1,0,0:0:0:0:
109,192,87239,1,0,0:0:0:0:
329,192,87239,1,0,0:0:0:0:
182,192,87427,1,0,0:0:0:0:
402,192,87427,1,0,0:0:0:0:
36,192,87552,128,0,88177:0:0:0:0:
182,192,87552,128,0,87802:0:0:0:0:
329,192,87552,128,0,88177:0:0:0:0:
402,192,87552,128,0,87802:0:0:0:0:
109,192,87927,128,0,88552:0:0:0:0:
256,192,87927,128,0,88552:0:0:0:0:
402,192,87927,128,0,88552:0:0:0:0:
475,192,87927,128,0,88177:0:0:0:0:
36,192,88302,128,0,88552:0:0:0:0:
329,192,88302,128,0,88552:0:0:0:0:
182,192,88552,1,0,0:0:0:0:
475,192,88552,1,0,0:0:0:0:
109,192,88677,1,0,0:0:0:0:
402,192,88677,1,0,0:0:0:0:
36,192,88802,1,0,0:0:0:0:
329,192,88802,1,0,0:0:0:0:
182,192,88927,1,0,0:0:0:0:
475,192,88927,1,0,0:0:0:0:
109,192,89052,1,0,0:0:0:0:
402,192,89052,1,0,0:0:0:0:
36,192,89177,1,0,0:0:0:0:
329,192,89177,1,0,0:0:0:0:
182,192,89302,1,0,0:0:0:0:
475,192,89302,1,0,0:0:0:0:
109,192,89364,1,0,0:0:0:0:
402,192,89364,1,0,0:0:0:0:
36,192,89427,1,0,0:0:0:0:
475,192,89427,1,0,0:0:0:0:
182,192,89489,1,0,0:0:0:0:
329,192,89489,1,0,0:0:0:0:
36,192,89552,1,4,0:0:0:0:
109,192,89552,1,2,0:0:0:0:
256,192,89552,1,0,0:0:0:0:
402,192,89552,1,0,0:0:0:0:
475,192,89552,1,0,0:0:0:0:
36,192,89739,1,2,0:0:0:0:
109,192,89739,1,4,0:0:0:0:
182,192,89739,1,0,0:0:0:0:
329,192,89739,1,0,0:0:0:0:
402,192,89739,1,0,0:0:0:0:
36,192,89927,1,4,0:0:0:0:
182,192,89927,1,2,0:0:0:0:
329,192,89927,1,0,0:0:0:0:
402,192,89927,1,0,0:0:0:0:
475,192,89927,1,0,0:0:0:0:
36,192,90052,1,2,0:0:0:0:
109,192,90052,1,4,0:0:0:0:
256,192,90052,1,0,0:0:0:0:
402,192,90052,1,0,0:0:0:0:
475,192,90052,1,0,0:0:0:0:
109,192,90177,1,4,0:0:0:0:
182,192,90177,1,2,0:0:0:0:
329,192,90177,1,0,0:0:0:0:
402,192,90177,1,0,0:0:0:0:
36,192,90302,1,2,0:0:0:0:
182,192,90302,1,4,0:0:0:0:
256,192,90302,1,0,0:0:0:0:
329,192,90302,1,0,0:0:0:0:
475,192,90302,1,0,0:0:0:0:
109,192,90427,1,4,0:0:0:0:
256,192,90427,1,2,0:0:0:0:
329,192,90427,1,0,0:0:0:0:
402,192,90427,1,0,0:0:0:0:
36,192,90552,1,4,0:0:0:0:
109,192,90552,128,0,90677:0:0:0:70:electronic25.wav
182,192,90552,128,0,90802:0:0:0:0:
256,192,90552,128,0,90927:0:0:0:0:
329,192,90552,128,0,91052:0:0:0:0:
402,192,90552,128,0,91177:0:0:0:0:
475,192,90552,128,0,91364:0:0:0:0:
36,192,90802,1,0,0:0:0:0:
109,192,90927,1,0,0:0:0:0:
36,192,91052,128,0,91177:0:0:0:0:
182,192,91052,128,0,91177:0:0:0:0:
36,192,91239,128,0,91364:0:0:0:0:
182,192,91239,128,0,91364:0:0:0:0:
329,192,91239,128,0,91364:0:0:0:0:
36,192,91427,128,0,91489:0:0:0:0:
182,192,91427,128,0,91489:0:0:0:0:
329,192,91427,128,0,91489:0:0:0:0:
475,192,91427,128,0,91489:0:0:0:0:
36,192,91552,128,4,91802:0:0:0:0:
109,192,91552,128,2,92489:0:0:0:0:
256,192,91552,128,0,91802:0:0:0:0:
329,192,91552,128,0,91802:0:0:0:0:
402,192,91552,128,0,91802:0:0:0:0:
475,192,91552,128,0,92177:0:0:0:0:
36,192,91927,128,2,92177:0:0:0:0:
182,192,91927,128,4,92177:0:0:0:0:
256,192,91927,128,0,92489:0:0:0:0:
329,192,91927,128,0,92177:0:0:0:0:
402,192,91927,128,0,92177:0:0:0:0:
36,192,92302,128,4,92489:0:0:0:0:
182,192,92302,128,2,92489:0:0:0:0:
329,192,92302,128,0,92489:0:0:0:0:
402,192,92302,128,0,92489:0:0:0:0:
475,192,92302,128,0,92489:0:0:0:0:
36,192,92552,128,4,93364:0:0:0:0:
109,192,92552,128,0,93177:0:0:0:70:electronic25.wav
182,192,92552,128,0,93052:0:0:0:0:
256,192,92552,128,0,92927:0:0:0:0:
329,192,92552,128,0,92802:0:0:0:0:
402,192,92552,128,0,92677:0:0:0:0:
475,192,92552,1,0,0:0:0:0:
475,192,92802,1,0,0:0:0:0:
402,192,92927,1,0,0:0:0:0:
329,192,93052,128,0,93177:0:0:0:0:
475,192,93052,128,0,93177:0:0:0:0:
182,192,93239,128,0,93364:0:0:0:0:
329,192,93239,128,0,93364:0:0:0:0:
475,192,93239,128,0,93364:0:0:0:0:
36,192,93427,128,0,93489:0:0:0:0:
182,192,93427,128,0,93489:0:0:0:0:
329,192,93427,128,0,93489:0:0:0:0:
475,192,93427,128,0,93489:0:0:0:0:
36,192,93552,128,4,94177:0:0:0:0:
109,192,93552,128,2,93802:0:0:0:0:
182,192,93552,128,0,93802:0:0:0:0:
256,192,93552,128,0,93802:0:0:0:0:
402,192,93552,128,0,94489:0:0:0:0:
475,192,93552,128,0,93802:0:0:0:0:
109,192,93927,128,2,94177:0:0:0:0:
182,192,93927,128,4,94177:0:0:0:0:
256,192,93927,128,0,94489:0:0:0:0:
329,192,93927,128,0,94177:0:0:0:0:
475,192,93927,128,0,94177:0:0:0:0:
36,192,94302,128,4,94489:0:0:0:0:
109,192,94302,128,2,94489:0:0:0:0:
182,192,94302,128,0,94489:0:0:0:0:
329,192,94302,128,0,94489:0:0:0:0:
475,192,94302,128,0,94489:0:0:0:0:
36,192,94552,128,4,94614:0:0:0:0:
109,192,94552,128,0,94677:0:0:0:70:electronic25.wav
256,192,94552,128,0,94614:0:0:0:0:
329,192,94552,128,0,94677:0:0:0:0:
402,192,94552,128,0,94989:0:0:0:0:
475,192,94552,128,0,94989:0:0:0:0:
182,192,94614,128,0,94802:0:0:0:0:
256,192,94677,128,0,94739:0:0:0:0:
109,192,94739,128,0,94927:0:0:0:0:
36,192,94802,128,0,94864:0:0:0:0:
329,192,94802,128,0,94864:0:0:0:0:
182,192,94864,128,0,95177:0:0:0:0:
256,192,94927,128,0,94989:0:0:0:0:
109,192,94989,128,0,95489:0:0:0:0:
36,192,95052,128,0,95489:0:0:0:70:electronic25.wav
256,192,95052,128,0,95114:0:0:0:0:
402,192,95052,128,0,95177:0:0:0:0:
475,192,95052,128,0,95239:0:0:0:0:
329,192,95114,128,0,95302:0:0:0:0:
256,192,95177,128,0,95239:0:0:0:0:
402,192,95239,128,0,95427:0:0:0:0:
182,192,95302,128,0,95364:0:0:0:0:
475,192,95302,128,0,95364:0:0:0:0:
329,192,95364,128,0,95614:0:0:0:0:
256,192,95427,128,0,95489:0:0:0:0:
402,192,95489,128,0,95739:0:0:0:0:
36,192,95552,128,0,95614:0:0:0:70:electronic25.wav
256,192,95552,128,0,95614:0:0:0:0:
475,192,95552,128,0,95864:0:0:0:0:
182,192,95614,1,0,0:0:0:0:
36,192,95677,128,0,95739:0:0:0:0:
109,192,95677,128,0,95739:0:0:0:0:
329,192,95677,128,0,95739:0:0:0:0:
256,192,95739,1,0,0:0:0:0:
36,192,95802,128,0,95864:0:0:0:0:
109,192,95802,128,0,95864:0:0:0:0:
182,192,95802,128,0,95864:0:0:0:0:
402,192,95802,128,0,95864:0:0:0:0:
329,192,95864,1,0,0:0:0:0:
36,192,95927,128,0,95989:0:0:0:0:
109,192,95927,128,0,95989:0:0:0:0:
182,192,95927,128,0,95989:0:0:0:0:
256,192,95927,128,0,95989:0:0:0:0:
475,192,95927,128,0,95989:0:0:0:0:
402,192,95989,1,0,0:0:0:0:
36,192,96052,128,0,96364:0:0:0:70:electronic25.wav
109,192,96052,128,0,96239:0:0:0:0:
256,192,96052,128,0,96114:0:0:0:0:
475,192,96052,128,0,96114:0:0:0:0:
329,192,96114,1,0,0:0:0:0:
182,192,96177,128,0,96239:0:0:0:0:
402,192,96177,128,0,96239:0:0:0:0:
475,192,96177,128,0,96239:0:0:0:0:
256,192,96239,1,0,0:0:0:0:
109,192,96302,128,0,96364:0:0:0:0:
329,192,96302,128,0,96364:0:0:0:0:
402,192,96302,128,0,96364:0:0:0:0:
475,192,96302,128,0,96364:0:0:0:0:
182,192,96364,1,0,0:0:0:0:
36,192,96427,128,0,96489:0:0:0:0:
256,192,96427,128,0,96489:0:0:0:0:
329,192,96427,128,0,96489:0:0:0:0:
402,192,96427,128,0,96489:0:0:0:0:
475,192,96427,128,0,96489:0:0:0:0:
109,192,96489,1,0,0:0:0:0:
182,192,96552,1,0,0:0:0:70:electronic25.wav
329,192,96552,1,0,0:0:0:0:
402,192,96552,1,0,0:0:0:0:
475,192,96552,1,0,0:0:0:0:
36,192,96635,1,0,0:0:0:0:
109,192,96635,1,0,0:0:0:0:
182,192,96718,1,0,0:0:0:70:electronic25.wav
329,192,96718,1,0,0:0:0:0:
402,192,96718,1,0,0:0:0:0:
475,192,96718,1,0,0:0:0:0:
36,192,96802,1,0,0:0:0:0:
109,192,96802,1,0,0:0:0:0:
182,192,96885,1,0,0:0:0:70:electronic25.wav
256,192,96885,1,0,0:0:0:0:
402,192,96885,1,0,0:0:0:0:
475,192,96885,1,0,0:0:0:0:
109,192,96968,1,0,0:0:0:0:
329,192,96968,1,0,0:0:0:0:
36,192,97052,1,0,0:0:0:70:electronic25.wav
182,192,97052,1,0,0:0:0:0:
402,192,97052,1,0,0:0:0:0:
475,192,97052,1,0,0:0:0:0:
109,192,97135,1,0,0:0:0:0:
329,192,97135,1,0,0:0:0:0:
36,192,97218,1,0,0:0:0:70:electronic25.wav
182,192,97218,1,0,0:0:0:0:
402,192,97218,1,0,0:0:0:0:
475,192,97218,1,0,0:0:0:0:
256,192,97302,1,0,0:0:0:0:
329,192,97302,1,0,0:0:0:0:
36,192,97385,1,0,0:0:0:70:electronic25.wav
109,192,97385,1,0,0:0:0:0:
182,192,97385,1,0,0:0:0:0:
475,192,97385,1,0,0:0:0:0:
256,192,97468,1,0,0:0:0:0:
329,192,97468,1,0,0:0:0:0:
36,192,97552,1,2,0:0:0:0:
182,192,97552,1,0,0:0:0:0:
402,192,97552,1,0,0:0:0:0:
475,192,97552,1,0,0:0:0:0:
329,192,97593,1,0,0:0:0:0:
109,192,97635,1,0,0:0:0:0:
402,192,97677,1,0,0:0:0:0:
182,192,97718,1,0,0:0:0:0:
329,192,97760,1,0,0:0:0:0:
109,192,97802,1,0,0:0:0:0:
402,192,97843,1,0,0:0:0:0:
182,192,97885,1,0,0:0:0:0:
329,192,97927,1,0,0:0:0:0:
109,192,97968,1,0,0:0:0:0:
402,192,98010,1,0,0:0:0:0:
182,192,98052,1,0,0:0:0:0:
329,192,98093,1,0,0:0:0:0:
109,192,98135,1,0,0:0:0:0:
402,192,98177,1,0,0:0:0:0:
182,192,98218,1,0,0:0:0:0:
329,192,98260,1,0,0:0:0:0:
36,192,98302,1,0,0:0:0:70:electronic25.wav
475,192,98302,1,0,0:0:0:0:
256,192,98343,1,0,0:0:0:70:electronic25.wav
109,192,98385,1,0,0:0:0:70:electronic25.wav
402,192,98385,1,0,0:0:0:0:
182,192,98427,1,0,0:0:0:70:electronic25.wav
256,192,98468,1,0,0:0:0:70:electronic25.wav
329,192,98510,1,0,0:0:0:70:electronic25.wav
36,192,98552,1,4,0:0:0:0:
109,192,98552,1,0,0:0:0:70:electronic25.wav
182,192,98552,128,0,101858:0:0:0:0:
256,192,98552,128,0,101912:0:0:0:0:
402,192,98552,128,0,102019:0:0:0:0:
475,192,98552,128,0,102073:0:0:0:0:
36,192,98792,1,0,0:0:0:0:
36,192,99032,1,0,0:0:0:0:
36,192,99272,1,0,0:0:0:0:
36,192,99512,1,0,0:0:0:0:
109,192,99512,128,0,101805:0:0:0:0:
329,192,99512,128,0,101965:0:0:0:0:
36,192,99742,1,0,0:0:0:0:
36,192,99973,1,0,0:0:0:0:
36,192,100204,1,0,0:0:0:0:
36,192,100435,1,0,0:0:0:0:
36,192,100657,1,0,0:0:0:0:
36,192,100879,1,0,0:0:0:0:
36,192,101101,1,0,0:0:0:0:
36,192,101323,1,0,0:0:0:0:
36,192,101537,1,0,0:0:0:0:
36,192,101751,1,0,0:0:0:0:
36,192,101858,128,0,101965:0:0:0:0:
109,192,101912,128,0,102019:0:0:0:0:
182,192,101965,128,0,102073:0:0:0:0:
256,192,102019,128,0,102126:0:0:0:0:
329,192,102073,128,0,102180:0:0:0:0:
36,192,102180,1,2,0:0:0:0:
109,192,102180,1,4,0:0:0:0:
182,192,102180,1,0,0:0:0:0:
402,192,102180,1,0,0:0:0:0:
475,192,102180,1,0,0:0:0:0:
256,192,102233,1,0,0:0:0:0:
329,192,102287,1,0,0:0:0:0:
402,192,102340,1,0,0:0:0:0:
36,192,102394,1,0,0:0:0:70:snare01.wav
109,192,102394,1,0,0:0:0:0:
182,192,102394,1,0,0:0:0:0:
475,192,102394,1,0,0:0:0:0:
256,192,102448,1,0,0:0:0:0:
329,192,102501,1,0,0:0:0:0:
402,192,102555,1,0,0:0:0:0:
36,192,102608,1,0,0:0:0:70:snare01.wav
109,192,102608,1,0,0:0:0:0:
182,192,102608,1,0,0:0:0:0:
475,192,102608,1,0,0:0:0:0:
402,192,102662,1,0,0:0:0:0:
329,192,102715,1,0,0:0:0:0:
256,192,102769,1,0,0:0:0:0:
36,192,102823,1,0,0:0:0:70:snare01.wav
109,192,102823,1,0,0:0:0:0:
182,192,102823,1,0,0:0:0:0:
475,192,102823,1,0,0:0:0:0:
402,192,102876,1,0,0:0:0:0:
329,192,102930,1,0,0:0:0:0:
256,192,102983,1,0,0:0:0:0:
36,192,103037,1,0,0:0:0:70:snare01.wav
109,192,103037,1,0,0:0:0:0:
402,192,103037,1,0,0:0:0:0:
475,192,103037,1,0,0:0:0:0:
256,192,103090,1,0,0:0:0:0:
182,192,103144,1,0,0:0:0:0:
109,192,103198,1,0,0:0:0:0:
36,192,103251,1,0,0:0:0:70:snare01.wav
329,192,103251,1,0,0:0:0:0:
402,192,103251,1,0,0:0:0:0:
475,192,103251,1,0,0:0:0:0:
256,192,103305,1,0,0:0:0:0:
182,192,103358,1,0,0:0:0:0:
109,192,103412,1,0,0:0:0:0:
36,192,103465,1,0,0:0:0:70:snare01.wav
329,192,103465,1,0,0:0:0:0:
402,192,103465,1,0,0:0:0:0:
475,192,103465,1,0,0:0:0:0:
109,192,103519,1,0,0:0:0:0:
182,192,103573,1,0,0:0:0:0:
256,192,103626,1,0,0:0:0:0:
36,192,103680,1,0,0:0:0:70:snare01.wav
329,192,103680,1,0,0:0:0:0:
402,192,103680,1,0,0:0:0:0:
475,192,103680,1,0,0:0:0:0:
109,192,103733,1,0,0:0:0:0:
182,192,103787,1,0,0:0:0:0:
256,192,103840,1,0,0:0:0:0:
109,192,103894,1,0,0:0:0:70:snare01.wav
329,192,103894,1,0,0:0:0:0:
475,192,103894,1,0,0:0:0:0:
182,192,103948,1,0,0:0:0:0:
36,192,104001,1,0,0:0:0:70:snare01.wav
256,192,104001,1,0,0:0:0:0:
402,192,104001,1,0,0:0:0:0:
109,192,104055,1,0,0:0:0:0:
182,192,104108,1,0,0:0:0:70:snare01.wav
329,192,104108,1,0,0:0:0:0:
475,192,104108,1,0,0:0:0:0:
36,192,104162,1,0,0:0:0:0:
109,192,104215,1,0,0:0:0:70:snare01.wav
256,192,104215,1,0,0:0:0:0:
402,192,104215,1,0,0:0:0:0:
475,192,104269,1,0,0:0:0:0:
36,192,104323,1,0,0:0:0:70:snare01.wav
182,192,104323,1,0,0:0:0:0:
329,192,104376,1,0,0:0:0:0:
402,192,104376,1,0,0:0:0:0:
109,192,104430,1,0,0:0:0:70:snare01.wav
256,192,104430,1,0,0:0:0:0:
402,192,104483,1,0,0:0:0:0:
475,192,104483,1,0,0:0:0:0:
182,192,104537,1,0,0:0:0:70:snare01.wav
329,192,104537,1,0,0:0:0:0:
36,192,104590,1,0,0:0:0:0:
109,192,104590,1,0,0:0:0:0:
256,192,104644,1,0,0:0:0:70:snare01.wav
402,192,104644,1,0,0:0:0:0:
109,192,104698,1,0,0:0:0:0:
182,192,104698,1,0,0:0:0:0:
36,192,104751,1,2,0:0:0:0:
329,192,104751,1,0,0:0:0:0:
402,192,104751,1,0,0:0:0:0:
475,192,104751,1,0,0:0:0:0:
36,192,105608,128,4,105751:0:0:0:0:
109,192,105608,128,2,105715:0:0:0:0:
182,192,105608,128,0,105680:0:0:0:0:
256,192,105608,128,0,105644:0:0:0:0:
475,192,105608,128,0,105680:0:0:0:0:
402,192,105644,128,0,105715:0:0:0:0:
329,192,105680,128,0,105751:0:0:0:0:
256,192,105715,128,0,105787:0:0:0:0:
182,192,105751,128,0,105823:0:0:0:0:
36,192,105823,128,0,105894:0:0:0:0:
329,192,105823,128,0,105894:0:0:0:0:
402,192,105823,128,0,105930:0:0:0:0:
475,192,105823,128,0,105965:0:0:0:0:
109,192,105858,128,0,105930:0:0:0:0:
182,192,105894,128,0,105965:0:0:0:0:
256,192,105930,128,0,106001:0:0:0:0:
329,192,105965,128,0,106037:0:0:0:0:
36,192,106037,1,0,0:0:0:100:LR3_Snare WRH.wav
109,192,106037,1,0,0:0:0:0:
402,192,106037,1,0,0:0:0:0:
475,192,106037,1,0,0:0:0:0:
182,192,106090,1,0,0:0:0:0:
256,192,106144,1,0,0:0:0:0:
475,192,106144,1,0,0:0:0:0:
402,192,106198,1,0,0:0:0:0:
36,192,106251,1,0,0:0:0:0:
109,192,106251,1,0,0:0:0:0:
329,192,106251,1,0,0:0:0:0:
182,192,106305,1,0,0:0:0:0:
256,192,106358,1,2,0:0:0:0:
329,192,106358,1,0,0:0:0:0:
402,192,106358,1,0,0:0:0:0:
36,192,106412,1,0,0:0:0:0:
109,192,106412,1,0,0:0:0:0:
329,192,106465,1,0,0:0:0:0:
402,192,106465,1,0,0:0:0:0:
475,192,106465,1,0,0:0:0:0:
109,192,106519,1,0,0:0:0:0:
182,192,106519,1,0,0:0:0:0:
402,192,106573,1,0,0:0:0:0:
475,192,106573,1,0,0:0:0:0:
182,192,106626,1,0,0:0:0:0:
256,192,106626,1,0,0:0:0:0:
36,192,106680,1,2,0:0:0:0:
109,192,106680,1,0,0:0:0:0:
329,192,106680,1,0,0:0:0:0:
402,192,106733,1,0,0:0:0:0:
475,192,106733,1,0,0:0:0:0:
182,192,106787,1,0,0:0:0:0:
256,192,106787,1,0,0:0:0:0:
36,192,106840,1,0,0:0:0:0:
109,192,106840,1,0,0:0:0:0:
256,192,106894,1,0,0:0:0:100:LR3_Snare WRH.wav
329,192,106894,1,0,0:0:0:0:
402,192,106894,1,0,0:0:0:0:
475,192,106894,1,0,0:0:0:0:
109,192,106948,1,0,0:0:0:0:
182,192,106948,1,0,0:0:0:0:
329,192,107001,1,0,0:0:0:0:
402,192,107001,1,0,0:0:0:0:
182,192,107055,1,0,0:0:0:0:
256,192,107055,1,0,0:0:0:0:
36,192,107108,1,0,0:0:0:0:
109,192,107108,1,0,0:0:0:0:
256,192,107162,1,0,0:0:0:0:
329,192,107162,1,0,0:0:0:0:
402,192,107215,1,0,0:0:0:0:
475,192,107215,1,0,0:0:0:0:
36,192,107269,1,0,0:0:0:0:
182,192,107269,1,0,0:0:0:0:
256,192,107322,128,2,107358:0:0:0:0:
329,192,107322,128,0,107394:0:0:0:0:
402,192,107322,128,0,107430:0:0:0:0:
475,192,107322,128,0,107608:0:0:0:0:
109,192,107358,128,0,107430:0:0:0:0:
182,192,107394,128,0,107465:0:0:0:0:
256,192,107430,128,0,107501:0:0:0:0:
329,192,107465,128,0,107537:0:0:0:0:
36,192,107501,128,0,107680:0:0:0:0:
402,192,107501,128,0,107644:0:0:0:0:
109,192,107537,128,0,107644:0:0:0:0:
182,192,107572,128,0,107608:0:0:0:0:
329,192,107608,128,0,107680:0:0:0:0:
256,192,107644,128,0,107715:0:0:0:0:
182,192,107680,128,0,107751:0:0:0:0:
36,192,107751,1,0,0:0:0:100:LR3_Snare WRH.wav
109,192,107751,1,0,0:0:0:0:
402,192,107751,1,0,0:0:0:0:
475,192,107751,1,0,0:0:0:0:
182,192,107858,1,0,0:0:0:0:
329,192,107858,1,0,0:0:0:0:
256,192,107965,1,0,0:0:0:0:
402,192,107965,1,0,0:0:0:0:
475,192,107965,1,0,0:0:0:0:
36,192,108019,1,0,0:0:0:0:
109,192,108019,1,0,0:0:0:0:
329,192,108072,1,2,0:0:0:0:
402,192,108072,1,0,0:0:0:0:
475,192,108072,1,0,0:0:0:0:
182,192,108126,1,0,0:0:0:0:
256,192,108126,1,0,0:0:0:0:
36,192,108180,1,0,0:0:0:0:
109,192,108180,1,0,0:0:0:0:
256,192,108233,1,0,0:0:0:0:
329,192,108233,1,0,0:0:0:0:
109,192,108287,1,0,0:0:0:0:
182,192,108287,1,0,0:0:0:0:
329,192,108340,1,0,0:0:0:0:
402,192,108340,1,0,0:0:0:0:
36,192,108394,1,2,0:0:0:0:
182,192,108394,1,0,0:0:0:0:
256,192,108394,1,0,0:0:0:0:
402,192,108447,1,0,0:0:0:0:
475,192,108447,1,0,0:0:0:0:
256,192,108501,1,0,0:0:0:0:
329,192,108501,1,0,0:0:0:0:
402,192,108555,1,0,0:0:0:0:
475,192,108555,1,0,0:0:0:0:
36,192,108608,1,0,0:0:0:100:LR3_Snare WRH.wav
109,192,108608,1,0,0:0:0:0:
182,192,108608,1,0,0:0:0:0:
256,192,108608,1,0,0:0:0:0:
329,192,108662,1,0,0:0:0:0:
475,192,108662,1,0,0:0:0:0:
36,192,108715,1,2,0:0:0:0:
109,192,108715,1,0,0:0:0:0:
182,192,108715,1,0,0:0:0:0:
256,192,108769,1,0,0:0:0:0:
402,192,108769,1,0,0:0:0:0:
109,192,108822,1,0,0:0:0:0:
475,192,108822,1,0,0:0:0:0:
182,192,108876,1,0,0:0:0:0:
329,192,108876,1,0,0:0:0:0:
36,192,108930,1,0,0:0:0:0:
402,192,108930,1,0,0:0:0:0:
109,192,108983,1,0,0:0:0:0:
256,192,108983,1,0,0:0:0:0:
36,192,109037,128,2,109108:0:0:0:0:
329,192,109037,128,0,109108:0:0:0:0:
402,192,109037,128,0,109144:0:0:0:0:
475,192,109037,128,0,109180:0:0:0:0:
109,192,109072,128,0,109144:0:0:0:0:
182,192,109108,128,0,109180:0:0:0:0:
256,192,109144,128,0,109215:0:0:0:0:
329,192,109180,128,0,109251:0:0:0:0:
36,192,109251,128,0,109394:0:0:0:0:
109,192,109251,128,0,109358:0:0:0:0:
182,192,109251,128,0,109322:0:0:0:0:
475,192,109251,128,0,109322:0:0:0:0:
402,192,109287,128,0,109358:0:0:0:0:
329,192,109322,128,0,109394:0:0:0:0:
256,192,109358,128,0,109430:0:0:0:0:
182,192,109394,128,0,109465:0:0:0:0:
36,192,109465,1,0,0:0:0:100:LR3_Snare WRH.wav
109,192,109465,1,0,0:0:0:0:
402,192,109465,1,0,0:0:0:0:
475,192,109465,1,0,0:0:0:0:
182,192,109519,1,0,0:0:0:0:
329,192,109519,1,0,0:0:0:0:
256,192,109572,1,0,0:0:0:0:
475,192,109572,1,0,0:0:0:0:
402,192,109626,1,0,0:0:0:0:
36,192,109680,1,0,0:0:0:0:
109,192,109680,1,0,0:0:0:0:
182,192,109733,1,0,0:0:0:0:
329,192,109733,1,0,0:0:0:0:
256,192,109787,1,2,0:0:0:0:
402,192,109787,1,0,0:0:0:0:
475,192,109787,1,0,0:0:0:0:
36,192,109840,1,0,0:0:0:0:
109,192,109840,1,0,0:0:0:0:
182,192,109894,1,0,0:0:0:0:
329,192,109894,1,0,0:0:0:0:
402,192,109947,1,0,0:0:0:0:
475,192,109947,1,0,0:0:0:0:
36,192,110001,1,0,0:0:0:0:
109,192,110001,1,0,0:0:0:0:
182,192,110055,1,0,0:0:0:0:
329,192,110055,1,0,0:0:0:0:
256,192,110108,1,2,0:0:0:0:
402,192,110108,1,0,0:0:0:0:
475,192,110108,1,0,0:0:0:0:
36,192,110162,1,0,0:0:0:0:
109,192,110162,1,0,0:0:0:0:
182,192,110215,1,0,0:0:0:0:
329,192,110215,1,0,0:0:0:0:
402,192,110269,1,0,0:0:0:0:
475,192,110269,1,0,0:0:0:0:
36,192,110322,1,0,0:0:0:100:LR3_Snare WRH.wav
329,192,110322,1,0,0:0:0:0:
109,192,110358,1,0,0:0:0:0:
256,192,110358,1,0,0:0:0:0:
182,192,110394,1,0,0:0:0:0:
329,192,110465,1,0,0:0:0:0:
256,192,110501,1,0,0:0:0:0:
402,192,110501,1,0,0:0:0:0:
182,192,110537,1,0,0:0:0:0:
475,192,110537,1,0,0:0:0:0:
36,192,110644,1,0,0:0:0:0:
329,192,110644,1,0,0:0:0:0:
109,192,110680,1,0,0:0:0:0:
256,192,110680,1,0,0:0:0:0:
182,192,110715,1,0,0:0:0:0:
329,192,110751,1,2,0:0:0:0:
402,192,110751,1,0,0:0:0:0:
475,192,110751,1,0,0:0:0:0:
36,192,110805,1,0,0:0:0:0:
109,192,110805,1,0,0:0:0:0:
182,192,110858,1,0,0:0:0:0:
256,192,110858,1,0,0:0:0:0:
402,192,110912,1,0,0:0:0:0:
475,192,110912,1,0,0:0:0:0:
109,192,110965,1,0,0:0:0:0:
182,192,110965,1,0,0:0:0:0:
329,192,111019,1,0,0:0:0:0:
402,192,111019,1,0,0:0:0:0:
36,192,111072,1,0,0:0:0:0:
109,192,111072,1,0,0:0:0:0:
256,192,111126,1,0,0:0:0:0:
329,192,111126,1,0,0:0:0:0:
36,192,111180,1,0,0:0:0:100:LR3_Snare WRH.wav
182,192,111180,1,0,0:0:0:0:
402,192,111180,1,0,0:0:0:0:
475,192,111180,1,0,0:0:0:0:
256,192,111287,1,0,0:0:0:0:
109,192,111394,1,0,0:0:0:0:
329,192,111394,1,0,0:0:0:0:
182,192,111447,1,0,0:0:0:0:
402,192,111447,1,0,0:0:0:0:
36,192,111501,1,2,0:0:0:0:
256,192,111501,1,0,0:0:0:0:
475,192,111501,1,0,0:0:0:0:
329,192,111555,1,0,0:0:0:0:
36,192,111608,1,0,0:0:0:0:
109,192,111608,1,0,0:0:0:0:
182,192,111608,1,0,0:0:0:0:
475,192,111608,128,0,111644:0:0:0:0:
402,192,111626,128,0,111662:0:0:0:0:
36,192,111715,1,0,0:0:0:0:
109,192,111715,1,0,0:0:0:0:
182,192,111715,1,0,0:0:0:0:
475,192,111715,128,0,111751:0:0:0:0:
402,192,111733,128,0,111769:0:0:0:0:
36,192,111822,128,2,111858:0:0:0:0:
256,192,111822,1,0,0:0:0:0:
329,192,111822,1,0,0:0:0:0:
475,192,111822,1,0,0:0:0:0:
109,192,111840,128,0,111876:0:0:0:0:
36,192,111930,128,0,111965:0:0:0:0:
256,192,111930,1,0,0:0:0:0:
329,192,111930,1,0,0:0:0:0:
475,192,111930,1,0,0:0:0:0:
109,192,111947,128,0,111983:0:0:0:0:
182,192,112037,1,0,0:0:0:100:LR3_Snare WRH.wav
329,192,112037,1,0,0:0:0:0:
402,192,112037,1,0,0:0:0:0:
475,192,112037,1,0,0:0:0:0:
36,192,112144,1,2,0:0:0:0:
109,192,112144,1,0,0:0:0:0:
256,192,112144,1,0,0:0:0:0:
402,192,112144,1,0,0:0:0:0:
36,192,112251,1,2,0:0:0:0:
109,192,112251,1,0,0:0:0:0:
182,192,112251,1,0,0:0:0:0:
475,192,112251,128,0,112287:0:0:0:0:
402,192,112269,128,0,112305:0:0:0:0:
36,192,112358,1,0,0:0:0:0:
109,192,112358,1,0,0:0:0:0:
182,192,112358,1,0,0:0:0:0:
475,192,112358,128,0,112394:0:0:0:0:
402,192,112376,128,0,112412:0:0:0:0:
36,192,112465,128,2,112501:0:0:0:0:
109,192,112465,128,4,112537:0:0:0:0:
329,192,112465,1,0,0:0:0:0:
182,192,112501,128,0,112572:0:0:0:0:
256,192,112537,128,0,112608:0:0:0:0:
475,192,112537,1,0,0:0:0:0:
36,192,112608,1,0,0:0:0:0:
329,192,112608,1,0,0:0:0:0:
109,192,112680,1,0,0:0:0:0:
182,192,112680,1,0,0:0:0:0:
402,192,112680,128,0,112751:0:0:0:0:
475,192,112680,128,0,112715:0:0:0:0:
329,192,112715,128,0,112787:0:0:0:0:
36,192,112751,1,0,0:0:0:0:
256,192,112751,128,0,112822:0:0:0:0:
182,192,112822,1,0,0:0:0:0:
475,192,112822,1,0,0:0:0:0:
36,192,112894,128,0,112930:0:0:0:100:LR3_Snare WRH.wav
109,192,112894,128,0,112965:0:0:0:0:
329,192,112894,1,0,0:0:0:0:
402,192,112894,1,0,0:0:0:0:
182,192,112930,128,0,113001:0:0:0:0:
256,192,112965,128,0,113037:0:0:0:0:
475,192,112965,1,0,0:0:0:0:
36,192,113037,1,0,0:0:0:0:
329,192,113037,1,0,0:0:0:0:
109,192,113108,1,0,0:0:0:0:
182,192,113108,1,0,0:0:0:0:
402,192,113108,1,0,0:0:0:0:
256,192,113180,1,0,0:0:0:0:
475,192,113180,1,0,0:0:0:0:
36,192,113251,1,0,0:0:0:0:
329,192,113251,1,0,0:0:0:0:
109,192,113322,1,0,0:0:0:0:
182,192,113322,1,0,0:0:0:0:
402,192,113322,128,0,113394:0:0:0:0:
475,192,113322,128,0,113358:0:0:0:0:
329,192,113358,128,0,113430:0:0:0:0:
36,192,113394,1,0,0:0:0:0:
256,192,113394,128,0,113465:0:0:0:0:
182,192,113465,1,0,0:0:0:0:
475,192,113465,1,0,0:0:0:0:
36,192,113537,128,2,113572:0:0:0:0:
109,192,113537,128,0,113608:0:0:0:0:
329,192,113537,1,0,0:0:0:0:
402,192,113537,1,0,0:0:0:0:
182,192,113572,128,0,113644:0:0:0:0:
256,192,113608,128,0,113680:0:0:0:0:
475,192,113608,1,0,0:0:0:0:
36,192,113680,1,0,0:0:0:0:
329,192,113680,1,0,0:0:0:0:
109,192,113751,1,0,0:0:0:100:LR3_Snare WRH.wav
182,192,113751,1,0,0:0:0:0:
402,192,113751,128,0,113822:0:0:0:0:
475,192,113751,128,0,113787:0:0:0:0:
329,192,113787,128,0,113858:0:0:0:0:
36,192,113822,1,0,0:0:0:0:
256,192,113822,128,0,113894:0:0:0:0:
182,192,113894,1,0,0:0:0:0:
475,192,113894,1,0,0:0:0:0:
109,192,113965,1,0,0:0:0:0:
256,192,113965,1,0,0:0:0:0:
402,192,113965,1,0,0:0:0:0:
36,192,114037,1,0,0:0:0:0:
182,192,114037,1,0,0:0:0:0:
329,192,114037,1,0,0:0:0:0:
256,192,114108,1,0,0:0:0:0:
402,192,114108,1,0,0:0:0:0:
36,192,114180,128,2,114215:0:0:0:0:
109,192,114180,128,0,114251:0:0:0:0:
329,192,114180,1,0,0:0:0:0:
475,192,114180,1,0,0:0:0:0:
182,192,114215,128,0,114287:0:0:0:0:
256,192,114251,128,0,114322:0:0:0:0:
402,192,114251,1,0,0:0:0:0:
36,192,114322,1,0,0:0:0:0:
109,192,114394,1,0,0:0:0:0:
182,192,114394,1,0,0:0:0:0:
402,192,114394,128,0,114465:0:0:0:0:
475,192,114394,128,0,114430:0:0:0:0:
329,192,114430,128,0,114501:0:0:0:0:
36,192,114465,1,0,0:0:0:0:
256,192,114465,128,0,114537:0:0:0:0:
182,192,114537,1,0,0:0:0:0:
475,192,114537,1,0,0:0:0:0:
36,192,114608,128,0,114644:0:0:0:100:LR3_Snare WRH.wav
109,192,114608,128,0,114680:0:0:0:0:
329,192,114608,1,0,0:0:0:0:
402,192,114608,1,0,0:0:0:0:
182,192,114644,128,0,114715:0:0:0:0:
256,192,114680,128,0,114751:0:0:0:0:
475,192,114680,1,0,0:0:0:0:
36,192,114751,1,0,0:0:0:0:
329,192,114751,1,0,0:0:0:0:
109,192,114822,1,0,0:0:0:0:
182,192,114822,1,0,0:0:0:0:
402,192,114822,1,0,0:0:0:0:
256,192,114894,1,0,0:0:0:0:
475,192,114894,1,0,0:0:0:0:
182,192,114965,1,0,0:0:0:0:
329,192,114965,1,0,0:0:0:0:
36,192,115037,128,0,115072:0:0:0:0:
109,192,115037,128,0,115108:0:0:0:0:
402,192,115037,128,0,115090:0:0:0:0:
329,192,115055,128,0,115108:0:0:0:0:
256,192,115072,128,0,115144:0:0:0:0:
182,192,115090,128,0,115126:0:0:0:0:
36,192,115144,128,0,115197:0:0:0:0:
402,192,115144,128,0,115197:0:0:0:0:
475,192,115144,128,0,115180:0:0:0:0:
109,192,115162,128,0,115215:0:0:0:0:
182,192,115180,128,0,115233:0:0:0:0:
256,192,115197,128,0,115251:0:0:0:0:
36,192,115251,1,2,0:0:0:0:
329,192,115251,1,0,0:0:0:0:
402,192,115251,1,0,0:0:0:0:
475,192,115251,1,0,0:0:0:0:
109,192,115358,1,0,0:0:0:0:
182,192,115358,1,0,0:0:0:0:
402,192,115412,1,0,0:0:0:0:
475,192,115412,1,0,0:0:0:0:
36,192,115465,1,0,0:0:0:100:LR3_Snare WRH.wav
182,192,115465,1,0,0:0:0:0:
256,192,115465,1,0,0:0:0:0:
329,192,115519,1,0,0:0:0:0:
402,192,115519,1,0,0:0:0:0:
109,192,115572,1,2,0:0:0:0:
182,192,115572,1,0,0:0:0:0:
475,192,115572,1,0,0:0:0:0:
256,192,115626,1,0,0:0:0:0:
329,192,115626,1,0,0:0:0:0:
36,192,115680,1,0,0:0:0:0:
402,192,115680,1,0,0:0:0:0:
475,192,115680,1,0,0:0:0:0:
109,192,115697,1,0,0:0:0:0:
182,192,115715,1,0,0:0:0:0:
36,192,115787,1,0,0:0:0:0:
109,192,115787,1,0,0:0:0:0:
475,192,115787,1,0,0:0:0:0:
402,192,115805,1,0,0:0:0:0:
329,192,115822,1,0,0:0:0:0:
36,192,115894,128,2,115947:0:0:0:0:
109,192,115894,128,0,115965:0:0:0:0:
182,192,115894,128,0,115983:0:0:0:0:
475,192,115894,128,0,116019:0:0:0:0:
256,192,115912,128,0,116001:0:0:0:0:
329,192,115930,128,0,116019:0:0:0:0:
402,192,115947,128,0,116162:0:0:0:0:
36,192,116108,128,0,116233:0:0:0:0:
329,192,116108,128,0,116180:0:0:0:0:
475,192,116108,128,0,116144:0:0:0:0:
256,192,116126,128,0,116197:0:0:0:0:
182,192,116144,128,0,116215:0:0:0:0:
109,192,116162,128,0,116430:0:0:0:0:
36,192,116322,128,0,116412:0:0:0:100:LR3_Snare WRH.wav
256,192,116322,128,0,116465:0:0:0:0:
402,192,116322,128,0,116501:0:0:0:0:
182,192,116340,128,0,116447:0:0:0:0:
329,192,116358,128,0,116483:0:0:0:0:
475,192,116394,128,0,116519:0:0:0:0:
36,192,116537,1,0,0:0:0:0:
182,192,116537,1,0,0:0:0:0:
256,192,116590,1,0,0:0:0:0:
109,192,116644,1,2,0:0:0:0:
329,192,116644,1,0,0:0:0:0:
475,192,116644,1,0,0:0:0:0:
36,192,116751,128,0,116876:0:0:0:0:
329,192,116751,128,0,116840:0:0:0:0:
402,192,116751,128,0,116822:0:0:0:0:
475,192,116751,128,0,116805:0:0:0:0:
256,192,116769,128,0,116858:0:0:0:0:
182,192,116787,128,0,116876:0:0:0:0:
109,192,116805,128,0,117019:0:0:0:0:
36,192,116965,128,2,117001:0:0:0:0:
182,192,116965,128,0,117037:0:0:0:0:
475,192,116965,128,0,117090:0:0:0:0:
256,192,116983,128,0,117055:0:0:0:0:
329,192,117001,128,0,117072:0:0:0:0:
402,192,117019,128,0,117233:0:0:0:0:
36,192,117072,128,0,117108:0:0:0:0:
109,192,117090,128,0,117126:0:0:0:0:
182,192,117108,128,0,117144:0:0:0:0:
36,192,117180,128,0,117322:0:0:0:100:LR3_Snare WRH.wav
256,192,117180,128,0,117269:0:0:0:0:
475,192,117180,128,0,117215:0:0:0:0:
329,192,117197,128,0,117251:0:0:0:0:
182,192,117215,128,0,117287:0:0:0:0:
109,192,117233,128,0,117305:0:0:0:0:
402,192,117287,1,2,0:0:0:0:
475,192,117287,1,0,0:0:0:0:
182,192,117394,1,0,0:0:0:0:
329,192,117394,1,0,0:0:0:0:
109,192,117501,1,0,0:0:0:0:
402,192,117501,1,0,0:0:0:0:
256,192,117555,1,0,0:0:0:0:
36,192,117608,1,2,0:0:0:0:
182,192,117608,1,0,0:0:0:0:
329,192,117608,1,0,0:0:0:0:
475,192,117608,1,0,0:0:0:0:
109,192,117822,128,0,117876:0:0:0:0:
256,192,117822,128,0,118197:0:0:0:0:
109,192,117930,128,0,118197:0:0:0:0:
329,192,118037,128,0,118358:0:0:0:0:
182,192,118144,128,0,118197:0:0:0:0:
109,192,118251,128,0,118465:0:0:0:0:
182,192,118251,128,0,118465:0:0:0:0:
402,192,118251,128,0,118465:0:0:0:0:
36,192,118465,128,0,119215:0:0:0:0:
256,192,118465,128,0,118519:0:0:0:0:
475,192,118465,128,0,119215:0:0:0:0:
256,192,118572,128,0,118733:0:0:0:0:
402,192,118572,128,0,118626:0:0:0:0:
182,192,118680,128,0,118733:0:0:0:0:
402,192,118680,128,0,119215:0:0:0:0:
182,192,118787,128,0,118947:0:0:0:0:
329,192,118787,128,0,118840:0:0:0:0:
109,192,118894,128,0,118947:0:0:0:0:
329,192,118894,128,0,119215:0:0:0:0:
109,192,119001,128,0,119215:0:0:0:0:
256,192,119001,128,0,119055:0:0:0:0:
256,192,119108,128,0,119215:0:0:0:0:
36,192,119322,128,4,119394:0:0:0:0:
256,192,119322,128,2,119358:0:0:0:0:
329,192,119322,128,0,119394:0:0:0:0:
402,192,119322,128,0,119430:0:0:0:0:
475,192,119322,128,0,119465:0:0:0:0:
109,192,119358,128,0,119430:0:0:0:0:
182,192,119394,128,0,119465:0:0:0:0:
256,192,119430,128,0,119501:0:0:0:0:
329,192,119465,128,0,119537:0:0:0:0:
36,192,119537,128,0,119680:0:0:0:0:
109,192,119537,128,0,119644:0:0:0:0:
182,192,119537,128,0,119608:0:0:0:0:
475,192,119537,128,0,119608:0:0:0:0:
402,192,119572,128,0,119644:0:0:0:0:
329,192,119608,128,0,119680:0:0:0:0:
256,192,119644,128,0,119715:0:0:0:0:
182,192,119680,128,0,119751:0:0:0:0:
36,192,119751,1,0,0:0:0:100:LR3_Snare WRH.wav
109,192,119751,1,0,0:0:0:0:
402,192,119751,1,0,0:0:0:0:
475,192,119751,1,0,0:0:0:0:
329,192,119805,1,0,0:0:0:0:
36,192,119858,1,0,0:0:0:0:
256,192,119858,1,0,0:0:0:0:
109,192,119912,1,0,0:0:0:0:
182,192,119965,1,0,0:0:0:0:
402,192,119965,1,0,0:0:0:0:
475,192,119965,1,0,0:0:0:0:
329,192,120019,1,0,0:0:0:0:
109,192,120072,1,2,0:0:0:0:
182,192,120072,1,0,0:0:0:0:
256,192,120072,1,0,0:0:0:0:
402,192,120126,1,0,0:0:0:0:
475,192,120126,1,0,0:0:0:0:
36,192,120180,1,0,0:0:0:0:
109,192,120180,1,0,0:0:0:0:
182,192,120180,1,0,0:0:0:0:
329,192,120233,1,0,0:0:0:0:
402,192,120233,1,0,0:0:0:0:
36,192,120287,1,0,0:0:0:0:
109,192,120287,1,0,0:0:0:0:
256,192,120340,1,0,0:0:0:0:
329,192,120340,1,0,0:0:0:0:
182,192,120394,1,2,0:0:0:0:
402,192,120394,1,0,0:0:0:0:
475,192,120394,1,0,0:0:0:0:
36,192,120447,1,0,0:0:0:0:
109,192,120447,1,0,0:0:0:0:
256,192,120501,1,0,0:0:0:0:
329,192,120501,1,0,0:0:0:0:
402,192,120555,1,0,0:0:0:0:
475,192,120555,1,0,0:0:0:0:
36,192,120608,1,0,0:0:0:100:LR3_Snare WRH.wav
109,192,120608,1,0,0:0:0:0:
182,192,120608,1,0,0:0:0:0:
256,192,120608,1,0,0:0:0:0:
329,192,120662,1,0,0:0:0:0:
402,192,120662,1,0,0:0:0:0:
109,192,120715,1,0,0:0:0:0:
182,192,120715,1,0,0:0:0:0:
256,192,120769,1,0,0:0:0:0:
329,192,120769,1,0,0:0:0:0:
402,192,120822,1,0,0:0:0:0:
475,192,120822,1,0,0:0:0:0:
182,192,120876,1,0,0:0:0:0:
256,192,120876,1,0,0:0:0:0:
36,192,120930,1,0,0:0:0:0:
109,192,120930,1,0,0:0:0:0:
329,192,120983,1,0,0:0:0:0:
475,192,120983,1,0,0:0:0:0:
36,192,121037,128,2,121180:0:0:0:0:
109,192,121037,128,0,121144:0:0:0:0:
182,192,121037,128,0,121108:0:0:0:0:
256,192,121037,128,0,121072:0:0:0:0:
402,192,121072,128,0,121144:0:0:0:0:
329,192,121108,128,0,121180:0:0:0:0:
256,192,121144,128,0,121215:0:0:0:0:
182,192,121180,128,0,121251:0:0:0:0:
329,192,121251,1,0,0:0:0:0:
402,192,121251,1,0,0:0:0:0:
475,192,121251,1,0,0:0:0:0:
36,192,121305,1,0,0:0:0:0:
109,192,121305,1,0,0:0:0:0:
329,192,121358,1,0,0:0:0:0:
402,192,121358,1,0,0:0:0:0:
182,192,121412,1,0,0:0:0:0:
256,192,121412,1,0,0:0:0:0:
36,192,121465,1,0,0:0:0:100:LR3_Snare WRH.wav
109,192,121465,1,0,0:0:0:0:
402,192,121465,1,0,0:0:0:0:
475,192,121465,1,0,0:0:0:0:
256,192,121519,1,0,0:0:0:0:
329,192,121519,1,0,0:0:0:0:
109,192,121572,1,0,0:0:0:0:
182,192,121572,1,0,0:0:0:0:
329,192,121626,1,0,0:0:0:0:
402,192,121626,1,0,0:0:0:0:
36,192,121680,1,0,0:0:0:0:
182,192,121680,1,0,0:0:0:0:
256,192,121680,1,0,0:0:0:0:
402,192,121733,1,0,0:0:0:0:
475,192,121733,1,0,0:0:0:0:
109,192,121787,1,2,0:0:0:0:
256,192,121787,1,0,0:0:0:0:
329,192,121787,1,0,0:0:0:0:
402,192,121840,1,0,0:0:0:0:
475,192,121840,1,0,0:0:0:0:
182,192,121894,1,0,0:0:0:0:
329,192,121894,1,0,0:0:0:0:
36,192,121947,1,0,0:0:0:0:
109,192,121947,1,0,0:0:0:0:
402,192,122001,1,0,0:0:0:0:
475,192,122001,1,0,0:0:0:0:
256,192,122055,1,0,0:0:0:0:
329,192,122055,1,0,0:0:0:0:
36,192,122108,1,2,0:0:0:0:
109,192,122108,1,0,0:0:0:0:
475,192,122108,1,0,0:0:0:0:
182,192,122135,1,0,0:0:0:0:
256,192,122162,1,0,0:0:0:0:
36,192,122215,1,0,0:0:0:0:
109,192,122215,1,0,0:0:0:0:
182,192,122242,1,0,0:0:0:0:
256,192,122269,1,0,0:0:0:0:
36,192,122322,1,0,0:0:0:100:LR3_Snare WRH.wav
109,192,122322,1,0,0:0:0:0:
402,192,122322,1,0,0:0:0:0:
475,192,122322,1,0,0:0:0:0:
329,192,122358,1,0,0:0:0:0:
256,192,122394,1,0,0:0:0:0:
36,192,122430,1,2,0:0:0:0:
182,192,122430,1,0,0:0:0:0:
475,192,122430,1,0,0:0:0:0:
402,192,122537,1,0,0:0:0:0:
475,192,122537,1,0,0:0:0:0:
329,192,122564,1,0,0:0:0:0:
256,192,122590,1,0,0:0:0:0:
36,192,122644,1,0,0:0:0:0:
109,192,122644,1,0,0:0:0:0:
182,192,122671,1,0,0:0:0:0:
256,192,122697,1,0,0:0:0:0:
109,192,122751,128,2,122930:0:0:0:0:
329,192,122751,128,0,122894:0:0:0:0:
402,192,122751,128,0,122912:0:0:0:0:
475,192,122751,128,0,122930:0:0:0:0:
256,192,122787,128,0,122876:0:0:0:0:
182,192,122805,128,0,122858:0:0:0:0:
36,192,122840,128,0,122912:0:0:0:0:
182,192,122912,128,0,122947:0:0:0:0:
256,192,122930,128,0,122965:0:0:0:0:
329,192,122947,128,0,122983:0:0:0:0:
402,192,122965,128,0,123001:0:0:0:0:
475,192,122983,128,0,123019:0:0:0:0:
36,192,123072,1,0,0:0:0:0:
182,192,123072,1,0,0:0:0:0:
329,192,123126,1,0,0:0:0:0:
109,192,123180,128,0,123215:0:0:0:100:LR3_Snare WRH.wav
256,192,123180,1,0,0:0:0:0:
402,192,123180,1,0,0:0:0:0:
475,192,123180,1,0,0:0:0:0:
36,192,123197,128,0,123233:0:0:0:0:
109,192,123287,128,0,123322:0:0:0:0:
256,192,123287,1,0,0:0:0:0:
402,192,123287,1,0,0:0:0:0:
475,192,123287,1,0,0:0:0:0:
36,192,123305,128,0,123340:0:0:0:0:
182,192,123394,128,0,123430:0:0:0:0:
329,192,123394,1,0,0:0:0:0:
402,192,123394,1,0,0:0:0:0:
475,192,123394,1,0,0:0:0:0:
109,192,123412,128,0,123447:0:0:0:0:
182,192,123501,128,2,123537:0:0:0:0:
329,192,123501,1,0,0:0:0:0:
402,192,123501,1,0,0:0:0:0:
475,192,123501,1,0,0:0:0:0:
109,192,123519,128,0,123555:0:0:0:0:
36,192,123608,1,0,0:0:0:0:
256,192,123608,128,0,123644:0:0:0:0:
402,192,123608,1,0,0:0:0:0:
475,192,123608,1,0,0:0:0:0:
182,192,123626,128,0,123662:0:0:0:0:
256,192,123715,128,0,123751:0:0:0:0:
402,192,123715,1,0,0:0:0:0:
475,192,123715,1,0,0:0:0:0:
36,192,123733,1,0,0:0:0:0:
182,192,123733,128,0,123769:0:0:0:0:
36,192,123822,1,2,0:0:0:0:
109,192,123822,1,0,0:0:0:0:
329,192,123822,128,0,123858:0:0:0:0:
475,192,123822,1,0,0:0:0:0:
256,192,123840,128,0,123876:0:0:0:0:
36,192,123930,1,0,0:0:0:0:
109,192,123930,1,0,0:0:0:0:
329,192,123930,128,0,123965:0:0:0:0:
475,192,123930,1,0,0:0:0:0:
256,192,123947,128,0,123983:0:0:0:0:
36,192,124037,1,0,0:0:0:100:LR3_Snare WRH.wav
109,192,124037,1,0,0:0:0:0:
182,192,124037,1,0,0:0:0:0:
402,192,124037,128,0,124072:0:0:0:0:
329,192,124055,128,0,124090:0:0:0:0:
36,192,124144,1,0,0:0:0:0:
109,192,124144,1,0,0:0:0:0:
182,192,124144,1,0,0:0:0:0:
402,192,124144,128,0,124180:0:0:0:0:
329,192,124162,128,0,124197:0:0:0:0:
36,192,124251,1,0,0:0:0:0:
109,192,124251,1,0,0:0:0:0:
256,192,124251,1,0,0:0:0:0:
475,192,124251,128,0,124287:0:0:0:0:
402,192,124269,128,0,124305:0:0:0:0:
36,192,124358,1,0,0:0:0:0:
109,192,124358,1,0,0:0:0:0:
256,192,124358,1,0,0:0:0:0:
475,192,124358,128,0,124394:0:0:0:0:
402,192,124376,128,0,124412:0:0:0:0:
36,192,124465,1,2,0:0:0:0:
109,192,124465,1,0,0:0:0:0:
256,192,124465,128,0,124644:0:0:0:0:
475,192,124465,128,0,124537:0:0:0:0:
402,192,124501,128,0,124572:0:0:0:0:
329,192,124537,128,0,124608:0:0:0:0:
182,192,124572,128,0,124769:0:0:0:0:
36,192,124680,128,0,124733:0:0:0:0:
475,192,124680,128,0,124822:0:0:0:0:
109,192,124697,128,0,124751:0:0:0:0:
256,192,124715,128,0,124787:0:0:0:0:
329,192,124733,128,0,124805:0:0:0:0:
402,192,124751,128,0,124965:0:0:0:0:
36,192,124894,128,0,125037:0:0:0:100:LR3_Snare WRH.wav
329,192,124894,128,0,124983:0:0:0:0:
475,192,124894,128,0,124947:0:0:0:0:
256,192,124912,128,0,125001:0:0:0:0:
182,192,124930,128,0,125019:0:0:0:0:
109,192,124947,128,0,125180:0:0:0:0:
36,192,125108,128,0,125162:0:0:0:0:
475,192,125108,128,0,125251:0:0:0:0:
182,192,125126,128,0,125197:0:0:0:0:
256,192,125144,128,0,125215:0:0:0:0:
329,192,125162,128,0,125233:0:0:0:0:
402,192,125180,128,0,125394:0:0:0:0:
36,192,125322,128,0,125465:0:0:0:0:
475,192,125322,128,0,125376:0:0:0:0:
329,192,125340,128,0,125412:0:0:0:0:
256,192,125358,128,0,125430:0:0:0:0:
182,192,125376,128,0,125447:0:0:0:0:
109,192,125394,128,0,125608:0:0:0:0:
36,192,125537,128,2,125590:0:0:0:0:
402,192,125537,128,0,125715:0:0:0:0:
182,192,125555,128,0,125626:0:0:0:0:
256,192,125572,128,0,125644:0:0:0:0:
475,192,125644,128,0,125697:0:0:0:0:
329,192,125680,128,0,125733:0:0:0:0:
256,192,125697,128,0,125751:0:0:0:0:
36,192,125751,1,0,0:0:0:100:LR3_Snare WRH.wav
109,192,125751,1,0,0:0:0:0:
182,192,125751,1,0,0:0:0:0:
475,192,125751,1,0,0:0:0:0:
256,192,125858,1,2,0:0:0:0:
329,192,125858,1,0,0:0:0:0:
402,192,125858,1,0,0:0:0:0:
36,192,125965,1,2,0:0:0:0:
109,192,125965,1,0,0:0:0:0:
475,192,125965,1,0,0:0:0:0:
36,192,126180,128,2,126215:0:0:0:0:
329,192,126180,1,4,0:0:0:0:
402,192,126180,1,0,0:0:0:0:
475,192,126180,1,0,0:0:0:0:
109,192,126197,128,0,126233:0:0:0:0:
36,192,126287,128,0,126322:0:0:0:0:
329,192,126287,1,0,0:0:0:0:
402,192,126287,1,0,0:0:0:0:
475,192,126287,1,0,0:0:0:0:
109,192,126305,128,0,126340:0:0:0:0:
36,192,126394,1,0,0:0:0:0:
182,192,126394,1,0,0:0:0:0:
256,192,126394,1,0,0:0:0:0:
475,192,126394,128,0,126430:0:0:0:0:
402,192,126412,128,0,126447:0:0:0:0:
36,192,126501,1,0,0:0:0:0:
109,192,126501,1,0,0:0:0:0:
256,192,126501,1,0,0:0:0:0:
475,192,126501,128,0,126537:0:0:0:0:
402,192,126519,128,0,126555:0:0:0:0:
36,192,126608,1,0,0:0:0:100:LR3_Snare WRH.wav
182,192,126608,1,0,0:0:0:0:
329,192,126608,1,0,0:0:0:0:
475,192,126608,1,0,0:0:0:0:
36,192,126822,1,0,0:0:0:0:
109,192,126822,1,0,0:0:0:0:
182,192,126822,1,0,0:0:0:0:
402,192,126822,128,0,126858:0:0:0:0:
475,192,126840,128,0,126876:0:0:0:0:
36,192,126930,1,2,0:0:0:0:
109,192,126930,1,0,0:0:0:0:
182,192,126930,1,0,0:0:0:0:
475,192,126930,128,0,126965:0:0:0:0:
402,192,126947,128,0,126983:0:0:0:0:
109,192,127037,128,0,127072:0:0:0:0:
256,192,127037,1,0,0:0:0:0:
329,192,127037,1,0,0:0:0:0:
475,192,127037,1,0,0:0:0:0:
36,192,127055,128,0,127090:0:0:0:0:
36,192,127144,128,0,127180:0:0:0:0:
256,192,127144,1,0,0:0:0:0:
329,192,127144,1,0,0:0:0:0:
475,192,127144,1,0,0:0:0:0:
109,192,127162,128,0,127197:0:0:0:0:
36,192,127251,1,2,0:0:0:0:
182,192,127251,1,0,0:0:0:0:
256,192,127251,1,0,0:0:0:0:
475,192,127251,128,0,127287:0:0:0:0:
402,192,127269,128,0,127305:0:0:0:0:
36,192,127358,1,0,0:0:0:0:
182,192,127358,1,0,0:0:0:0:
256,192,127358,1,0,0:0:0:0:
402,192,127358,128,0,127394:0:0:0:0:
475,192,127376,128,0,127412:0:0:0:0:
36,192,127465,1,0,0:0:0:100:LR3_Snare WRH.wav
109,192,127465,128,0,127501:0:0:0:0:
329,192,127465,1,0,0:0:0:0:
402,192,127465,1,0,0:0:0:0:
182,192,127483,128,0,127519:0:0:0:0:
36,192,127572,1,0,0:0:0:0:
109,192,127572,1,0,0:0:0:0:
402,192,127572,128,0,127608:0:0:0:0:
475,192,127572,1,0,0:0:0:0:
329,192,127590,128,0,127626:0:0:0:0:
256,192,127680,1,0,0:0:0:0:
182,192,127697,1,0,0:0:0:0:
109,192,127715,1,0,0:0:0:0:
329,192,127787,1,0,0:0:0:0:
402,192,127805,1,0,0:0:0:0:
475,192,127822,1,0,0:0:0:0:
36,192,127894,1,2,0:0:0:0:
109,192,127894,1,0,0:0:0:0:
182,192,127894,1,0,0:0:0:0:
329,192,127947,1,0,0:0:0:0:
475,192,127947,1,0,0:0:0:0:
36,192,128001,1,0,0:0:0:0:
182,192,128001,1,0,0:0:0:0:
256,192,128108,1,0,0:0:0:0:
329,192,128108,1,0,0:0:0:0:
109,192,128162,1,0,0:0:0:0:
182,192,128162,1,0,0:0:0:0:
329,192,128215,1,0,0:0:0:0:
402,192,128215,1,0,0:0:0:0:
182,192,128269,1,0,0:0:0:0:
256,192,128269,1,0,0:0:0:0:
36,192,128322,1,0,0:0:0:100:LR3_Snare WRH.wav
109,192,128322,1,0,0:0:0:0:
402,192,128322,1,0,0:0:0:0:
475,192,128322,1,0,0:0:0:0:
256,192,128376,1,0,0:0:0:0:
329,192,128376,1,0,0:0:0:0:
109,192,128430,1,0,0:0:0:0:
182,192,128430,1,0,0:0:0:0:
329,192,128483,1,0,0:0:0:0:
402,192,128483,1,0,0:0:0:0:
182,192,128537,1,0,0:0:0:0:
256,192,128537,1,0,0:0:0:0:
36,192,128590,1,0,0:0:0:0:
109,192,128590,1,0,0:0:0:0:
329,192,128644,1,2,0:0:0:0:
402,192,128644,1,0,0:0:0:0:
475,192,128644,1,0,0:0:0:0:
109,192,128751,1,0,0:0:0:0:
182,192,128751,1,0,0:0:0:0:
329,192,128805,1,0,0:0:0:0:
402,192,128805,1,0,0:0:0:0:
182,192,128858,1,0,0:0:0:0:
256,192,128858,1,0,0:0:0:0:
329,192,128965,1,2,0:0:0:0:
402,192,128965,1,0,0:0:0:0:
475,192,128965,1,0,0:0:0:0:
36,192,129072,1,0,0:0:0:0:
109,192,129072,1,0,0:0:0:0:
256,192,129072,1,0,0:0:0:0:
402,192,129126,1,0,0:0:0:0:
475,192,129126,1,0,0:0:0:0:
36,192,129180,1,0,0:0:0:100:LR3_Snare WRH.wav
109,192,129180,1,0,0:0:0:0:
182,192,129180,1,0,0:0:0:0:
329,192,129180,1,0,0:0:0:0:
256,192,129287,1,2,0:0:0:0:
402,192,129287,1,0,0:0:0:0:
475,192,129287,1,0,0:0:0:0:
36,192,129340,1,0,0:0:0:0:
109,192,129340,1,0,0:0:0:0:
182,192,129394,1,0,0:0:0:0:
329,192,129394,1,0,0:0:0:0:
402,192,129447,1,0,0:0:0:0:
475,192,129447,1,0,0:0:0:0:
109,192,129501,1,0,0:0:0:0:
256,192,129501,1,0,0:0:0:0:
402,192,129555,1,0,0:0:0:0:
475,192,129555,1,0,0:0:0:0:
36,192,129608,128,2,129822:0:0:0:0:
256,192,129608,128,0,129930:0:0:0:0:
109,192,129626,128,0,129805:0:0:0:0:
182,192,129644,128,0,129787:0:0:0:0:
329,192,129662,128,0,129715:0:0:0:0:
402,192,129680,128,0,129733:0:0:0:0:
475,192,129697,128,0,129751:0:0:0:0:
475,192,129822,128,0,129876:0:0:0:0:
402,192,129840,128,0,129894:0:0:0:0:
329,192,129858,128,0,129912:0:0:0:0:
182,192,129876,128,0,129947:0:0:0:0:
109,192,129894,128,0,129965:0:0:0:0:
36,192,129912,128,0,129983:0:0:0:0:
36,192,130037,1,0,0:0:0:100:LR3_Snare WRH.wav
109,192,130037,1,0,0:0:0:0:
182,192,130037,1,0,0:0:0:0:
329,192,130037,1,0,0:0:0:0:
402,192,130055,1,0,0:0:0:0:
475,192,130072,1,0,0:0:0:0:
36,192,130144,1,0,0:0:0:0:
109,192,130144,1,0,0:0:0:0:
402,192,130144,1,0,0:0:0:0:
329,192,130162,1,0,0:0:0:0:
256,192,130180,1,0,0:0:0:0:
182,192,130251,1,0,0:0:0:0:
402,192,130251,1,0,0:0:0:0:
475,192,130251,1,0,0:0:0:0:
109,192,130269,1,0,0:0:0:0:
36,192,130287,1,0,0:0:0:0:
109,192,130358,1,2,0:0:0:0:
402,192,130358,1,0,0:0:0:0:
475,192,130358,1,0,0:0:0:0:
182,192,130376,1,0,0:0:0:0:
256,192,130394,1,0,0:0:0:0:
36,192,130465,1,0,0:0:0:0:
402,192,130465,1,0,0:0:0:0:
475,192,130465,1,0,0:0:0:0:
329,192,130483,1,0,0:0:0:0:
256,192,130501,1,0,0:0:0:0:
36,192,130572,1,0,0:0:0:0:
109,192,130572,1,0,0:0:0:0:
475,192,130572,1,0,0:0:0:0:
182,192,130590,1,0,0:0:0:0:
256,192,130608,1,0,0:0:0:0:
36,192,130680,1,2,0:0:0:0:
109,192,130680,1,0,0:0:0:0:
475,192,130680,128,0,130733:0:0:0:0:
402,192,130697,128,0,130751:0:0:0:0:
329,192,130715,128,0,130769:0:0:0:0:
256,192,130733,128,0,130787:0:0:0:0:
182,192,130751,128,0,130805:0:0:0:0:
109,192,130769,128,0,130822:0:0:0:0:
36,192,130787,128,0,130840:0:0:0:0:
36,192,130894,1,0,0:0:0:100:LR3_Snare WRH.wav
182,192,130894,1,0,0:0:0:0:
329,192,130894,1,0,0:0:0:0:
475,192,130894,1,0,0:0:0:0:
256,192,131001,1,0,0:0:0:0:
36,192,131108,1,0,0:0:0:0:
182,192,131108,1,0,0:0:0:0:
36,192,131215,1,0,0:0:0:0:
182,192,131215,1,0,0:0:0:0:
109,192,131322,1,2,0:0:0:0:
329,192,131322,1,4,0:0:0:0:
402,192,131322,1,0,0:0:0:0:
475,192,131322,1,0,0:0:0:0:
36,192,131430,1,0,0:0:0:100:snare01.wav
182,192,131430,1,0,0:0:0:0:
256,192,131483,1,0,0:0:0:100:snare01.wav
109,192,131537,1,0,0:0:0:100:snare01.wav
329,192,131537,1,0,0:0:0:0:
475,192,131537,1,0,0:0:0:0:
36,192,131644,1,0,0:0:0:100:Kick 12.wav
182,192,131644,1,0,0:0:0:0:
109,192,131751,1,0,0:0:0:100:snare01.wav
256,192,131751,1,0,0:0:0:0:
402,192,131751,1,0,0:0:0:0:
475,192,131751,1,0,0:0:0:0:
182,192,131858,1,0,0:0:0:100:snare01.wav
402,192,131858,1,0,0:0:0:0:
36,192,131965,1,0,0:0:0:100:Kick 12.wav
329,192,131965,1,0,0:0:0:0:
475,192,131965,1,0,0:0:0:0:
109,192,132072,1,0,0:0:0:0:
182,192,132072,1,0,0:0:0:0:
329,192,132072,1,0,0:0:0:0:
36,192,132180,1,0,0:0:0:100:snare01.wav
256,192,132180,1,0,0:0:0:0:
475,192,132180,1,0,0:0:0:0:
109,192,132287,1,0,0:0:0:100:snare01.wav
402,192,132287,1,0,0:0:0:0:
182,192,132394,1,0,0:0:0:0:
329,192,132394,1,0,0:0:0:0:
475,192,132394,1,0,0:0:0:0:
109,192,132501,1,0,0:0:0:100:snare01.wav
256,192,132501,1,0,0:0:0:0:
36,192,132608,1,0,0:0:0:100:snare01.wav
182,192,132608,1,0,0:0:0:0:
329,192,132608,1,0,0:0:0:0:
475,192,132608,1,0,0:0:0:0:
329,192,132715,1,0,0:0:0:100:snare01.wav
402,192,132715,1,0,0:0:0:0:
475,192,132715,1,0,0:0:0:0:
329,192,132769,1,0,0:0:0:100:snare01.wav
402,192,132769,1,0,0:0:0:0:
475,192,132769,1,0,0:0:0:0:
36,192,132822,1,0,0:0:0:100:snare01.wav
182,192,132822,1,0,0:0:0:0:
256,192,132822,1,0,0:0:0:0:
109,192,132930,1,0,0:0:0:100:snare01.wav
256,192,132930,1,0,0:0:0:0:
329,192,132930,1,0,0:0:0:0:
36,192,133037,1,2,0:0:0:0:
182,192,133037,1,4,0:0:0:0:
329,192,133037,1,0,0:0:0:0:
402,192,133037,1,0,0:0:0:0:
475,192,133037,1,0,0:0:0:0:
182,192,133144,1,0,0:0:0:0:
475,192,133144,1,0,0:0:0:0:
109,192,133251,1,0,0:0:0:0:
329,192,133251,1,0,0:0:0:0:
109,192,133358,1,0,0:0:0:0:
475,192,133358,1,0,0:0:0:0:
36,192,133465,1,2,0:0:0:0:
182,192,133465,1,0,0:0:0:0:
329,192,133465,1,0,0:0:0:0:
182,192,133572,1,0,0:0:0:0:
475,192,133572,1,0,0:0:0:0:
109,192,133680,1,0,0:0:0:0:
329,192,133680,1,0,0:0:0:0:
109,192,133787,1,0,0:0:0:0:
475,192,133787,1,0,0:0:0:0:
36,192,133894,1,2,0:0:0:0:
182,192,133894,1,0,0:0:0:0:
329,192,133894,1,0,0:0:0:0:
182,192,134001,1,0,0:0:0:0:
475,192,134001,1,0,0:0:0:0:
109,192,134108,1,0,0:0:0:0:
329,192,134108,1,0,0:0:0:0:
109,192,134215,1,0,0:0:0:0:
475,192,134215,1,0,0:0:0:0:
36,192,134322,1,2,0:0:0:0:
182,192,134322,1,0,0:0:0:0:
329,192,134322,1,0,0:0:0:0:
182,192,134430,1,0,0:0:0:0:
475,192,134430,1,0,0:0:0:0:
109,192,134537,1,0,0:0:0:0:
329,192,134537,1,0,0:0:0:0:
109,192,134644,1,0,0:0:0:0:
475,192,134644,1,0,0:0:0:0:
36,192,134751,1,2,0:0:0:0:
329,192,134751,1,0,0:0:0:0:
475,192,134751,1,0,0:0:0:0:
182,192,134858,1,0,0:0:0:0:
329,192,134858,1,0,0:0:0:0:
36,192,134965,1,0,0:0:0:0:
402,192,134965,1,0,0:0:0:0:
182,192,135072,1,0,0:0:0:0:
402,192,135072,1,0,0:0:0:0:
36,192,135180,1,2,0:0:0:0:
329,192,135180,1,0,0:0:0:0:
475,192,135180,1,0,0:0:0:0:
182,192,135287,1,0,0:0:0:0:
329,192,135287,1,0,0:0:0:0:
36,192,135394,1,0,0:0:0:0:
402,192,135394,1,0,0:0:0:0:
182,192,135501,1,0,0:0:0:0:
402,192,135501,1,0,0:0:0:0:
36,192,135608,1,2,0:0:0:0:
329,192,135608,1,0,0:0:0:0:
475,192,135608,1,0,0:0:0:0:
182,192,135715,1,0,0:0:0:0:
329,192,135715,1,0,0:0:0:0:
36,192,135822,1,0,0:0:0:0:
402,192,135822,1,0,0:0:0:0:
182,192,135930,1,0,0:0:0:0:
402,192,135930,1,0,0:0:0:0:
36,192,136037,1,2,0:0:0:0:
329,192,136037,1,0,0:0:0:0:
475,192,136037,1,0,0:0:0:0:
182,192,136144,1,0,0:0:0:0:
329,192,136144,1,0,0:0:0:0:
36,192,136251,1,0,0:0:0:0:
402,192,136251,1,0,0:0:0:0:
182,192,136358,1,0,0:0:0:0:
402,192,136358,1,0,0:0:0:0:
36,192,136465,1,2,0:0:0:0:
256,192,136465,1,0,0:0:0:0:
475,192,136465,1,0,0:0:0:0:
36,192,136572,1,0,0:0:0:0:
182,192,136572,1,0,0:0:0:0:
256,192,136680,1,0,0:0:0:0:
475,192,136680,1,0,0:0:0:0:
329,192,136787,1,0,0:0:0:0:
475,192,136787,1,0,0:0:0:0:
36,192,136894,1,2,0:0:0:0:
256,192,136894,1,0,0:0:0:0:
402,192,136894,1,0,0:0:0:0:
36,192,137001,1,0,0:0:0:0:
182,192,137001,1,0,0:0:0:0:
256,192,137108,1,0,0:0:0:0:
475,192,137108,1,0,0:0:0:0:
329,192,137215,1,0,0:0:0:0:
475,192,137215,1,0,0:0:0:0:
36,192,137322,1,2,0:0:0:0:
256,192,137322,1,0,0:0:0:0:
402,192,137322,1,0,0:0:0:0:
36,192,137430,1,0,0:0:0:0:
182,192,137430,1,0,0:0:0:0:
256,192,137537,1,0,0:0:0:0:
475,192,137537,1,0,0:0:0:0:
329,192,137644,1,0,0:0:0:0:
475,192,137644,1,0,0:0:0:0:
36,192,137751,1,2,0:0:0:0:
256,192,137751,1,0,0:0:0:0:
402,192,137751,1,0,0:0:0:0:
36,192,137858,1,0,0:0:0:0:
182,192,137858,1,0,0:0:0:0:
256,192,137965,1,0,0:0:0:0:
475,192,137965,1,0,0:0:0:0:
329,192,138072,1,0,0:0:0:0:
475,192,138072,1,0,0:0:0:0:
109,192,138180,1,2,0:0:0:0:
256,192,138180,1,0,0:0:0:0:
402,192,138180,1,0,0:0:0:0:
109,192,138287,1,0,0:0:0:0:
329,192,138287,1,0,0:0:0:0:
36,192,138394,1,0,0:0:0:0:
402,192,138394,1,0,0:0:0:0:
109,192,138501,1,0,0:0:0:0:
256,192,138501,1,0,0:0:0:0:
182,192,138608,1,2,0:0:0:0:
402,192,138608,1,0,0:0:0:0:
475,192,138608,1,0,0:0:0:0:
182,192,138715,1,0,0:0:0:0:
329,192,138715,1,0,0:0:0:0:
36,192,138822,1,0,0:0:0:0:
256,192,138822,1,0,0:0:0:0:
182,192,138930,1,0,0:0:0:0:
329,192,138930,1,0,0:0:0:0:
109,192,139037,1,2,0:0:0:0:
329,192,139037,1,0,0:0:0:0:
475,192,139037,1,0,0:0:0:0:
329,192,139144,1,0,0:0:0:0:
475,192,139144,1,0,0:0:0:0:
329,192,139251,1,0,0:0:0:0:
475,192,139251,1,0,0:0:0:0:
329,192,139358,1,0,0:0:0:0:
475,192,139358,1,0,0:0:0:0:
36,192,139465,1,2,0:0:0:0:
109,192,139465,1,0,0:0:0:0:
402,192,139465,1,0,0:0:0:0:
256,192,139572,1,0,0:0:0:0:
36,192,139680,1,0,0:0:0:0:
182,192,139680,1,0,0:0:0:0:
256,192,139733,1,0,0:0:0:0:
109,192,139787,1,0,0:0:0:0:
329,192,139787,1,0,0:0:0:0:
182,192,139840,1,0,0:0:0:0:
36,192,139894,1,2,0:0:0:0:
256,192,139894,1,4,0:0:0:0:
402,192,139894,1,0,0:0:0:0:
475,192,139894,1,0,0:0:0:0:
109,192,139997,1,0,0:0:0:0:
329,192,139997,1,0,0:0:0:0:
36,192,140100,1,0,0:0:0:0:
256,192,140100,1,0,0:0:0:0:
475,192,140100,1,0,0:0:0:0:
182,192,140204,1,0,0:0:0:0:
329,192,140204,1,0,0:0:0:0:
36,192,140307,1,2,0:0:0:0:
256,192,140307,1,8,0:0:0:0:
402,192,140307,1,0,0:0:0:0:
475,192,140307,1,0,0:0:0:0:
109,192,140411,1,0,0:0:0:0:
182,192,140411,1,0,0:0:0:0:
329,192,140411,1,0,0:0:0:0:
256,192,140514,1,0,0:0:0:0:
402,192,140514,1,0,0:0:0:0:
475,192,140514,1,0,0:0:0:0:
36,192,140618,1,0,0:0:0:0:
109,192,140618,1,0,0:0:0:0:
182,192,140618,1,0,0:0:0:0:
36,192,140721,1,2,0:0:0:0:
256,192,140721,1,0,0:0:0:0:
402,192,140721,1,0,0:0:0:0:
475,192,140721,1,0,0:0:0:0:
109,192,140825,1,0,0:0:0:0:
329,192,140825,1,0,0:0:0:0:
475,192,140825,1,0,0:0:0:0:
36,192,140928,1,0,0:0:0:0:
182,192,140928,1,0,0:0:0:0:
402,192,140928,1,0,0:0:0:0:
109,192,141031,1,0,0:0:0:0:
256,192,141031,1,0,0:0:0:0:
402,192,141031,1,0,0:0:0:0:
36,192,141135,1,2,0:0:0:0:
109,192,141135,1,8,0:0:0:0:
329,192,141135,1,0,0:0:0:0:
475,192,141135,1,0,0:0:0:0:
182,192,141238,1,0,0:0:0:0:
329,192,141238,1,0,0:0:0:0:
402,192,141238,1,0,0:0:0:0:
36,192,141342,1,0,0:0:0:0:
256,192,141342,1,0,0:0:0:0:
475,192,141342,1,0,0:0:0:0:
109,192,141445,1,0,0:0:0:0:
256,192,141445,1,0,0:0:0:0:
402,192,141445,1,0,0:0:0:0:
36,192,141549,1,2,0:0:0:0:
182,192,141549,1,0,0:0:0:0:
329,192,141549,1,0,0:0:0:0:
475,192,141549,1,0,0:0:0:0:
109,192,141652,1,0,0:0:0:0:
402,192,141652,1,0,0:0:0:0:
36,192,141756,1,0,0:0:0:0:
256,192,141756,1,0,0:0:0:0:
475,192,141756,1,0,0:0:0:0:
182,192,141859,1,0,0:0:0:0:
329,192,141859,1,0,0:0:0:0:
36,192,141962,1,2,0:0:0:0:
109,192,141962,1,8,0:0:0:0:
256,192,141962,1,0,0:0:0:0:
475,192,141962,1,0,0:0:0:0:
182,192,142066,1,0,0:0:0:0:
329,192,142066,1,0,0:0:0:0:
402,192,142066,1,0,0:0:0:0:
36,192,142169,1,0,0:0:0:0:
109,192,142169,1,0,0:0:0:0:
256,192,142169,1,0,0:0:0:0:
329,192,142273,1,0,0:0:0:0:
402,192,142273,1,0,0:0:0:0:
475,192,142273,1,0,0:0:0:0:
36,192,142376,1,2,0:0:0:0:
109,192,142376,1,0,0:0:0:0:
256,192,142376,1,0,0:0:0:0:
475,192,142376,1,0,0:0:0:0:
36,192,142480,1,0,0:0:0:0:
182,192,142480,1,0,0:0:0:0:
402,192,142480,1,0,0:0:0:0:
109,192,142583,1,0,0:0:0:0:
329,192,142583,1,0,0:0:0:0:
475,192,142583,1,0,0:0:0:0:
109,192,142687,1,0,0:0:0:0:
256,192,142687,1,0,0:0:0:0:
402,192,142687,1,0,0:0:0:0:
36,192,142790,1,8,0:0:0:0:
182,192,142790,1,2,0:0:0:0:
402,192,142790,1,0,0:0:0:0:
475,192,142790,1,0,0:0:0:0:
109,192,142894,1,0,0:0:0:0:
182,192,142894,1,0,0:0:0:0:
329,192,142894,1,0,0:0:0:0:
36,192,142997,1,0,0:0:0:0:
256,192,142997,1,0,0:0:0:0:
475,192,142997,1,0,0:0:0:0:
109,192,143100,1,0,0:0:0:0:
256,192,143100,1,0,0:0:0:0:
402,192,143100,1,0,0:0:0:0:
36,192,143204,1,2,0:0:0:0:
182,192,143204,1,0,0:0:0:0:
329,192,143204,1,0,0:0:0:0:
475,192,143204,1,0,0:0:0:0:
109,192,143307,1,0,0:0:0:0:
402,192,143307,1,0,0:0:0:0:
36,192,143411,1,0,0:0:0:0:
256,192,143411,1,0,0:0:0:0:
475,192,143411,1,0,0:0:0:0:
182,192,143514,1,0,0:0:0:0:
329,192,143514,1,0,0:0:0:0:
36,192,143618,1,8,0:0:0:0:
109,192,143618,1,2,0:0:0:0:
256,192,143618,1,0,0:0:0:0:
475,192,143618,1,0,0:0:0:0:
182,192,143721,1,0,0:0:0:0:
329,192,143721,1,0,0:0:0:0:
402,192,143721,1,0,0:0:0:0:
36,192,143825,1,0,0:0:0:0:
109,192,143825,1,0,0:0:0:0:
256,192,143825,1,0,0:0:0:0:
329,192,143928,1,0,0:0:0:0:
402,192,143928,1,0,0:0:0:0:
475,192,143928,1,0,0:0:0:0:
36,192,144031,1,2,0:0:0:0:
109,192,144031,1,0,0:0:0:0:
256,192,144031,1,0,0:0:0:0:
475,192,144031,1,0,0:0:0:0:
36,192,144135,1,0,0:0:0:0:
182,192,144135,1,0,0:0:0:0:
402,192,144135,1,0,0:0:0:0:
109,192,144238,1,0,0:0:0:0:
329,192,144238,1,0,0:0:0:0:
475,192,144238,1,0,0:0:0:0:
109,192,144342,1,0,0:0:0:0:
256,192,144342,1,0,0:0:0:0:
402,192,144342,1,0,0:0:0:0:
36,192,144445,1,8,0:0:0:0:
182,192,144445,1,2,0:0:0:0:
402,192,144445,1,0,0:0:0:0:
475,192,144445,1,0,0:0:0:0:
109,192,144549,1,0,0:0:0:0:
182,192,144549,1,0,0:0:0:0:
329,192,144549,1,0,0:0:0:0:
36,192,144652,1,0,0:0:0:0:
256,192,144652,1,0,0:0:0:0:
475,192,144652,1,0,0:0:0:0:
109,192,144756,1,0,0:0:0:0:
256,192,144756,1,0,0:0:0:0:
402,192,144756,1,0,0:0:0:0:
36,192,144859,1,2,0:0:0:0:
182,192,144859,1,0,0:0:0:0:
329,192,144859,1,0,0:0:0:0:
475,192,144859,1,0,0:0:0:0:
109,192,144962,1,0,0:0:0:0:
402,192,144962,1,0,0:0:0:0:
36,192,145066,1,0,0:0:0:0:
256,192,145066,1,0,0:0:0:0:
475,192,145066,1,0,0:0:0:0:
182,192,145169,1,0,0:0:0:0:
329,192,145169,1,0,0:0:0:0:
36,192,145273,1,2,0:0:0:0:
256,192,145273,1,8,0:0:0:0:
402,192,145273,1,0,0:0:0:0:
475,192,145273,1,0,0:0:0:0:
109,192,145376,1,0,0:0:0:0:
182,192,145376,1,0,0:0:0:0:
329,192,145376,1,0,0:0:0:0:
256,192,145480,1,0,0:0:0:0:
402,192,145480,1,0,0:0:0:0:
475,192,145480,1,0,0:0:0:0:
36,192,145583,1,0,0:0:0:0:
109,192,145583,1,0,0:0:0:0:
182,192,145583,1,0,0:0:0:0:
36,192,145687,1,2,0:0:0:0:
256,192,145687,1,0,0:0:0:0:
402,192,145687,1,0,0:0:0:0:
475,192,145687,1,0,0:0:0:0:
109,192,145790,1,0,0:0:0:0:
329,192,145790,1,0,0:0:0:0:
475,192,145790,1,0,0:0:0:0:
36,192,145894,1,0,0:0:0:0:
182,192,145894,1,0,0:0:0:0:
402,192,145894,1,0,0:0:0:0:
109,192,145997,1,0,0:0:0:0:
256,192,145997,1,0,0:0:0:0:
402,192,145997,1,0,0:0:0:0:
36,192,146100,1,2,0:0:0:0:
109,192,146100,1,8,0:0:0:0:
329,192,146100,1,0,0:0:0:0:
475,192,146100,1,0,0:0:0:0:
182,192,146204,1,0,0:0:0:0:
329,192,146204,1,0,0:0:0:0:
402,192,146204,1,0,0:0:0:0:
36,192,146307,1,0,0:0:0:0:
256,192,146307,1,0,0:0:0:0:
475,192,146307,1,0,0:0:0:0:
109,192,146411,1,0,0:0:0:0:
256,192,146411,1,0,0:0:0:0:
402,192,146411,1,0,0:0:0:0:
36,192,146514,1,2,0:0:0:0:
109,192,146514,1,4,0:0:0:0:
182,192,146514,1,0,0:0:0:0:
256,192,146514,1,0,0:0:0:0:
475,192,146514,1,0,0:0:0:0:
329,192,146614,1,0,0:0:0:0:
402,192,146614,1,0,0:0:0:0:
36,192,146714,1,0,0:0:0:0:
109,192,146714,1,0,0:0:0:0:
182,192,146714,1,0,0:0:0:0:
256,192,146714,1,0,0:0:0:0:
329,192,146814,1,0,0:0:0:0:
402,192,146814,1,0,0:0:0:0:
475,192,146814,1,0,0:0:0:0:
36,192,146914,1,8,0:0:0:0:
109,192,146914,1,2,0:0:0:0:
182,192,146914,1,0,0:0:0:0:
402,192,146914,1,0,0:0:0:0:
475,192,146914,1,0,0:0:0:0:
256,192,147014,1,0,0:0:0:0:
329,192,147014,1,0,0:0:0:0:
36,192,147114,1,0,0:0:0:0:
109,192,147114,1,0,0:0:0:0:
402,192,147114,1,0,0:0:0:0:
475,192,147114,1,0,0:0:0:0:
36,192,147214,1,0,0:0:0:0:
109,192,147214,1,0,0:0:0:0:
329,192,147214,1,0,0:0:0:0:
402,192,147214,1,0,0:0:0:0:
36,192,147314,1,2,0:0:0:0:
256,192,147314,1,0,0:0:0:0:
329,192,147314,1,0,0:0:0:0:
475,192,147314,1,0,0:0:0:0:
109,192,147414,1,0,0:0:0:0:
182,192,147414,1,0,0:0:0:0:
36,192,147514,1,0,0:0:0:0:
256,192,147514,1,0,0:0:0:0:
402,192,147514,1,0,0:0:0:0:
475,192,147514,1,0,0:0:0:0:
109,192,147614,1,0,0:0:0:0:
475,192,147614,1,0,0:0:0:0:
36,192,147714,1,8,0:0:0:0:
182,192,147714,1,2,0:0:0:0:
256,192,147714,1,0,0:0:0:0:
329,192,147714,1,0,0:0:0:0:
475,192,147714,1,0,0:0:0:0:
36,192,147814,1,0,0:0:0:0:
402,192,147814,1,0,0:0:0:0:
36,192,147914,1,0,0:0:0:0:
109,192,147914,1,0,0:0:0:0:
256,192,147914,1,0,0:0:0:0:
475,192,147914,1,0,0:0:0:0:
109,192,148014,1,0,0:0:0:0:
182,192,148014,1,0,0:0:0:0:
329,192,148014,1,0,0:0:0:0:
402,192,148014,1,0,0:0:0:0:
36,192,148114,1,2,0:0:0:0:
182,192,148114,1,0,0:0:0:0:
256,192,148114,1,0,0:0:0:0:
475,192,148114,1,0,0:0:0:0:
329,192,148214,1,0,0:0:0:0:
402,192,148214,1,0,0:0:0:0:
36,192,148314,1,0,0:0:0:0:
109,192,148314,1,0,0:0:0:0:
182,192,148314,1,0,0:0:0:0:
475,192,148314,1,0,0:0:0:0:
109,192,148414,1,0,0:0:0:0:
256,192,148414,1,0,0:0:0:0:
329,192,148414,1,0,0:0:0:0:
475,192,148414,1,0,0:0:0:0:
36,192,148514,1,2,0:0:0:0:
182,192,148514,1,8,0:0:0:0:
329,192,148514,1,0,0:0:0:0:
402,192,148514,1,0,0:0:0:0:
475,192,148514,1,0,0:0:0:0:
109,192,148614,1,0,0:0:0:0:
256,192,148614,1,0,0:0:0:0:
36,192,148714,1,0,0:0:0:0:
182,192,148714,1,0,0:0:0:0:
402,192,148714,1,0,0:0:0:0:
475,192,148714,1,0,0:0:0:0:
109,192,148814,1,0,0:0:0:0:
256,192,148814,1,0,0:0:0:0:
402,192,148814,1,0,0:0:0:0:
475,192,148814,1,0,0:0:0:0:
36,192,148914,1,2,0:0:0:0:
182,192,148914,1,0,0:0:0:0:
329,192,148914,1,0,0:0:0:0:
475,192,148914,1,0,0:0:0:0:
256,192,149014,1,0,0:0:0:0:
402,192,149014,1,0,0:0:0:0:
36,192,149114,1,0,0:0:0:0:
109,192,149114,1,0,0:0:0:0:
182,192,149114,1,0,0:0:0:0:
475,192,149114,1,0,0:0:0:0:
256,192,149214,1,0,0:0:0:0:
329,192,149214,1,0,0:0:0:0:
36,192,149314,1,8,0:0:0:0:
109,192,149314,1,2,0:0:0:0:
182,192,149314,1,0,0:0:0:0:
402,192,149314,1,0,0:0:0:0:
475,192,149314,1,0,0:0:0:0:
36,192,149414,1,0,0:0:0:0:
329,192,149414,1,0,0:0:0:0:
109,192,149514,1,0,0:0:0:0:
256,192,149514,1,0,0:0:0:0:
402,192,149514,1,0,0:0:0:0:
475,192,149514,1,0,0:0:0:0:
36,192,149614,1,0,0:0:0:0:
182,192,149614,1,0,0:0:0:0:
402,192,149614,1,0,0:0:0:0:
475,192,149614,1,0,0:0:0:0:
109,192,149714,1,2,0:0:0:0:
256,192,149714,1,0,0:0:0:0:
329,192,149714,1,0,0:0:0:0:
475,192,149714,1,0,0:0:0:0:
182,192,149814,1,0,0:0:0:0:
402,192,149814,1,0,0:0:0:0:
36,192,149914,1,0,0:0:0:0:
256,192,149914,1,0,0:0:0:0:
475,192,149914,1,0,0:0:0:0:
109,192,150014,1,0,0:0:0:0:
182,192,150014,1,0,0:0:0:0:
256,192,150047,1,0,0:0:0:0:
329,192,150080,1,0,0:0:0:0:
36,192,150114,1,2,0:0:0:0:
109,192,150114,1,8,0:0:0:0:
182,192,150114,1,0,0:0:0:0:
402,192,150114,1,0,0:0:0:0:
475,192,150114,128,0,150314:0:0:0:0:
256,192,150214,1,0,0:0:0:0:
36,192,150314,1,0,0:0:0:0:
329,192,150314,1,0,0:0:0:0:
402,192,150314,1,0,0:0:0:0:
256,192,150347,1,0,0:0:0:0:
182,192,150380,1,0,0:0:0:0:
109,192,150414,1,0,0:0:0:0:
475,192,150414,1,0,0:0:0:0:
36,192,150514,1,2,0:0:0:0:
182,192,150514,1,0,0:0:0:0:
329,192,150514,1,0,0:0:0:0:
402,192,150514,1,0,0:0:0:0:
109,192,150614,1,0,0:0:0:0:
256,192,150614,1,0,0:0:0:0:
36,192,150714,1,0,0:0:0:0:
182,192,150714,1,0,0:0:0:0:
475,192,150714,1,0,0:0:0:0:
329,192,150814,1,0,0:0:0:0:
402,192,150814,1,0,0:0:0:0:
256,192,150847,1,0,0:0:0:0:
182,192,150880,1,0,0:0:0:0:
36,192,150914,128,8,151114:0:0:0:0:
109,192,150914,1,2,0:0:0:0:
329,192,150914,1,0,0:0:0:0:
402,192,150914,1,0,0:0:0:0:
475,192,150914,1,0,0:0:0:0:
256,192,151014,1,0,0:0:0:0:
109,192,151114,1,0,0:0:0:0:
182,192,151114,1,0,0:0:0:0:
475,192,151114,1,0,0:0:0:0:
256,192,151147,1,0,0:0:0:0:
329,192,151180,1,0,0:0:0:0:
36,192,151214,1,0,0:0:0:0:
402,192,151214,1,0,0:0:0:0:
109,192,151314,1,2,0:0:0:0:
256,192,151314,1,0,0:0:0:0:
329,192,151314,1,0,0:0:0:0:
475,192,151314,1,0,0:0:0:0:
182,192,151414,1,0,0:0:0:0:
402,192,151414,1,0,0:0:0:0:
36,192,151514,1,0,0:0:0:0:
256,192,151514,1,0,0:0:0:0:
475,192,151514,1,0,0:0:0:0:
109,192,151614,1,0,0:0:0:0:
182,192,151614,1,0,0:0:0:0:
256,192,151647,1,0,0:0:0:0:
329,192,151680,1,0,0:0:0:0:
36,192,151714,1,2,0:0:0:0:
109,192,151714,1,8,0:0:0:0:
182,192,151714,1,0,0:0:0:0:
402,192,151714,1,0,0:0:0:0:
475,192,151714,128,0,151914:0:0:0:0:
256,192,151814,1,0,0:0:0:0:
36,192,151914,1,0,0:0:0:0:
329,192,151914,1,0,0:0:0:0:
402,192,151914,1,0,0:0:0:0:
256,192,151947,1,0,0:0:0:0:
182,192,151980,1,0,0:0:0:0:
109,192,152014,1,0,0:0:0:0:
475,192,152014,1,0,0:0:0:0:
36,192,152114,1,2,0:0:0:0:
182,192,152114,1,0,0:0:0:0:
329,192,152114,1,0,0:0:0:0:
402,192,152114,1,0,0:0:0:0:
109,192,152214,1,0,0:0:0:0:
256,192,152214,1,0,0:0:0:0:
36,192,152314,1,0,0:0:0:0:
182,192,152314,1,0,0:0:0:0:
475,192,152314,1,0,0:0:0:0:
329,192,152414,1,0,0:0:0:0:
402,192,152414,1,0,0:0:0:0:
256,192,152447,1,0,0:0:0:0:
182,192,152480,1,0,0:0:0:0:
36,192,152514,128,8,152714:0:0:0:0:
109,192,152514,1,2,0:0:0:0:
329,192,152514,1,0,0:0:0:0:
402,192,152514,1,0,0:0:0:0:
475,192,152514,1,0,0:0:0:0:
256,192,152614,1,0,0:0:0:0:
109,192,152714,1,0,0:0:0:0:
182,192,152714,1,0,0:0:0:0:
475,192,152714,1,0,0:0:0:0:
256,192,152747,1,0,0:0:0:0:
329,192,152780,1,0,0:0:0:0:
36,192,152814,1,0,0:0:0:0:
402,192,152814,1,0,0:0:0:0:
109,192,152914,1,2,0:0:0:0:
182,192,152914,1,4,0:0:0:0:
329,192,152914,1,0,0:0:0:0:
402,192,152914,1,0,0:0:0:0:
475,192,152914,1,0,0:0:0:0:
36,192,153014,1,0,0:0:0:0:
256,192,153014,1,0,0:0:0:0:
182,192,153114,1,0,0:0:0:0:
329,192,153114,1,0,0:0:0:0:
475,192,153114,1,0,0:0:0:0:
109,192,153214,1,0,0:0:0:0:
402,192,153214,1,0,0:0:0:0:
36,192,153314,1,2,0:0:0:0:
182,192,153314,1,8,0:0:0:0:
256,192,153314,1,0,0:0:0:0:
475,192,153314,1,0,0:0:0:0:
109,192,153414,1,0,0:0:0:0:
329,192,153414,1,0,0:0:0:0:
36,192,153514,1,0,0:0:0:0:
182,192,153514,1,0,0:0:0:0:
402,192,153514,1,0,0:0:0:0:
256,192,153614,1,0,0:0:0:0:
475,192,153614,1,0,0:0:0:0:
36,192,153714,1,2,0:0:0:0:
182,192,153714,1,0,0:0:0:0:
329,192,153714,1,0,0:0:0:0:
256,192,153814,1,0,0:0:0:0:
402,192,153814,1,0,0:0:0:0:
36,192,153914,1,0,0:0:0:0:
182,192,153914,1,0,0:0:0:0:
475,192,153914,1,0,0:0:0:0:
109,192,154014,1,0,0:0:0:0:
402,192,154014,1,0,0:0:0:0:
36,192,154114,1,8,0:0:0:0:
182,192,154114,1,2,0:0:0:0:
329,192,154114,1,0,0:0:0:0:
475,192,154114,1,0,0:0:0:0:
109,192,154214,1,0,0:0:0:0:
256,192,154214,1,0,0:0:0:0:
182,192,154314,1,0,0:0:0:0:
402,192,154314,1,0,0:0:0:0:
475,192,154314,1,0,0:0:0:0:
109,192,154414,1,0,0:0:0:0:
329,192,154414,1,0,0:0:0:0:
36,192,154514,1,2,0:0:0:0:
256,192,154514,1,0,0:0:0:0:
475,192,154514,1,0,0:0:0:0:
182,192,154614,1,0,0:0:0:0:
402,192,154614,1,0,0:0:0:0:
36,192,154714,1,0,0:0:0:0:
329,192,154714,1,0,0:0:0:0:
109,192,154814,1,0,0:0:0:0:
256,192,154814,1,0,0:0:0:0:
36,192,154914,1,2,0:0:0:0:
182,192,154914,1,8,0:0:0:0:
402,192,154914,1,0,0:0:0:0:
475,192,154914,1,0,0:0:0:0:
109,192,155014,1,0,0:0:0:0:
256,192,155014,1,0,0:0:0:0:
36,192,155114,1,0,0:0:0:0:
182,192,155114,1,0,0:0:0:0:
329,192,155114,1,0,0:0:0:0:
256,192,155214,1,0,0:0:0:0:
402,192,155214,1,0,0:0:0:0:
36,192,155314,1,2,0:0:0:0:
182,192,155314,1,0,0:0:0:0:
475,192,155314,1,0,0:0:0:0:
109,192,155414,1,0,0:0:0:0:
402,192,155414,1,0,0:0:0:0:
36,192,155514,1,0,0:0:0:0:
182,192,155514,1,0,0:0:0:0:
329,192,155514,1,0,0:0:0:0:
256,192,155614,1,0,0:0:0:0:
36,192,155714,1,8,0:0:0:0:
109,192,155714,1,2,0:0:0:0:
329,192,155714,1,0,0:0:0:0:
475,192,155714,1,0,0:0:0:0:
256,192,155814,1,0,0:0:0:0:
402,192,155814,1,0,0:0:0:0:
182,192,155914,1,0,0:0:0:0:
329,192,155914,1,0,0:0:0:0:
109,192,156014,1,0,0:0:0:0:
256,192,156014,1,0,0:0:0:0:
36,192,156114,1,2,0:0:0:0:
182,192,156114,1,0,0:0:0:0:
475,192,156114,1,0,0:0:0:0:
256,192,156214,1,0,0:0:0:0:
402,192,156214,1,0,0:0:0:0:
109,192,156314,1,0,0:0:0:70:Kick 12.wav
329,192,156314,1,0,0:0:0:0:
256,192,156414,1,0,0:0:0:0:
475,192,156414,1,0,0:0:0:0:
36,192,156514,1,2,0:0:0:0:
182,192,156514,1,8,0:0:0:0:
402,192,156514,1,0,0:0:0:0:
329,192,156614,1,0,0:0:0:0:
109,192,156714,1,0,0:0:0:70:Kick 12.wav
256,192,156714,1,0,0:0:0:0:
182,192,156814,1,0,0:0:0:70:Kick 12.wav
329,192,156814,1,0,0:0:0:0:
36,192,156914,1,2,0:0:0:0:
256,192,156914,1,0,0:0:0:0:
475,192,156914,1,0,0:0:0:0:
329,192,157014,1,0,0:0:0:0:
109,192,157114,1,0,0:0:0:70:Kick 12.wav
475,192,157114,1,0,0:0:0:0:
329,192,157214,1,0,0:0:0:0:
36,192,157314,1,8,0:0:0:0:
182,192,157314,1,2,0:0:0:0:
475,192,157314,1,0,0:0:0:0:
329,192,157414,1,0,0:0:0:0:
36,192,157514,1,0,0:0:0:70:Kick 12.wav
182,192,157514,1,0,0:0:0:0:
329,192,157614,1,0,0:0:0:70:Kick 12.wav
402,192,157614,1,0,0:0:0:0:
256,192,157664,1,0,0:0:0:70:Kick 12.wav
36,192,157714,1,2,0:0:0:0:
182,192,157714,1,0,0:0:0:0:
36,192,157814,1,0,0:0:0:70:Kick 12.wav
256,192,157814,1,0,0:0:0:0:
329,192,157914,1,0,0:0:0:70:Kick 12.wav
475,192,157914,1,0,0:0:0:0:
256,192,158014,1,0,0:0:0:70:Kick 12.wav
475,192,158014,1,0,0:0:0:0:
36,192,158114,1,2,0:0:0:0:
109,192,158114,1,8,0:0:0:0:
402,192,158114,1,0,0:0:0:0:
36,192,158214,1,0,0:0:0:70:Kick 12.wav
182,192,158214,1,0,0:0:0:0:
402,192,158314,1,0,0:0:0:70:Kick 12.wav
475,192,158314,1,0,0:0:0:0:
329,192,158414,1,0,0:0:0:70:Kick 12.wav
475,192,158414,1,0,0:0:0:0:
36,192,158514,1,0,0:0:0:70:Kick 12.wav
256,192,158514,1,0,0:0:0:0:
402,192,158564,1,0,0:0:0:70:Kick 12.wav
182,192,158614,1,0,0:0:0:70:Kick 12.wav
475,192,158614,1,0,0:0:0:0:
329,192,158664,1,0,0:0:0:70:Kick 12.wav
109,192,158714,1,0,0:0:0:70:Kick 12.wav
402,192,158714,1,0,0:0:0:0:
256,192,158764,1,0,0:0:0:70:Kick 12.wav
36,192,158814,1,0,0:0:0:70:Kick 12.wav
329,192,158814,1,0,0:0:0:0:
182,192,158864,1,0,0:0:0:70:Kick 12.wav
329,192,158914,1,0,0:0:0:0:
475,192,158914,1,0,0:0:0:0:
182,192,158964,1,0,0:0:0:0:
36,192,159014,1,0,0:0:0:0:
402,192,159014,1,0,0:0:0:0:
256,192,159064,1,0,0:0:0:0:
109,192,159114,1,0,0:0:0:0:
475,192,159114,1,0,0:0:0:0:
329,192,159164,1,0,0:0:0:0:
182,192,159214,1,0,0:0:0:0:
402,192,159214,1,0,0:0:0:0:
256,192,159264,1,0,0:0:0:0:
36,192,159314,128,0,160164:0:0:0:70:electronic25.wav
109,192,159314,128,0,160114:0:0:0:0:
182,192,159314,128,0,160064:0:0:0:0:
329,192,159314,128,0,160014:0:0:0:0:
475,192,159314,128,0,159964:0:0:0:0:
475,192,160114,128,0,160514:0:0:0:0:
402,192,160164,1,0,0:0:0:0:
329,192,160214,128,0,160414:0:0:0:0:
256,192,160264,1,0,0:0:0:0:
36,192,160314,128,0,160814:0:0:0:0:
109,192,160364,1,0,0:0:0:0:
182,192,160414,128,0,160714:0:0:0:0:
256,192,160464,1,0,0:0:0:0:
329,192,160514,128,0,160614:0:0:0:0:
402,192,160564,1,0,0:0:0:0:
475,192,160614,128,0,163864:0:0:0:0:
402,192,160664,1,0,0:0:0:0:
329,192,160714,128,0,162714:0:0:0:0:
256,192,160764,1,0,0:0:0:0:
182,192,160814,128,0,162714:0:0:0:0:
109,192,160864,1,0,0:0:0:0:
36,192,160914,128,0,163864:0:0:0:0:
256,192,160914,128,0,163314:0:0:0:0:
109,192,162514,1,0,0:0:0:100:LR3_Snare WRH.wav
402,192,162514,1,0,0:0:0:0:
109,192,162714,1,0,0:0:0:100:LR3_Snare WRH.wav
402,192,162714,1,0,0:0:0:0:
182,192,162914,1,0,0:0:0:100:LR3_Snare WRH.wav
329,192,162914,1,0,0:0:0:0:
182,192,163114,1,0,0:0:0:100:LR3_Snare WRH.wav
329,192,163114,1,0,0:0:0:0:
329,192,163314,1,0,0:0:0:100:LR3_Snare WRH.wav
402,192,163314,1,0,0:0:0:0:
329,192,163414,1,0,0:0:0:100:LR3_Snare WRH.wav
402,192,163414,1,0,0:0:0:0:
109,192,163514,1,0,0:0:0:100:LR3_Snare WRH.wav
182,192,163514,1,0,0:0:0:0:
109,192,163614,1,0,0:0:0:100:LR3_Snare WRH.wav
182,192,163614,1,0,0:0:0:0:
256,192,163714,1,0,0:0:0:100:LR3_Snare WRH.wav
402,192,163714,1,0,0:0:0:0:
182,192,163814,1,0,0:0:0:100:LR3_Snare WRH.wav
329,192,163814,1,0,0:0:0:0:
256,192,163914,1,0,0:0:0:100:LR3_Snare WRH.wav
475,192,163914,1,0,0:0:0:0:
329,192,163964,1,0,0:0:0:0:
36,192,164014,1,0,0:0:0:100:LR3_Snare WRH.wav
182,192,164014,1,0,0:0:0:0:
256,192,164064,1,0,0:0:0:0:
36,192,164114,128,2,165314:0:0:0:0:
109,192,164114,128,4,165314:0:0:0:0:
182,192,164114,128,0,164714:0:0:0:0:
402,192,164114,1,0,0:0:0:0:
475,192,164114,128,0,164314:0:0:0:0:
402,192,164514,128,0,164714:0:0:0:0:
475,192,164514,128,0,164714:0:0:0:0:
329,192,164914,128,0,165314:0:0:0:0:
402,192,164914,128,0,165314:0:0:0:0:
475,192,164914,128,0,165314:0:0:0:0:
256,192,165314,1,0,0:0:0:0:
256,192,165514,128,0,165714:0:0:0:0:
36,192,165714,1,4,0:0:0:0:
109,192,165714,1,0,0:0:0:70:electronic25.wav
329,192,165714,1,0,0:0:0:0:
402,192,165714,1,0,0:0:0:0:
475,192,165714,1,0,0:0:0:0:
182,192,165764,1,0,0:0:0:0:
256,192,165814,1,0,0:0:0:0:
329,192,165864,1,0,0:0:0:0:
36,192,165914,1,0,0:0:0:70:electronic25.wav
109,192,165914,1,0,0:0:0:0:
182,192,165914,1,0,0:0:0:0:
402,192,165914,1,0,0:0:0:0:
475,192,165914,1,0,0:0:0:0:
256,192,165964,1,0,0:0:0:0:
182,192,166014,1,0,0:0:0:0:
109,192,166064,1,0,0:0:0:0:
36,192,166114,1,0,0:0:0:70:electronic25.wav
256,192,166114,1,0,0:0:0:0:
329,192,166114,1,0,0:0:0:0:
402,192,166114,1,0,0:0:0:0:
475,192,166114,1,0,0:0:0:0:
182,192,166164,1,0,0:0:0:0:
256,192,166214,1,0,0:0:0:0:
329,192,166264,1,0,0:0:0:0:
36,192,166314,1,0,0:0:0:70:electronic25.wav
109,192,166314,1,0,0:0:0:0:
182,192,166314,1,0,0:0:0:0:
402,192,166314,1,0,0:0:0:0:
475,192,166314,1,0,0:0:0:0:
256,192,166364,1,0,0:0:0:0:
329,192,166414,1,0,0:0:0:0:
402,192,166464,1,0,0:0:0:0:
36,192,166514,1,0,0:0:0:70:electronic25.wav
109,192,166514,1,0,0:0:0:0:
182,192,166514,1,0,0:0:0:0:
256,192,166514,1,0,0:0:0:0:
475,192,166514,1,0,0:0:0:0:
329,192,166564,1,0,0:0:0:0:
256,192,166614,1,0,0:0:0:0:
182,192,166664,1,0,0:0:0:0:
36,192,166714,1,0,0:0:0:70:electronic25.wav
109,192,166714,1,0,0:0:0:0:
329,192,166714,1,0,0:0:0:0:
402,192,166714,1,0,0:0:0:0:
475,192,166714,1,0,0:0:0:0:
256,192,166764,1,0,0:0:0:0:
182,192,166814,1,0,0:0:0:0:
109,192,166864,1,0,0:0:0:0:
36,192,166914,1,0,0:0:0:70:electronic25.wav
256,192,166914,1,0,0:0:0:0:
329,192,166914,1,0,0:0:0:0:
402,192,166914,1,0,0:0:0:0:
475,192,166914,1,0,0:0:0:0:
182,192,166964,1,0,0:0:0:0:
256,192,167014,1,0,0:0:0:0:
329,192,167064,1,0,0:0:0:0:
36,192,167114,1,0,0:0:0:70:electronic25.wav
109,192,167114,1,0,0:0:0:0:
182,192,167114,1,0,0:0:0:0:
402,192,167114,1,0,0:0:0:0:
475,192,167114,1,0,0:0:0:0:
256,192,167164,1,0,0:0:0:0:
329,192,167214,1,0,0:0:0:70:electronic25.wav
402,192,167214,1,0,0:0:0:0:
475,192,167214,1,0,0:0:0:0:
36,192,167264,1,0,0:0:0:70:electronic25.wav
109,192,167264,1,0,0:0:0:0:
182,192,167264,1,0,0:0:0:0:
256,192,167314,1,0,0:0:0:70:electronic25.wav
329,192,167314,1,0,0:0:0:0:
402,192,167314,1,0,0:0:0:0:
475,192,167314,1,0,0:0:0:0:
182,192,167364,1,0,0:0:0:0:
109,192,167414,1,0,0:0:0:0:
36,192,167464,1,0,0:0:0:0:
182,192,167514,1,0,0:0:0:70:electronic25.wav
256,192,167514,1,0,0:0:0:0:
329,192,167514,1,0,0:0:0:0:
402,192,167514,1,0,0:0:0:0:
475,192,167514,1,0,0:0:0:0:
109,192,167564,1,0,0:0:0:0:
182,192,167614,1,0,0:0:0:0:
256,192,167664,1,0,0:0:0:0:
36,192,167714,1,0,0:0:0:70:electronic25.wav
109,192,167714,1,0,0:0:0:0:
329,192,167714,1,0,0:0:0:0:
402,192,167714,1,0,0:0:0:0:
475,192,167714,1,0,0:0:0:0:
182,192,167764,1,0,0:0:0:0:
256,192,167814,1,0,0:0:0:0:
329,192,167864,1,0,0:0:0:0:
36,192,167914,1,0,0:0:0:70:electronic25.wav
109,192,167914,1,0,0:0:0:0:
182,192,167914,1,0,0:0:0:0:
402,192,167914,1,0,0:0:0:0:
475,192,167914,1,0,0:0:0:0:
256,192,167964,1,0,0:0:0:0:
329,192,168014,1,0,0:0:0:0:
402,192,168064,1,0,0:0:0:0:
36,192,168114,1,0,0:0:0:70:electronic25.wav
109,192,168114,1,0,0:0:0:0:
182,192,168114,1,0,0:0:0:0:
256,192,168114,1,0,0:0:0:0:
475,192,168114,1,0,0:0:0:0:
329,192,168164,1,0,0:0:0:0:
36,192,168214,1,0,0:0:0:70:electronic25.wav
109,192,168214,1,0,0:0:0:0:
182,192,168214,1,0,0:0:0:0:
402,192,168214,1,0,0:0:0:0:
475,192,168264,1,0,0:0:0:0:
36,192,168314,1,0,0:0:0:70:electronic25.wav
109,192,168314,1,0,0:0:0:0:
182,192,168314,1,0,0:0:0:0:
256,192,168314,1,0,0:0:0:0:
329,192,168314,1,0,0:0:0:0:
402,192,168364,1,0,0:0:0:0:
329,192,168414,1,0,0:0:0:0:
256,192,168464,1,0,0:0:0:0:
36,192,168514,1,0,0:0:0:70:electronic25.wav
109,192,168514,1,0,0:0:0:0:
182,192,168514,1,0,0:0:0:0:
402,192,168514,1,0,0:0:0:0:
475,192,168514,1,0,0:0:0:0:
329,192,168564,1,0,0:0:0:0:
256,192,168614,1,0,0:0:0:0:
182,192,168664,1,0,0:0:0:0:
36,192,168714,1,0,0:0:0:70:electronic25.wav
109,192,168714,1,0,0:0:0:0:
256,192,168714,1,0,0:0:0:0:
329,192,168764,1,0,0:0:0:70:electronic25.wav
402,192,168764,1,0,0:0:0:0:
475,192,168764,1,0,0:0:0:0:
36,192,168814,1,0,0:0:0:70:electronic25.wav
109,192,168814,1,0,0:0:0:0:
182,192,168814,1,0,0:0:0:0:
329,192,168864,1,0,0:0:0:70:electronic25.wav
402,192,168864,1,0,0:0:0:0:
475,192,168864,1,0,0:0:0:0:
36,192,168914,1,0,0:0:0:70:electronic25.wav
109,192,168914,1,0,0:0:0:0:
182,192,168914,1,0,0:0:0:0:
256,192,168914,1,0,0:0:0:0:
402,192,168964,1,0,0:0:0:0:
329,192,169014,1,0,0:0:0:0:
256,192,169064,1,0,0:0:0:0:
36,192,169114,1,0,0:0:0:70:electronic25.wav
109,192,169114,1,0,0:0:0:0:
182,192,169114,1,0,0:0:0:0:
402,192,169114,1,0,0:0:0:0:
475,192,169114,1,0,0:0:0:0:
329,192,169164,1,0,0:0:0:0:
256,192,169214,1,0,0:0:0:0:
182,192,169264,1,0,0:0:0:0:
36,192,169314,1,0,0:0:0:70:electronic25.wav
109,192,169314,1,0,0:0:0:0:
329,192,169314,1,0,0:0:0:0:
402,192,169314,1,0,0:0:0:0:
475,192,169314,1,0,0:0:0:0:
256,192,169364,1,0,0:0:0:0:
182,192,169414,1,0,0:0:0:0:
109,192,169464,1,0,0:0:0:0:
36,192,169514,1,0,0:0:0:70:electronic25.wav
256,192,169514,1,0,0:0:0:0:
329,192,169514,1,0,0:0:0:0:
402,192,169514,1,0,0:0:0:0:
475,192,169514,1,0,0:0:0:0:
182,192,169564,1,0,0:0:0:0:
36,192,169614,1,0,0:0:0:70:electronic25.wav
109,192,169614,1,0,0:0:0:0:
402,192,169614,1,0,0:0:0:0:
475,192,169614,1,0,0:0:0:0:
329,192,169664,1,0,0:0:0:0:
36,192,169714,1,0,0:0:0:70:electronic25.wav
109,192,169714,1,0,0:0:0:0:
256,192,169714,1,0,0:0:0:0:
402,192,169714,1,0,0:0:0:0:
475,192,169714,1,0,0:0:0:0:
182,192,169764,1,0,0:0:0:0:
36,192,169814,1,0,0:0:0:70:electronic25.wav
109,192,169814,1,0,0:0:0:0:
402,192,169814,1,0,0:0:0:0:
475,192,169814,1,0,0:0:0:0:
329,192,169864,1,0,0:0:0:0:
36,192,169914,1,0,0:0:0:70:electronic25.wav
109,192,169914,1,0,0:0:0:0:
182,192,169914,1,0,0:0:0:0:
256,192,169914,1,0,0:0:0:0:
475,192,169914,1,0,0:0:0:0:
402,192,169964,1,0,0:0:0:0:
182,192,170014,1,0,0:0:0:0:
256,192,170064,1,0,0:0:0:0:
36,192,170114,1,0,0:0:0:70:electronic25.wav
109,192,170114,1,0,0:0:0:0:
329,192,170114,1,0,0:0:0:0:
402,192,170114,1,0,0:0:0:0:
475,192,170114,1,0,0:0:0:0:
182,192,170164,1,0,0:0:0:0:
256,192,170214,1,0,0:0:0:0:
329,192,170264,1,0,0:0:0:0:
36,192,170314,1,0,0:0:0:70:electronic25.wav
109,192,170314,1,0,0:0:0:0:
402,192,170314,1,0,0:0:0:0:
475,192,170314,1,0,0:0:0:0:
182,192,170364,1,0,0:0:0:70:electronic25.wav
256,192,170364,1,0,0:0:0:0:
329,192,170364,1,0,0:0:0:0:
36,192,170414,1,0,0:0:0:70:electronic25.wav
109,192,170414,1,0,0:0:0:0:
475,192,170414,1,0,0:0:0:0:
256,192,170464,1,0,0:0:0:70:electronic25.wav
329,192,170464,1,0,0:0:0:0:
402,192,170464,1,0,0:0:0:0:
36,192,170514,1,0,0:0:0:70:electronic25.wav
109,192,170514,1,0,0:0:0:0:
182,192,170514,1,0,0:0:0:0:
475,192,170514,1,0,0:0:0:0:
256,192,170564,1,0,0:0:0:0:
329,192,170614,1,0,0:0:0:0:
402,192,170664,1,0,0:0:0:0:
36,192,170714,1,0,0:0:0:70:electronic25.wav
109,192,170714,1,0,0:0:0:0:
182,192,170714,1,0,0:0:0:0:
256,192,170714,1,0,0:0:0:0:
475,192,170714,1,0,0:0:0:0:
329,192,170764,1,0,0:0:0:0:
36,192,170814,1,0,0:0:0:70:electronic25.wav
109,192,170814,1,0,0:0:0:0:
182,192,170814,1,0,0:0:0:0:
402,192,170814,1,0,0:0:0:0:
256,192,170864,1,0,0:0:0:0:
36,192,170914,1,0,0:0:0:70:electronic25.wav
109,192,170914,1,0,0:0:0:0:
329,192,170914,1,0,0:0:0:0:
402,192,170914,1,0,0:0:0:0:
475,192,170914,1,0,0:0:0:0:
182,192,170964,1,0,0:0:0:0:
256,192,171014,1,0,0:0:0:0:
329,192,171064,1,0,0:0:0:0:
36,192,171114,1,0,0:0:0:70:electronic25.wav
109,192,171114,1,0,0:0:0:0:
182,192,171114,1,0,0:0:0:0:
402,192,171114,1,0,0:0:0:0:
475,192,171114,1,0,0:0:0:0:
329,192,171164,1,0,0:0:0:0:
256,192,171214,1,0,0:0:0:0:
182,192,171264,1,0,0:0:0:0:
36,192,171314,128,0,171414:0:0:0:70:Kick 10.wav
329,192,171314,128,0,171389:0:0:0:0:
402,192,171314,128,0,171414:0:0:0:0:
475,192,171314,128,0,171439:0:0:0:0:
109,192,171364,128,0,171464:0:0:0:0:
182,192,171414,128,0,171514:0:0:0:0:
256,192,171464,128,0,171564:0:0:0:0:
36,192,171514,128,0,171614:0:0:0:70:Kick 10.wav
329,192,171514,128,0,171589:0:0:0:0:
402,192,171514,128,0,171614:0:0:0:0:
475,192,171514,128,0,171639:0:0:0:0:
109,192,171564,128,0,171664:0:0:0:0:
182,192,171614,128,0,171714:0:0:0:0:
256,192,171664,128,0,171764:0:0:0:0:
36,192,171714,128,0,171764:0:0:0:70:Kick 10.wav
109,192,171714,128,0,171764:0:0:0:0:
329,192,171714,128,0,171764:0:0:0:0:
475,192,171714,128,0,171764:0:0:0:0:
36,192,171814,128,0,171864:0:0:0:70:Kick 10.wav
109,192,171814,128,0,171864:0:0:0:0:
329,192,171814,128,0,171864:0:0:0:0:
475,192,171814,128,0,171864:0:0:0:0:
36,192,171914,1,0,0:0:0:70:Kick 10.wav
109,192,171914,1,0,0:0:0:0:
182,192,171914,1,0,0:0:0:0:
329,192,171964,1,0,0:0:0:70:Kick 10.wav
402,192,171964,1,0,0:0:0:0:
475,192,171964,1,0,0:0:0:0:
36,192,172014,1,0,0:0:0:70:Kick 10.wav
109,192,172014,1,0,0:0:0:0:
182,192,172014,1,0,0:0:0:0:
329,192,172064,1,0,0:0:0:70:Kick 10.wav
402,192,172064,1,0,0:0:0:0:
475,192,172064,1,0,0:0:0:0:
36,192,172114,1,2,0:0:0:0:
109,192,172114,1,4,0:0:0:0:
182,192,172114,1,0,0:0:0:0:
256,192,172114,1,0,0:0:0:0:
402,192,172164,1,0,0:0:0:0:
329,192,172214,1,0,0:0:0:0:
256,192,172264,1,0,0:0:0:0:
36,192,172314,1,2,0:0:0:0:
109,192,172314,1,0,0:0:0:0:
182,192,172314,1,0,0:0:0:0:
402,192,172314,1,0,0:0:0:0:
475,192,172314,1,0,0:0:0:0:
329,192,172364,1,0,0:0:0:0:
256,192,172414,1,0,0:0:0:0:
182,192,172464,1,0,0:0:0:0:
36,192,172514,1,2,0:0:0:0:
109,192,172514,1,0,0:0:0:0:
329,192,172514,1,0,0:0:0:0:
402,192,172514,1,0,0:0:0:0:
475,192,172514,1,0,0:0:0:0:
256,192,172564,1,0,0:0:0:0:
182,192,172614,1,0,0:0:0:0:
109,192,172664,1,0,0:0:0:0:
36,192,172714,1,2,0:0:0:0:
256,192,172714,1,0,0:0:0:0:
329,192,172714,1,0,0:0:0:0:
402,192,172714,1,0,0:0:0:0:
475,192,172714,1,0,0:0:0:0:
182,192,172764,1,0,0:0:0:0:
109,192,172814,1,0,0:0:0:0:
36,192,172864,1,0,0:0:0:0:
182,192,172914,1,2,0:0:0:0:
256,192,172914,1,0,0:0:0:0:
329,192,172914,1,0,0:0:0:0:
402,192,172914,1,0,0:0:0:0:
475,192,172914,1,0,0:0:0:0:
36,192,172964,1,0,0:0:0:0:
109,192,173014,1,0,0:0:0:0:
182,192,173064,1,0,0:0:0:0:
36,192,173114,1,2,0:0:0:0:
256,192,173114,1,0,0:0:0:0:
329,192,173114,1,0,0:0:0:0:
402,192,173114,1,0,0:0:0:0:
475,192,173114,1,0,0:0:0:0:
109,192,173164,1,0,0:0:0:0:
182,192,173214,1,0,0:0:0:0:
256,192,173264,1,0,0:0:0:0:
36,192,173314,1,2,0:0:0:0:
109,192,173314,1,0,0:0:0:0:
329,192,173314,1,0,0:0:0:0:
402,192,173314,1,0,0:0:0:0:
475,192,173314,1,0,0:0:0:0:
182,192,173364,1,0,0:0:0:0:
256,192,173414,1,0,0:0:0:0:
329,192,173464,1,0,0:0:0:0:
36,192,173514,1,2,0:0:0:0:
109,192,173514,1,0,0:0:0:0:
182,192,173514,1,0,0:0:0:0:
402,192,173514,1,0,0:0:0:0:
475,192,173514,1,0,0:0:0:0:
256,192,173564,1,0,0:0:0:0:
109,192,173614,1,2,0:0:0:0:
329,192,173614,1,0,0:0:0:0:
402,192,173614,1,0,0:0:0:0:
475,192,173614,1,0,0:0:0:0:
182,192,173664,1,0,0:0:0:0:
36,192,173714,1,2,0:0:0:0:
256,192,173714,1,0,0:0:0:0:
329,192,173714,1,0,0:0:0:0:
402,192,173714,1,0,0:0:0:0:
475,192,173714,1,0,0:0:0:0:
109,192,173764,1,0,0:0:0:0:
182,192,173814,1,2,0:0:0:0:
256,192,173814,1,0,0:0:0:0:
402,192,173814,1,0,0:0:0:0:
475,192,173814,1,0,0:0:0:0:
329,192,173864,1,0,0:0:0:0:
36,192,173914,1,2,0:0:0:0:
109,192,173914,1,0,0:0:0:0:
182,192,173914,1,0,0:0:0:0:
402,192,173914,1,0,0:0:0:0:
475,192,173914,1,0,0:0:0:0:
256,192,173964,1,0,0:0:0:0:
329,192,174014,1,0,0:0:0:0:
402,192,174064,1,0,0:0:0:0:
36,192,174114,1,2,0:0:0:0:
109,192,174114,1,0,0:0:0:0:
182,192,174114,1,0,0:0:0:0:
256,192,174114,1,0,0:0:0:0:
475,192,174114,1,0,0:0:0:0:
329,192,174164,1,0,0:0:0:0:
36,192,174214,1,2,0:0:0:0:
109,192,174214,1,0,0:0:0:0:
182,192,174214,1,0,0:0:0:0:
256,192,174264,1,0,0:0:0:0:
329,192,174314,1,2,0:0:0:0:
402,192,174314,1,0,0:0:0:0:
475,192,174314,1,0,0:0:0:0:
36,192,174364,1,2,0:0:0:0:
109,192,174364,1,0,0:0:0:0:
182,192,174364,1,0,0:0:0:0:
329,192,174414,1,2,0:0:0:0:
402,192,174414,1,0,0:0:0:0:
256,192,174439,1,0,0:0:0:0:
182,192,174464,1,2,0:0:0:0:
109,192,174489,1,0,0:0:0:0:
36,192,174514,1,2,0:0:0:0:
329,192,174514,1,0,0:0:0:0:
402,192,174514,1,0,0:0:0:0:
475,192,174514,1,0,0:0:0:0:
256,192,174564,1,0,0:0:0:0:
109,192,174614,1,2,0:0:0:0:
182,192,174614,1,0,0:0:0:0:
402,192,174614,1,0,0:0:0:0:
475,192,174614,1,0,0:0:0:0:
329,192,174664,1,0,0:0:0:0:
36,192,174714,1,2,0:0:0:0:
109,192,174714,1,0,0:0:0:0:
256,192,174714,1,0,0:0:0:0:
475,192,174714,1,0,0:0:0:0:
402,192,174764,1,0,0:0:0:0:
36,192,174814,1,2,0:0:0:0:
109,192,174814,1,0,0:0:0:0:
182,192,174814,1,0,0:0:0:0:
329,192,174814,1,0,0:0:0:0:
402,192,174864,1,0,0:0:0:0:
36,192,174914,1,2,0:0:0:0:
109,192,174914,1,0,0:0:0:0:
256,192,174914,1,0,0:0:0:0:
475,192,174914,1,0,0:0:0:0:
329,192,174964,1,0,0:0:0:0:
36,192,175014,1,2,0:0:0:0:
109,192,175014,1,0,0:0:0:0:
182,192,175014,1,0,0:0:0:0:
402,192,175014,1,0,0:0:0:0:
256,192,175064,1,0,0:0:0:0:
329,192,175114,1,2,0:0:0:0:
402,192,175114,1,0,0:0:0:0:
475,192,175114,1,0,0:0:0:0:
36,192,175164,1,2,0:0:0:0:
109,192,175164,1,0,0:0:0:0:
182,192,175164,1,0,0:0:0:0:
329,192,175214,1,2,0:0:0:0:
402,192,175214,1,0,0:0:0:0:
475,192,175214,1,0,0:0:0:0:
182,192,175264,1,2,0:0:0:0:
36,192,175314,128,0,175380:0:0:0:70:Kick 10.wav
329,192,175314,128,0,175380:0:0:0:0:
402,192,175314,128,0,175414:0:0:0:0:
475,192,175314,128,0,175447:0:0:0:0:
109,192,175347,128,0,175414:0:0:0:0:
182,192,175380,128,0,175447:0:0:0:0:
256,192,175414,128,0,175547:0:0:0:0:
329,192,175447,128,0,175514:0:0:0:0:
36,192,175514,128,0,175647:0:0:0:70:Kick 10.wav
109,192,175514,128,0,175614:0:0:0:0:
182,192,175514,128,0,175580:0:0:0:0:
475,192,175514,128,0,175580:0:0:0:0:
402,192,175547,128,0,175614:0:0:0:0:
329,192,175580,128,0,175647:0:0:0:0:
256,192,175614,128,0,175747:0:0:0:0:
182,192,175647,128,0,175714:0:0:0:0:
36,192,175714,128,0,175780:0:0:0:70:Kick 10.wav
329,192,175714,128,0,175780:0:0:0:0:
402,192,175714,128,0,175814:0:0:0:0:
475,192,175714,128,0,175847:0:0:0:0:
109,192,175747,128,0,175814:0:0:0:0:
182,192,175780,128,0,175847:0:0:0:0:
256,192,175814,128,0,175947:0:0:0:0:
329,192,175847,128,0,175914:0:0:0:0:
36,192,175914,128,0,176047:0:0:0:70:Kick 10.wav
109,192,175914,128,0,176014:0:0:0:0:
182,192,175914,128,0,175980:0:0:0:0:
475,192,175914,128,0,175980:0:0:0:0:
402,192,175947,128,0,176014:0:0:0:0:
329,192,175980,128,0,176047:0:0:0:0:
256,192,176014,128,0,176080:0:0:0:0:
182,192,176047,128,0,176114:0:0:0:0:
36,192,176114,128,0,176164:0:0:0:70:Kick 10.wav
109,192,176114,128,0,176164:0:0:0:0:
402,192,176114,128,0,176164:0:0:0:0:
475,192,176114,128,0,176164:0:0:0:0:
329,192,176147,128,0,176214:0:0:0:0:
256,192,176180,128,0,176247:0:0:0:0:
36,192,176214,128,0,176264:0:0:0:70:Kick 10.wav
109,192,176214,128,0,176264:0:0:0:0:
182,192,176214,128,0,176264:0:0:0:0:
475,192,176214,128,0,176380:0:0:0:0:
402,192,176247,128,0,176347:0:0:0:0:
329,192,176280,128,0,176314:0:0:0:0:
36,192,176314,128,0,176364:0:0:0:70:Kick 10.wav
109,192,176314,128,0,176364:0:0:0:0:
182,192,176314,128,0,176364:0:0:0:0:
256,192,176347,128,0,176414:0:0:0:0:
329,192,176380,128,0,176447:0:0:0:0:
402,192,176414,128,0,176480:0:0:0:0:
475,192,176447,128,0,176514:0:0:0:0:
36,192,176514,128,0,176564:0:0:0:70:Kick 10.wav
109,192,176514,128,0,176564:0:0:0:0:
182,192,176514,128,0,176564:0:0:0:0:
402,192,176547,128,0,176614:0:0:0:0:
329,192,176580,128,0,176647:0:0:0:0:
36,192,176614,128,0,176664:0:0:0:70:Kick 10.wav
109,192,176614,128,0,176664:0:0:0:0:
256,192,176614,128,0,176680:0:0:0:0:
475,192,176614,128,0,176664:0:0:0:0:
182,192,176647,128,0,176714:0:0:0:0:
36,192,176714,128,0,176764:0:0:0:70:Kick 10.wav
109,192,176714,128,0,176764:0:0:0:0:
329,192,176714,128,0,176764:0:0:0:0:
402,192,176764,128,0,176814:0:0:0:70:Kick 10.wav
475,192,176764,128,0,176814:0:0:0:0:
36,192,176814,128,0,176864:0:0:0:70:Kick 10.wav
109,192,176814,128,0,176864:0:0:0:0:
182,192,176814,128,0,176864:0:0:0:0:
402,192,176864,128,0,176914:0:0:0:70:Kick 10.wav
475,192,176864,128,0,176914:0:0:0:0:
36,192,176914,1,4,0:0:0:0:
109,192,176914,1,0,0:0:0:70:amenbreak_kick2.wav
182,192,176914,1,0,0:0:0:0:
256,192,176914,1,0,0:0:0:0:
329,192,176914,1,0,0:0:0:0:
109,192,177014,1,0,0:0:0:0:
329,192,177014,1,0,0:0:0:0:
36,192,177114,1,0,0:0:0:70:amenbreak_snare2.wav
182,192,177114,1,0,0:0:0:0:
402,192,177114,1,0,0:0:0:0:
475,192,177114,1,0,0:0:0:0:
256,192,177214,1,0,0:0:0:0:
402,192,177214,1,0,0:0:0:0:
36,192,177314,1,0,0:0:0:70:amenbreak_kick2.wav
109,192,177314,1,0,0:0:0:0:
329,192,177314,1,0,0:0:0:0:
475,192,177314,1,0,0:0:0:0:
109,192,177414,1,0,0:0:0:70:amenbreak_snare2.wav
182,192,177414,1,0,0:0:0:0:
402,192,177414,1,0,0:0:0:0:
36,192,177514,1,0,0:0:0:0:
256,192,177514,1,0,0:0:0:0:
475,192,177514,1,0,0:0:0:0:
109,192,177614,1,0,0:0:0:70:amenbreak_kick2.wav
329,192,177614,1,0,0:0:0:0:
402,192,177614,1,0,0:0:0:0:
36,192,177714,1,0,0:0:0:70:amenbreak_kick2.wav
182,192,177714,1,0,0:0:0:0:
329,192,177714,1,0,0:0:0:0:
475,192,177714,1,0,0:0:0:0:
109,192,177814,1,0,0:0:0:0:
402,192,177814,1,0,0:0:0:0:
36,192,177914,1,0,0:0:0:70:amenbreak_snare2.wav
256,192,177914,1,0,0:0:0:0:
329,192,177914,1,0,0:0:0:0:
475,192,177914,1,0,0:0:0:0:
182,192,178014,1,0,0:0:0:0:
402,192,178014,1,0,0:0:0:0:
36,192,178114,1,0,0:0:0:70:amenbreak_kick2.wav
256,192,178114,1,0,0:0:0:0:
329,192,178114,1,0,0:0:0:0:
475,192,178114,1,0,0:0:0:0:
109,192,178214,1,0,0:0:0:70:amenbreak_snare2.wav
182,192,178214,1,0,0:0:0:0:
329,192,178214,1,0,0:0:0:0:
36,192,178314,1,0,0:0:0:0:
256,192,178314,1,0,0:0:0:0:
475,192,178314,1,0,0:0:0:0:
109,192,178414,1,0,0:0:0:0:
329,192,178414,1,0,0:0:0:0:
182,192,178464,1,0,0:0:0:0:
36,192,178514,1,4,0:0:0:0:
109,192,178514,1,0,0:0:0:70:electronic25.wav
256,192,178514,1,0,0:0:0:0:
402,192,178514,1,0,0:0:0:0:
475,192,178514,1,0,0:0:0:0:
329,192,178564,1,0,0:0:0:0:
256,192,178614,1,0,0:0:0:0:
182,192,178664,1,0,0:0:0:0:
36,192,178714,1,0,0:0:0:70:electronic25.wav
109,192,178714,1,0,0:0:0:0:
329,192,178714,1,0,0:0:0:0:
402,192,178714,1,0,0:0:0:0:
475,192,178714,1,0,0:0:0:0:
256,192,178764,1,0,0:0:0:0:
182,192,178814,1,0,0:0:0:0:
109,192,178864,1,0,0:0:0:0:
36,192,178914,1,0,0:0:0:70:electronic25.wav
256,192,178914,1,0,0:0:0:0:
329,192,178914,1,0,0:0:0:0:
402,192,178914,1,0,0:0:0:0:
475,192,178914,1,0,0:0:0:0:
182,192,178964,1,0,0:0:0:0:
109,192,179014,1,0,0:0:0:70:electronic25.wav
329,192,179014,1,0,0:0:0:0:
402,192,179014,1,0,0:0:0:0:
475,192,179014,1,0,0:0:0:0:
36,192,179064,1,0,0:0:0:0:
256,192,179114,1,0,0:0:0:70:electronic25.wav
329,192,179114,1,0,0:0:0:0:
402,192,179114,1,0,0:0:0:0:
475,192,179114,1,0,0:0:0:0:
182,192,179164,1,0,0:0:0:0:
36,192,179214,1,0,0:0:0:70:electronic25.wav
109,192,179214,1,0,0:0:0:0:
256,192,179214,1,0,0:0:0:0:
329,192,179264,1,0,0:0:0:70:electronic25.wav
402,192,179264,1,0,0:0:0:0:
475,192,179264,1,0,0:0:0:0:
36,192,179314,1,0,0:0:0:70:electronic25.wav
109,192,179314,1,0,0:0:0:0:
182,192,179314,1,0,0:0:0:0:
256,192,179314,1,0,0:0:0:0:
329,192,179364,1,0,0:0:0:0:
36,192,179414,1,0,0:0:0:70:electronic25.wav
109,192,179414,1,0,0:0:0:0:
402,192,179414,1,0,0:0:0:0:
475,192,179414,1,0,0:0:0:0:
182,192,179464,1,0,0:0:0:0:
256,192,179514,1,0,0:0:0:70:electronic25.wav
329,192,179514,1,0,0:0:0:0:
402,192,179514,1,0,0:0:0:0:
475,192,179514,1,0,0:0:0:0:
36,192,179564,1,0,0:0:0:0:
109,192,179614,1,0,0:0:0:70:electronic25.wav
182,192,179614,1,0,0:0:0:0:
256,192,179614,1,0,0:0:0:0:
329,192,179614,1,0,0:0:0:0:
402,192,179664,1,0,0:0:0:0:
36,192,179714,1,0,0:0:0:70:electronic25.wav
109,192,179714,1,0,0:0:0:0:
182,192,179714,1,0,0:0:0:0:
475,192,179714,1,0,0:0:0:0:
256,192,179764,1,0,0:0:0:0:
36,192,179814,1,0,0:0:0:70:electronic25.wav
109,192,179814,1,0,0:0:0:0:
182,192,179814,1,0,0:0:0:0:
329,192,179864,1,0,0:0:0:70:electronic25.wav
402,192,179864,1,0,0:0:0:0:
475,192,179864,1,0,0:0:0:0:
36,192,179914,1,0,0:0:0:70:electronic25.wav
109,192,179914,1,0,0:0:0:0:
182,192,179914,1,0,0:0:0:0:
256,192,179964,1,0,0:0:0:0:
402,192,180014,1,0,0:0:0:70:electronic25.wav
475,192,180014,1,0,0:0:0:0:
329,192,180039,1,0,0:0:0:70:electronic25.wav
256,192,180064,1,0,0:0:0:70:electronic25.wav
182,192,180089,1,0,0:0:0:70:electronic25.wav
36,192,180114,1,0,0:0:0:70:electronic25.wav
109,192,180114,1,0,0:0:0:0:
402,192,180114,1,0,0:0:0:0:
475,192,180114,1,0,0:0:0:0:
329,192,180164,1,0,0:0:0:0:
36,192,180214,1,0,0:0:0:70:electronic25.wav
109,192,180214,1,0,0:0:0:0:
182,192,180214,1,0,0:0:0:0:
256,192,180214,1,0,0:0:0:0:
329,192,180264,1,0,0:0:0:0:
36,192,180314,1,0,0:0:0:70:electronic25.wav
182,192,180314,1,0,0:0:0:0:
402,192,180314,1,0,0:0:0:0:
475,192,180314,1,0,0:0:0:0:
256,192,180364,1,0,0:0:0:0:
109,192,180414,1,0,0:0:0:70:electronic25.wav
329,192,180414,1,0,0:0:0:0:
402,192,180414,1,0,0:0:0:0:
475,192,180414,1,0,0:0:0:0:
182,192,180464,1,0,0:0:0:0:
36,192,180514,1,0,0:0:0:70:electronic25.wav
109,192,180514,1,0,0:0:0:0:
256,192,180514,1,0,0:0:0:0:
329,192,180564,1,0,0:0:0:70:electronic25.wav
402,192,180564,1,0,0:0:0:0:
475,192,180564,1,0,0:0:0:0:
36,192,180614,1,0,0:0:0:70:electronic25.wav
109,192,180614,1,0,0:0:0:0:
182,192,180614,1,0,0:0:0:0:
256,192,180664,1,0,0:0:0:0:
329,192,180714,1,0,0:0:0:70:electronic25.wav
402,192,180714,1,0,0:0:0:0:
475,192,180714,1,0,0:0:0:0:
36,192,180764,1,0,0:0:0:70:electronic25.wav
109,192,180764,1,0,0:0:0:0:
182,192,180764,1,0,0:0:0:0:
329,192,180814,1,0,0:0:0:70:electronic25.wav
402,192,180814,1,0,0:0:0:0:
475,192,180814,1,0,0:0:0:0:
256,192,180864,1,0,0:0:0:0:
36,192,180914,1,0,0:0:0:70:electronic25.wav
109,192,180914,1,0,0:0:0:0:
182,192,180914,1,0,0:0:0:0:
329,192,180914,1,0,0:0:0:0:
402,192,180964,1,0,0:0:0:0:
36,192,181014,1,0,0:0:0:70:electronic25.wav
109,192,181014,1,0,0:0:0:0:
256,192,181014,1,0,0:0:0:0:
475,192,181014,1,0,0:0:0:0:
329,192,181064,1,0,0:0:0:0:
36,192,181114,1,0,0:0:0:70:electronic25.wav
182,192,181114,1,0,0:0:0:0:
402,192,181114,1,0,0:0:0:0:
475,192,181114,1,0,0:0:0:0:
256,192,181164,1,0,0:0:0:0:
109,192,181214,1,0,0:0:0:70:electronic25.wav
329,192,181214,1,0,0:0:0:0:
402,192,181214,1,0,0:0:0:0:
475,192,181214,1,0,0:0:0:0:
182,192,181264,1,0,0:0:0:0:
256,192,181314,1,0,0:0:0:70:electronic25.wav
402,192,181314,1,0,0:0:0:0:
475,192,181314,1,0,0:0:0:0:
36,192,181380,1,0,0:0:0:70:electronic25.wav
109,192,181380,1,0,0:0:0:0:
182,192,181380,1,0,0:0:0:0:
329,192,181447,1,0,0:0:0:70:electronic25.wav
402,192,181447,1,0,0:0:0:0:
475,192,181447,1,0,0:0:0:0:
36,192,181514,1,0,0:0:0:70:electronic25.wav
109,192,181514,1,0,0:0:0:0:
256,192,181514,1,0,0:0:0:0:
182,192,181580,1,0,0:0:0:70:electronic25.wav
402,192,181580,1,0,0:0:0:0:
475,192,181580,1,0,0:0:0:0:
36,192,181647,1,0,0:0:0:70:electronic25.wav
256,192,181647,1,0,0:0:0:0:
329,192,181647,1,0,0:0:0:0:
182,192,181714,128,0,181780:0:0:0:70:Kick 10.wav
475,192,181714,128,0,181914:0:0:0:0:
109,192,181747,128,0,181814:0:0:0:0:
402,192,181747,128,0,181880:0:0:0:0:
36,192,181780,128,0,181847:0:0:0:0:
329,192,181780,128,0,181847:0:0:0:0:
256,192,181814,128,0,181947:0:0:0:0:
182,192,181847,128,0,181914:0:0:0:0:
109,192,181880,128,0,182014:0:0:0:0:
36,192,181914,128,0,181980:0:0:0:70:Kick 10.wav
329,192,181914,128,0,181980:0:0:0:0:
402,192,181947,128,0,182014:0:0:0:0:
182,192,181980,128,0,182047:0:0:0:0:
475,192,181980,128,0,182047:0:0:0:0:
256,192,182014,128,0,182147:0:0:0:0:
36,192,182047,128,0,182114:0:0:0:0:
329,192,182047,128,0,182114:0:0:0:0:
402,192,182080,128,0,182214:0:0:0:0:
182,192,182114,128,0,182180:0:0:0:70:Kick 10.wav
475,192,182114,128,0,182180:0:0:0:0:
109,192,182147,128,0,182214:0:0:0:0:
36,192,182180,128,0,182247:0:0:0:0:
329,192,182180,128,0,182247:0:0:0:0:
256,192,182214,128,0,182347:0:0:0:0:
182,192,182247,128,0,182314:0:0:0:0:
475,192,182247,128,0,182314:0:0:0:0:
109,192,182280,128,0,182414:0:0:0:0:
36,192,182314,128,0,182380:0:0:0:70:Kick 10.wav
329,192,182314,128,0,182380:0:0:0:0:
402,192,182347,128,0,182414:0:0:0:0:
182,192,182380,128,0,182447:0:0:0:0:
475,192,182380,128,0,182447:0:0:0:0:
256,192,182414,128,0,182547:0:0:0:0:
36,192,182447,128,0,182514:0:0:0:0:
329,192,182447,128,0,182514:0:0:0:0:
402,192,182480,128,0,182614:0:0:0:0:
182,192,182514,128,0,182580:0:0:0:70:Kick 10.wav
475,192,182514,128,0,182580:0:0:0:0:
109,192,182547,128,0,182614:0:0:0:0:
36,192,182580,128,0,182647:0:0:0:0:
329,192,182580,128,0,182647:0:0:0:0:
256,192,182614,128,0,182747:0:0:0:0:
182,192,182647,128,0,182714:0:0:0:0:
475,192,182647,128,0,182714:0:0:0:0:
109,192,182680,128,0,182814:0:0:0:0:
36,192,182714,128,0,182780:0:0:0:70:Kick 10.wav
329,192,182714,128,0,182780:0:0:0:0:
402,192,182747,128,0,182814:0:0:0:0:
182,192,182780,128,0,182847:0:0:0:0:
475,192,182780,128,0,182847:0:0:0:0:
256,192,182814,128,0,182947:0:0:0:0:
36,192,182847,128,0,182914:0:0:0:0:
329,192,182847,128,0,182914:0:0:0:0:
402,192,182880,128,0,183014:0:0:0:0:
182,192,182914,128,0,182980:0:0:0:70:Kick 10.wav
475,192,182914,128,0,182980:0:0:0:0:
109,192,182947,128,0,183014:0:0:0:0:
36,192,182980,128,0,183047:0:0:0:0:
329,192,182980,128,0,183047:0:0:0:0:
256,192,183014,128,0,183147:0:0:0:0:
182,192,183047,128,0,183114:0:0:0:0:
475,192,183047,128,0,183114:0:0:0:0:
109,192,183080,128,0,183214:0:0:0:0:
36,192,183114,128,0,183180:0:0:0:70:Kick 10.wav
329,192,183114,128,0,183180:0:0:0:0:
402,192,183147,128,0,183214:0:0:0:0:
182,192,183180,128,0,183247:0:0:0:0:
475,192,183180,128,0,183247:0:0:0:0:
256,192,183214,128,0,183280:0:0:0:0:
329,192,183247,128,0,183314:0:0:0:0:
36,192,183314,1,0,0:0:0:70:electronic25.wav
109,192,183314,1,0,0:0:0:0:
402,192,183314,1,0,0:0:0:0:
475,192,183314,1,0,0:0:0:0:
182,192,183364,1,0,0:0:0:0:
256,192,183414,1,0,0:0:0:0:
329,192,183464,1,0,0:0:0:0:
36,192,183514,1,0,0:0:0:70:electronic25.wav
109,192,183514,1,0,0:0:0:0:
402,192,183514,1,0,0:0:0:0:
475,192,183514,1,0,0:0:0:0:
182,192,183564,1,0,0:0:0:0:
256,192,183614,1,0,0:0:0:0:
329,192,183664,1,0,0:0:0:0:
36,192,183714,1,0,0:0:0:70:electronic25.wav
109,192,183714,1,0,0:0:0:0:
402,192,183714,1,0,0:0:0:0:
475,192,183714,1,0,0:0:0:0:
256,192,183764,1,0,0:0:0:0:
182,192,183814,1,0,0:0:0:0:
109,192,183864,1,0,0:0:0:0:
36,192,183914,1,0,0:0:0:70:electronic25.wav
329,192,183914,1,0,0:0:0:0:
402,192,183914,1,0,0:0:0:0:
475,192,183914,1,0,0:0:0:0:
256,192,183964,1,0,0:0:0:0:
36,192,184014,1,0,0:0:0:70:electronic25.wav
109,192,184014,1,0,0:0:0:0:
182,192,184014,1,0,0:0:0:0:
329,192,184064,1,0,0:0:0:70:electronic25.wav
402,192,184064,1,0,0:0:0:0:
475,192,184064,1,0,0:0:0:0:
36,192,184114,1,0,0:0:0:70:electronic25.wav
109,192,184114,1,0,0:0:0:0:
182,192,184114,1,0,0:0:0:0:
256,192,184114,1,0,0:0:0:0:
329,192,184164,1,0,0:0:0:0:
109,192,184214,1,0,0:0:0:70:electronic25.wav
182,192,184214,1,0,0:0:0:0:
402,192,184214,1,0,0:0:0:0:
475,192,184214,1,0,0:0:0:0:
256,192,184264,1,0,0:0:0:0:
36,192,184314,1,0,0:0:0:70:electronic25.wav
109,192,184314,1,0,0:0:0:0:
329,192,184314,1,0,0:0:0:0:
402,192,184314,1,0,0:0:0:0:
182,192,184364,1,0,0:0:0:0:
36,192,184414,1,0,0:0:0:70:electronic25.wav
256,192,184414,1,0,0:0:0:0:
329,192,184414,1,0,0:0:0:0:
475,192,184414,1,0,0:0:0:0:
109,192,184464,1,0,0:0:0:0:
182,192,184514,1,0,0:0:0:70:electronic25.wav
256,192,184514,1,0,0:0:0:0:
402,192,184514,1,0,0:0:0:0:
475,192,184514,1,0,0:0:0:0:
36,192,184564,1,0,0:0:0:0:
109,192,184614,1,0,0:0:0:70:electronic25.wav
182,192,184614,1,0,0:0:0:0:
329,192,184614,1,0,0:0:0:0:
402,192,184614,1,0,0:0:0:0:
475,192,184664,1,0,0:0:0:0:
182,192,184714,1,0,0:0:0:70:electronic25.wav
256,192,184714,1,0,0:0:0:0:
329,192,184714,1,0,0:0:0:0:
36,192,184764,1,0,0:0:0:70:electronic25.wav
109,192,184764,1,0,0:0:0:0:
256,192,184814,1,0,0:0:0:70:electronic25.wav
329,192,184814,1,0,0:0:0:0:
402,192,184814,1,0,0:0:0:0:
109,192,184864,1,0,0:0:0:70:electronic25.wav
182,192,184864,1,0,0:0:0:0:
36,192,184914,128,2,184980:0:0:0:0:
329,192,184914,128,4,184980:0:0:0:0:
402,192,184914,128,0,185014:0:0:0:0:
475,192,184914,128,0,185047:0:0:0:0:
109,192,184947,128,0,185014:0:0:0:0:
182,192,184980,128,0,185047:0:0:0:0:
256,192,185014,128,0,185080:0:0:0:0:
329,192,185047,128,0,185114:0:0:0:0:
402,192,185080,128,0,185214:0:0:0:0:
36,192,185114,128,2,185247:0:0:0:0:
109,192,185114,128,0,185214:0:0:0:0:
182,192,185114,128,0,185180:0:0:0:0:
475,192,185114,128,0,185180:0:0:0:0:
329,192,185180,128,0,185247:0:0:0:0:
256,192,185214,128,0,185280:0:0:0:0:
182,192,185247,128,0,185314:0:0:0:0:
109,192,185280,128,0,185414:0:0:0:0:
36,192,185314,128,2,185380:0:0:0:0:
329,192,185314,128,0,185380:0:0:0:0:
402,192,185314,128,0,185414:0:0:0:0:
475,192,185314,128,0,185447:0:0:0:0:
182,192,185380,128,0,185447:0:0:0:0:
256,192,185414,128,0,185480:0:0:0:0:
329,192,185447,128,0,185514:0:0:0:0:
36,192,185514,128,2,185564:0:0:0:0:
109,192,185514,128,0,185564:0:0:0:0:
182,192,185514,128,0,185564:0:0:0:0:
475,192,185514,128,0,185580:0:0:0:0:
402,192,185547,128,0,185614:0:0:0:0:
329,192,185580,128,0,185647:0:0:0:0:
36,192,185614,128,2,185664:0:0:0:0:
109,192,185614,128,0,185664:0:0:0:0:
256,192,185614,128,0,185680:0:0:0:0:
182,192,185647,128,0,185714:0:0:0:0:
36,192,185714,128,2,185780:0:0:0:0:
329,192,185714,128,0,185764:0:0:0:0:
402,192,185714,128,0,185764:0:0:0:0:
475,192,185714,128,0,185764:0:0:0:0:
109,192,185747,128,0,185814:0:0:0:0:
182,192,185780,128,0,185847:0:0:0:0:
256,192,185814,128,2,185880:0:0:0:0:
402,192,185814,128,0,185864:0:0:0:0:
475,192,185814,128,0,185864:0:0:0:0:
329,192,185847,128,0,185914:0:0:0:0:
36,192,185914,1,2,0:0:0:0:
109,192,185914,1,0,0:0:0:0:
182,192,185914,1,0,0:0:0:0:
475,192,185914,1,0,0:0:0:0:
256,192,185964,1,0,0:0:0:0:
329,192,186014,1,2,0:0:0:0:
402,192,186014,1,0,0:0:0:0:
475,192,186014,1,0,0:0:0:0:
36,192,186064,1,2,0:0:0:0:
109,192,186064,1,0,0:0:0:0:
182,192,186064,1,0,0:0:0:0:
256,192,186114,1,2,0:0:0:0:
329,192,186114,1,0,0:0:0:0:
402,192,186114,1,0,0:0:0:0:
475,192,186114,1,0,0:0:0:0:
182,192,186164,1,0,0:0:0:0:
36,192,186214,1,2,0:0:0:0:
109,192,186214,1,0,0:0:0:0:
402,192,186214,1,0,0:0:0:0:
329,192,186264,1,0,0:0:0:0:
36,192,186314,1,2,0:0:0:0:
109,192,186314,1,0,0:0:0:0:
256,192,186314,1,0,0:0:0:0:
329,192,186364,1,2,0:0:0:0:
402,192,186364,1,0,0:0:0:0:
475,192,186364,1,0,0:0:0:0:
36,192,186414,1,2,0:0:0:0:
109,192,186414,1,0,0:0:0:0:
182,192,186414,1,0,0:0:0:0:
329,192,186464,1,2,0:0:0:0:
402,192,186464,1,0,0:0:0:0:
475,192,186464,1,0,0:0:0:0:
36,192,186514,1,0,0:0:0:70:electronic25.wav
109,192,186514,1,0,0:0:0:0:
182,192,186514,1,0,0:0:0:0:
256,192,186514,1,0,0:0:0:0:
36,192,186914,128,0,187247:0:0:0:70:electronic25.wav
256,192,186914,128,0,186947:0:0:0:0:
329,192,186914,128,0,186980:0:0:0:0:
402,192,186914,128,0,187014:0:0:0:0:
475,192,186914,128,0,187047:0:0:0:0:
109,192,186947,128,0,187214:0:0:0:0:
182,192,186980,128,0,187180:0:0:0:0:
256,192,187014,128,0,187147:0:0:0:0:
329,192,187047,128,0,187114:0:0:0:0:
475,192,187114,128,0,187180:0:0:0:0:
402,192,187147,128,0,187214:0:0:0:0:
329,192,187180,128,0,187247:0:0:0:0:
256,192,187214,128,0,187280:0:0:0:0:
182,192,187247,128,0,187314:0:0:0:0:
36,192,187314,1,0,0:0:0:70:electronic25.wav
109,192,187314,1,0,0:0:0:0:
402,192,187314,1,0,0:0:0:0:
475,192,187314,1,0,0:0:0:0:
36,192,187714,128,0,187847:0:0:0:70:electronic25.wav
109,192,187714,128,0,187814:0:0:0:0:
182,192,187714,128,0,187780:0:0:0:0:
256,192,187714,128,0,187747:0:0:0:0:
475,192,187714,128,0,188047:0:0:0:0:
402,192,187747,128,0,188014:0:0:0:0:
329,192,187780,128,0,187980:0:0:0:0:
256,192,187814,128,0,187947:0:0:0:0:
182,192,187847,128,0,187914:0:0:0:0:
36,192,187914,128,0,187980:0:0:0:0:
109,192,187947,128,0,188014:0:0:0:0:
182,192,187980,128,0,188047:0:0:0:0:
256,192,188014,128,0,188080:0:0:0:0:
329,192,188047,128,0,188114:0:0:0:0:
36,192,188114,1,0,0:0:0:70:electronic25.wav
109,192,188114,1,0,0:0:0:0:
475,192,188114,1,0,0:0:0:0:
402,192,188164,1,0,0:0:0:0:
256,192,188214,1,0,0:0:0:0:
329,192,188264,1,0,0:0:0:0:
36,192,188314,1,0,0:0:0:70:electronic25.wav
402,192,188314,1,0,0:0:0:0:
475,192,188314,1,0,0:0:0:0:
109,192,188364,1,0,0:0:0:0:
256,192,188414,1,0,0:0:0:0:
182,192,188464,1,0,0:0:0:0:
36,192,188514,1,0,0:0:0:70:electronic25.wav
109,192,188514,1,0,0:0:0:0:
475,192,188514,1,0,0:0:0:0:
402,192,188564,1,0,0:0:0:0:
256,192,188614,1,0,0:0:0:0:
329,192,188664,1,0,0:0:0:0:
36,192,188714,1,0,0:0:0:70:electronic25.wav
402,192,188714,1,0,0:0:0:0:
475,192,188714,1,0,0:0:0:0:
109,192,188764,1,0,0:0:0:0:
256,192,188814,1,0,0:0:0:0:
182,192,188864,1,0,0:0:0:0:
36,192,188914,1,0,0:0:0:70:electronic25.wav
109,192,188914,1,0,0:0:0:0:
475,192,188914,1,0,0:0:0:0:
402,192,188964,1,0,0:0:0:0:
36,192,189014,1,0,0:0:0:70:electronic25.wav
109,192,189014,1,0,0:0:0:0:
329,192,189014,1,0,0:0:0:0:
256,192,189064,1,0,0:0:0:0:
36,192,189114,1,0,0:0:0:70:electronic25.wav
402,192,189114,1,0,0:0:0:0:
475,192,189114,1,0,0:0:0:0:
109,192,189164,1,0,0:0:0:0:
182,192,189214,1,0,0:0:0:70:electronic25.wav
402,192,189214,1,0,0:0:0:0:
475,192,189214,1,0,0:0:0:0:
256,192,189264,1,0,0:0:0:0:
329,192,189314,1,0,0:0:0:70:electronic25.wav
402,192,189314,1,0,0:0:0:0:
475,192,189314,1,0,0:0:0:0:
36,192,189364,1,0,0:0:0:70:electronic25.wav
109,192,189364,1,0,0:0:0:0:
182,192,189414,1,0,0:0:0:70:electronic25.wav
256,192,189414,1,0,0:0:0:0:
329,192,189414,1,0,0:0:0:0:
402,192,189464,1,0,0:0:0:70:electronic25.wav
475,192,189464,1,0,0:0:0:0:
36,192,189514,1,0,0:0:0:70:electronic25.wav
109,192,189514,1,0,0:0:0:0:
182,192,189514,1,0,0:0:0:0:
256,192,189539,1,0,0:0:0:70:electronic25.wav
329,192,189564,1,0,0:0:0:70:electronic25.wav
402,192,189589,1,0,0:0:0:70:electronic25.wav
109,192,189614,1,0,0:0:0:70:electronic25.wav
475,192,189614,1,0,0:0:0:0:
182,192,189639,1,0,0:0:0:70:electronic25.wav
256,192,189664,1,0,0:0:0:70:electronic25.wav
329,192,189689,1,0,0:0:0:70:electronic25.wav
36,192,189714,1,2,0:0:0:0:
109,192,189714,1,0,0:0:0:100:LR3_Snare WRH.wav
402,192,189714,1,0,0:0:0:0:
475,192,189714,1,0,0:0:0:0:
256,192,189821,1,0,0:0:0:0:
36,192,189928,1,2,0:0:0:0:
109,192,189928,1,0,0:0:0:100:LR3_Snare WRH.wav
182,192,189928,1,0,0:0:0:0:
475,192,189928,1,0,0:0:0:0:
256,192,190035,1,0,0:0:0:0:
36,192,190142,1,2,0:0:0:0:
329,192,190142,1,0,0:0:0:100:LR3_Snare WRH.wav
402,192,190142,1,0,0:0:0:0:
475,192,190142,1,0,0:0:0:0:
256,192,190257,1,0,0:0:0:0:
36,192,190372,1,2,0:0:0:0:
109,192,190372,1,0,0:0:0:100:LR3_Snare WRH.wav
182,192,190372,1,0,0:0:0:0:
475,192,190372,1,0,0:0:0:0:
256,192,190488,1,0,0:0:0:0:
109,192,190603,1,2,0:0:0:0:
329,192,190603,1,0,0:0:0:100:LR3_Snare WRH.wav
402,192,190603,1,0,0:0:0:0:
475,192,190603,1,0,0:0:0:0:
36,192,190665,1,0,0:0:0:0:
256,192,190728,1,0,0:0:0:100:LR3_Snare WRH.wav
329,192,190728,1,0,0:0:0:0:
475,192,190728,1,0,0:0:0:0:
182,192,190790,1,0,0:0:0:0:
109,192,190853,1,2,0:0:0:0:
329,192,190853,1,0,0:0:0:100:LR3_Snare WRH.wav
402,192,190853,1,0,0:0:0:0:
475,192,190853,1,0,0:0:0:0:
36,192,190915,1,0,0:0:0:0:
256,192,190978,1,0,0:0:0:100:LR3_Snare WRH.wav
329,192,190978,1,0,0:0:0:0:
475,192,190978,1,0,0:0:0:0:
402,192,191040,1,0,0:0:0:0:
36,192,191103,1,2,0:0:0:0:
109,192,191103,1,0,0:0:0:100:LR3_Snare WRH.wav
182,192,191103,1,0,0:0:0:0:
256,192,191103,1,0,0:0:0:0:
329,192,191165,1,0,0:0:0:0:
36,192,191228,1,0,0:0:0:100:LR3_Snare WRH.wav
182,192,191228,1,0,0:0:0:0:
475,192,191228,1,0,0:0:0:0:
402,192,191290,1,0,0:0:0:0:
36,192,191353,1,2,0:0:0:0:
109,192,191353,1,0,0:0:0:100:LR3_Snare WRH.wav
182,192,191353,1,0,0:0:0:0:
329,192,191353,1,0,0:0:0:0:
256,192,191415,1,0,0:0:0:0:
36,192,191478,1,0,0:0:0:100:LR3_Snare WRH.wav
182,192,191478,1,0,0:0:0:0:
402,192,191478,1,0,0:0:0:0:
329,192,191540,1,0,0:0:0:0:
36,192,191603,128,2,192603:0:0:0:0:
182,192,191603,128,4,192853:0:0:0:0:
256,192,191603,128,0,193103:0:0:0:0:
402,192,191603,128,0,193353:0:0:0:0:
475,192,191603,128,0,193603:0:0:0:0:
36,192,193603,1,4,0:0:0:0:
109,192,193603,1,2,0:0:0:0:
182,192,193603,1,0,0:0:0:0:
329,192,193603,1,0,0:0:0:0:
402,192,193603,1,0,0:0:0:0:
256,192,193978,1,0,0:0:0:0:
329,192,194353,1,0,0:0:0:0:
36,192,194603,1,0,0:0:0:0:
109,192,195103,1,0,0:0:0:0:
182,192,195353,1,0,0:0:0:0:
36,192,195603,1,0,0:0:0:0:
329,192,195603,1,0,0:0:0:0:
475,192,195603,1,0,0:0:0:0:
256,192,195853,1,0,0:0:0:0:
109,192,195978,1,0,0:0:0:0:
182,192,196228,1,0,0:0:0:0:
329,192,196353,1,0,0:0:0:0:
475,192,196478,1,0,0:0:0:0:
109,192,196603,1,0,0:0:0:0:
256,192,196603,1,0,0:0:0:0:
402,192,196728,1,0,0:0:0:0:
329,192,196978,1,0,0:0:0:0:
109,192,197228,1,0,0:0:0:0:
256,192,197353,1,0,0:0:0:0:
402,192,197478,1,0,0:0:0:0:
36,192,197603,1,0,0:0:0:0:
109,192,197603,1,0,0:0:0:0:
256,192,197603,1,0,0:0:0:0:
182,192,198603,1,0,0:0:0:0:
256,192,198978,1,0,0:0:0:0:
475,192,199353,1,0,0:0:0:0:
329,192,199478,1,0,0:0:0:0:
475,192,199603,1,0,0:0:0:0:
256,192,199728,1,0,0:0:0:0:
36,192,199978,1,0,0:0:0:0:
109,192,200228,1,0,0:0:0:0:
182,192,200353,1,0,0:0:0:0:
36,192,200478,1,0,0:0:0:0:
182,192,200603,1,0,0:0:0:0:
329,192,200603,1,0,0:0:0:0:
475,192,200603,1,0,0:0:0:0:
256,192,200728,1,0,0:0:0:0:
402,192,200978,1,0,0:0:0:0:
182,192,201228,1,0,0:0:0:0:
256,192,201353,1,0,0:0:0:0:
329,192,201478,1,0,0:0:0:0:
36,192,201603,1,0,0:0:0:0:
109,192,201603,1,0,0:0:0:0:
402,192,201603,1,0,0:0:0:0:
182,192,201978,1,0,0:0:0:0:
256,192,202353,1,0,0:0:0:0:
36,192,202603,1,0,0:0:0:0:
109,192,202978,1,0,0:0:0:0:
182,192,203228,1,0,0:0:0:0:
36,192,203603,1,0,0:0:0:0:
329,192,203603,1,0,0:0:0:0:
475,192,203603,1,0,0:0:0:0:
256,192,203978,1,0,0:0:0:0:
329,192,204353,1,0,0:0:0:0:
475,192,204478,1,0,0:0:0:0:
256,192,204603,1,0,0:0:0:0:
402,192,204728,1,0,0:0:0:0:
329,192,204978,1,0,0:0:0:0:
256,192,205228,1,0,0:0:0:0:
109,192,205353,1,0,0:0:0:0:
329,192,205478,1,0,0:0:0:0:
36,192,205603,1,0,0:0:0:0:
182,192,205603,1,0,0:0:0:0:
475,192,205603,1,0,0:0:0:0:
182,192,206603,1,0,0:0:0:0:
256,192,206978,1,0,0:0:0:0:
329,192,207353,1,0,0:0:0:0:
182,192,207603,1,0,0:0:0:0:
109,192,207728,1,0,0:0:0:0:
36,192,207978,1,0,0:0:0:0:
182,192,208353,1,0,0:0:0:0:
329,192,208603,1,0,0:0:0:0:
256,192,208728,1,0,0:0:0:0:
109,192,208853,1,0,0:0:0:0:
36,192,208978,1,0,0:0:0:0:
182,192,209228,1,0,0:0:0:0:
329,192,209353,1,0,0:0:0:0:
36,192,209603,1,0,0:0:0:70:Kick 12.wav
182,192,209603,1,0,0:0:0:0:
256,192,209603,128,0,211353:0:0:0:0:
402,192,209603,1,0,0:0:0:0:
475,192,209603,1,0,0:0:0:0:
109,192,209978,1,0,0:0:0:70:Kick 12.wav
329,192,209978,1,0,0:0:0:0:
475,192,209978,1,0,0:0:0:0:
36,192,210353,1,0,0:0:0:70:Kick 12.wav
182,192,210353,1,0,0:0:0:0:
402,192,210353,1,0,0:0:0:0:
329,192,210478,1,0,0:0:0:0:
36,192,210603,1,0,0:0:0:70:Kick 12.wav
109,192,210603,1,0,0:0:0:0:
402,192,210603,1,0,0:0:0:0:
475,192,210603,1,0,0:0:0:0:
36,192,210978,1,0,0:0:0:70:Kick 12.wav
329,192,211103,1,0,0:0:0:0:
475,192,211103,1,0,0:0:0:0:
109,192,211228,1,0,0:0:0:70:Kick 12.wav
36,192,211353,1,0,0:0:0:70:Kick 12.wav
182,192,211353,1,0,0:0:0:0:
402,192,211353,1,0,0:0:0:0:
475,192,211353,1,0,0:0:0:0:
36,192,211603,128,0,213353:0:0:0:70:Kick 12.wav
109,192,211603,1,0,0:0:0:0:
329,192,211603,1,0,0:0:0:0:
402,192,211603,1,0,0:0:0:0:
475,192,211603,1,0,0:0:0:0:
109,192,211853,1,0,0:0:0:0:
256,192,211853,1,0,0:0:0:0:
402,192,211853,1,0,0:0:0:0:
182,192,211978,1,0,0:0:0:70:Kick 12.wav
329,192,211978,1,0,0:0:0:0:
475,192,211978,1,0,0:0:0:0:
109,192,212228,1,0,0:0:0:0:
182,192,212228,1,0,0:0:0:0:
182,192,212353,1,0,0:0:0:70:Kick 12.wav
329,192,212353,1,0,0:0:0:0:
329,192,212478,1,0,0:0:0:70:Kick 12.wav
402,192,212478,1,0,0:0:0:0:
109,192,212603,1,0,0:0:0:70:Kick 12.wav
182,192,212603,1,0,0:0:0:0:
256,192,212603,1,0,0:0:0:0:
475,192,212603,1,0,0:0:0:0:
182,192,212728,1,0,0:0:0:70:Kick 12.wav
329,192,212728,1,0,0:0:0:0:
402,192,212728,1,0,0:0:0:0:
475,192,212728,1,0,0:0:0:0:
109,192,212978,1,0,0:0:0:70:Kick 12.wav
256,192,212978,1,0,0:0:0:0:
475,192,212978,1,0,0:0:0:0:
182,192,213228,1,0,0:0:0:70:Kick 12.wav
402,192,213228,1,0,0:0:0:0:
109,192,213353,1,0,0:0:0:70:Kick 12.wav
256,192,213353,1,0,0:0:0:0:
329,192,213353,1,0,0:0:0:0:
475,192,213353,1,0,0:0:0:0:
36,192,213478,1,0,0:0:0:70:Kick 12.wav
402,192,213478,1,0,0:0:0:0:
182,192,213519,1,0,0:0:0:0:
256,192,213561,1,0,0:0:0:0:
36,192,213603,1,0,0:0:0:70:Kick 12.wav
109,192,213603,1,0,0:0:0:0:
329,192,213603,1,0,0:0:0:0:
402,192,213603,1,0,0:0:0:0:
475,192,213603,128,0,215353:0:0:0:0:
182,192,213978,1,0,0:0:0:70:Kick 12.wav
109,192,214353,1,0,0:0:0:70:Kick 12.wav
329,192,214353,1,0,0:0:0:0:
109,192,214478,1,0,0:0:0:70:Kick 12.wav
256,192,214478,1,0,0:0:0:0:
36,192,214603,1,0,0:0:0:70:Kick 12.wav
182,192,214603,1,0,0:0:0:0:
329,192,214603,1,0,0:0:0:0:
402,192,214603,1,0,0:0:0:0:
36,192,214978,1,0,0:0:0:70:Kick 12.wav
182,192,214978,1,0,0:0:0:0:
256,192,214978,1,0,0:0:0:0:
109,192,215228,1,0,0:0:0:70:Kick 12.wav
36,192,215353,1,0,0:0:0:70:Kick 12.wav
182,192,215353,1,0,0:0:0:0:
329,192,215353,1,0,0:0:0:0:
402,192,215353,1,0,0:0:0:0:
109,192,215478,1,0,0:0:0:0:
256,192,215478,1,0,0:0:0:0:
36,192,215603,1,0,0:0:0:70:Kick 12.wav
182,192,215603,1,0,0:0:0:0:
329,192,215603,128,0,216353:0:0:0:0:
402,192,215603,1,0,0:0:0:0:
475,192,215603,1,0,0:0:0:0:
109,192,215728,1,0,0:0:0:0:
256,192,215728,1,0,0:0:0:0:
36,192,215978,1,0,0:0:0:70:Kick 12.wav
182,192,215978,1,0,0:0:0:0:
475,192,215978,1,0,0:0:0:0:
109,192,216228,1,0,0:0:0:0:
402,192,216228,1,0,0:0:0:0:
36,192,216353,1,0,0:0:0:70:Kick 12.wav
256,192,216353,1,0,0:0:0:0:
475,192,216353,1,0,0:0:0:0:
109,192,216478,1,0,0:0:0:70:Kick 12.wav
182,192,216478,1,0,0:0:0:0:
402,192,216478,1,0,0:0:0:0:
36,192,216603,1,0,0:0:0:70:Kick 12.wav
109,192,216603,1,0,0:0:0:0:
182,192,216603,128,0,217353:0:0:0:0:
329,192,216603,1,0,0:0:0:0:
475,192,216603,1,0,0:0:0:0:
256,192,216728,1,0,0:0:0:0:
402,192,216728,1,0,0:0:0:0:
36,192,216978,1,0,0:0:0:70:Kick 12.wav
256,192,216978,1,0,0:0:0:0:
329,192,216978,1,0,0:0:0:0:
475,192,216978,1,0,0:0:0:0:
109,192,217228,1,0,0:0:0:0:
36,192,217353,1,0,0:0:0:70:Kick 12.wav
256,192,217353,1,0,0:0:0:0:
402,192,217353,1,0,0:0:0:0:
475,192,217353,1,0,0:0:0:0:
109,192,217478,1,0,0:0:0:70:Kick 12.wav
329,192,217478,1,0,0:0:0:0:
182,192,217540,1,0,0:0:0:70:Kick 12.wav
36,192,217603,1,0,0:0:0:70:Kick 12.wav
109,192,217603,1,0,0:0:0:0:
256,192,217603,128,0,219353:0:0:0:0:
402,192,217603,1,0,0:0:0:0:
475,192,217603,1,0,0:0:0:0:
36,192,217978,1,0,0:0:0:70:Kick 12.wav
182,192,217978,1,0,0:0:0:0:
402,192,217978,1,0,0:0:0:0:
109,192,218353,1,0,0:0:0:70:Kick 12.wav
329,192,218353,1,0,0:0:0:0:
475,192,218353,1,0,0:0:0:0:
182,192,218478,1,0,0:0:0:0:
36,192,218603,1,0,0:0:0:70:Kick 12.wav
109,192,218603,1,0,0:0:0:0:
402,192,218603,1,0,0:0:0:0:
475,192,218603,1,0,0:0:0:0:
36,192,218978,1,0,0:0:0:70:Kick 12.wav
329,192,218978,1,0,0:0:0:0:
475,192,218978,1,0,0:0:0:0:
109,192,219228,1,0,0:0:0:70:Kick 12.wav
402,192,219228,1,0,0:0:0:0:
475,192,219228,1,0,0:0:0:0:
36,192,219353,1,0,0:0:0:70:Kick 12.wav
109,192,219353,1,0,0:0:0:0:
329,192,219353,1,0,0:0:0:0:
475,192,219353,1,0,0:0:0:0:
36,192,219603,1,0,0:0:0:70:Kick 12.wav
109,192,219603,1,0,0:0:0:0:
182,192,219603,1,0,0:0:0:0:
402,192,219603,1,0,0:0:0:0:
475,192,219603,128,0,221353:0:0:0:0:
36,192,219978,1,0,0:0:0:70:Kick 12.wav
182,192,219978,1,0,0:0:0:0:
329,192,219978,1,0,0:0:0:0:
182,192,220353,1,0,0:0:0:70:Kick 12.wav
329,192,220353,1,0,0:0:0:0:
402,192,220353,1,0,0:0:0:0:
109,192,220478,1,0,0:0:0:70:Kick 12.wav
182,192,220478,1,0,0:0:0:0:
36,192,220603,1,0,0:0:0:70:Kick 12.wav
256,192,220603,1,0,0:0:0:0:
329,192,220603,1,0,0:0:0:0:
402,192,220603,1,0,0:0:0:0:
36,192,220728,1,0,0:0:0:70:Kick 12.wav
109,192,220728,1,0,0:0:0:0:
182,192,220728,1,0,0:0:0:0:
329,192,220728,1,0,0:0:0:0:
36,192,220978,1,0,0:0:0:70:Kick 12.wav
256,192,220978,1,0,0:0:0:0:
402,192,220978,1,0,0:0:0:0:
36,192,221228,1,0,0:0:0:70:Kick 12.wav
109,192,221228,1,0,0:0:0:0:
329,192,221228,1,0,0:0:0:0:
36,192,221353,1,0,0:0:0:70:Kick 12.wav
182,192,221353,1,0,0:0:0:0:
256,192,221353,1,0,0:0:0:0:
402,192,221353,1,0,0:0:0:0:
109,192,221478,1,0,0:0:0:70:Kick 12.wav
475,192,221478,1,0,0:0:0:0:
329,192,221519,1,0,0:0:0:0:
256,192,221561,1,0,0:0:0:0:
36,192,221603,128,0,223353:0:0:0:70:Kick 12.wav
109,192,221603,1,0,0:0:0:0:
182,192,221603,1,0,0:0:0:0:
402,192,221603,1,0,0:0:0:0:
475,192,221603,1,0,0:0:0:0:
329,192,221978,1,0,0:0:0:70:Kick 12.wav
182,192,222353,1,0,0:0:0:70:Kick 12.wav
256,192,222478,1,0,0:0:0:70:Kick 12.wav
109,192,222603,1,0,0:0:0:70:Kick 12.wav
182,192,222603,1,0,0:0:0:0:
329,192,222603,1,0,0:0:0:0:
475,192,222603,1,0,0:0:0:0:
256,192,222978,1,0,0:0:0:70:Kick 12.wav
329,192,222978,1,0,0:0:0:0:
475,192,222978,1,0,0:0:0:0:
402,192,223228,1,0,0:0:0:70:Kick 12.wav
109,192,223353,1,0,0:0:0:70:Kick 12.wav
182,192,223353,1,0,0:0:0:0:
329,192,223353,1,0,0:0:0:0:
475,192,223353,1,0,0:0:0:0:
36,192,223603,1,4,0:0:0:0:
182,192,223603,128,0,224103:0:0:0:70:Kick 12.wav
256,192,223603,1,0,0:0:0:0:
402,192,223603,1,0,0:0:0:0:
475,192,223603,128,0,225353:0:0:0:0:
36,192,223728,128,0,224603:0:0:0:0:
109,192,223978,128,0,224353:0:0:0:0:
402,192,224103,128,0,225353:0:0:0:0:
256,192,224353,128,0,225353:0:0:0:0:
109,192,224603,128,0,224853:0:0:0:0:
329,192,224603,128,0,225353:0:0:0:0:
182,192,224728,128,0,225353:0:0:0:0:
36,192,224853,128,0,225353:0:0:0:0:
109,192,224978,128,0,225353:0:0:0:0:
36,192,225603,128,4,225728:0:0:0:0:
109,192,225603,1,2,0:0:0:0:
256,192,225603,1,0,0:0:0:0:
329,192,225603,128,0,225728:0:0:0:0:
402,192,225603,1,0,0:0:0:0:
475,192,225603,128,0,227540:0:0:0:0:
182,192,225728,128,0,225853:0:0:0:0:
36,192,225853,128,0,225978:0:0:0:0:
256,192,225853,128,0,225978:0:0:0:0:
109,192,225978,128,0,226103:0:0:0:0:
36,192,226103,128,0,226290:0:0:0:0:
182,192,226103,128,0,226228:0:0:0:0:
402,192,226228,128,0,226353:0:0:0:0:
256,192,226290,128,0,226415:0:0:0:0:
36,192,226353,128,0,226478:0:0:0:0:
109,192,226353,128,0,226478:0:0:0:0:
329,192,226478,128,0,226603:0:0:0:0:
36,192,226603,128,0,226853:0:0:0:0:
109,192,226603,128,0,226853:0:0:0:0:
329,192,226728,128,0,226853:0:0:0:0:
402,192,226728,128,0,226853:0:0:0:0:
36,192,226978,128,0,227165:0:0:0:0:
109,192,226978,128,0,227165:0:0:0:0:
329,192,227103,128,0,227290:0:0:0:0:
402,192,227103,128,0,227290:0:0:0:0:
109,192,227228,128,0,227415:0:0:0:0:
182,192,227228,128,0,227290:0:0:0:0:
256,192,227353,128,0,227415:0:0:0:0:
402,192,227353,128,0,227540:0:0:0:0:
36,192,227478,128,0,227603:0:0:0:0:
329,192,227478,128,0,227540:0:0:0:0:
182,192,227603,128,0,229353:0:0:0:0:
402,192,227603,128,0,227853:0:0:0:0:
475,192,227603,128,0,227853:0:0:0:0:
36,192,227728,128,0,227853:0:0:0:0:
109,192,227728,128,0,227853:0:0:0:0:
402,192,227978,128,0,228165:0:0:0:0:
475,192,227978,128,0,228165:0:0:0:0:
36,192,228103,128,0,228290:0:0:0:0:
109,192,228103,128,0,228290:0:0:0:0:
329,192,228228,128,0,228415:0:0:0:0:
475,192,228228,128,0,228290:0:0:0:0:
109,192,228353,128,0,228540:0:0:0:0:
402,192,228353,128,0,228415:0:0:0:0:
329,192,228478,128,0,228540:0:0:0:0:
475,192,228478,128,0,228665:0:0:0:0:
256,192,228603,128,0,228665:0:0:0:0:
402,192,228603,128,0,228665:0:0:0:0:
36,192,228665,128,0,228728:0:0:0:0:
256,192,228728,128,0,228853:0:0:0:0:
475,192,228728,128,0,228853:0:0:0:0:
36,192,228853,128,0,229228:0:0:0:0:
109,192,228853,128,0,229228:0:0:0:0:
329,192,228978,128,0,229228:0:0:0:0:
475,192,228978,128,0,229228:0:0:0:0:
256,192,229228,128,0,229353:0:0:0:0:
36,192,229353,128,0,229415:0:0:0:0:
109,192,229353,128,0,229540:0:0:0:0:
329,192,229353,128,0,229540:0:0:0:0:
182,192,229478,128,0,229540:0:0:0:0:
402,192,229478,128,0,229665:0:0:0:0:
36,192,229603,128,0,229853:0:0:0:0:
182,192,229603,128,0,229853:0:0:0:0:
256,192,229603,128,0,233290:0:0:0:0:
475,192,229603,128,0,229665:0:0:0:0:
329,192,229728,128,0,229853:0:0:0:0:
475,192,229728,128,0,229853:0:0:0:0:
36,192,229978,128,0,230228:0:0:0:0:
182,192,229978,128,0,230228:0:0:0:0:
329,192,230103,128,0,230228:0:0:0:0:
475,192,230103,128,0,230228:0:0:0:0:
109,192,230353,128,0,230415:0:0:0:0:
402,192,230353,128,0,230540:0:0:0:0:
109,192,230478,128,0,230665:0:0:0:0:
182,192,230478,128,0,230540:0:0:0:0:
329,192,230603,128,0,230853:0:0:0:0:
475,192,230603,128,0,230853:0:0:0:0:
36,192,230728,128,0,230853:0:0:0:0:
182,192,230728,128,0,230853:0:0:0:0:
329,192,230978,128,0,231228:0:0:0:0:
475,192,230978,128,0,231228:0:0:0:0:
36,192,231103,128,0,231228:0:0:0:0:
182,192,231103,128,0,231228:0:0:0:0:
109,192,231228,128,0,231290:0:0:0:0:
402,192,231228,128,0,231415:0:0:0:0:
36,192,231353,128,0,231540:0:0:0:0:
329,192,231353,128,0,231415:0:0:0:0:
182,192,231478,128,0,231540:0:0:0:0:
475,192,231478,128,0,231728:0:0:0:0:
109,192,231603,128,0,231665:0:0:0:0:
329,192,231603,128,0,231853:0:0:0:0:
36,192,231728,128,0,231790:0:0:0:0:
182,192,231728,128,0,231978:0:0:0:0:
36,192,231853,128,0,231978:0:0:0:0:
475,192,231853,128,0,231915:0:0:0:0:
402,192,231978,128,0,232228:0:0:0:0:
475,192,231978,128,0,232228:0:0:0:0:
109,192,232228,128,0,232415:0:0:0:0:
329,192,232228,128,0,232290:0:0:0:0:
182,192,232353,128,0,232415:0:0:0:0:
475,192,232353,128,0,232540:0:0:0:0:
36,192,232478,128,0,232728:0:0:0:0:
329,192,232478,128,0,232540:0:0:0:0:
182,192,232603,128,0,232853:0:0:0:0:
402,192,232603,128,0,232665:0:0:0:0:
329,192,232728,128,0,232978:0:0:0:0:
475,192,232728,128,0,232790:0:0:0:0:
36,192,232853,128,0,232915:0:0:0:0:
475,192,232853,128,0,232978:0:0:0:0:
36,192,232978,128,0,233415:0:0:0:0:
109,192,232978,128,0,233290:0:0:0:0:
329,192,233228,128,0,233290:0:0:0:0:
475,192,233228,128,0,233540:0:0:0:0:
256,192,233353,128,0,233415:0:0:0:0:
402,192,233353,128,0,233540:0:0:0:0:
36,192,233478,128,0,233540:0:0:0:0:
182,192,233478,128,0,233665:0:0:0:0:
36,192,233603,128,2,233665:0:0:0:0:
109,192,233603,128,0,233665:0:0:0:0:
256,192,233603,128,0,233665:0:0:0:0:
402,192,233603,128,0,233790:0:0:0:0:
329,192,233728,128,0,233790:0:0:0:0:
475,192,233728,128,0,233915:0:0:0:0:
109,192,233853,128,8,234040:0:0:0:0:
182,192,233853,1,0,0:0:0:0:
402,192,233853,128,0,233915:0:0:0:0:
36,192,233978,128,0,234165:0:0:0:0:
475,192,233978,128,0,234040:0:0:0:0:
182,192,234103,128,0,234228:0:0:0:0:
329,192,234103,128,0,234290:0:0:0:0:
36,192,234228,128,0,234290:0:0:0:0:
182,192,234290,128,0,234353:0:0:0:0:
36,192,234353,128,8,234415:0:0:0:0:
329,192,234353,1,0,0:0:0:0:
475,192,234353,128,0,234603:0:0:0:0:
329,192,234478,128,0,234603:0:0:0:0:
36,192,234603,128,0,234853:0:0:0:0:
109,192,234603,128,0,234853:0:0:0:0:
256,192,234728,128,0,234853:0:0:0:0:
402,192,234728,128,0,234853:0:0:0:0:
329,192,234853,1,8,0:0:0:0:
475,192,234853,1,0,0:0:0:0:
36,192,234978,128,0,235290:0:0:0:0:
109,192,234978,128,0,235165:0:0:0:0:
256,192,235103,128,0,235165:0:0:0:0:
475,192,235103,128,0,235290:0:0:0:0:
182,192,235228,128,0,235290:0:0:0:0:
329,192,235228,128,0,235415:0:0:0:0:
36,192,235353,1,8,0:0:0:0:
182,192,235353,1,0,0:0:0:0:
402,192,235353,128,0,235415:0:0:0:0:
475,192,235353,128,0,235540:0:0:0:0:
329,192,235478,128,0,235540:0:0:0:0:
402,192,235603,128,0,235853:0:0:0:0:
475,192,235603,128,0,235853:0:0:0:0:
109,192,235728,128,0,235853:0:0:0:0:
256,192,235728,128,0,235853:0:0:0:0:
36,192,235853,1,8,0:0:0:0:
182,192,235853,1,0,0:0:0:0:
402,192,235978,128,0,236165:0:0:0:0:
475,192,235978,128,0,236290:0:0:0:0:
36,192,236103,128,0,236290:0:0:0:0:
256,192,236103,128,0,236165:0:0:0:0:
182,192,236228,128,0,236415:0:0:0:0:
329,192,236228,128,0,236290:0:0:0:0:
36,192,236353,128,8,236540:0:0:0:0:
109,192,236353,128,0,236415:0:0:0:0:
329,192,236353,1,0,0:0:0:0:
475,192,236353,1,0,0:0:0:0:
182,192,236478,128,0,236540:0:0:0:0:
109,192,236603,128,0,236665:0:0:0:0:
475,192,236603,128,0,236665:0:0:0:0:
329,192,236665,128,0,236728:0:0:0:0:
109,192,236728,128,0,236915:0:0:0:0:
475,192,236728,128,0,236915:0:0:0:0:
36,192,236853,1,8,0:0:0:0:
182,192,236853,1,0,0:0:0:0:
329,192,236853,128,0,237040:0:0:0:0:
402,192,236853,128,0,236915:0:0:0:0:
36,192,236978,128,0,237228:0:0:0:0:
256,192,236978,128,0,237040:0:0:0:0:
475,192,236978,128,0,237228:0:0:0:0:
109,192,237228,128,0,237415:0:0:0:0:
402,192,237228,128,0,237290:0:0:0:0:
256,192,237353,128,8,237415:0:0:0:0:
329,192,237353,1,0,0:0:0:0:
402,192,237353,128,0,237540:0:0:0:0:
475,192,237353,1,0,0:0:0:0:
109,192,237478,128,0,237540:0:0:0:0:
256,192,237478,128,0,237665:0:0:0:0:
36,192,237603,128,0,237853:0:0:0:0:
329,192,237603,128,0,237665:0:0:0:0:
182,192,237728,128,0,237853:0:0:0:0:
402,192,237728,128,0,237790:0:0:0:0:
329,192,237853,1,8,0:0:0:0:
475,192,237853,1,0,0:0:0:0:
36,192,237978,128,0,238228:0:0:0:0:
329,192,237978,128,0,238040:0:0:0:0:
182,192,238103,128,0,238228:0:0:0:0:
402,192,238103,128,0,238165:0:0:0:0:
36,192,238353,128,8,238415:0:0:0:0:
329,192,238353,1,0,0:0:0:0:
402,192,238353,128,0,238540:0:0:0:0:
475,192,238353,1,0,0:0:0:0:
109,192,238478,128,0,238540:0:0:0:0:
256,192,238478,128,0,238665:0:0:0:0:
182,192,238603,128,0,238665:0:0:0:0:
475,192,238603,128,0,238853:0:0:0:0:
109,192,238728,128,0,238790:0:0:0:0:
329,192,238728,128,0,238853:0:0:0:0:
36,192,238853,1,8,0:0:0:0:
182,192,238853,1,0,0:0:0:0:
182,192,238978,128,0,239040:0:0:0:0:
475,192,238978,128,0,239165:0:0:0:0:
109,192,239103,128,0,239165:0:0:0:0:
329,192,239103,128,0,239290:0:0:0:0:
475,192,239228,128,0,239290:0:0:0:0:
36,192,239353,1,8,0:0:0:0:
182,192,239353,1,0,0:0:0:0:
402,192,239353,128,0,239415:0:0:0:0:
329,192,239478,128,0,239540:0:0:0:0:
182,192,239603,128,0,239665:0:0:0:0:
256,192,239728,128,0,239790:0:0:0:0:
36,192,239853,1,8,0:0:0:0:
182,192,239853,1,0,0:0:0:0:
329,192,239853,128,0,240040:0:0:0:0:
475,192,239978,128,0,240165:0:0:0:0:
475,192,240228,128,0,240290:0:0:0:0:
36,192,240353,1,8,0:0:0:0:
182,192,240353,1,0,0:0:0:0:
329,192,240353,128,0,240415:0:0:0:0:
402,192,240478,128,0,240540:0:0:0:0:
256,192,240603,128,0,240665:0:0:0:0:
329,192,240728,128,0,240790:0:0:0:0:
182,192,240853,128,8,241040:0:0:0:0:
329,192,240853,1,0,0:0:0:0:
475,192,240853,1,0,0:0:0:0:
36,192,240978,128,0,241165:0:0:0:0:
182,192,241228,1,0,0:0:0:0:
109,192,241353,1,8,0:0:0:0:
402,192,241353,1,0,0:0:0:0:
36,192,241478,1,0,0:0:0:0:
36,192,241603,1,2,0:0:0:0:
109,192,241603,128,4,241665:0:0:0:0:
256,192,241603,1,0,0:0:0:0:
329,192,241603,128,0,243228:0:0:0:0:
402,192,241603,1,0,0:0:0:0:
475,192,241603,128,0,243478:0:0:0:0:
182,192,241728,128,0,241790:0:0:0:0:
36,192,241853,1,8,0:0:0:0:
256,192,241853,128,0,241915:0:0:0:0:
402,192,241853,1,0,0:0:0:0:
109,192,241978,128,0,242040:0:0:0:0:
36,192,242103,128,0,242228:0:0:0:0:
182,192,242103,128,0,242228:0:0:0:0:
109,192,242353,128,8,242478:0:0:0:0:
256,192,242353,128,0,242478:0:0:0:0:
402,192,242353,1,0,0:0:0:0:
36,192,242603,1,0,0:0:0:0:
182,192,242603,128,0,242665:0:0:0:0:
109,192,242728,128,0,242790:0:0:0:0:
36,192,242853,128,8,242915:0:0:0:0:
182,192,242853,1,0,0:0:0:0:
402,192,242853,1,0,0:0:0:0:
182,192,242978,128,0,243040:0:0:0:0:
109,192,243103,128,0,243228:0:0:0:0:
256,192,243103,128,0,243228:0:0:0:0:
36,192,243353,1,8,0:0:0:0:
182,192,243353,128,0,243478:0:0:0:0:
329,192,243353,128,0,243478:0:0:0:0:
36,192,243603,128,4,245478:0:0:0:0:
109,192,243603,1,2,0:0:0:0:
182,192,243603,128,0,245228:0:0:0:0:
256,192,243603,1,0,0:0:0:0:
402,192,243603,1,0,0:0:0:0:
475,192,243603,1,0,0:0:0:0:
329,192,243728,128,0,243790:0:0:0:0:
109,192,243853,1,8,0:0:0:0:
256,192,243853,128,0,243915:0:0:0:0:
475,192,243853,1,0,0:0:0:0:
402,192,243978,128,0,244040:0:0:0:0:
329,192,244103,128,0,244228:0:0:0:0:
475,192,244103,128,0,244228:0:0:0:0:
109,192,244353,1,8,0:0:0:0:
256,192,244353,128,0,244478:0:0:0:0:
402,192,244353,128,0,244478:0:0:0:0:
475,192,244478,1,0,0:0:0:0:
256,192,244603,1,0,0:0:0:0:
329,192,244603,128,0,244665:0:0:0:0:
402,192,244728,128,0,244790:0:0:0:0:
109,192,244853,1,8,0:0:0:0:
329,192,244853,1,0,0:0:0:0:
475,192,244853,128,0,244915:0:0:0:0:
329,192,244978,128,0,245040:0:0:0:0:
256,192,245103,128,0,245228:0:0:0:0:
402,192,245103,128,0,245228:0:0:0:0:
182,192,245353,128,8,245478:0:0:0:0:
329,192,245353,128,0,245478:0:0:0:0:
475,192,245353,1,0,0:0:0:0:
36,192,245603,1,2,0:0:0:0:
109,192,245603,1,4,0:0:0:0:
256,192,245603,1,0,0:0:0:0:
329,192,245603,128,0,247228:0:0:0:0:
402,192,245603,1,0,0:0:0:0:
475,192,245603,128,0,247478:0:0:0:0:
182,192,245728,128,0,245790:0:0:0:0:
109,192,245853,128,8,245915:0:0:0:0:
402,192,245853,1,0,0:0:0:0:
36,192,245978,128,0,246040:0:0:0:0:
182,192,246103,128,0,246228:0:0:0:0:
402,192,246103,128,0,246228:0:0:0:0:
36,192,246353,128,8,246478:0:0:0:0:
256,192,246353,128,0,246478:0:0:0:0:
402,192,246353,1,0,0:0:0:0:
109,192,246478,1,0,0:0:0:0:
36,192,246603,1,0,0:0:0:0:
182,192,246603,128,0,246665:0:0:0:0:
109,192,246728,128,0,246790:0:0:0:0:
36,192,246853,1,8,0:0:0:0:
256,192,246853,128,0,246915:0:0:0:0:
402,192,246853,1,0,0:0:0:0:
182,192,246978,128,0,247040:0:0:0:0:
109,192,247103,128,0,247228:0:0:0:0:
256,192,247103,128,0,247228:0:0:0:0:
36,192,247228,128,0,247353:0:0:0:0:
182,192,247353,128,8,247478:0:0:0:0:
329,192,247353,128,0,247478:0:0:0:0:
256,192,247478,128,0,247603:0:0:0:0:
36,192,247603,128,4,249478:0:0:0:0:
109,192,247603,1,2,0:0:0:0:
182,192,247603,128,0,249228:0:0:0:0:
402,192,247603,1,0,0:0:0:0:
475,192,247603,128,0,247665:0:0:0:0:
329,192,247728,128,0,247790:0:0:0:0:
402,192,247790,128,0,247853:0:0:0:0:
109,192,247853,1,8,0:0:0:0:
256,192,247853,128,0,247915:0:0:0:0:
475,192,247853,1,0,0:0:0:0:
109,192,247978,128,0,248228:0:0:0:0:
402,192,247978,128,0,248040:0:0:0:0:
329,192,248103,128,0,248228:0:0:0:0:
475,192,248103,128,0,248228:0:0:0:0:
256,192,248228,128,0,248290:0:0:0:0:
402,192,248290,128,0,248353:0:0:0:0:
109,192,248353,128,8,248415:0:0:0:0:
329,192,248353,128,0,248415:0:0:0:0:
475,192,248353,128,0,248415:0:0:0:0:
256,192,248478,128,0,248540:0:0:0:0:
109,192,248603,1,0,0:0:0:0:
329,192,248603,128,0,248665:0:0:0:0:
475,192,248603,128,0,248790:0:0:0:0:
256,192,248728,128,0,248790:0:0:0:0:
402,192,248728,128,0,248790:0:0:0:0:
109,192,248853,1,8,0:0:0:0:
329,192,248853,1,0,0:0:0:0:
475,192,248853,128,0,248915:0:0:0:0:
109,192,248978,128,0,249228:0:0:0:0:
329,192,248978,128,0,249040:0:0:0:0:
256,192,249103,128,0,249228:0:0:0:0:
402,192,249103,128,0,249228:0:0:0:0:
475,192,249228,128,0,249478:0:0:0:0:
182,192,249353,128,8,249478:0:0:0:0:
329,192,249353,128,0,249478:0:0:0:0:
402,192,249353,128,0,249478:0:0:0:0:
256,192,249478,128,0,249603:0:0:0:0:
36,192,249603,128,2,249853:0:0:0:0:
109,192,249603,128,4,249790:0:0:0:0:
182,192,249603,128,0,249728:0:0:0:0:
329,192,249603,1,0,0:0:0:0:
402,192,249603,1,0,0:0:0:0:
475,192,249603,1,0,0:0:0:0:
329,192,249728,1,0,0:0:0:0:
475,192,249728,128,0,249853:0:0:0:0:
256,192,249790,1,0,0:0:0:0:
402,192,249790,128,0,249978:0:0:0:0:
182,192,249853,128,8,250040:0:0:0:0:
329,192,249853,128,0,249915:0:0:0:0:
475,192,249915,128,0,250040:0:0:0:0:
36,192,249978,128,0,250040:0:0:0:0:
256,192,249978,128,0,250103:0:0:0:0:
36,192,250103,1,2,0:0:0:0:
182,192,250103,1,0,0:0:0:0:
329,192,250103,128,0,250228:0:0:0:0:
402,192,250103,128,0,250290:0:0:0:0:
475,192,250103,128,0,250353:0:0:0:0:
36,192,250228,128,0,250353:0:0:0:0:
182,192,250228,1,0,0:0:0:0:
109,192,250290,128,0,250478:0:0:0:0:
256,192,250290,1,0,0:0:0:0:
182,192,250353,128,8,250415:0:0:0:0:
329,192,250353,128,0,250540:0:0:0:0:
36,192,250415,128,0,250540:0:0:0:0:
256,192,250478,128,0,250603:0:0:0:0:
475,192,250478,128,0,250540:0:0:0:0:
36,192,250603,128,2,250853:0:0:0:0:
109,192,250603,128,0,250790:0:0:0:0:
182,192,250603,128,0,250728:0:0:0:0:
329,192,250603,1,0,0:0:0:0:
475,192,250603,1,0,0:0:0:0:
329,192,250728,1,0,0:0:0:0:
475,192,250728,128,0,250853:0:0:0:0:
256,192,250790,1,0,0:0:0:0:
402,192,250790,128,0,250978:0:0:0:0:
182,192,250853,128,8,251040:0:0:0:0:
329,192,250853,128,0,250915:0:0:0:0:
475,192,250915,128,0,251040:0:0:0:0:
36,192,250978,128,0,251040:0:0:0:0:
256,192,250978,128,0,251103:0:0:0:0:
36,192,251103,1,2,0:0:0:0:
182,192,251103,1,0,0:0:0:0:
329,192,251103,128,0,251228:0:0:0:0:
402,192,251103,128,0,251290:0:0:0:0:
475,192,251103,128,0,251353:0:0:0:0:
36,192,251228,128,0,251353:0:0:0:0:
182,192,251228,1,0,0:0:0:0:
109,192,251290,128,0,251478:0:0:0:0:
256,192,251290,1,0,0:0:0:0:
182,192,251353,128,8,251415:0:0:0:0:
329,192,251353,128,0,251540:0:0:0:0:
36,192,251415,128,0,251540:0:0:0:0:
256,192,251478,128,0,251603:0:0:0:0:
475,192,251478,128,0,251540:0:0:0:0:
36,192,251603,128,2,251853:0:0:0:0:
109,192,251603,128,4,251790:0:0:0:0:
182,192,251603,128,0,251728:0:0:0:0:
329,192,251603,1,0,0:0:0:0:
402,192,251603,1,0,0:0:0:0:
475,192,251603,1,0,0:0:0:0:
329,192,251728,1,0,0:0:0:0:
475,192,251728,128,0,251853:0:0:0:0:
256,192,251790,1,0,0:0:0:0:
402,192,251790,128,0,251978:0:0:0:0:
182,192,251853,128,8,252040:0:0:0:0:
329,192,251853,128,0,251915:0:0:0:0:
475,192,251915,128,0,252040:0:0:0:0:
36,192,251978,128,0,252040:0:0:0:0:
256,192,251978,128,0,252103:0:0:0:0:
36,192,252103,1,2,0:0:0:0:
182,192,252103,1,0,0:0:0:0:
329,192,252103,128,0,252228:0:0:0:0:
402,192,252103,128,0,252290:0:0:0:0:
475,192,252103,128,0,252353:0:0:0:0:
36,192,252228,128,0,252353:0:0:0:0:
182,192,252228,1,0,0:0:0:0:
109,192,252290,128,0,252478:0:0:0:0:
256,192,252290,1,0,0:0:0:0:
182,192,252353,128,8,252415:0:0:0:0:
329,192,252353,128,0,252540:0:0:0:0:
36,192,252415,128,0,252540:0:0:0:0:
256,192,252478,128,0,252603:0:0:0:0:
475,192,252478,128,0,252540:0:0:0:0:
36,192,252603,128,2,252853:0:0:0:0:
109,192,252603,128,0,252790:0:0:0:0:
182,192,252603,128,0,252728:0:0:0:0:
329,192,252603,1,0,0:0:0:0:
475,192,252603,1,0,0:0:0:0:
329,192,252728,1,0,0:0:0:0:
475,192,252728,128,0,252853:0:0:0:0:
256,192,252790,1,0,0:0:0:0:
402,192,252790,128,0,252978:0:0:0:0:
182,192,252853,128,8,253040:0:0:0:0:
329,192,252853,128,0,252915:0:0:0:0:
475,192,252915,128,0,253040:0:0:0:0:
36,192,252978,128,0,253040:0:0:0:0:
256,192,252978,128,0,253103:0:0:0:0:
36,192,253103,1,2,0:0:0:0:
182,192,253103,1,0,0:0:0:0:
329,192,253103,128,0,253228:0:0:0:0:
402,192,253103,128,0,253290:0:0:0:0:
475,192,253103,128,0,253353:0:0:0:0:
36,192,253228,128,0,253353:0:0:0:0:
182,192,253228,1,0,0:0:0:0:
109,192,253290,128,0,253478:0:0:0:0:
256,192,253290,1,0,0:0:0:0:
182,192,253353,128,8,253415:0:0:0:0:
329,192,253353,128,0,253540:0:0:0:0:
36,192,253415,128,0,253540:0:0:0:0:
256,192,253478,128,0,253603:0:0:0:0:
475,192,253478,128,0,253540:0:0:0:0:
36,192,253603,1,2,0:0:0:0:
109,192,253603,1,4,0:0:0:0:
182,192,253603,1,0,0:0:0:0:
402,192,253603,1,0,0:0:0:0:
475,192,253603,1,0,0:0:0:0:
109,192,253728,1,0,0:0:0:0:
182,192,253728,1,0,0:0:0:0:
402,192,253728,1,0,0:0:0:0:
256,192,253790,1,0,0:0:0:0:
36,192,253853,1,2,0:0:0:0:
109,192,253853,1,8,0:0:0:0:
329,192,253853,1,0,0:0:0:0:
475,192,253853,1,0,0:0:0:0:
182,192,253978,1,0,0:0:0:0:
256,192,253978,1,0,0:0:0:0:
329,192,253978,1,0,0:0:0:0:
109,192,254040,1,0,0:0:0:0:
36,192,254103,1,2,0:0:0:0:
256,192,254103,1,0,0:0:0:0:
402,192,254103,1,0,0:0:0:0:
475,192,254103,1,0,0:0:0:0:
109,192,254228,1,0,0:0:0:0:
329,192,254228,1,0,0:0:0:0:
402,192,254228,1,0,0:0:0:0:
256,192,254290,1,0,0:0:0:0:
36,192,254353,1,2,0:0:0:0:
109,192,254353,1,8,0:0:0:0:
182,192,254353,1,0,0:0:0:0:
475,192,254353,1,0,0:0:0:0:
182,192,254478,1,0,0:0:0:0:
256,192,254478,1,0,0:0:0:0:
329,192,254478,1,0,0:0:0:0:
402,192,254540,1,0,0:0:0:0:
36,192,254603,1,2,0:0:0:0:
109,192,254603,1,0,0:0:0:0:
256,192,254603,1,0,0:0:0:0:
475,192,254603,1,0,0:0:0:0:
36,192,254728,1,0,0:0:0:0:
109,192,254728,1,0,0:0:0:0:
182,192,254728,1,0,0:0:0:0:
256,192,254790,1,0,0:0:0:0:
36,192,254853,1,2,0:0:0:0:
329,192,254853,1,8,0:0:0:0:
402,192,254853,1,0,0:0:0:0:
475,192,254853,1,0,0:0:0:0:
182,192,254915,1,0,0:0:0:0:
329,192,254978,1,0,0:0:0:0:
402,192,254978,1,0,0:0:0:0:
475,192,254978,1,0,0:0:0:0:
256,192,255040,1,0,0:0:0:0:
36,192,255103,1,2,0:0:0:0:
109,192,255103,1,0,0:0:0:0:
182,192,255103,1,0,0:0:0:0:
475,192,255103,1,0,0:0:0:0:
329,192,255165,1,0,0:0:0:0:
36,192,255228,1,0,0:0:0:0:
109,192,255228,1,0,0:0:0:0:
182,192,255228,1,0,0:0:0:0:
256,192,255290,1,0,0:0:0:0:
36,192,255353,1,2,0:0:0:0:
329,192,255353,1,8,0:0:0:0:
402,192,255353,1,0,0:0:0:0:
475,192,255353,1,0,0:0:0:0:
109,192,255415,1,0,0:0:0:0:
329,192,255478,1,0,0:0:0:0:
402,192,255478,1,0,0:0:0:0:
475,192,255478,1,0,0:0:0:0:
182,192,255540,1,0,0:0:0:0:
36,192,255603,1,2,0:0:0:0:
109,192,255603,1,0,0:0:0:0:
329,192,255603,1,0,0:0:0:0:
475,192,255603,1,0,0:0:0:0:
256,192,255665,1,0,0:0:0:0:
36,192,255728,1,2,0:0:0:0:
182,192,255728,1,0,0:0:0:0:
402,192,255728,1,0,0:0:0:0:
475,192,255728,1,0,0:0:0:0:
329,192,255790,1,0,0:0:0:0:
36,192,255853,1,2,0:0:0:0:
109,192,255853,1,0,0:0:0:0:
256,192,255853,1,0,0:0:0:0:
475,192,255853,1,0,0:0:0:0:
402,192,255915,1,0,0:0:0:0:
36,192,255978,1,2,0:0:0:0:
109,192,255978,1,0,0:0:0:0:
182,192,255978,1,0,0:0:0:0:
329,192,255978,1,0,0:0:0:0:
256,192,256040,1,0,0:0:0:0:
109,192,256103,1,2,0:0:0:0:
329,192,256103,1,0,0:0:0:0:
402,192,256103,1,0,0:0:0:0:
475,192,256103,1,0,0:0:0:0:
182,192,256165,1,0,0:0:0:0:
36,192,256228,1,2,0:0:0:0:
256,192,256228,1,0,0:0:0:0:
329,192,256228,1,0,0:0:0:0:
402,192,256228,1,0,0:0:0:0:
109,192,256290,1,0,0:0:0:0:
182,192,256353,1,2,0:0:0:0:
256,192,256353,1,0,0:0:0:0:
329,192,256353,1,0,0:0:0:0:
36,192,256415,1,2,0:0:0:0:
402,192,256415,1,0,0:0:0:0:
475,192,256415,1,0,0:0:0:0:
109,192,256478,1,2,0:0:0:0:
182,192,256478,1,0,0:0:0:0:
256,192,256478,1,0,0:0:0:0:
329,192,256540,1,2,0:0:0:0:
402,192,256540,1,0,0:0:0:0:
475,192,256540,1,0,0:0:0:0:
36,192,256603,1,2,0:0:0:0:
109,192,256603,1,0,0:0:0:0:
182,192,256603,1,0,0:0:0:0:
36,192,257603,1,2,0:0:0:0:
109,192,257603,1,4,0:0:0:0:
182,192,257603,128,0,257790:0:0:0:0:
329,192,257603,128,0,257665:0:0:0:0:
402,192,257603,128,0,257728:0:0:0:0:
475,192,257603,128,0,257790:0:0:0:0:
36,192,257728,128,0,257790:0:0:0:0:
109,192,257728,128,0,257790:0:0:0:0:
256,192,257728,128,0,257853:0:0:0:0:
329,192,257790,128,0,257915:0:0:0:0:
36,192,257853,128,2,258040:0:0:0:0:
109,192,257853,128,8,258040:0:0:0:0:
182,192,257853,1,0,0:0:0:0:
402,192,257853,128,0,257915:0:0:0:0:
475,192,257853,128,0,257915:0:0:0:0:
256,192,257978,128,0,258040:0:0:0:0:
402,192,257978,128,0,258165:0:0:0:0:
475,192,257978,128,0,258165:0:0:0:0:
36,192,258103,128,2,258290:0:0:0:0:
109,192,258103,128,0,258228:0:0:0:0:
182,192,258103,128,0,258165:0:0:0:0:
329,192,258103,128,0,258165:0:0:0:0:
329,192,258228,128,0,258353:0:0:0:0:
402,192,258228,128,0,258290:0:0:0:0:
475,192,258228,128,0,258290:0:0:0:0:
256,192,258290,128,0,258415:0:0:0:0:
36,192,258353,128,2,258540:0:0:0:0:
109,192,258353,128,8,258540:0:0:0:0:
182,192,258353,128,0,258415:0:0:0:0:
402,192,258353,1,0,0:0:0:0:
475,192,258353,128,0,258540:0:0:0:0:
182,192,258478,128,0,258540:0:0:0:0:
329,192,258478,128,0,258665:0:0:0:0:
402,192,258478,128,0,258540:0:0:0:0:
36,192,258603,128,2,258790:0:0:0:0:
109,192,258603,128,0,258790:0:0:0:0:
256,192,258603,128,0,258665:0:0:0:0:
475,192,258603,128,0,258665:0:0:0:0:
182,192,258728,128,0,258915:0:0:0:0:
256,192,258728,128,0,258790:0:0:0:0:
402,192,258728,128,0,258790:0:0:0:0:
36,192,258853,128,8,258915:0:0:0:0:
109,192,258853,128,2,258915:0:0:0:0:
256,192,258853,1,0,0:0:0:0:
329,192,258853,128,0,259040:0:0:0:0:
475,192,258853,128,0,259040:0:0:0:0:
109,192,258978,128,0,259040:0:0:0:0:
256,192,258978,128,0,259165:0:0:0:0:
402,192,258978,128,0,259040:0:0:0:0:
36,192,259103,128,2,259290:0:0:0:0:
182,192,259103,128,0,259290:0:0:0:0:
402,192,259103,128,0,259165:0:0:0:0:
475,192,259103,128,0,259165:0:0:0:0:
109,192,259228,128,0,259290:0:0:0:0:
256,192,259228,128,0,259290:0:0:0:0:
329,192,259228,128,0,259415:0:0:0:0:
36,192,259353,1,8,0:0:0:0:
109,192,259353,128,2,259540:0:0:0:0:
182,192,259353,128,0,259415:0:0:0:0:
402,192,259353,128,0,259415:0:0:0:0:
475,192,259353,128,0,259540:0:0:0:0:
36,192,259478,128,0,259540:0:0:0:0:
256,192,259478,128,0,259665:0:0:0:0:
329,192,259478,128,0,259540:0:0:0:0:
36,192,259603,128,2,259665:0:0:0:0:
109,192,259603,128,0,259665:0:0:0:0:
182,192,259603,128,0,259790:0:0:0:0:
402,192,259603,128,0,259790:0:0:0:0:
256,192,259728,128,0,259790:0:0:0:0:
329,192,259728,128,0,259790:0:0:0:0:
475,192,259728,128,0,259790:0:0:0:0:
36,192,259853,128,8,259915:0:0:0:0:
109,192,259853,128,2,259915:0:0:0:0:
182,192,259853,1,0,0:0:0:0:
329,192,259853,128,0,259978:0:0:0:0:
475,192,259853,128,0,260040:0:0:0:0:
256,192,259915,128,0,260040:0:0:0:0:
36,192,259978,128,0,260040:0:0:0:0:
109,192,259978,128,0,260040:0:0:0:0:
182,192,259978,128,0,260165:0:0:0:0:
402,192,259978,128,0,260040:0:0:0:0:
36,192,260103,128,2,260290:0:0:0:0:
256,192,260103,128,0,260165:0:0:0:0:
329,192,260103,128,0,260165:0:0:0:0:
402,192,260103,128,0,260165:0:0:0:0:
475,192,260103,128,0,260290:0:0:0:0:
109,192,260228,128,0,260290:0:0:0:0:
182,192,260228,128,0,260290:0:0:0:0:
256,192,260228,128,0,260290:0:0:0:0:
329,192,260228,128,0,260415:0:0:0:0:
36,192,260353,128,8,260540:0:0:0:0:
109,192,260353,128,2,260478:0:0:0:0:
182,192,260353,128,0,260415:0:0:0:0:
402,192,260353,1,0,0:0:0:0:
475,192,260353,128,0,260415:0:0:0:0:
256,192,260478,128,0,260603:0:0:0:0:
329,192,260478,128,0,260540:0:0:0:0:
402,192,260478,128,0,260540:0:0:0:0:
182,192,260540,128,0,260665:0:0:0:0:
36,192,260603,128,2,260665:0:0:0:0:
109,192,260603,128,0,260665:0:0:0:0:
329,192,260603,128,0,260790:0:0:0:0:
402,192,260603,128,0,260665:0:0:0:0:
475,192,260603,128,0,260790:0:0:0:0:
36,192,260728,128,0,260790:0:0:0:0:
109,192,260728,128,0,260790:0:0:0:0:
256,192,260728,128,0,260915:0:0:0:0:
36,192,260853,128,8,260915:0:0:0:0:
182,192,260853,128,2,261040:0:0:0:0:
329,192,260853,128,0,260915:0:0:0:0:
402,192,260853,1,0,0:0:0:0:
475,192,260853,128,0,261040:0:0:0:0:
109,192,260978,128,0,261040:0:0:0:0:
256,192,260978,128,0,261040:0:0:0:0:
402,192,260978,128,0,261165:0:0:0:0:
36,192,261103,128,2,261165:0:0:0:0:
182,192,261103,128,0,261165:0:0:0:0:
329,192,261103,128,0,261228:0:0:0:0:
475,192,261103,128,0,261165:0:0:0:0:
256,192,261165,128,0,261290:0:0:0:0:
36,192,261228,128,0,261290:0:0:0:0:
109,192,261228,128,0,261290:0:0:0:0:
182,192,261228,128,0,261353:0:0:0:0:
36,192,261353,128,8,261415:0:0:0:0:
109,192,261353,128,2,261415:0:0:0:0:
329,192,261353,128,0,261415:0:0:0:0:
402,192,261353,128,0,261540:0:0:0:0:
475,192,261353,128,0,261540:0:0:0:0:
109,192,261478,128,2,261540:0:0:0:0:
182,192,261478,128,0,261540:0:0:0:0:
256,192,261478,128,0,261540:0:0:0:0:
329,192,261478,128,0,261540:0:0:0:0:
36,192,261603,128,2,261665:0:0:0:0:
109,192,261603,128,0,261728:0:0:0:0:
256,192,261603,1,0,0:0:0:0:
329,192,261603,128,0,261665:0:0:0:0:
402,192,261603,128,0,261728:0:0:0:0:
475,192,261603,128,0,261790:0:0:0:0:
36,192,261728,128,0,261915:0:0:0:0:
182,192,261728,128,0,261790:0:0:0:0:
256,192,261728,128,0,261853:0:0:0:0:
329,192,261790,128,0,261915:0:0:0:0:
109,192,261853,128,8,262040:0:0:0:0:
182,192,261853,128,2,261915:0:0:0:0:
402,192,261853,128,0,261978:0:0:0:0:
475,192,261853,128,0,262040:0:0:0:0:
36,192,261978,128,0,262040:0:0:0:0:
256,192,261978,128,0,262103:0:0:0:0:
329,192,261978,128,0,262040:0:0:0:0:
182,192,262040,128,0,262165:0:0:0:0:
36,192,262103,128,2,262290:0:0:0:0:
109,192,262103,128,0,262228:0:0:0:0:
329,192,262103,128,0,262290:0:0:0:0:
402,192,262103,128,0,262228:0:0:0:0:
475,192,262103,128,0,262165:0:0:0:0:
256,192,262228,128,0,262353:0:0:0:0:
475,192,262228,128,0,262290:0:0:0:0:
182,192,262290,128,0,262415:0:0:0:0:
402,192,262290,128,0,262415:0:0:0:0:
36,192,262353,128,8,262540:0:0:0:0:
109,192,262353,128,2,262415:0:0:0:0:
329,192,262353,128,0,262415:0:0:0:0:
475,192,262353,128,0,262540:0:0:0:0:
109,192,262478,128,0,262540:0:0:0:0:
182,192,262478,128,0,262540:0:0:0:0:
329,192,262478,128,0,262540:0:0:0:0:
402,192,262478,128,0,262540:0:0:0:0:
36,192,262603,128,2,262790:0:0:0:0:
109,192,262603,128,0,262728:0:0:0:0:
182,192,262603,128,0,262665:0:0:0:0:
256,192,262603,1,0,0:0:0:0:
402,192,262603,128,0,262728:0:0:0:0:
475,192,262603,128,0,262665:0:0:0:0:
256,192,262728,128,0,262853:0:0:0:0:
329,192,262728,128,0,262790:0:0:0:0:
475,192,262728,128,0,262915:0:0:0:0:
182,192,262790,128,0,262915:0:0:0:0:
36,192,262853,128,8,263040:0:0:0:0:
109,192,262853,128,2,262978:0:0:0:0:
329,192,262853,128,0,262915:0:0:0:0:
402,192,262853,128,0,263040:0:0:0:0:
182,192,262978,128,0,263040:0:0:0:0:
256,192,262978,128,0,263103:0:0:0:0:
475,192,262978,128,0,263040:0:0:0:0:
329,192,263040,128,0,263165:0:0:0:0:
36,192,263103,128,2,263165:0:0:0:0:
109,192,263103,128,0,263228:0:0:0:0:
182,192,263103,128,0,263290:0:0:0:0:
402,192,263103,128,0,263228:0:0:0:0:
475,192,263103,128,0,263290:0:0:0:0:
36,192,263228,128,0,263290:0:0:0:0:
256,192,263228,128,0,263353:0:0:0:0:
109,192,263290,128,0,263415:0:0:0:0:
329,192,263290,128,0,263415:0:0:0:0:
36,192,263353,128,8,263540:0:0:0:0:
182,192,263353,128,2,263415:0:0:0:0:
402,192,263353,128,0,263415:0:0:0:0:
475,192,263353,128,0,263540:0:0:0:0:
109,192,263478,128,0,263540:0:0:0:0:
182,192,263478,128,0,263540:0:0:0:0:
329,192,263478,128,0,263540:0:0:0:0:
402,192,263478,128,0,263540:0:0:0:0:
36,192,263603,128,2,263790:0:0:0:0:
109,192,263603,128,0,263728:0:0:0:0:
182,192,263603,128,0,263665:0:0:0:0:
402,192,263603,128,0,263790:0:0:0:0:
475,192,263603,128,0,263790:0:0:0:0:
256,192,263728,128,0,263853:0:0:0:0:
329,192,263728,128,0,263790:0:0:0:0:
182,192,263790,128,0,263915:0:0:0:0:
36,192,263853,128,8,264040:0:0:0:0:
109,192,263853,128,2,264040:0:0:0:0:
329,192,263853,128,0,263915:0:0:0:0:
402,192,263853,128,0,263978:0:0:0:0:
475,192,263853,128,0,264040:0:0:0:0:
182,192,263978,128,0,264040:0:0:0:0:
256,192,263978,128,0,264103:0:0:0:0:
329,192,264040,128,0,264165:0:0:0:0:
36,192,264103,128,2,264290:0:0:0:0:
109,192,264103,128,0,264228:0:0:0:0:
182,192,264103,128,0,264165:0:0:0:0:
402,192,264103,128,0,264290:0:0:0:0:
475,192,264103,128,0,264290:0:0:0:0:
256,192,264228,128,0,264353:0:0:0:0:
329,192,264228,128,0,264290:0:0:0:0:
182,192,264290,128,0,264415:0:0:0:0:
36,192,264353,128,8,264540:0:0:0:0:
109,192,264353,128,2,264540:0:0:0:0:
329,192,264353,128,0,264415:0:0:0:0:
402,192,264353,128,0,264415:0:0:0:0:
475,192,264353,128,0,264540:0:0:0:0:
182,192,264478,128,0,264540:0:0:0:0:
256,192,264478,128,0,264665:0:0:0:0:
402,192,264478,128,0,264540:0:0:0:0:
36,192,264603,128,2,264790:0:0:0:0:
109,192,264603,128,0,264790:0:0:0:0:
329,192,264603,128,0,264665:0:0:0:0:
402,192,264603,128,0,264665:0:0:0:0:
475,192,264603,128,0,264665:0:0:0:0:
182,192,264728,128,0,264790:0:0:0:0:
256,192,264728,128,0,264790:0:0:0:0:
329,192,264728,128,0,264790:0:0:0:0:
402,192,264728,128,0,264915:0:0:0:0:
109,192,264853,128,8,264915:0:0:0:0:
182,192,264853,128,2,264915:0:0:0:0:
256,192,264853,128,0,264915:0:0:0:0:
329,192,264853,128,0,265040:0:0:0:0:
475,192,264853,128,0,265040:0:0:0:0:
36,192,264978,128,0,265040:0:0:0:0:
109,192,264978,128,0,265040:0:0:0:0:
182,192,264978,128,0,265040:0:0:0:0:
256,192,264978,128,0,265165:0:0:0:0:
36,192,265103,128,2,265290:0:0:0:0:
109,192,265103,1,0,0:0:0:0:
329,192,265103,128,0,265165:0:0:0:0:
402,192,265103,1,0,0:0:0:0:
475,192,265103,128,0,265165:0:0:0:0:
109,192,265228,1,2,0:0:0:0:
329,192,265228,128,0,265290:0:0:0:0:
402,192,265228,1,0,0:0:0:0:
475,192,265228,128,0,265290:0:0:0:0:
256,192,265290,128,0,265353:0:0:0:0:
36,192,265353,128,8,265415:0:0:0:0:
109,192,265353,128,2,265415:0:0:0:0:
182,192,265353,1,0,0:0:0:0:
329,192,265415,1,2,0:0:0:0:
402,192,265415,128,0,265478:0:0:0:0:
475,192,265415,128,0,265478:0:0:0:0:
109,192,265478,128,2,265540:0:0:0:0:
182,192,265478,1,0,0:0:0:0:
256,192,265478,128,0,265540:0:0:0:0:
329,192,265540,1,2,0:0:0:0:
402,192,265540,128,0,265603:0:0:0:0:
475,192,265540,128,0,265603:0:0:0:0:
36,192,265603,128,4,265790:0:0:0:0:
109,192,265603,128,2,265728:0:0:0:0:
182,192,265603,128,0,265665:0:0:0:0:
256,192,265603,128,0,265665:0:0:0:0:
256,192,265728,128,0,265853:0:0:0:0:
329,192,265728,128,0,265790:0:0:0:0:
402,192,265728,128,0,265790:0:0:0:0:
475,192,265728,128,0,265790:0:0:0:0:
182,192,265790,128,0,265915:0:0:0:0:
36,192,265853,128,2,265915:0:0:0:0:
109,192,265853,128,8,265915:0:0:0:0:
329,192,265853,1,0,0:0:0:0:
402,192,265853,128,0,266040:0:0:0:0:
475,192,265853,128,0,266040:0:0:0:0:
36,192,265978,128,0,266165:0:0:0:0:
109,192,265978,128,0,266165:0:0:0:0:
256,192,265978,128,0,266040:0:0:0:0:
182,192,266103,128,2,266165:0:0:0:0:
329,192,266103,128,0,266165:0:0:0:0:
402,192,266103,128,0,266228:0:0:0:0:
475,192,266103,128,0,266290:0:0:0:0:
36,192,266228,128,0,266290:0:0:0:0:
109,192,266228,128,0,266290:0:0:0:0:
182,192,266228,128,0,266353:0:0:0:0:
256,192,266290,128,0,266415:0:0:0:0:
36,192,266353,128,2,266540:0:0:0:0:
109,192,266353,1,8,0:0:0:0:
329,192,266353,128,0,266415:0:0:0:0:
402,192,266353,128,0,266540:0:0:0:0:
475,192,266353,128,0,266540:0:0:0:0:
109,192,266478,128,0,266540:0:0:0:0:
182,192,266478,128,0,266665:0:0:0:0:
329,192,266478,128,0,266540:0:0:0:0:
36,192,266603,128,2,266665:0:0:0:0:
256,192,266603,128,0,266665:0:0:0:0:
402,192,266603,128,0,266790:0:0:0:0:
475,192,266603,128,0,266790:0:0:0:0:
109,192,266728,128,0,266790:0:0:0:0:
256,192,266728,128,0,266790:0:0:0:0:
329,192,266728,128,0,266915:0:0:0:0:
36,192,266853,128,2,267040:0:0:0:0:
182,192,266853,128,8,267040:0:0:0:0:
256,192,266853,1,0,0:0:0:0:
402,192,266853,128,0,266915:0:0:0:0:
475,192,266853,128,0,266915:0:0:0:0:
109,192,266978,128,0,267040:0:0:0:0:
256,192,266978,128,0,267165:0:0:0:0:
402,192,266978,128,0,267040:0:0:0:0:
36,192,267103,128,2,267165:0:0:0:0:
109,192,267103,128,0,267165:0:0:0:0:
329,192,267103,128,0,267290:0:0:0:0:
475,192,267103,128,0,267290:0:0:0:0:
182,192,267228,128,0,267415:0:0:0:0:
256,192,267228,128,0,267290:0:0:0:0:
402,192,267228,128,0,267290:0:0:0:0:
36,192,267353,128,2,267540:0:0:0:0:
109,192,267353,128,8,267415:0:0:0:0:
329,192,267353,128,0,267415:0:0:0:0:
402,192,267353,128,0,267540:0:0:0:0:
475,192,267353,1,0,0:0:0:0:
182,192,267478,128,0,267540:0:0:0:0:
256,192,267478,128,0,267665:0:0:0:0:
475,192,267478,128,0,267540:0:0:0:0:
36,192,267603,128,2,267665:0:0:0:0:
109,192,267603,128,0,267790:0:0:0:0:
329,192,267603,128,0,267790:0:0:0:0:
402,192,267603,128,0,267665:0:0:0:0:
256,192,267728,128,0,267790:0:0:0:0:
475,192,267728,128,0,267790:0:0:0:0:
36,192,267853,128,2,267915:0:0:0:0:
109,192,267853,128,8,267915:0:0:0:0:
182,192,267853,1,0,0:0:0:0:
329,192,267853,128,0,267978:0:0:0:0:
475,192,267853,128,0,268040:0:0:0:0:
256,192,267915,128,0,268040:0:0:0:0:
36,192,267978,128,0,268040:0:0:0:0:
109,192,267978,128,0,268040:0:0:0:0:
182,192,267978,128,0,268165:0:0:0:0:
402,192,267978,128,0,268040:0:0:0:0:
36,192,268103,128,2,268290:0:0:0:0:
256,192,268103,128,0,268165:0:0:0:0:
329,192,268103,128,0,268165:0:0:0:0:
402,192,268103,128,0,268165:0:0:0:0:
475,192,268103,128,0,268290:0:0:0:0:
109,192,268228,128,0,268290:0:0:0:0:
182,192,268228,128,0,268290:0:0:0:0:
256,192,268228,128,0,268290:0:0:0:0:
329,192,268228,128,0,268415:0:0:0:0:
36,192,268353,128,2,268540:0:0:0:0:
109,192,268353,128,8,268478:0:0:0:0:
182,192,268353,128,0,268415:0:0:0:0:
402,192,268353,128,0,268415:0:0:0:0:
475,192,268353,128,0,268415:0:0:0:0:
256,192,268478,128,0,268603:0:0:0:0:
329,192,268478,128,0,268540:0:0:0:0:
402,192,268478,128,0,268540:0:0:0:0:
182,192,268540,128,0,268665:0:0:0:0:
36,192,268603,128,2,268665:0:0:0:0:
109,192,268603,128,0,268665:0:0:0:0:
329,192,268603,128,0,268790:0:0:0:0:
402,192,268603,128,0,268665:0:0:0:0:
475,192,268603,128,0,268790:0:0:0:0:
109,192,268728,128,0,268790:0:0:0:0:
182,192,268728,128,0,268790:0:0:0:0:
256,192,268728,128,0,268790:0:0:0:0:
36,192,268853,128,2,269040:0:0:0:0:
109,192,268853,128,8,268978:0:0:0:0:
182,192,268853,128,0,268915:0:0:0:0:
256,192,268853,1,0,0:0:0:0:
402,192,268853,128,0,269040:0:0:0:0:
329,192,268978,128,0,269103:0:0:0:0:
475,192,268978,128,0,269040:0:0:0:0:
256,192,269040,128,0,269165:0:0:0:0:
36,192,269103,128,2,269165:0:0:0:0:
109,192,269103,128,0,269165:0:0:0:0:
182,192,269103,128,0,269165:0:0:0:0:
402,192,269103,128,0,269228:0:0:0:0:
475,192,269103,128,0,269290:0:0:0:0:
36,192,269228,128,0,269290:0:0:0:0:
109,192,269228,128,0,269290:0:0:0:0:
182,192,269228,128,0,269353:0:0:0:0:
256,192,269290,128,0,269415:0:0:0:0:
36,192,269353,128,2,269540:0:0:0:0:
109,192,269353,128,8,269540:0:0:0:0:
329,192,269353,128,0,269415:0:0:0:0:
402,192,269353,128,0,269415:0:0:0:0:
475,192,269353,128,0,269415:0:0:0:0:
182,192,269478,128,2,269540:0:0:0:0:
256,192,269478,128,0,269540:0:0:0:0:
329,192,269478,128,0,269540:0:0:0:0:
402,192,269478,128,0,269540:0:0:0:0:
36,192,269603,128,2,269790:0:0:0:0:
109,192,269603,128,0,269728:0:0:0:0:
182,192,269603,128,0,269665:0:0:0:0:
329,192,269603,128,0,269728:0:0:0:0:
402,192,269603,128,0,269665:0:0:0:0:
475,192,269603,128,0,269665:0:0:0:0:
182,192,269728,128,0,269853:0:0:0:0:
256,192,269728,128,0,269790:0:0:0:0:
402,192,269728,128,0,269915:0:0:0:0:
475,192,269728,128,0,269915:0:0:0:0:
109,192,269790,128,0,269978:0:0:0:0:
36,192,269853,128,2,269915:0:0:0:0:
256,192,269853,128,8,270103:0:0:0:0:
329,192,269853,128,0,269915:0:0:0:0:
182,192,269915,128,0,270040:0:0:0:0:
329,192,269978,128,0,270165:0:0:0:0:
402,192,269978,128,0,270040:0:0:0:0:
475,192,269978,128,0,270040:0:0:0:0:
36,192,270103,128,2,270165:0:0:0:0:
109,192,270103,128,0,270165:0:0:0:0:
182,192,270103,128,0,270228:0:0:0:0:
402,192,270103,128,0,270228:0:0:0:0:
475,192,270103,128,0,270290:0:0:0:0:
36,192,270228,128,0,270415:0:0:0:0:
109,192,270228,128,0,270415:0:0:0:0:
256,192,270228,128,0,270290:0:0:0:0:
329,192,270228,128,0,270353:0:0:0:0:
402,192,270290,128,0,270415:0:0:0:0:
182,192,270353,128,2,270415:0:0:0:0:
256,192,270353,128,8,270478:0:0:0:0:
475,192,270353,128,0,270415:0:0:0:0:
329,192,270415,128,0,270540:0:0:0:0:
36,192,270478,128,0,270665:0:0:0:0:
109,192,270478,128,0,270540:0:0:0:0:
402,192,270478,128,0,270790:0:0:0:0:
475,192,270478,128,0,270790:0:0:0:0:
109,192,270603,128,2,270665:0:0:0:0:
182,192,270603,128,0,270665:0:0:0:0:
256,192,270603,128,0,270790:0:0:0:0:
329,192,270603,128,0,270790:0:0:0:0:
36,192,270728,128,0,271040:0:0:0:0:
109,192,270728,128,0,271040:0:0:0:0:
182,192,270728,128,0,271040:0:0:0:0:
256,192,270853,128,2,271040:0:0:0:0:
329,192,270853,128,8,270915:0:0:0:0:
402,192,270853,128,0,270915:0:0:0:0:
475,192,270853,128,0,270915:0:0:0:0:
329,192,270978,128,0,271290:0:0:0:0:
402,192,270978,128,0,271290:0:0:0:0:
475,192,270978,128,0,271290:0:0:0:0:
36,192,271103,128,2,271540:0:0:0:0:
109,192,271103,128,0,271165:0:0:0:0:
182,192,271103,128,0,271165:0:0:0:0:
256,192,271103,128,0,271165:0:0:0:0:
109,192,271228,128,0,271540:0:0:0:0:
182,192,271228,128,0,271540:0:0:0:0:
256,192,271228,128,0,271290:0:0:0:0:
256,192,271353,128,2,271415:0:0:0:0:
329,192,271353,128,8,271415:0:0:0:0:
402,192,271353,128,0,271415:0:0:0:0:
475,192,271353,128,0,271540:0:0:0:0:
256,192,271478,128,0,271540:0:0:0:0:
329,192,271478,128,0,271665:0:0:0:0:
402,192,271478,128,0,271540:0:0:0:0:
36,192,271603,128,2,271665:0:0:0:0:
109,192,271603,128,0,271665:0:0:0:0:
182,192,271603,128,0,271790:0:0:0:0:
256,192,271603,128,0,271665:0:0:0:0:
475,192,271603,128,0,271790:0:0:0:0:
402,192,271665,128,0,271790:0:0:0:0:
36,192,271728,128,0,271790:0:0:0:0:
109,192,271728,128,0,271790:0:0:0:0:
329,192,271728,128,0,272040:0:0:0:0:
256,192,271790,128,0,271978:0:0:0:0:
36,192,271853,128,2,272040:0:0:0:0:
182,192,271853,128,8,271915:0:0:0:0:
402,192,271853,128,0,271915:0:0:0:0:
475,192,271853,128,0,271915:0:0:0:0:
109,192,271915,128,0,272040:0:0:0:0:
182,192,271978,128,0,272290:0:0:0:0:
402,192,271978,128,0,272040:0:0:0:0:
475,192,271978,128,0,272040:0:0:0:0:
256,192,272040,128,0,272228:0:0:0:0:
36,192,272103,128,2,272165:0:0:0:0:
109,192,272103,128,0,272165:0:0:0:0:
329,192,272103,128,0,272165:0:0:0:0:
475,192,272103,128,0,272290:0:0:0:0:
402,192,272165,128,0,272290:0:0:0:0:
36,192,272228,128,0,272290:0:0:0:0:
109,192,272228,128,0,272290:0:0:0:0:
329,192,272228,128,0,272540:0:0:0:0:
256,192,272290,128,0,272478:0:0:0:0:
36,192,272353,128,2,272540:0:0:0:0:
182,192,272353,128,8,272415:0:0:0:0:
402,192,272353,128,0,272415:0:0:0:0:
475,192,272353,128,0,272415:0:0:0:0:
109,192,272415,128,0,272540:0:0:0:0:
182,192,272478,128,0,272603:0:0:0:0:
402,192,272478,128,0,272540:0:0:0:0:
475,192,272478,128,0,272540:0:0:0:0:
256,192,272540,128,0,272665:0:0:0:0:
36,192,272603,128,2,272728:0:0:0:0:
109,192,272603,128,0,272728:0:0:0:0:
329,192,272603,128,0,272665:0:0:0:0:
402,192,272603,128,0,272790:0:0:0:0:
475,192,272603,128,0,272790:0:0:0:0:
256,192,272728,128,0,272790:0:0:0:0:
329,192,272728,128,0,272915:0:0:0:0:
36,192,272790,128,0,272915:0:0:0:0:
109,192,272790,128,0,272915:0:0:0:0:
182,192,272853,1,2,0:0:0:0:
256,192,272853,1,8,0:0:0:0:
402,192,272853,128,0,272915:0:0:0:0:
475,192,272853,128,0,273040:0:0:0:0:
36,192,272978,128,0,273040:0:0:0:0:
182,192,272978,128,0,273040:0:0:0:0:
329,192,272978,128,0,273165:0:0:0:0:
36,192,273103,128,2,273165:0:0:0:0:
109,192,273103,128,0,273165:0:0:0:0:
256,192,273103,128,0,273165:0:0:0:0:
402,192,273103,128,0,273290:0:0:0:0:
475,192,273103,1,0,0:0:0:0:
36,192,273228,1,2,0:0:0:0:
109,192,273228,128,0,273290:0:0:0:0:
182,192,273228,128,0,273290:0:0:0:0:
329,192,273228,128,0,273290:0:0:0:0:
475,192,273228,128,0,273415:0:0:0:0:
36,192,273353,1,2,0:0:0:0:
182,192,273353,128,8,273415:0:0:0:0:
256,192,273353,128,0,273415:0:0:0:0:
402,192,273353,128,0,273415:0:0:0:0:
109,192,273415,1,2,0:0:0:0:
182,192,273478,1,2,0:0:0:0:
256,192,273478,128,0,273540:0:0:0:0:
329,192,273478,128,0,273540:0:0:0:0:
475,192,273478,128,0,273540:0:0:0:0:
36,192,273540,1,2,0:0:0:0:
109,192,273540,1,0,0:0:0:0:
182,192,273603,128,2,273790:0:0:0:0:
329,192,273603,128,4,273665:0:0:0:0:
402,192,273603,128,0,273728:0:0:0:0:
475,192,273603,128,0,273790:0:0:0:0:
36,192,273728,128,0,273790:0:0:0:0:
109,192,273728,128,0,273790:0:0:0:0:
256,192,273728,128,0,273853:0:0:0:0:
329,192,273790,128,0,273915:0:0:0:0:
36,192,273853,128,2,274040:0:0:0:0:
109,192,273853,128,8,274040:0:0:0:0:
182,192,273853,1,0,0:0:0:0:
402,192,273853,128,0,273915:0:0:0:0:
475,192,273853,128,0,273915:0:0:0:0:
256,192,273978,128,0,274040:0:0:0:0:
402,192,273978,128,0,274165:0:0:0:0:
475,192,273978,128,0,274165:0:0:0:0:
36,192,274103,128,2,274290:0:0:0:0:
109,192,274103,128,0,274228:0:0:0:0:
182,192,274103,128,0,274165:0:0:0:0:
329,192,274103,128,0,274165:0:0:0:0:
329,192,274228,128,0,274353:0:0:0:0:
402,192,274228,128,0,274290:0:0:0:0:
475,192,274228,128,0,274290:0:0:0:0:
256,192,274290,128,0,274415:0:0:0:0:
36,192,274353,128,2,274540:0:0:0:0:
109,192,274353,128,8,274540:0:0:0:0:
182,192,274353,128,0,274415:0:0:0:0:
402,192,274353,1,0,0:0:0:0:
475,192,274353,128,0,274540:0:0:0:0:
182,192,274478,128,0,274540:0:0:0:0:
329,192,274478,128,0,274665:0:0:0:0:
402,192,274478,128,0,274540:0:0:0:0:
36,192,274603,128,2,274790:0:0:0:0:
109,192,274603,128,0,274790:0:0:0:0:
256,192,274603,128,0,274665:0:0:0:0:
475,192,274603,128,0,274665:0:0:0:0:
182,192,274728,128,0,274915:0:0:0:0:
256,192,274728,128,0,274790:0:0:0:0:
402,192,274728,128,0,274790:0:0:0:0:
36,192,274853,128,8,274915:0:0:0:0:
109,192,274853,128,2,274915:0:0:0:0:
256,192,274853,1,0,0:0:0:0:
329,192,274853,128,0,275040:0:0:0:0:
475,192,274853,128,0,275040:0:0:0:0:
109,192,274978,128,0,275040:0:0:0:0:
256,192,274978,128,0,275165:0:0:0:0:
402,192,274978,128,0,275040:0:0:0:0:
36,192,275103,128,2,275290:0:0:0:0:
182,192,275103,128,0,275290:0:0:0:0:
402,192,275103,128,0,275165:0:0:0:0:
475,192,275103,128,0,275165:0:0:0:0:
109,192,275228,128,0,275290:0:0:0:0:
256,192,275228,128,0,275290:0:0:0:0:
329,192,275228,128,0,275415:0:0:0:0:
36,192,275353,1,8,0:0:0:0:
109,192,275353,128,2,275540:0:0:0:0:
182,192,275353,128,0,275415:0:0:0:0:
402,192,275353,128,0,275415:0:0:0:0:
475,192,275353,128,0,275540:0:0:0:0:
36,192,275478,128,0,275540:0:0:0:0:
256,192,275478,128,0,275665:0:0:0:0:
329,192,275478,128,0,275540:0:0:0:0:
109,192,275603,128,2,275665:0:0:0:0:
182,192,275603,128,0,275790:0:0:0:0:
402,192,275603,128,0,275790:0:0:0:0:
475,192,275603,128,0,275665:0:0:0:0:
36,192,275728,128,0,275790:0:0:0:0:
256,192,275728,128,0,275790:0:0:0:0:
36,192,275853,128,8,275915:0:0:0:0:
109,192,275853,128,2,275915:0:0:0:0:
182,192,275853,1,0,0:0:0:0:
329,192,275853,128,0,275978:0:0:0:0:
475,192,275853,128,0,276040:0:0:0:0:
256,192,275915,128,0,276040:0:0:0:0:
36,192,275978,128,0,276040:0:0:0:0:
109,192,275978,128,0,276040:0:0:0:0:
182,192,275978,128,0,276165:0:0:0:0:
402,192,275978,128,0,276040:0:0:0:0:
36,192,276103,128,2,276290:0:0:0:0:
256,192,276103,128,0,276165:0:0:0:0:
329,192,276103,128,0,276165:0:0:0:0:
402,192,276103,128,0,276165:0:0:0:0:
475,192,276103,128,0,276290:0:0:0:0:
109,192,276228,128,0,276290:0:0:0:0:
182,192,276228,128,0,276290:0:0:0:0:
256,192,276228,128,0,276290:0:0:0:0:
329,192,276228,128,0,276415:0:0:0:0:
36,192,276353,128,8,276540:0:0:0:0:
109,192,276353,128,2,276478:0:0:0:0:
182,192,276353,128,0,276415:0:0:0:0:
402,192,276353,128,0,276415:0:0:0:0:
475,192,276353,1,0,0:0:0:0:
256,192,276478,128,0,276603:0:0:0:0:
329,192,276478,128,0,276540:0:0:0:0:
402,192,276478,128,0,276540:0:0:0:0:
182,192,276540,128,0,276665:0:0:0:0:
36,192,276603,128,2,276665:0:0:0:0:
109,192,276603,128,0,276665:0:0:0:0:
329,192,276603,128,0,276790:0:0:0:0:
402,192,276603,128,0,276665:0:0:0:0:
475,192,276603,128,0,276790:0:0:0:0:
109,192,276728,128,0,276853:0:0:0:0:
182,192,276728,128,0,276790:0:0:0:0:
256,192,276728,128,0,276790:0:0:0:0:
36,192,276853,128,8,277040:0:0:0:0:
182,192,276853,128,2,276915:0:0:0:0:
329,192,276853,128,0,277040:0:0:0:0:
402,192,276853,1,0,0:0:0:0:
475,192,276853,128,0,276915:0:0:0:0:
109,192,276978,128,0,277165:0:0:0:0:
256,192,276978,128,0,277040:0:0:0:0:
402,192,276978,128,0,277040:0:0:0:0:
36,192,277103,128,2,277165:0:0:0:0:
182,192,277103,128,0,277228:0:0:0:0:
329,192,277103,128,0,277165:0:0:0:0:
475,192,277103,128,0,277165:0:0:0:0:
256,192,277165,128,0,277290:0:0:0:0:
329,192,277228,128,0,277353:0:0:0:0:
402,192,277228,128,0,277290:0:0:0:0:
475,192,277228,128,0,277290:0:0:0:0:
36,192,277353,128,8,277540:0:0:0:0:
109,192,277353,128,2,277540:0:0:0:0:
182,192,277353,128,0,277415:0:0:0:0:
402,192,277353,128,0,277415:0:0:0:0:
475,192,277353,128,0,277415:0:0:0:0:
182,192,277478,128,2,277540:0:0:0:0:
256,192,277478,128,0,277540:0:0:0:0:
329,192,277478,128,0,277540:0:0:0:0:
402,192,277478,128,0,277540:0:0:0:0:
36,192,277603,128,2,277790:0:0:0:0:
109,192,277603,128,0,277728:0:0:0:0:
182,192,277603,128,0,277665:0:0:0:0:
256,192,277603,1,0,0:0:0:0:
402,192,277603,128,0,277728:0:0:0:0:
475,192,277603,128,0,277665:0:0:0:0:
256,192,277728,128,0,277853:0:0:0:0:
329,192,277728,128,0,277790:0:0:0:0:
475,192,277728,128,0,277915:0:0:0:0:
182,192,277790,128,0,277915:0:0:0:0:
36,192,277853,128,8,278040:0:0:0:0:
109,192,277853,128,2,277978:0:0:0:0:
329,192,277853,128,0,277915:0:0:0:0:
402,192,277853,128,0,278040:0:0:0:0:
256,192,277978,128,0,278103:0:0:0:0:
475,192,277978,128,0,278040:0:0:0:0:
329,192,278040,128,0,278165:0:0:0:0:
36,192,278103,128,2,278165:0:0:0:0:
109,192,278103,128,0,278228:0:0:0:0:
182,192,278103,128,0,278290:0:0:0:0:
402,192,278103,128,0,278228:0:0:0:0:
475,192,278103,128,0,278290:0:0:0:0:
36,192,278228,128,0,278290:0:0:0:0:
256,192,278228,128,0,278353:0:0:0:0:
109,192,278290,128,0,278415:0:0:0:0:
329,192,278290,128,0,278415:0:0:0:0:
36,192,278353,128,8,278540:0:0:0:0:
182,192,278353,128,2,278415:0:0:0:0:
402,192,278353,128,0,278415:0:0:0:0:
475,192,278353,128,0,278540:0:0:0:0:
109,192,278478,128,0,278540:0:0:0:0:
182,192,278478,128,0,278540:0:0:0:0:
329,192,278478,128,0,278540:0:0:0:0:
402,192,278478,128,0,278540:0:0:0:0:
36,192,278603,128,2,278665:0:0:0:0:
109,192,278603,128,0,278728:0:0:0:0:
256,192,278603,1,0,0:0:0:0:
329,192,278603,128,0,278665:0:0:0:0:
402,192,278603,128,0,278728:0:0:0:0:
475,192,278603,128,0,278790:0:0:0:0:
36,192,278728,128,0,278915:0:0:0:0:
182,192,278728,128,0,278790:0:0:0:0:
256,192,278728,128,0,278853:0:0:0:0:
329,192,278790,128,0,278915:0:0:0:0:
109,192,278853,128,8,279040:0:0:0:0:
182,192,278853,128,2,278915:0:0:0:0:
402,192,278853,128,0,278978:0:0:0:0:
475,192,278853,128,0,279040:0:0:0:0:
36,192,278978,128,0,279040:0:0:0:0:
256,192,278978,128,0,279103:0:0:0:0:
182,192,279040,128,0,279165:0:0:0:0:
36,192,279103,128,2,279290:0:0:0:0:
109,192,279103,128,0,279228:0:0:0:0:
329,192,279103,128,0,279290:0:0:0:0:
402,192,279103,128,0,279228:0:0:0:0:
475,192,279103,128,0,279165:0:0:0:0:
256,192,279228,128,0,279353:0:0:0:0:
475,192,279228,128,0,279290:0:0:0:0:
182,192,279290,128,0,279415:0:0:0:0:
402,192,279290,128,0,279415:0:0:0:0:
36,192,279353,128,8,279540:0:0:0:0:
109,192,279353,128,2,279415:0:0:0:0:
329,192,279353,128,0,279415:0:0:0:0:
475,192,279353,128,0,279540:0:0:0:0:
109,192,279478,128,0,279540:0:0:0:0:
182,192,279478,128,0,279540:0:0:0:0:
329,192,279478,128,0,279540:0:0:0:0:
402,192,279478,128,0,279540:0:0:0:0:
36,192,279603,128,2,279790:0:0:0:0:
109,192,279603,128,0,279790:0:0:0:0:
329,192,279603,128,0,279665:0:0:0:0:
402,192,279603,128,0,279728:0:0:0:0:
475,192,279603,128,0,279790:0:0:0:0:
182,192,279728,128,0,279790:0:0:0:0:
256,192,279728,128,0,279853:0:0:0:0:
329,192,279790,128,0,279915:0:0:0:0:
36,192,279853,128,8,280040:0:0:0:0:
109,192,279853,128,2,279978:0:0:0:0:
182,192,279853,128,0,279915:0:0:0:0:
402,192,279853,128,0,280040:0:0:0:0:
475,192,279853,128,0,280040:0:0:0:0:
256,192,279978,128,0,280103:0:0:0:0:
329,192,279978,128,0,280040:0:0:0:0:
182,192,280040,128,0,280165:0:0:0:0:
36,192,280103,128,2,280290:0:0:0:0:
109,192,280103,128,0,280290:0:0:0:0:
329,192,280103,128,0,280165:0:0:0:0:
402,192,280103,128,0,280228:0:0:0:0:
475,192,280103,128,0,280290:0:0:0:0:
182,192,280228,128,0,280290:0:0:0:0:
256,192,280228,128,0,280353:0:0:0:0:
329,192,280290,128,0,280415:0:0:0:0:
36,192,280353,128,8,280540:0:0:0:0:
109,192,280353,128,2,280415:0:0:0:0:
182,192,280353,128,0,280415:0:0:0:0:
402,192,280353,128,0,280540:0:0:0:0:
475,192,280353,128,0,280540:0:0:0:0:
109,192,280478,128,0,280540:0:0:0:0:
256,192,280478,128,0,280665:0:0:0:0:
329,192,280478,128,0,280540:0:0:0:0:
36,192,280603,128,2,280665:0:0:0:0:
109,192,280603,128,0,280665:0:0:0:0:
182,192,280603,128,0,280665:0:0:0:0:
402,192,280603,128,0,280790:0:0:0:0:
475,192,280603,128,0,280790:0:0:0:0:
109,192,280728,128,0,280915:0:0:0:0:
182,192,280728,128,0,280790:0:0:0:0:
256,192,280728,128,0,280790:0:0:0:0:
329,192,280728,128,0,280790:0:0:0:0:
36,192,280853,128,8,281040:0:0:0:0:
182,192,280853,128,2,281040:0:0:0:0:
256,192,280853,128,0,280915:0:0:0:0:
329,192,280853,128,0,280915:0:0:0:0:
402,192,280853,128,0,280915:0:0:0:0:
256,192,280978,128,0,281165:0:0:0:0:
329,192,280978,128,0,281040:0:0:0:0:
402,192,280978,128,0,281040:0:0:0:0:
475,192,280978,128,0,281040:0:0:0:0:
36,192,281103,128,2,281165:0:0:0:0:
109,192,281103,1,0,0:0:0:0:
182,192,281103,128,0,281165:0:0:0:0:
402,192,281103,1,0,0:0:0:0:
475,192,281103,128,0,281290:0:0:0:0:
36,192,281228,128,2,281290:0:0:0:0:
109,192,281228,1,0,0:0:0:0:
182,192,281228,128,0,281290:0:0:0:0:
402,192,281228,1,0,0:0:0:0:
256,192,281290,128,0,281353:0:0:0:0:
36,192,281353,1,8,0:0:0:0:
402,192,281353,128,2,281415:0:0:0:0:
475,192,281353,128,0,281415:0:0:0:0:
109,192,281415,1,2,0:0:0:0:
182,192,281415,128,0,281478:0:0:0:0:
329,192,281415,128,0,281478:0:0:0:0:
36,192,281478,128,2,281540:0:0:0:0:
256,192,281478,128,0,281540:0:0:0:0:
475,192,281478,1,0,0:0:0:0:
109,192,281540,128,2,281603:0:0:0:0:
402,192,281540,1,0,0:0:0:0:
36,192,281603,128,4,281665:0:0:0:0:
182,192,281603,128,2,281665:0:0:0:0:
256,192,281603,128,0,281728:0:0:0:0:
475,192,281603,128,0,281728:0:0:0:0:
402,192,281665,128,0,281790:0:0:0:0:
36,192,281728,128,0,281790:0:0:0:0:
109,192,281728,128,0,281790:0:0:0:0:
329,192,281728,128,0,281853:0:0:0:0:
256,192,281790,128,0,281915:0:0:0:0:
36,192,281853,128,2,281978:0:0:0:0:
109,192,281853,128,8,281915:0:0:0:0:
182,192,281853,128,0,281915:0:0:0:0:
402,192,281853,128,0,281915:0:0:0:0:
475,192,281853,128,0,282040:0:0:0:0:
329,192,281915,128,0,281978:0:0:0:0:
109,192,281978,128,0,282103:0:0:0:0:
182,192,281978,128,0,282040:0:0:0:0:
256,192,281978,128,0,282040:0:0:0:0:
36,192,282040,128,0,282165:0:0:0:0:
182,192,282103,128,2,282228:0:0:0:0:
256,192,282103,128,0,282165:0:0:0:0:
329,192,282103,128,0,282165:0:0:0:0:
475,192,282103,128,0,282290:0:0:0:0:
109,192,282165,128,0,282290:0:0:0:0:
256,192,282228,128,0,282290:0:0:0:0:
329,192,282228,128,0,282290:0:0:0:0:
402,192,282228,128,0,282290:0:0:0:0:
182,192,282290,128,0,282415:0:0:0:0:
36,192,282353,128,2,282478:0:0:0:0:
109,192,282353,128,8,282478:0:0:0:0:
329,192,282353,128,0,282478:0:0:0:0:
402,192,282353,128,0,282415:0:0:0:0:
475,192,282353,128,0,282415:0:0:0:0:
256,192,282415,128,0,282540:0:0:0:0:
182,192,282478,128,0,282603:0:0:0:0:
402,192,282478,128,0,282540:0:0:0:0:
475,192,282478,128,0,282540:0:0:0:0:
36,192,282603,128,2,282728:0:0:0:0:
256,192,282603,128,0,282728:0:0:0:0:
329,192,282603,128,0,282665:0:0:0:0:
475,192,282603,128,0,282665:0:0:0:0:
109,192,282665,128,0,282790:0:0:0:0:
182,192,282728,128,0,282853:0:0:0:0:
402,192,282728,128,0,282790:0:0:0:0:
475,192,282728,128,0,282790:0:0:0:0:
256,192,282790,128,0,282915:0:0:0:0:
36,192,282853,128,2,283040:0:0:0:0:
109,192,282853,128,8,282915:0:0:0:0:
329,192,282853,128,0,282915:0:0:0:0:
402,192,282853,128,0,282915:0:0:0:0:
475,192,282853,128,0,282978:0:0:0:0:
182,192,282915,128,0,282978:0:0:0:0:
256,192,282978,128,0,283040:0:0:0:0:
329,192,282978,128,0,283040:0:0:0:0:
402,192,282978,128,0,283103:0:0:0:0:
475,192,283040,128,0,283165:0:0:0:0:
36,192,283103,128,2,283290:0:0:0:0:
182,192,283103,128,0,283165:0:0:0:0:
256,192,283103,128,0,283165:0:0:0:0:
329,192,283103,128,0,283228:0:0:0:0:
402,192,283165,128,0,283290:0:0:0:0:
109,192,283228,128,0,283290:0:0:0:0:
182,192,283228,128,0,283290:0:0:0:0:
256,192,283228,128,0,283290:0:0:0:0:
329,192,283290,128,0,283415:0:0:0:0:
36,192,283353,128,2,283415:0:0:0:0:
109,192,283353,128,8,283415:0:0:0:0:
182,192,283353,128,0,283478:0:0:0:0:
402,192,283353,128,0,283478:0:0:0:0:
475,192,283353,128,0,283478:0:0:0:0:
256,192,283415,128,0,283540:0:0:0:0:
36,192,283478,128,0,283540:0:0:0:0:
109,192,283478,128,0,283540:0:0:0:0:
329,192,283478,128,0,283603:0:0:0:0:
36,192,283603,128,2,283728:0:0:0:0:
109,192,283603,128,0,283665:0:0:0:0:
402,192,283603,128,0,283665:0:0:0:0:
475,192,283603,128,0,283665:0:0:0:0:
256,192,283665,128,0,283728:0:0:0:0:
182,192,283728,128,0,283790:0:0:0:0:
329,192,283728,128,0,283790:0:0:0:0:
402,192,283728,128,0,283790:0:0:0:0:
475,192,283728,128,0,283790:0:0:0:0:
109,192,283790,128,0,283853:0:0:0:0:
36,192,283853,128,2,283978:0:0:0:0:
256,192,283853,128,8,283915:0:0:0:0:
329,192,283853,128,0,283915:0:0:0:0:
402,192,283853,128,0,283915:0:0:0:0:
475,192,283853,128,0,283978:0:0:0:0:
109,192,283915,128,0,284040:0:0:0:0:
182,192,283978,128,0,284040:0:0:0:0:
256,192,283978,128,0,284040:0:0:0:0:
329,192,283978,128,0,284040:0:0:0:0:
402,192,284040,128,0,284165:0:0:0:0:
475,192,284040,128,0,284228:0:0:0:0:
36,192,284103,128,2,284165:0:0:0:0:
109,192,284103,128,0,284165:0:0:0:0:
182,192,284103,128,0,284165:0:0:0:0:
256,192,284103,128,0,284228:0:0:0:0:
329,192,284165,128,0,284290:0:0:0:0:
36,192,284228,128,0,284290:0:0:0:0:
109,192,284228,128,0,284290:0:0:0:0:
182,192,284228,128,0,284353:0:0:0:0:
402,192,284228,128,0,284290:0:0:0:0:
256,192,284290,128,0,284415:0:0:0:0:
36,192,284353,128,2,284415:0:0:0:0:
109,192,284353,128,8,284478:0:0:0:0:
329,192,284353,128,0,284415:0:0:0:0:
402,192,284353,128,0,284478:0:0:0:0:
475,192,284353,128,0,284540:0:0:0:0:
182,192,284415,128,0,284540:0:0:0:0:
36,192,284478,128,0,284603:0:0:0:0:
256,192,284478,128,0,284540:0:0:0:0:
329,192,284478,128,0,284540:0:0:0:0:
109,192,284540,128,0,284665:0:0:0:0:
182,192,284603,128,2,284790:0:0:0:0:
329,192,284603,128,0,284665:0:0:0:0:
402,192,284603,128,0,284728:0:0:0:0:
475,192,284603,128,0,284665:0:0:0:0:
256,192,284665,128,0,284728:0:0:0:0:
36,192,284728,128,0,284790:0:0:0:0:
109,192,284728,128,0,284790:0:0:0:0:
329,192,284728,128,0,284790:0:0:0:0:
256,192,284790,128,0,284853:0:0:0:0:
36,192,284853,128,2,285040:0:0:0:0:
109,192,284853,128,8,284978:0:0:0:0:
182,192,284853,128,0,284915:0:0:0:0:
402,192,284853,128,0,284915:0:0:0:0:
475,192,284853,128,0,284915:0:0:0:0:
329,192,284915,128,0,285165:0:0:0:0:
256,192,284978,128,0,285103:0:0:0:0:
402,192,284978,128,0,285040:0:0:0:0:
475,192,284978,128,0,285040:0:0:0:0:
182,192,285040,128,0,285103:0:0:0:0:
36,192,285103,128,2,285165:0:0:0:0:
109,192,285103,128,0,285165:0:0:0:0:
402,192,285103,128,0,285228:0:0:0:0:
475,192,285103,128,0,285290:0:0:0:0:
182,192,285165,128,0,285290:0:0:0:0:
36,192,285228,128,0,285290:0:0:0:0:
109,192,285228,128,0,285290:0:0:0:0:
256,192,285228,128,0,285353:0:0:0:0:
329,192,285290,128,0,285415:0:0:0:0:
36,192,285353,128,2,285540:0:0:0:0:
109,192,285353,128,8,285540:0:0:0:0:
182,192,285353,128,0,285415:0:0:0:0:
402,192,285353,128,0,285415:0:0:0:0:
475,192,285353,128,0,285415:0:0:0:0:
182,192,285478,128,2,285540:0:0:0:0:
256,192,285478,128,0,285603:0:0:0:0:
329,192,285478,128,0,285540:0:0:0:0:
402,192,285478,128,0,285540:0:0:0:0:
475,192,285478,128,0,285540:0:0:0:0:
36,192,285603,128,2,285665:0:0:0:0:
109,192,285603,128,0,285665:0:0:0:0:
182,192,285603,128,0,285790:0:0:0:0:
329,192,285603,128,0,285665:0:0:0:0:
402,192,285603,128,0,285728:0:0:0:0:
475,192,285603,128,0,285790:0:0:0:0:
36,192,285728,128,0,285790:0:0:0:0:
109,192,285728,128,0,285790:0:0:0:0:
256,192,285728,128,0,285790:0:0:0:0:
329,192,285728,128,0,285853:0:0:0:0:
402,192,285790,128,0,285915:0:0:0:0:
36,192,285853,128,2,286040:0:0:0:0:
109,192,285853,128,8,286040:0:0:0:0:
182,192,285853,128,0,285978:0:0:0:0:
475,192,285853,128,0,285915:0:0:0:0:
256,192,285915,128,0,286040:0:0:0:0:
329,192,285978,128,0,286040:0:0:0:0:
402,192,285978,128,0,286040:0:0:0:0:
475,192,285978,128,0,286040:0:0:0:0:
36,192,286103,128,2,286290:0:0:0:0:
109,192,286103,128,0,286228:0:0:0:0:
182,192,286103,128,0,286165:0:0:0:0:
329,192,286103,128,0,286290:0:0:0:0:
402,192,286103,128,0,286165:0:0:0:0:
475,192,286103,128,0,286165:0:0:0:0:
182,192,286228,128,0,286353:0:0:0:0:
256,192,286228,128,0,286290:0:0:0:0:
402,192,286228,128,0,286290:0:0:0:0:
475,192,286228,128,0,286290:0:0:0:0:
109,192,286290,128,0,286415:0:0:0:0:
36,192,286353,128,2,286415:0:0:0:0:
329,192,286353,128,8,286478:0:0:0:0:
402,192,286353,128,0,286540:0:0:0:0:
475,192,286353,128,0,286540:0:0:0:0:
36,192,286478,128,0,286540:0:0:0:0:
109,192,286478,128,0,286540:0:0:0:0:
182,192,286478,128,0,286540:0:0:0:0:
256,192,286478,128,0,286603:0:0:0:0:
329,192,286540,128,0,286665:0:0:0:0:
109,192,286603,128,2,286790:0:0:0:0:
182,192,286603,128,0,286790:0:0:0:0:
402,192,286603,128,0,286665:0:0:0:0:
475,192,286603,128,0,286665:0:0:0:0:
36,192,286728,128,0,286790:0:0:0:0:
329,192,286728,128,0,286790:0:0:0:0:
402,192,286728,128,0,286915:0:0:0:0:
475,192,286728,128,0,286915:0:0:0:0:
36,192,286853,128,2,287040:0:0:0:0:
109,192,286853,128,8,287040:0:0:0:0:
182,192,286853,128,0,287040:0:0:0:0:
256,192,286853,128,0,286915:0:0:0:0:
329,192,286853,128,0,286915:0:0:0:0:
256,192,286978,128,0,287040:0:0:0:0:
329,192,286978,128,0,287165:0:0:0:0:
402,192,286978,128,0,287165:0:0:0:0:
475,192,286978,128,0,287165:0:0:0:0:
36,192,287103,128,2,287290:0:0:0:0:
109,192,287103,128,0,287290:0:0:0:0:
182,192,287103,128,0,287165:0:0:0:0:
256,192,287103,128,0,287165:0:0:0:0:
182,192,287228,128,0,287290:0:0:0:0:
256,192,287228,128,0,287415:0:0:0:0:
329,192,287228,128,0,287415:0:0:0:0:
475,192,287228,128,0,287290:0:0:0:0:
36,192,287353,128,2,287540:0:0:0:0:
109,192,287353,128,8,287415:0:0:0:0:
182,192,287353,128,0,287415:0:0:0:0:
402,192,287353,128,0,287415:0:0:0:0:
475,192,287353,128,0,287540:0:0:0:0:
109,192,287478,128,0,287540:0:0:0:0:
182,192,287478,128,0,287540:0:0:0:0:
329,192,287478,128,0,287665:0:0:0:0:
402,192,287478,128,0,287540:0:0:0:0:
36,192,287603,128,2,287665:0:0:0:0:
109,192,287603,128,0,287665:0:0:0:0:
182,192,287603,128,0,287790:0:0:0:0:
256,192,287603,128,0,287665:0:0:0:0:
475,192,287603,128,0,287790:0:0:0:0:
402,192,287665,128,0,287790:0:0:0:0:
36,192,287728,128,0,287790:0:0:0:0:
109,192,287728,128,0,287790:0:0:0:0:
329,192,287728,128,0,288040:0:0:0:0:
256,192,287790,128,0,287978:0:0:0:0:
36,192,287853,128,2,288040:0:0:0:0:
182,192,287853,128,8,287915:0:0:0:0:
402,192,287853,128,0,287915:0:0:0:0:
475,192,287853,128,0,287915:0:0:0:0:
109,192,287915,128,0,288040:0:0:0:0:
182,192,287978,128,0,288290:0:0:0:0:
402,192,287978,128,0,288040:0:0:0:0:
475,192,287978,128,0,288040:0:0:0:0:
256,192,288040,128,0,288228:0:0:0:0:
36,192,288103,128,2,288165:0:0:0:0:
109,192,288103,128,0,288165:0:0:0:0:
329,192,288103,128,0,288165:0:0:0:0:
475,192,288103,128,0,288290:0:0:0:0:
402,192,288165,128,0,288290:0:0:0:0:
36,192,288228,128,0,288290:0:0:0:0:
109,192,288228,128,0,288290:0:0:0:0:
329,192,288228,128,0,288540:0:0:0:0:
256,192,288290,128,0,288478:0:0:0:0:
36,192,288353,128,2,288540:0:0:0:0:
182,192,288353,128,8,288415:0:0:0:0:
402,192,288353,128,0,288415:0:0:0:0:
475,192,288353,128,0,288415:0:0:0:0:
109,192,288415,128,0,288540:0:0:0:0:
182,192,288478,128,0,288603:0:0:0:0:
402,192,288478,128,0,288540:0:0:0:0:
475,192,288478,128,0,288540:0:0:0:0:
256,192,288540,128,0,288603:0:0:0:0:
36,192,288603,1,2,0:0:0:0:
109,192,288603,1,4,0:0:0:0:
329,192,288603,1,0,0:0:0:0:
402,192,288603,1,0,0:0:0:0:
475,192,288603,1,0,0:0:0:0:
36,192,288790,1,2,0:0:0:0:
109,192,288790,1,4,0:0:0:0:
182,192,288790,1,0,0:0:0:0:
256,192,288790,1,0,0:0:0:0:
402,192,288790,1,0,0:0:0:0:
475,192,288790,1,0,0:0:0:0:
36,192,288978,1,4,0:0:0:0:
109,192,288978,1,2,0:0:0:0:
256,192,288978,1,0,0:0:0:0:
329,192,288978,1,0,0:0:0:0:
402,192,288978,1,0,0:0:0:0:
475,192,288978,1,0,0:0:0:0:
36,192,289103,1,2,0:0:0:0:
109,192,289103,1,4,0:0:0:0:
182,192,289103,1,0,0:0:0:0:
475,192,289103,1,0,0:0:0:0:
256,192,289165,1,2,0:0:0:0:
329,192,289165,1,0,0:0:0:0:
402,192,289165,1,0,0:0:0:0:
36,192,289228,1,2,0:0:0:0:
109,192,289228,1,0,0:0:0:0:
475,192,289228,1,0,0:0:0:0:
182,192,289290,1,2,0:0:0:0:
256,192,289290,1,0,0:0:0:0:
329,192,289290,1,0,0:0:0:0:
36,192,289353,1,2,0:0:0:0:
109,192,289353,1,0,0:0:0:0:
475,192,289353,1,0,0:0:0:0:
182,192,289384,1,2,0:0:0:0:
256,192,289415,1,2,0:0:0:0:
329,192,289415,1,0,0:0:0:0:
402,192,289446,1,2,0:0:0:0:
36,192,289478,1,2,0:0:0:0:
109,192,289478,1,0,0:0:0:0:
475,192,289478,1,0,0:0:0:0:
182,192,289509,1,2,0:0:0:0:
256,192,289540,1,2,0:0:0:0:
329,192,289540,1,0,0:0:0:0:
402,192,289571,1,2,0:0:0:0:
36,192,289603,128,2,291478:0:0:0:0:
109,192,289603,128,4,291103:0:0:0:0:
182,192,289603,128,0,290290:0:0:0:0:
475,192,289603,128,0,289728:0:0:0:0:
329,192,289728,128,0,289853:0:0:0:0:
475,192,289790,128,0,289915:0:0:0:0:
256,192,289853,128,0,289978:0:0:0:0:
402,192,289978,128,0,290228:0:0:0:0:
475,192,290228,128,0,290353:0:0:0:0:
329,192,290290,128,0,290415:0:0:0:0:
182,192,290353,128,0,290478:0:0:0:0:
329,192,290478,128,0,290603:0:0:0:0:
402,192,290603,128,0,290853:0:0:0:0:
475,192,290603,128,0,290853:0:0:0:0:
182,192,290728,128,0,290853:0:0:0:0:
256,192,290728,128,0,290853:0:0:0:0:
402,192,290978,128,0,291228:0:0:0:0:
475,192,290978,128,0,291478:0:0:0:0:
329,192,291103,128,0,291228:0:0:0:0:
182,192,291228,128,0,291353:0:0:0:0:
256,192,291353,128,0,291478:0:0:0:0:
402,192,291353,128,0,291478:0:0:0:0:
109,192,291478,128,0,291603:0:0:0:0:
36,192,291603,128,0,291728:0:0:0:0:
329,192,291603,128,0,292290:0:0:0:0:
402,192,291603,128,0,293103:0:0:0:0:
475,192,291603,128,0,293478:0:0:0:0:
182,192,291728,128,0,291853:0:0:0:0:
36,192,291790,128,0,291915:0:0:0:0:
256,192,291853,128,0,291978:0:0:0:0:
109,192,291978,128,0,292228:0:0:0:0:
36,192,292228,128,0,292353:0:0:0:0:
182,192,292290,128,0,292415:0:0:0:0:
329,192,292353,128,0,292478:0:0:0:0:
182,192,292478,128,0,292603:0:0:0:0:
36,192,292603,128,0,292853:0:0:0:0:
109,192,292603,128,0,292853:0:0:0:0:
256,192,292728,128,0,292853:0:0:0:0:
329,192,292728,128,0,292853:0:0:0:0:
36,192,292978,128,0,293478:0:0:0:0:
109,192,292978,128,0,293228:0:0:0:0:
182,192,293103,128,0,293228:0:0:0:0:
329,192,293228,128,0,293353:0:0:0:0:
109,192,293353,128,0,293478:0:0:0:0:
256,192,293353,128,0,293478:0:0:0:0:
402,192,293478,128,0,293603:0:0:0:0:
36,192,293603,128,0,295478:0:0:0:0:
109,192,293603,128,0,295103:0:0:0:0:
182,192,293603,128,0,294290:0:0:0:0:
475,192,293603,128,0,293728:0:0:0:0:
329,192,293728,128,0,293853:0:0:0:0:
475,192,293790,128,0,293915:0:0:0:0:
256,192,293853,128,0,293978:0:0:0:0:
402,192,293978,128,0,294228:0:0:0:0:
475,192,294228,128,0,294353:0:0:0:0:
329,192,294290,128,0,294415:0:0:0:0:
182,192,294353,128,0,294478:0:0:0:0:
256,192,294478,128,0,294603:0:0:0:0:
402,192,294603,128,0,294853:0:0:0:0:
475,192,294603,128,0,294853:0:0:0:0:
182,192,294728,128,0,294853:0:0:0:0:
256,192,294728,128,0,294853:0:0:0:0:
402,192,294978,128,0,295228:0:0:0:0:
475,192,294978,128,0,295478:0:0:0:0:
329,192,295103,128,0,295228:0:0:0:0:
182,192,295228,1,0,0:0:0:0:
256,192,295353,1,0,0:0:0:0:
402,192,295353,1,0,0:0:0:0:
109,192,295478,1,0,0:0:0:0:
182,192,295603,1,0,0:0:0:0:
329,192,295603,1,0,0:0:0:0:
475,192,295603,1,0,0:0:0:0:
36,192,295728,1,0,0:0:0:0:
182,192,295728,1,0,0:0:0:0:
329,192,295978,1,0,0:0:0:0:
475,192,295978,1,0,0:0:0:0:
182,192,296228,1,0,0:0:0:0:
256,192,296353,1,0,0:0:0:0:
402,192,296353,1,0,0:0:0:0:
109,192,296478,1,0,0:0:0:0:
36,192,296603,1,0,0:0:0:0:
182,192,296603,1,0,0:0:0:0:
329,192,296603,1,0,0:0:0:0:
329,192,296728,1,0,0:0:0:0:
475,192,296728,1,0,0:0:0:0:
36,192,296978,1,0,0:0:0:0:
182,192,296978,1,0,0:0:0:0:
109,192,297228,1,0,0:0:0:0:
182,192,297353,1,0,0:0:0:0:
329,192,297353,1,0,0:0:0:0:
402,192,297478,1,0,0:0:0:0:
36,192,297603,128,2,298603:0:0:0:0:
109,192,297603,128,0,298353:0:0:0:0:
256,192,297603,128,0,297978:0:0:0:0:
475,192,297603,1,0,0:0:0:0:
329,192,297978,1,0,0:0:0:0:
475,192,297978,1,0,0:0:0:0:
256,192,298353,1,0,0:0:0:0:
402,192,298353,1,0,0:0:0:0:
182,192,298603,1,0,0:0:0:0:
329,192,298603,1,0,0:0:0:0:
475,192,298603,1,0,0:0:0:0:
109,192,298978,1,0,0:0:0:0:
256,192,298978,1,0,0:0:0:0:
36,192,299228,1,0,0:0:0:0:
182,192,299228,1,0,0:0:0:0:
109,192,299603,1,0,0:0:0:0:
329,192,299603,1,0,0:0:0:0:
475,192,299603,1,0,0:0:0:0:
36,192,299978,1,0,0:0:0:0:
182,192,299978,1,0,0:0:0:0:
182,192,300353,1,0,0:0:0:0:
329,192,300353,1,0,0:0:0:0:
475,192,300478,1,0,0:0:0:0:
36,192,300603,1,0,0:0:0:0:
109,192,300603,1,0,0:0:0:0:
256,192,300603,1,0,0:0:0:0:
329,192,300728,1,0,0:0:0:0:
475,192,300728,1,0,0:0:0:0:
256,192,300978,1,0,0:0:0:0:
402,192,300978,1,0,0:0:0:0:
329,192,301228,1,0,0:0:0:0:
36,192,301353,1,0,0:0:0:0:
182,192,301353,1,0,0:0:0:0:
256,192,301478,1,0,0:0:0:0:
36,192,301603,1,0,0:0:0:70:snare01.wav
109,192,301603,1,0,0:0:0:0:
329,192,301603,1,0,0:0:0:0:
475,192,301603,1,0,0:0:0:0:
256,192,301728,1,0,0:0:0:0:
36,192,301853,1,0,0:0:0:70:snare01.wav
182,192,301853,1,0,0:0:0:0:
402,192,301853,1,0,0:0:0:0:
475,192,301853,1,0,0:0:0:0:
256,192,301978,1,0,0:0:0:0:
36,192,302103,1,0,0:0:0:70:snare01.wav
109,192,302103,1,0,0:0:0:0:
329,192,302103,1,0,0:0:0:0:
475,192,302103,1,0,0:0:0:0:
256,192,302228,1,0,0:0:0:0:
36,192,302353,1,0,0:0:0:70:snare01.wav
182,192,302353,1,0,0:0:0:0:
402,192,302353,1,0,0:0:0:0:
475,192,302353,1,0,0:0:0:0:
109,192,302478,1,0,0:0:0:70:snare01.wav
329,192,302478,1,0,0:0:0:0:
402,192,302478,1,0,0:0:0:0:
182,192,302540,1,0,0:0:0:70:snare01.wav
256,192,302540,1,0,0:0:0:0:
36,192,302603,1,0,0:0:0:70:snare01.wav
109,192,302603,1,0,0:0:0:0:
329,192,302603,1,0,0:0:0:0:
475,192,302603,1,0,0:0:0:0:
402,192,302728,1,0,0:0:0:0:
36,192,302853,1,0,0:0:0:70:snare01.wav
182,192,302853,1,0,0:0:0:0:
256,192,302853,1,0,0:0:0:0:
475,192,302853,1,0,0:0:0:0:
109,192,302978,1,0,0:0:0:0:
36,192,303103,1,0,0:0:0:70:snare01.wav
256,192,303103,1,0,0:0:0:0:
329,192,303103,1,0,0:0:0:0:
475,192,303103,1,0,0:0:0:0:
402,192,303228,1,0,0:0:0:0:
36,192,303353,1,0,0:0:0:70:snare01.wav
182,192,303353,1,0,0:0:0:0:
256,192,303353,1,0,0:0:0:0:
475,192,303353,1,0,0:0:0:0:
36,192,303478,1,0,0:0:0:70:snare01.wav
109,192,303478,1,0,0:0:0:0:
329,192,303478,1,0,0:0:0:0:
182,192,303540,1,0,0:0:0:70:snare01.wav
402,192,303540,1,0,0:0:0:0:
36,192,303603,1,0,0:0:0:70:snare01.wav
256,192,303603,1,0,0:0:0:0:
329,192,303603,1,0,0:0:0:0:
475,192,303603,1,0,0:0:0:0:
109,192,303728,1,0,0:0:0:70:snare01.wav
329,192,303728,1,0,0:0:0:0:
475,192,303728,1,0,0:0:0:0:
36,192,303853,1,0,0:0:0:70:snare01.wav
182,192,303853,1,0,0:0:0:0:
256,192,303853,1,0,0:0:0:0:
475,192,303853,1,0,0:0:0:0:
36,192,303978,1,0,0:0:0:70:snare01.wav
182,192,303978,1,0,0:0:0:0:
402,192,303978,1,0,0:0:0:0:
36,192,304103,1,0,0:0:0:70:snare01.wav
256,192,304103,1,0,0:0:0:0:
329,192,304103,1,0,0:0:0:0:
475,192,304103,1,0,0:0:0:0:
109,192,304228,1,0,0:0:0:70:snare01.wav
329,192,304228,1,0,0:0:0:0:
475,192,304228,1,0,0:0:0:0:
36,192,304353,1,0,0:0:0:70:snare01.wav
182,192,304353,1,0,0:0:0:0:
256,192,304353,1,0,0:0:0:0:
475,192,304353,1,0,0:0:0:0:
36,192,304478,1,0,0:0:0:70:snare01.wav
109,192,304478,1,0,0:0:0:0:
402,192,304478,1,0,0:0:0:0:
182,192,304540,1,0,0:0:0:0:
329,192,304540,1,0,0:0:0:0:
36,192,304603,128,2,305103:0:0:0:0:
109,192,304603,128,0,304853:0:0:0:0:
256,192,304603,1,0,0:0:0:0:
475,192,304603,128,0,304853:0:0:0:0:
402,192,304728,1,0,0:0:0:0:
256,192,304853,1,0,0:0:0:0:
109,192,304978,128,0,305478:0:0:0:0:
402,192,304978,1,0,0:0:0:0:
475,192,304978,128,0,305228:0:0:0:0:
256,192,305103,128,0,305228:0:0:0:0:
402,192,305103,128,0,305228:0:0:0:0:
36,192,305228,128,0,305478:0:0:0:0:
182,192,305353,128,0,305478:0:0:0:0:
329,192,305353,128,0,305478:0:0:0:0:
36,192,305603,1,2,0:0:0:0:
109,192,305603,1,4,0:0:0:0:
182,192,305603,1,0,0:0:0:0:
256,192,305603,1,0,0:0:0:0:
402,192,305603,1,0,0:0:0:0:
475,192,305603,1,0,0:0:0:0:
329,192,305665,1,0,0:0:0:0:
182,192,305728,1,0,0:0:0:0:
402,192,305728,1,0,0:0:0:0:
329,192,305790,1,0,0:0:0:0:
36,192,305853,1,2,0:0:0:0:
109,192,305853,1,8,0:0:0:0:
256,192,305853,1,0,0:0:0:0:
475,192,305853,1,0,0:0:0:0:
182,192,305915,1,0,0:0:0:0:
256,192,305978,1,0,0:0:0:0:
402,192,305978,1,0,0:0:0:0:
329,192,306040,1,0,0:0:0:0:
36,192,306103,1,2,0:0:0:0:
109,192,306103,1,0,0:0:0:0:
182,192,306103,1,0,0:0:0:0:
475,192,306103,1,0,0:0:0:0:
329,192,306165,1,0,0:0:0:0:
402,192,306165,1,0,0:0:0:0:
36,192,306228,1,0,0:0:0:0:
182,192,306228,1,0,0:0:0:0:
256,192,306290,1,0,0:0:0:0:
329,192,306290,1,0,0:0:0:0:
36,192,306353,1,2,0:0:0:0:
109,192,306353,1,8,0:0:0:0:
402,192,306353,1,0,0:0:0:0:
475,192,306353,1,0,0:0:0:0:
182,192,306415,1,0,0:0:0:0:
256,192,306415,1,0,0:0:0:0:
329,192,306478,1,0,0:0:0:0:
402,192,306478,1,0,0:0:0:0:
475,192,306478,1,0,0:0:0:0:
36,192,306540,1,0,0:0:0:0:
109,192,306540,1,0,0:0:0:0:
182,192,306603,1,2,0:0:0:0:
256,192,306603,1,0,0:0:0:0:
402,192,306603,1,0,0:0:0:0:
475,192,306603,1,0,0:0:0:0:
36,192,306665,1,0,0:0:0:0:
109,192,306665,1,0,0:0:0:0:
182,192,306728,1,0,0:0:0:0:
256,192,306728,1,0,0:0:0:0:
329,192,306728,1,0,0:0:0:0:
402,192,306790,1,0,0:0:0:0:
475,192,306790,1,0,0:0:0:0:
36,192,306853,1,8,0:0:0:0:
109,192,306853,1,2,0:0:0:0:
182,192,306853,1,0,0:0:0:0:
329,192,306853,1,0,0:0:0:0:
402,192,306915,1,0,0:0:0:0:
475,192,306915,1,0,0:0:0:0:
182,192,306978,1,0,0:0:0:0:
256,192,306978,1,0,0:0:0:0:
329,192,306978,1,0,0:0:0:0:
36,192,307040,1,0,0:0:0:0:
109,192,307040,1,0,0:0:0:0:
256,192,307103,1,2,0:0:0:0:
329,192,307103,1,0,0:0:0:0:
402,192,307103,1,0,0:0:0:0:
475,192,307103,1,0,0:0:0:0:
36,192,307165,1,0,0:0:0:0:
109,192,307165,1,0,0:0:0:0:
182,192,307228,1,0,0:0:0:0:
256,192,307228,1,0,0:0:0:0:
329,192,307228,1,0,0:0:0:0:
402,192,307290,1,0,0:0:0:0:
475,192,307290,1,0,0:0:0:0:
36,192,307353,1,8,0:0:0:0:
109,192,307353,1,2,0:0:0:0:
182,192,307353,1,0,0:0:0:0:
329,192,307353,1,0,0:0:0:0:
402,192,307415,1,0,0:0:0:0:
475,192,307415,1,0,0:0:0:0:
182,192,307478,1,0,0:0:0:0:
256,192,307478,1,0,0:0:0:0:
329,192,307478,1,0,0:0:0:0:
36,192,307540,1,0,0:0:0:0:
109,192,307540,1,0,0:0:0:0:
256,192,307603,128,2,307644:0:0:0:0:
329,192,307603,128,0,307686:0:0:0:0:
402,192,307603,128,0,307728:0:0:0:0:
475,192,307603,128,0,307769:0:0:0:0:
109,192,307644,128,0,307728:0:0:0:0:
182,192,307686,128,0,307769:0:0:0:0:
256,192,307728,128,0,307811:0:0:0:0:
329,192,307769,128,0,307853:0:0:0:0:
402,192,307811,128,0,307936:0:0:0:0:
36,192,307853,128,8,307978:0:0:0:0:
109,192,307853,128,2,307936:0:0:0:0:
182,192,307853,128,0,307894:0:0:0:0:
475,192,307853,128,0,307894:0:0:0:0:
329,192,307894,128,0,307978:0:0:0:0:
256,192,307936,128,0,308019:0:0:0:0:
182,192,307978,128,0,308061:0:0:0:0:
109,192,308019,128,0,308103:0:0:0:0:
36,192,308103,1,2,0:0:0:0:
402,192,308103,1,0,0:0:0:0:
475,192,308103,128,0,308144:0:0:0:0:
329,192,308144,128,0,308186:0:0:0:0:
36,192,308228,1,0,0:0:0:0:
402,192,308228,1,0,0:0:0:0:
475,192,308228,128,0,308269:0:0:0:0:
329,192,308269,128,0,308311:0:0:0:0:
36,192,308353,1,8,0:0:0:0:
109,192,308353,1,2,0:0:0:0:
182,192,308353,1,0,0:0:0:0:
256,192,308353,1,0,0:0:0:0:
402,192,308415,1,0,0:0:0:0:
475,192,308415,1,0,0:0:0:0:
36,192,308478,1,0,0:0:0:0:
109,192,308478,1,0,0:0:0:0:
329,192,308478,1,0,0:0:0:0:
402,192,308540,1,0,0:0:0:0:
475,192,308540,1,0,0:0:0:0:
36,192,308603,1,2,0:0:0:0:
109,192,308603,1,0,0:0:0:0:
182,192,308603,1,0,0:0:0:0:
329,192,308603,1,0,0:0:0:0:
402,192,308665,1,0,0:0:0:0:
475,192,308665,1,0,0:0:0:0:
182,192,308728,1,0,0:0:0:0:
256,192,308728,1,0,0:0:0:0:
329,192,308728,1,0,0:0:0:0:
36,192,308790,1,0,0:0:0:0:
109,192,308790,1,0,0:0:0:0:
256,192,308853,1,8,0:0:0:0:
329,192,308853,1,2,0:0:0:0:
402,192,308853,1,0,0:0:0:0:
475,192,308853,1,0,0:0:0:0:
36,192,308915,1,0,0:0:0:0:
109,192,308915,1,0,0:0:0:0:
182,192,308978,1,0,0:0:0:0:
402,192,308978,1,0,0:0:0:0:
475,192,308978,1,0,0:0:0:0:
36,192,309040,1,0,0:0:0:0:
109,192,309040,1,0,0:0:0:0:
182,192,309103,1,2,0:0:0:0:
329,192,309103,1,0,0:0:0:0:
402,192,309103,1,0,0:0:0:0:
475,192,309103,1,0,0:0:0:0:
36,192,309165,1,0,0:0:0:0:
256,192,309165,1,0,0:0:0:0:
109,192,309228,1,0,0:0:0:0:
329,192,309228,1,0,0:0:0:0:
475,192,309228,1,0,0:0:0:0:
182,192,309290,1,0,0:0:0:0:
402,192,309290,1,0,0:0:0:0:
36,192,309353,1,8,0:0:0:0:
109,192,309353,1,2,0:0:0:0:
256,192,309353,1,0,0:0:0:0:
475,192,309353,1,0,0:0:0:0:
329,192,309415,1,0,0:0:0:0:
402,192,309415,1,0,0:0:0:0:
36,192,309478,1,0,0:0:0:0:
109,192,309478,1,0,0:0:0:0:
256,192,309478,1,0,0:0:0:0:
329,192,309540,1,0,0:0:0:0:
402,192,309540,1,0,0:0:0:0:
36,192,309603,128,2,309769:0:0:0:0:
109,192,309603,128,0,309728:0:0:0:0:
182,192,309603,128,0,309686:0:0:0:0:
256,192,309603,128,0,309644:0:0:0:0:
475,192,309603,128,0,309686:0:0:0:0:
402,192,309644,128,0,309728:0:0:0:0:
329,192,309686,128,0,309769:0:0:0:0:
256,192,309728,128,0,309811:0:0:0:0:
182,192,309769,128,0,309853:0:0:0:0:
36,192,309853,1,8,0:0:0:0:
109,192,309853,1,2,0:0:0:0:
329,192,309853,1,0,0:0:0:0:
475,192,309853,1,0,0:0:0:0:
256,192,309915,1,0,0:0:0:0:
182,192,309978,1,0,0:0:0:0:
402,192,309978,1,0,0:0:0:0:
329,192,310040,1,0,0:0:0:0:
36,192,310103,1,2,0:0:0:0:
182,192,310103,1,0,0:0:0:0:
256,192,310103,1,0,0:0:0:0:
475,192,310103,1,0,0:0:0:0:
329,192,310165,1,0,0:0:0:0:
402,192,310165,1,0,0:0:0:0:
109,192,310228,1,0,0:0:0:0:
182,192,310228,1,0,0:0:0:0:
475,192,310228,1,0,0:0:0:0:
256,192,310290,1,0,0:0:0:0:
329,192,310290,1,0,0:0:0:0:
36,192,310353,1,8,0:0:0:0:
109,192,310353,1,2,0:0:0:0:
402,192,310353,1,0,0:0:0:0:
475,192,310353,1,0,0:0:0:0:
182,192,310415,1,0,0:0:0:0:
256,192,310415,1,0,0:0:0:0:
329,192,310478,1,0,0:0:0:0:
402,192,310478,1,0,0:0:0:0:
109,192,310540,1,0,0:0:0:0:
182,192,310540,1,0,0:0:0:0:
36,192,310603,1,2,0:0:0:0:
256,192,310603,1,0,0:0:0:0:
329,192,310603,1,0,0:0:0:0:
475,192,310603,1,0,0:0:0:0:
182,192,310665,1,0,0:0:0:0:
402,192,310665,1,0,0:0:0:0:
36,192,310728,1,0,0:0:0:0:
109,192,310728,1,0,0:0:0:0:
329,192,310728,1,0,0:0:0:0:
182,192,310790,1,0,0:0:0:0:
402,192,310790,1,0,0:0:0:0:
36,192,310853,1,8,0:0:0:0:
109,192,310853,1,2,0:0:0:0:
256,192,310853,1,0,0:0:0:0:
475,192,310853,1,0,0:0:0:0:
182,192,310915,1,0,0:0:0:0:
329,192,310915,1,0,0:0:0:0:
36,192,310978,1,0,0:0:0:0:
256,192,310978,1,0,0:0:0:0:
475,192,310978,1,0,0:0:0:0:
109,192,311040,1,0,0:0:0:0:
329,192,311040,1,0,0:0:0:0:
182,192,311103,1,2,0:0:0:0:
475,192,311103,1,0,0:0:0:0:
256,192,311144,1,0,0:0:0:0:
402,192,311144,1,0,0:0:0:0:
329,192,311186,1,0,0:0:0:0:
256,192,311269,1,0,0:0:0:0:
182,192,311311,1,0,0:0:0:0:
329,192,311311,1,0,0:0:0:0:
36,192,311353,1,8,0:0:0:0:
109,192,311353,1,2,0:0:0:0:
402,192,311353,1,0,0:0:0:0:
182,192,311478,1,0,0:0:0:0:
475,192,311478,1,0,0:0:0:0:
256,192,311519,1,0,0:0:0:0:
402,192,311519,1,0,0:0:0:0:
329,192,311561,1,0,0:0:0:0:
36,192,311603,1,2,0:0:0:0:
109,192,311603,1,0,0:0:0:0:
402,192,311603,1,0,0:0:0:0:
475,192,311603,1,0,0:0:0:0:
182,192,311665,1,0,0:0:0:0:
256,192,311728,1,0,0:0:0:0:
329,192,311728,1,0,0:0:0:0:
109,192,311790,1,0,0:0:0:0:
36,192,311853,1,8,0:0:0:0:
182,192,311853,1,2,0:0:0:0:
329,192,311853,1,0,0:0:0:0:
475,192,311853,1,0,0:0:0:0:
256,192,311915,1,0,0:0:0:0:
402,192,311915,1,0,0:0:0:0:
36,192,311978,1,0,0:0:0:0:
109,192,311978,1,0,0:0:0:0:
329,192,311978,1,0,0:0:0:0:
182,192,312040,1,0,0:0:0:0:
402,192,312040,1,0,0:0:0:0:
36,192,312103,1,2,0:0:0:0:
109,192,312103,1,0,0:0:0:0:
256,192,312103,1,0,0:0:0:0:
475,192,312103,1,0,0:0:0:0:
182,192,312228,1,0,0:0:0:0:
329,192,312228,1,0,0:0:0:0:
36,192,312353,1,8,0:0:0:0:
109,192,312353,1,2,0:0:0:0:
256,192,312353,1,0,0:0:0:0:
475,192,312353,1,0,0:0:0:0:
182,192,312415,1,0,0:0:0:0:
329,192,312415,1,0,0:0:0:0:
256,192,312478,1,0,0:0:0:0:
402,192,312478,1,0,0:0:0:0:
475,192,312478,1,0,0:0:0:0:
36,192,312540,1,0,0:0:0:0:
109,192,312540,1,0,0:0:0:0:
182,192,312603,1,2,0:0:0:0:
256,192,312603,1,0,0:0:0:0:
402,192,312603,128,0,312644:0:0:0:0:
475,192,312623,128,0,312665:0:0:0:0:
182,192,312728,1,0,0:0:0:0:
256,192,312728,1,0,0:0:0:0:
402,192,312728,128,0,312769:0:0:0:0:
475,192,312748,128,0,312790:0:0:0:0:
109,192,312853,128,8,312894:0:0:0:0:
329,192,312853,1,2,0:0:0:0:
402,192,312853,1,0,0:0:0:0:
182,192,312873,128,0,312915:0:0:0:0:
109,192,312978,128,0,313019:0:0:0:0:
329,192,312978,1,0,0:0:0:0:
402,192,312978,1,0,0:0:0:0:
182,192,312998,128,0,313040:0:0:0:0:
36,192,313103,128,2,313144:0:0:0:0:
109,192,313103,128,0,313186:0:0:0:0:
256,192,313103,128,0,313269:0:0:0:0:
329,192,313103,128,0,313144:0:0:0:0:
402,192,313103,128,0,313186:0:0:0:0:
475,192,313103,128,0,313228:0:0:0:0:
182,192,313144,128,0,313228:0:0:0:0:
329,192,313228,128,0,313311:0:0:0:0:
402,192,313269,128,0,313353:0:0:0:0:
109,192,313353,128,8,313394:0:0:0:0:
256,192,313353,1,2,0:0:0:0:
475,192,313353,1,0,0:0:0:0:
36,192,313373,128,0,313415:0:0:0:0:
109,192,313478,128,0,313519:0:0:0:0:
256,192,313478,1,0,0:0:0:0:
475,192,313478,1,0,0:0:0:0:
36,192,313498,128,0,313540:0:0:0:0:
109,192,313603,1,2,0:0:0:0:
182,192,313603,1,0,0:0:0:0:
402,192,313603,128,0,313686:0:0:0:0:
475,192,313603,128,0,313644:0:0:0:0:
329,192,313644,128,0,313728:0:0:0:0:
36,192,313681,1,0,0:0:0:0:
256,192,313686,128,0,313769:0:0:0:0:
182,192,313769,1,0,0:0:0:0:
475,192,313769,1,0,0:0:0:0:
36,192,313853,128,2,313894:0:0:0:0:
109,192,313853,128,8,313936:0:0:0:0:
329,192,313853,1,0,0:0:0:0:
402,192,313853,1,0,0:0:0:0:
182,192,313894,128,0,313978:0:0:0:0:
256,192,313936,128,0,314019:0:0:0:0:
475,192,313936,1,0,0:0:0:0:
36,192,314019,1,0,0:0:0:0:
329,192,314019,1,0,0:0:0:0:
109,192,314103,1,2,0:0:0:0:
182,192,314103,1,0,0:0:0:0:
402,192,314103,128,0,314181:0:0:0:0:
475,192,314103,128,0,314144:0:0:0:0:
329,192,314144,128,0,314228:0:0:0:0:
36,192,314186,1,0,0:0:0:0:
256,192,314186,128,0,314269:0:0:0:0:
182,192,314269,1,0,0:0:0:0:
475,192,314269,1,0,0:0:0:0:
36,192,314353,128,2,314394:0:0:0:0:
109,192,314353,128,8,314436:0:0:0:0:
329,192,314353,1,0,0:0:0:0:
402,192,314353,1,0,0:0:0:0:
182,192,314394,128,0,314478:0:0:0:0:
256,192,314436,128,0,314519:0:0:0:0:
475,192,314436,1,0,0:0:0:0:
36,192,314519,1,0,0:0:0:0:
329,192,314519,1,0,0:0:0:0:
109,192,314603,1,2,0:0:0:0:
182,192,314603,1,0,0:0:0:0:
402,192,314603,128,0,314686:0:0:0:0:
475,192,314603,128,0,314644:0:0:0:0:
329,192,314644,128,0,314728:0:0:0:0:
36,192,314686,1,0,0:0:0:0:
256,192,314686,128,0,314769:0:0:0:0:
182,192,314769,1,0,0:0:0:0:
475,192,314769,1,0,0:0:0:0:
36,192,314853,128,2,314894:0:0:0:0:
109,192,314853,128,8,314931:0:0:0:0:
329,192,314853,1,0,0:0:0:0:
402,192,314853,1,0,0:0:0:0:
182,192,314894,128,0,314978:0:0:0:0:
256,192,314936,128,0,315019:0:0:0:0:
475,192,314936,1,0,0:0:0:0:
36,192,315019,1,0,0:0:0:0:
329,192,315019,1,0,0:0:0:0:
109,192,315103,1,2,0:0:0:0:
182,192,315103,1,0,0:0:0:0:
402,192,315103,128,0,315186:0:0:0:0:
475,192,315103,128,0,315144:0:0:0:0:
329,192,315144,128,0,315228:0:0:0:0:
36,192,315181,1,0,0:0:0:0:
256,192,315186,128,0,315269:0:0:0:0:
182,192,315269,1,0,0:0:0:0:
475,192,315269,1,0,0:0:0:0:
36,192,315353,128,2,315394:0:0:0:0:
109,192,315353,128,8,315436:0:0:0:0:
329,192,315353,1,0,0:0:0:0:
402,192,315353,1,0,0:0:0:0:
182,192,315394,128,0,315478:0:0:0:0:
256,192,315436,128,0,315519:0:0:0:0:
475,192,315436,1,0,0:0:0:0:
36,192,315519,1,0,0:0:0:0:
329,192,315519,1,0,0:0:0:0:
109,192,315603,1,2,0:0:0:0:
182,192,315603,1,0,0:0:0:0:
402,192,315603,128,0,315681:0:0:0:0:
475,192,315603,128,0,315644:0:0:0:0:
329,192,315644,128,0,315728:0:0:0:0:
36,192,315686,1,0,0:0:0:0:
256,192,315686,128,0,315769:0:0:0:0:
475,192,315769,1,0,0:0:0:0:
182,192,315769,1,0,0:0:0:0:
36,192,315853,128,2,315894:0:0:0:0:
109,192,315853,128,8,315931:0:0:0:0:
329,192,315853,1,0,0:0:0:0:
402,192,315853,1,0,0:0:0:0:
182,192,315894,128,0,315978:0:0:0:0:
256,192,315936,128,0,316019:0:0:0:0:
475,192,315936,1,0,0:0:0:0:
36,192,316019,1,0,0:0:0:0:
329,192,316019,1,0,0:0:0:0:
109,192,316103,1,2,0:0:0:0:
182,192,316103,1,0,0:0:0:0:
402,192,316103,128,0,316181:0:0:0:0:
475,192,316103,128,0,316144:0:0:0:0:
329,192,316144,128,0,316228:0:0:0:0:
36,192,316186,1,0,0:0:0:0:
256,192,316186,128,0,316269:0:0:0:0:
182,192,316269,1,0,0:0:0:0:
475,192,316269,1,0,0:0:0:0:
36,192,316353,128,2,316394:0:0:0:0:
109,192,316353,128,8,316431:0:0:0:0:
329,192,316353,1,0,0:0:0:0:
402,192,316353,1,0,0:0:0:0:
182,192,316394,128,0,316478:0:0:0:0:
256,192,316436,128,0,316519:0:0:0:0:
475,192,316436,1,0,0:0:0:0:
36,192,316519,1,0,0:0:0:0:
329,192,316519,1,0,0:0:0:0:
109,192,316603,128,2,316790:0:0:0:0:
182,192,316603,1,0,0:0:0:0:
402,192,316603,128,0,316728:0:0:0:0:
475,192,316603,1,0,0:0:0:0:
256,192,316728,1,0,0:0:0:0:
329,192,316728,1,0,0:0:0:0:
182,192,316790,1,0,0:0:0:0:
36,192,316853,1,2,0:0:0:0:
109,192,316853,1,8,0:0:0:0:
402,192,316853,1,0,0:0:0:0:
475,192,316853,1,0,0:0:0:0:
256,192,316915,1,0,0:0:0:0:
329,192,316915,1,0,0:0:0:0:
182,192,316978,1,0,0:0:0:0:
402,192,316978,1,0,0:0:0:0:
475,192,316978,1,0,0:0:0:0:
36,192,317040,1,0,0:0:0:0:
109,192,317040,1,0,0:0:0:0:
256,192,317103,1,2,0:0:0:0:
329,192,317103,1,0,0:0:0:0:
402,192,317103,1,0,0:0:0:0:
475,192,317103,1,0,0:0:0:0:
36,192,317165,1,0,0:0:0:0:
182,192,317165,1,0,0:0:0:0:
329,192,317228,1,0,0:0:0:0:
475,192,317228,1,0,0:0:0:0:
36,192,317290,1,0,0:0:0:0:
182,192,317290,1,0,0:0:0:0:
109,192,317353,1,2,0:0:0:0:
256,192,317353,1,8,0:0:0:0:
402,192,317353,1,0,0:0:0:0:
475,192,317353,1,0,0:0:0:0:
36,192,317478,1,0,0:0:0:0:
182,192,317478,1,0,0:0:0:0:
329,192,317478,1,0,0:0:0:0:
402,192,317478,1,0,0:0:0:0:
182,192,317603,128,2,317686:0:0:0:0:
475,192,317603,128,0,317853:0:0:0:0:
109,192,317644,128,0,317728:0:0:0:0:
402,192,317644,128,0,317811:0:0:0:0:
36,192,317686,128,0,317769:0:0:0:0:
329,192,317686,128,0,317769:0:0:0:0:
256,192,317728,128,0,317894:0:0:0:0:
36,192,317853,128,2,317936:0:0:0:0:
329,192,317853,128,8,317936:0:0:0:0:
109,192,317894,128,0,317978:0:0:0:0:
402,192,317894,128,0,317978:0:0:0:0:
182,192,317936,128,0,318019:0:0:0:0:
475,192,317936,128,0,318019:0:0:0:0:
256,192,317978,128,0,318061:0:0:0:0:
329,192,318019,128,0,318103:0:0:0:0:
402,192,318061,128,0,318290:0:0:0:0:
36,192,318103,128,2,318290:0:0:0:0:
109,192,318103,128,0,318290:0:0:0:0:
182,192,318103,128,0,318290:0:0:0:0:
475,192,318103,128,0,318290:0:0:0:0:
36,192,318353,1,2,0:0:0:0:
109,192,318353,1,8,0:0:0:0:
256,192,318353,1,0,0:0:0:0:
402,192,318353,1,0,0:0:0:0:
475,192,318353,1,0,0:0:0:0:
109,192,318478,1,0,0:0:0:0:
182,192,318478,1,0,0:0:0:0:
329,192,318478,1,0,0:0:0:0:
402,192,318478,1,0,0:0:0:0:
36,192,318603,128,2,318853:0:0:0:0:
329,192,318603,128,0,318686:0:0:0:0:
109,192,318644,128,0,318811:0:0:0:0:
402,192,318644,128,0,318728:0:0:0:0:
182,192,318686,128,0,318769:0:0:0:0:
475,192,318686,128,0,318769:0:0:0:0:
256,192,318728,128,0,318894:0:0:0:0:
182,192,318853,128,2,318936:0:0:0:0:
475,192,318853,128,8,318936:0:0:0:0:
109,192,318894,128,0,318978:0:0:0:0:
402,192,318894,128,0,318978:0:0:0:0:
36,192,318936,128,0,319019:0:0:0:0:
329,192,318936,128,0,319019:0:0:0:0:
256,192,318978,128,0,319061:0:0:0:0:
182,192,319019,128,0,319103:0:0:0:0:
109,192,319061,128,0,319290:0:0:0:0:
36,192,319103,128,2,319290:0:0:0:0:
329,192,319103,128,0,319290:0:0:0:0:
402,192,319103,128,0,319290:0:0:0:0:
475,192,319103,128,0,319290:0:0:0:0:
36,192,319353,1,2,0:0:0:0:
109,192,319353,1,8,0:0:0:0:
256,192,319353,1,0,0:0:0:0:
402,192,319353,1,0,0:0:0:0:
475,192,319353,1,0,0:0:0:0:
109,192,319478,1,0,0:0:0:0:
182,192,319478,1,0,0:0:0:0:
329,192,319478,1,0,0:0:0:0:
402,192,319478,1,0,0:0:0:0:
36,192,319603,1,2,0:0:0:0:
182,192,319603,1,0,0:0:0:0:
256,192,319603,1,0,0:0:0:0:
329,192,319603,1,0,0:0:0:0:
475,192,319603,1,0,0:0:0:0:
256,192,319853,128,0,319915:0:0:0:0:
402,192,319853,128,0,319915:0:0:0:0:
256,192,319978,128,0,320290:0:0:0:0:
402,192,319978,128,0,320290:0:0:0:0:
36,192,320103,128,0,320728:0:0:0:0:
109,192,320228,128,0,320290:0:0:0:0:
182,192,320228,128,0,320290:0:0:0:0:
109,192,320353,128,0,320478:0:0:0:0:
182,192,320353,128,0,320478:0:0:0:0:
475,192,320353,128,0,321353:0:0:0:0:
329,192,320478,128,0,320665:0:0:0:0:
109,192,320603,128,0,320790:0:0:0:0:
256,192,320603,128,0,320665:0:0:0:0:
402,192,320603,128,0,321228:0:0:0:0:
256,192,320728,128,0,320915:0:0:0:0:
329,192,320728,128,0,320790:0:0:0:0:
36,192,320853,128,0,321040:0:0:0:0:
182,192,320853,128,0,320915:0:0:0:0:
329,192,320853,128,0,321103:0:0:0:0:
109,192,320978,128,0,321040:0:0:0:0:
182,192,320978,128,0,321165:0:0:0:0:
36,192,321103,128,0,321290:0:0:0:0:
256,192,321103,128,0,321165:0:0:0:0:
109,192,321228,128,0,321290:0:0:0:0:
256,192,321228,128,0,321353:0:0:0:0:
182,192,321353,128,0,321415:0:0:0:0:
329,192,321353,128,0,321415:0:0:0:0:
182,192,321478,128,0,321540:0:0:0:0:
329,192,321478,128,0,321540:0:0:0:0:
36,192,321603,128,2,322103:0:0:0:0:
109,192,321603,128,0,322103:0:0:0:0:
256,192,321603,128,0,322103:0:0:0:0:
402,192,321603,128,0,322103:0:0:0:0:
475,192,321603,128,0,322103:0:0:0:0:
36,192,326103,1,0,0:0:0:70:electronic25.wav
109,192,326103,1,0,0:0:0:0:
182,192,326103,1,0,0:0:0:0:
329,192,326165,1,0,0:0:0:70:electronic25.wav
402,192,326165,1,0,0:0:0:0:
475,192,326165,1,0,0:0:0:0:
36,192,326228,1,0,0:0:0:70:electronic25.wav
109,192,326228,1,0,0:0:0:0:
256,192,326228,1,0,0:0:0:0:
182,192,326290,1,0,0:0:0:70:electronic25.wav
402,192,326290,1,0,0:0:0:0:
475,192,326290,1,0,0:0:0:0:
36,192,326353,1,0,0:0:0:70:electronic25.wav
109,192,326353,1,0,0:0:0:0:
329,192,326353,1,0,0:0:0:0:
182,192,326415,1,0,0:0:0:70:electronic25.wav
256,192,326415,1,0,0:0:0:0:
475,192,326415,1,0,0:0:0:0:
36,192,326478,1,0,0:0:0:70:electronic25.wav
109,192,326478,1,0,0:0:0:0:
329,192,326478,1,0,0:0:0:0:
256,192,326540,1,0,0:0:0:70:electronic25.wav
402,192,326540,1,0,0:0:0:0:
475,192,326540,1,0,0:0:0:0:
36,192,326603,1,0,0:0:0:70:electronic25.wav
109,192,326603,1,0,0:0:0:0:
182,192,326603,1,0,0:0:0:0:
329,192,326665,1,0,0:0:0:70:electronic25.wav
402,192,326665,1,0,0:0:0:0:
475,192,326665,1,0,0:0:0:0:
109,192,326728,1,0,0:0:0:70:electronic25.wav
182,192,326728,1,0,0:0:0:0:
256,192,326728,1,0,0:0:0:0:
36,192,326790,1,0,0:0:0:70:electronic25.wav
402,192,326790,1,0,0:0:0:0:
475,192,326790,1,0,0:0:0:0:
182,192,326853,1,0,0:0:0:70:electronic25.wav
256,192,326853,1,0,0:0:0:0:
329,192,326853,1,0,0:0:0:0:
36,192,326915,1,0,0:0:0:70:electronic25.wav
109,192,326915,1,0,0:0:0:0:
475,192,326915,1,0,0:0:0:0:
256,192,326978,1,0,0:0:0:70:electronic25.wav
329,192,326978,1,0,0:0:0:0:
402,192,326978,1,0,0:0:0:0:
36,192,327040,1,0,0:0:0:70:electronic25.wav
109,192,327040,1,0,0:0:0:0:
182,192,327040,1,0,0:0:0:0:
329,192,327103,1,0,0:0:0:70:electronic25.wav
402,192,327103,1,0,0:0:0:0:
475,192,327103,1,0,0:0:0:0:
109,192,327165,1,0,0:0:0:70:electronic25.wav
182,192,327165,1,0,0:0:0:0:
256,192,327165,1,0,0:0:0:0:
36,192,327228,1,0,0:0:0:70:electronic25.wav
402,192,327228,1,0,0:0:0:0:
475,192,327228,1,0,0:0:0:0:
109,192,327290,1,0,0:0:0:70:electronic25.wav
256,192,327290,1,0,0:0:0:0:
329,192,327290,1,0,0:0:0:0:
182,192,327353,1,0,0:0:0:70:electronic25.wav
402,192,327353,1,0,0:0:0:0:
475,192,327353,1,0,0:0:0:0:
36,192,327415,1,0,0:0:0:70:electronic25.wav
109,192,327415,1,0,0:0:0:0:
256,192,327415,1,0,0:0:0:0:
329,192,327478,1,0,0:0:0:70:electronic25.wav
402,192,327478,1,0,0:0:0:0:
475,192,327478,1,0,0:0:0:0:
36,192,327540,1,0,0:0:0:70:electronic25.wav
109,192,327540,1,0,0:0:0:0:
182,192,327540,1,0,0:0:0:0:
256,192,327603,1,0,0:0:0:70:electronic25.wav
329,192,327603,1,0,0:0:0:0:
402,192,327603,1,0,0:0:0:0:
36,192,327665,1,0,0:0:0:70:electronic25.wav
109,192,327665,1,0,0:0:0:0:
182,192,327665,1,0,0:0:0:0:
256,192,327728,1,0,0:0:0:70:electronic25.wav
402,192,327728,1,0,0:0:0:0:
475,192,327728,1,0,0:0:0:0:
36,192,327790,1,0,0:0:0:70:electronic25.wav
109,192,327790,1,0,0:0:0:0:
329,192,327790,1,0,0:0:0:0:
182,192,327853,1,0,0:0:0:70:electronic25.wav
402,192,327853,1,0,0:0:0:0:
475,192,327853,1,0,0:0:0:0:
36,192,327915,1,0,0:0:0:70:electronic25.wav
256,192,327915,1,0,0:0:0:0:
329,192,327915,1,0,0:0:0:0:
109,192,327978,1,0,0:0:0:70:electronic25.wav
402,192,327978,1,0,0:0:0:0:
475,192,327978,1,0,0:0:0:0:
182,192,328040,1,0,0:0:0:70:electronic25.wav
256,192,328040,1,0,0:0:0:0:
329,192,328040,1,0,0:0:0:0:
109,192,328103,1,0,0:0:0:70:electronic25.wav
475,192,328103,1,0,0:0:0:0:
402,192,328134,1,0,0:0:0:70:electronic25.wav
36,192,328165,1,0,0:0:0:70:electronic25.wav
329,192,328165,1,0,0:0:0:0:
256,192,328196,1,0,0:0:0:70:electronic25.wav
182,192,328228,1,0,0:0:0:70:electronic25.wav
475,192,328228,1,0,0:0:0:0:
109,192,328259,1,0,0:0:0:70:electronic25.wav
36,192,328290,1,0,0:0:0:70:electronic25.wav
329,192,328290,1,0,0:0:0:0:
402,192,328321,1,0,0:0:0:70:electronic25.wav
182,192,328353,1,0,0:0:0:70:electronic25.wav
475,192,328353,1,0,0:0:0:0:
256,192,328384,1,0,0:0:0:70:electronic25.wav
36,192,328415,1,0,0:0:0:70:electronic25.wav
329,192,328415,1,0,0:0:0:0:
109,192,328446,1,0,0:0:0:70:electronic25.wav
182,192,328478,1,0,0:0:0:70:electronic25.wav
475,192,328478,1,0,0:0:0:0:
256,192,328509,1,0,0:0:0:70:electronic25.wav
36,192,328540,1,0,0:0:0:70:electronic25.wav
329,192,328540,1,0,0:0:0:0:
402,192,328571,1,0,0:0:0:70:electronic25.wav
182,192,328603,1,0,0:0:0:70:electronic25.wav
475,192,328603,1,0,0:0:0:0:
109,192,328634,1,0,0:0:0:70:electronic25.wav
36,192,328665,1,0,0:0:0:70:electronic25.wav
329,192,328665,1,0,0:0:0:0:
256,192,328696,1,0,0:0:0:70:electronic25.wav
182,192,328728,1,0,0:0:0:70:electronic25.wav
475,192,328728,1,0,0:0:0:0:
109,192,328759,1,0,0:0:0:70:electronic25.wav
36,192,328790,1,0,0:0:0:70:electronic25.wav
329,192,328790,1,0,0:0:0:0:
402,192,328821,1,0,0:0:0:70:electronic25.wav
182,192,328853,1,0,0:0:0:70:electronic25.wav
475,192,328853,1,0,0:0:0:0:
256,192,328884,1,0,0:0:0:70:electronic25.wav
36,192,328915,1,0,0:0:0:70:electronic25.wav
329,192,328915,1,0,0:0:0:0:
109,192,328946,1,0,0:0:0:70:electronic25.wav
182,192,328978,1,0,0:0:0:70:electronic25.wav
475,192,328978,1,0,0:0:0:0:
256,192,329009,1,0,0:0:0:70:electronic25.wav
36,192,329040,1,0,0:0:0:70:electronic25.wav
329,192,329040,1,0,0:0:0:0:
402,192,329071,1,0,0:0:0:70:electronic25.wav
182,192,329103,1,0,0:0:0:70:electronic25.wav
475,192,329103,1,0,0:0:0:0:
109,192,329134,1,0,0:0:0:70:electronic25.wav
36,192,329165,1,0,0:0:0:70:electronic25.wav
329,192,329165,1,0,0:0:0:0:
256,192,329196,1,0,0:0:0:70:electronic25.wav
182,192,329228,1,0,0:0:0:70:electronic25.wav
475,192,329228,1,0,0:0:0:0:
109,192,329259,1,0,0:0:0:70:electronic25.wav
36,192,329290,1,0,0:0:0:70:electronic25.wav
329,192,329290,1,0,0:0:0:0:
402,192,329321,1,0,0:0:0:70:electronic25.wav
182,192,329353,1,0,0:0:0:70:electronic25.wav
475,192,329353,1,0,0:0:0:0:
256,192,329384,1,0,0:0:0:70:electronic25.wav
36,192,329415,1,0,0:0:0:70:electronic25.wav
329,192,329415,1,0,0:0:0:0:
109,192,329446,1,0,0:0:0:70:electronic25.wav
182,192,329478,1,0,0:0:0:70:electronic25.wav
475,192,329478,1,0,0:0:0:0:
256,192,329509,1,0,0:0:0:70:electronic25.wav
36,192,329540,1,0,0:0:0:70:electronic25.wav
329,192,329540,1,0,0:0:0:0:
402,192,329571,1,0,0:0:0:70:electronic25.wav
182,192,329603,1,0,0:0:0:70:electronic25.wav
475,192,329603,1,0,0:0:0:0:
109,192,329634,1,0,0:0:0:70:electronic25.wav
36,192,329665,1,0,0:0:0:70:electronic25.wav
329,192,329665,1,0,0:0:0:0:
256,192,329696,1,0,0:0:0:70:electronic25.wav
182,192,329728,1,0,0:0:0:70:electronic25.wav
475,192,329728,1,0,0:0:0:0:
109,192,329759,1,0,0:0:0:70:electronic25.wav
36,192,329790,1,0,0:0:0:70:electronic25.wav
329,192,329790,1,0,0:0:0:0:
402,192,329821,1,0,0:0:0:70:electronic25.wav
182,192,329853,1,0,0:0:0:70:electronic25.wav
475,192,329853,1,0,0:0:0:0:
256,192,329884,1,0,0:0:0:70:electronic25.wav
36,192,329915,1,0,0:0:0:70:electronic25.wav
329,192,329915,1,0,0:0:0:0:
109,192,329946,1,0,0:0:0:70:electronic25.wav
182,192,329978,1,0,0:0:0:70:electronic25.wav
475,192,329978,1,0,0:0:0:0:
256,192,330009,1,0,0:0:0:70:electronic25.wav
109,192,330040,1,0,0:0:0:70:electronic25.wav
329,192,330040,1,0,0:0:0:0:
402,192,330071,1,0,0:0:0:70:electronic25.wav
36,192,330103,128,0,330853:0:0:0:70:electronic25.wav
182,192,330103,128,0,330853:0:0:0:0:
256,192,330103,128,0,330853:0:0:0:0:
475,192,330103,128,0,330853:0:0:0:0:
