osu file format v14

[General]
AudioFilename: audio.ogg
AudioLeadIn: 0
PreviewTime: 256603
Countdown: 0
SampleSet: Soft
StackLeniency: 0.7
Mode: 3
LetterboxInBreaks: 0
SpecialStyle: 0
WidescreenStoryboard: 0

[Editor]
DistanceSpacing: 1.7
BeatDivisor: 4
GridSize: 32
TimelineZoom: 3.099998

[Metadata]
Title:Last Wish
TitleUnicode:Last Wish
Artist:Kry.exe feat. Ice
ArtistUnicode:Kry.exe feat. Ice
Creator:Critical_Star
Version:Power
Source:Beat Saber World Cup 2022
Tags:BSWC 2022 Grand Finals tiebreaker Hi-tech Gothic Hardcore Drumstep Otogecore Speedcore Orchestral Melodic Frenchcore Breakcore Instrumental Electronic Famoss
BeatmapID:3838917
BeatmapSetID:1866317

[Difficulty]
HPDrainRate:7.5
CircleSize:7
OverallDifficulty:7.5
ApproachRate:5
SliderMultiplier:1.5
SliderTickRate:1

[Events]
//Background and Video events
0,0,"LastWish.jpg",0,0
//Break Periods
//Storyboard Layer 0 (Background)
//Storyboard Layer 1 (Fail)
//Storyboard Layer 2 (Pass)
//Storyboard Layer 3 (Foreground)
//Storyboard Layer 4 (Overlay)
//Storyboard Sound Samples

[TimingPoints]
0,285.714285714286,4,2,1,30,1,0
0,-87.719298245614,4,2,1,30,0,0
34285,272.727272727273,4,2,1,30,1,0
34285,-91.743119266055,4,2,1,30,0,0
36466,260.869565217391,4,2,1,30,1,0
36466,-96.1538461538461,4,2,1,30,0,0
38552,250.0,4,2,1,30,1,0
38552,-100.0,4,2,1,30,0,0
42552,-100.0,4,2,1,30,0,1
56552,-100.0,4,2,1,30,0,0
58552,-100.0,4,2,1,30,0,1
61552,-100.0,4,2,1,30,0,0
98552,240.0,4,2,1,30,1,0
98552,-104.166666666667,4,2,1,30,0,0
99512,230.769230769231,4,2,1,30,1,0
99512,-108.695652173913,4,2,1,30,0,0
100435,222.222222222222,4,2,1,30,1,0
100435,-112.359550561798,4,2,1,30,0,0
101323,214.285714285714,4,2,1,30,1,0
101323,-116.279069767442,4,2,1,30,0,0
105608,-116.279069767442,4,2,1,30,0,1
117608,-116.279069767442,4,2,1,30,0,0
119322,-116.279069767442,4,2,1,30,0,1
133037,-116.279069767442,4,2,1,30,0,0
139894,206.896551724138,4,2,1,30,1,0
139894,-120.481927710843,4,2,1,30,0,1
146514,200.0,4,2,1,30,1,0
146514,-125.0,4,2,1,30,0,0
165714,-125.0,4,2,1,30,0,1
171314,-125.0,4,2,1,30,0,0
172114,-125.0,4,2,1,30,0,1
176914,-125.0,4,2,1,30,0,0
178514,-125.0,4,2,1,30,0,1
186514,-125.0,4,2,1,30,0,0
188114,-125.0,4,2,1,30,0,1
189714,214.285714285714,4,2,1,30,1,0
189714,-116.279069767442,4,2,1,30,0,1
190142,230.769230769231,4,2,1,30,1,0
190142,-108.695652173913,4,2,1,30,0,1
190603,250.0,4,2,1,30,1,0
190603,-100.0,4,2,1,30,0,1
191603,-100.0,4,2,1,30,0,0
257603,-100.0,4,2,1,30,0,1
289603,-100.0,4,2,1,30,0,0
326103,125.0,4,2,1,30,1,0
326103,-200.0,4,2,1,30,0,0
328103,62.5,4,2,1,30,1,0
328103,-400.0,4,2,1,30,0,0

[HitObjects]
36,192,2285,1,2,0:0:0:0:
329,192,2285,1,4,0:0:0:0:
402,192,2285,1,0,0:0:0:0:
109,192,2428,1,0,0:0:0:0:
182,192,2571,1,0,0:0:0:0:
256,192,2714,1,0,0:0:0:0:
475,192,2857,1,0,0:0:0:0:
402,192,3000,1,0,0:0:0:0:
329,192,3142,1,0,0:0:0:0:
256,192,3285,1,0,0:0:0:0:
36,192,3428,1,0,0:0:0:0:
109,192,3571,1,0,0:0:0:0:
182,192,3714,1,0,0:0:0:0:
256,192,3857,1,0,0:0:0:0:
475,192,4000,1,0,0:0:0:0:
402,192,4142,1,0,0:0:0:0:
329,192,4285,1,0,0:0:0:0:
256,192,4428,1,0,0:0:0:0:
36,192,4571,1,0,0:0:0:0:
109,192,4714,1,0,0:0:0:0:
182,192,4857,1,0,0:0:0:0:
256,192,5000,1,0,0:0:0:0:
475,192,5142,1,0,0:0:0:0:
402,192,5285,1,0,0:0:0:0:
329,192,5428,1,0,0:0:0:0:
256,192,5571,1,0,0:0:0:0:
36,192,5714,1,0,0:0:0:70:Kick 12.wav
109,192,5857,1,0,0:0:0:70:snare01.wav
182,192,6000,1,0,0:0:0:70:snare01.wav
256,192,6142,1,0,0:0:0:70:Kick 12.wav
475,192,6285,1,0,0:0:0:70:snare01.wav
402,192,6428,1,0,0:0:0:70:snare01.wav
329,192,6571,1,0,0:0:0:70:snare01.wav
256,192,6714,1,0,0:0:0:0:
36,192,6857,1,4,0:0:0:0:
182,192,6857,1,2,0:0:0:0:
475,192,6857,1,0,0:0:0:0:
36,192,7000,1,0,0:0:0:0:
182,192,7142,1,0,0:0:0:0:
182,192,7285,1,0,0:0:0:0:
475,192,7428,1,0,0:0:0:0:
402,192,7500,1,0,0:0:0:0:
256,192,7571,1,0,0:0:0:0:
182,192,7642,1,0,0:0:0:0:
402,192,7714,1,0,0:0:0:0:
329,192,7785,1,0,0:0:0:0:
182,192,7857,1,0,0:0:0:0:
109,192,7928,1,0,0:0:0:0:
36,192,8000,1,0,0:0:0:0:
36,192,8142,1,0,0:0:0:0:
182,192,8285,1,0,0:0:0:0:
182,192,8428,1,0,0:0:0:0:
475,192,8571,1,0,0:0:0:0:
402,192,8642,1,0,0:0:0:0:
256,192,8714,1,0,0:0:0:0:
182,192,8785,1,0,0:0:0:0:
402,192,8857,1,0,0:0:0:0:
329,192,8928,1,0,0:0:0:0:
182,192,9000,1,0,0:0:0:0:
109,192,9071,1,0,0:0:0:0:
36,192,9142,1,0,0:0:0:0:
36,192,9285,1,0,0:0:0:0:
182,192,9428,1,0,0:0:0:0:
182,192,9571,1,0,0:0:0:0:
475,192,9714,1,0,0:0:0:0:
402,192,9785,1,0,0:0:0:0:
256,192,9857,1,0,0:0:0:0:
182,192,9928,1,0,0:0:0:0:
402,192,10000,1,0,0:0:0:0:
329,192,10071,1,0,0:0:0:0:
182,192,10142,1,0,0:0:0:0:
109,192,10214,1,0,0:0:0:0:
36,192,10285,1,0,0:0:0:0:
36,192,10428,1,0,0:0:0:0:
182,192,10571,1,0,0:0:0:0:
182,192,10714,1,0,0:0:0:0:
475,192,10857,1,0,0:0:0:0:
402,192,10928,1,0,0:0:0:0:
256,192,11000,1,0,0:0:0:0:
182,192,11071,1,0,0:0:0:0:
402,192,11142,1,0,0:0:0:0:
329,192,11214,1,0,0:0:0:0:
182,192,11285,1,0,0:0:0:0:
109,192,11357,1,0,0:0:0:0:
36,192,11428,1,4,0:0:0:0:
329,192,11428,1,2,0:0:0:0:
475,192,11428,1,0,0:0:0:0:
256,192,11714,1,0,0:0:0:0:
329,192,11857,1,0,0:0:0:0:
182,192,12000,1,0,0:0:0:0:
256,192,12142,1,0,0:0:0:0:
109,192,12285,1,0,0:0:0:0:
182,192,12428,1,0,0:0:0:0:
329,192,12571,1,2,0:0:0:0:
475,192,12571,1,4,0:0:0:0:
36,192,12642,1,2,0:0:0:0:
182,192,12642,1,4,0:0:0:0:
329,192,12785,1,2,0:0:0:0:
475,192,12785,1,4,0:0:0:0:
329,192,12928,1,4,0:0:0:0:
475,192,12928,1,2,0:0:0:0:
109,192,13071,1,2,0:0:0:0:
182,192,13071,1,4,0:0:0:0:
109,192,13214,1,4,0:0:0:0:
182,192,13214,1,2,0:0:0:0:
329,192,13357,1,2,0:0:0:0:
402,192,13357,1,4,0:0:0:0:
109,192,13428,1,4,0:0:0:0:
182,192,13428,1,2,0:0:0:0:
329,192,13571,1,2,0:0:0:0:
402,192,13571,1,4,0:0:0:0:
36,192,13714,1,4,0:0:0:0:
182,192,13714,1,2,0:0:0:0:
256,192,13714,128,0,15714:0:0:0:0:
36,192,14000,1,2,0:0:0:0:
182,192,14000,1,0,0:0:0:0:
36,192,14285,1,2,0:0:0:0:
182,192,14285,1,0,0:0:0:0:
36,192,14571,1,2,0:0:0:0:
182,192,14571,1,0,0:0:0:0:
36,192,14857,1,2,0:0:0:0:
182,192,14857,1,0,0:0:0:0:
36,192,15142,1,2,0:0:0:0:
182,192,15142,1,0,0:0:0:0:
36,192,15428,1,2,0:0:0:0:
182,192,15428,1,0,0:0:0:0:
36,192,15714,1,2,0:0:0:0:
182,192,15714,1,0,0:0:0:0:
109,192,15857,1,0,0:0:0:0:
256,192,15928,1,0,0:0:0:0:
475,192,16000,1,2,0:0:0:0:
329,192,16071,1,0,0:0:0:0:
402,192,16142,1,0,0:0:0:0:
475,192,16214,1,0,0:0:0:0:
329,192,16285,1,2,0:0:0:0:
182,192,16357,1,0,0:0:0:0:
256,192,16428,1,0,0:0:0:0:
329,192,16500,1,0,0:0:0:0:
182,192,16571,1,2,0:0:0:0:
36,192,16642,1,0,0:0:0:0:
109,192,16714,1,0,0:0:0:0:
182,192,16785,1,0,0:0:0:0:
475,192,16857,1,2,0:0:0:0:
329,192,16928,1,0,0:0:0:0:
402,192,17000,1,0,0:0:0:0:
475,192,17071,1,0,0:0:0:0:
329,192,17142,1,2,0:0:0:0:
182,192,17214,1,0,0:0:0:0:
256,192,17285,1,0,0:0:0:0:
329,192,17357,1,0,0:0:0:0:
182,192,17428,1,2,0:0:0:0:
36,192,17500,1,0,0:0:0:0:
109,192,17571,1,0,0:0:0:0:
182,192,17642,1,0,0:0:0:0:
402,192,17714,1,2,0:0:0:0:
256,192,17785,1,0,0:0:0:0:
329,192,17857,1,0,0:0:0:0:
402,192,17928,1,0,0:0:0:0:
36,192,18000,1,2,0:0:0:0:
182,192,18000,1,0,0:0:0:0:
36,192,18142,1,2,0:0:0:0:
182,192,18142,1,0,0:0:0:0:
256,192,18285,128,2,20285:0:0:0:0:
329,192,18285,1,0,0:0:0:0:
475,192,18285,1,0,0:0:0:0:
329,192,18571,1,2,0:0:0:0:
475,192,18571,1,0,0:0:0:0:
329,192,18857,1,2,0:0:0:0:
475,192,18857,1,0,0:0:0:0:
329,192,19142,1,2,0:0:0:0:
475,192,19142,1,0,0:0:0:0:
329,192,19428,1,2,0:0:0:0:
475,192,19428,1,0,0:0:0:0:
329,192,19714,1,2,0:0:0:0:
475,192,19714,1,0,0:0:0:0:
329,192,20000,1,2,0:0:0:0:
475,192,20000,1,0,0:0:0:0:
329,192,20285,1,2,0:0:0:0:
475,192,20285,1,0,0:0:0:0:
402,192,20428,1,0,0:0:0:0:
256,192,20500,1,0,0:0:0:0:
36,192,20571,1,2,0:0:0:0:
109,192,20642,1,0,0:0:0:0:
182,192,20714,1,0,0:0:0:0:
36,192,20785,1,0,0:0:0:0:
182,192,20857,1,2,0:0:0:0:
256,192,20928,1,0,0:0:0:0:
329,192,21000,1,0,0:0:0:0:
182,192,21071,1,0,0:0:0:0:
329,192,21142,1,2,0:0:0:0:
402,192,21214,1,0,0:0:0:0:
475,192,21285,1,0,0:0:0:0:
329,192,21357,1,0,0:0:0:0:
182,192,21428,1,2,0:0:0:0:
109,192,21500,1,0,0:0:0:0:
36,192,21571,1,0,0:0:0:0:
182,192,21642,1,0,0:0:0:0:
329,192,21714,1,0,0:0:0:70:Kick 12.wav
475,192,21785,1,0,0:0:0:0:
109,192,21857,1,0,0:0:0:70:snare01.wav
256,192,21928,1,0,0:0:0:70:snare01.wav
402,192,22000,1,0,0:0:0:70:snare01.wav
36,192,22071,1,0,0:0:0:0:
182,192,22142,1,0,0:0:0:70:Kick 12.wav
329,192,22214,1,0,0:0:0:0:
109,192,22285,1,0,0:0:0:70:snare01.wav
182,192,22357,1,0,0:0:0:70:snare01.wav
329,192,22428,1,0,0:0:0:70:snare01.wav
402,192,22500,1,0,0:0:0:0:
36,192,22571,1,0,0:0:0:70:snare01.wav
109,192,22642,1,0,0:0:0:70:snare01.wav
256,192,22714,1,0,0:0:0:70:snare01.wav
329,192,22785,1,0,0:0:0:70:snare01.wav
182,192,22857,1,4,0:0:0:0:
402,192,22857,128,2,23142:0:0:0:0:
475,192,22857,1,0,0:0:0:0:
256,192,23000,1,0,0:0:0:0:
36,192,23142,1,2,0:0:0:0:
109,192,23142,1,8,0:0:0:0:
329,192,23142,1,0,0:0:0:0:
182,192,23285,1,0,0:0:0:0:
329,192,23357,1,0,0:0:0:0:
36,192,23428,1,2,0:0:0:0:
475,192,23428,1,0,0:0:0:0:
109,192,23500,1,0,0:0:0:0:
256,192,23571,1,0,0:0:0:0:
182,192,23642,1,0,0:0:0:0:
36,192,23714,1,2,0:0:0:0:
402,192,23714,1,8,0:0:0:0:
329,192,23785,1,0,0:0:0:0:
182,192,23857,1,0,0:0:0:0:
256,192,23928,1,0,0:0:0:0:
36,192,24000,1,2,0:0:0:0:
109,192,24000,128,0,24285:0:0:0:0:
329,192,24000,1,0,0:0:0:0:
256,192,24142,1,0,0:0:0:0:
182,192,24285,1,2,0:0:0:0:
402,192,24285,1,8,0:0:0:0:
475,192,24285,1,0,0:0:0:0:
329,192,24428,1,0,0:0:0:0:
182,192,24500,1,0,0:0:0:0:
36,192,24571,1,2,0:0:0:0:
475,192,24571,1,0,0:0:0:0:
402,192,24642,1,0,0:0:0:0:
256,192,24714,1,0,0:0:0:0:
329,192,24785,1,0,0:0:0:0:
109,192,24857,1,2,0:0:0:0:
475,192,24857,1,8,0:0:0:0:
182,192,24928,1,0,0:0:0:0:
329,192,25000,1,0,0:0:0:0:
256,192,25071,1,0,0:0:0:0:
182,192,25142,1,2,0:0:0:0:
402,192,25142,128,0,25428:0:0:0:0:
475,192,25142,1,0,0:0:0:0:
182,192,25285,1,0,0:0:0:0:
36,192,25428,1,2,0:0:0:0:
109,192,25428,1,8,0:0:0:0:
329,192,25428,1,0,0:0:0:0:
329,192,25571,1,0,0:0:0:0:
182,192,25642,1,0,0:0:0:0:
36,192,25714,1,2,0:0:0:0:
475,192,25714,1,0,0:0:0:0:
109,192,25785,1,0,0:0:0:0:
256,192,25857,1,0,0:0:0:0:
182,192,25928,1,0,0:0:0:0:
36,192,26000,1,2,0:0:0:0:
402,192,26000,1,8,0:0:0:0:
329,192,26071,1,0,0:0:0:0:
182,192,26142,1,0,0:0:0:0:
256,192,26214,1,0,0:0:0:0:
36,192,26285,1,2,0:0:0:0:
109,192,26285,128,0,26571:0:0:0:0:
329,192,26285,1,0,0:0:0:0:
329,192,26428,1,0,0:0:0:0:
182,192,26571,1,2,0:0:0:0:
402,192,26571,1,8,0:0:0:0:
475,192,26571,1,0,0:0:0:0:
182,192,26714,1,0,0:0:0:0:
329,192,26785,1,0,0:0:0:0:
36,192,26857,1,2,0:0:0:0:
475,192,26857,1,0,0:0:0:0:
402,192,26928,1,0,0:0:0:0:
256,192,27000,1,0,0:0:0:0:
329,192,27071,1,0,0:0:0:0:
109,192,27142,1,2,0:0:0:0:
475,192,27142,1,8,0:0:0:0:
109,192,27285,1,2,0:0:0:0:
402,192,27285,1,0,0:0:0:0:
36,192,27428,1,2,0:0:0:0:
256,192,27428,1,4,0:0:0:0:
475,192,27428,1,0,0:0:0:0:
182,192,27500,1,0,0:0:0:0:
329,192,27571,1,0,0:0:0:0:
256,192,27642,1,0,0:0:0:0:
109,192,27714,1,2,0:0:0:0:
402,192,27714,1,8,0:0:0:0:
475,192,27785,1,0,0:0:0:0:
329,192,27857,1,0,0:0:0:0:
402,192,27928,1,0,0:0:0:0:
36,192,28000,1,2,0:0:0:0:
182,192,28000,1,0,0:0:0:0:
256,192,28071,1,0,0:0:0:0:
329,192,28142,1,0,0:0:0:0:
182,192,28214,1,0,0:0:0:0:
109,192,28285,1,2,0:0:0:0:
475,192,28285,1,8,0:0:0:0:
402,192,28357,1,0,0:0:0:0:
329,192,28428,1,0,0:0:0:0:
402,192,28500,1,0,0:0:0:0:
36,192,28571,1,2,0:0:0:0:
256,192,28571,1,0,0:0:0:0:
475,192,28571,1,0,0:0:0:0:
329,192,28642,1,0,0:0:0:0:
182,192,28714,1,0,0:0:0:0:
256,192,28785,1,0,0:0:0:0:
109,192,28857,1,2,0:0:0:0:
402,192,28857,1,8,0:0:0:0:
36,192,28928,1,0,0:0:0:0:
182,192,29000,1,0,0:0:0:0:
109,192,29071,1,0,0:0:0:0:
329,192,29142,1,2,0:0:0:0:
475,192,29142,1,0,0:0:0:0:
256,192,29214,1,0,0:0:0:0:
182,192,29285,1,0,0:0:0:0:
329,192,29357,1,0,0:0:0:0:
36,192,29428,1,2,0:0:0:0:
402,192,29428,1,8,0:0:0:0:
109,192,29500,1,0,0:0:0:0:
182,192,29571,1,0,0:0:0:0:
109,192,29642,1,0,0:0:0:0:
36,192,29714,1,2,0:0:0:0:
329,192,29714,1,0,0:0:0:0:
109,192,29857,1,2,0:0:0:0:
256,192,29857,1,0,0:0:0:0:
182,192,30000,1,2,0:0:0:0:
402,192,30000,1,8,0:0:0:0:
475,192,30000,1,0,0:0:0:0:
109,192,30142,1,2,0:0:0:0:
256,192,30142,1,0,0:0:0:0:
182,192,30285,1,2,0:0:0:0:
475,192,30285,1,0,0:0:0:0:
256,192,30428,1,2,0:0:0:0:
402,192,30428,1,0,0:0:0:0:
36,192,30571,1,2,0:0:0:0:
109,192,30571,1,8,0:0:0:0:
329,192,30571,1,0,0:0:0:0:
256,192,30714,1,2,0:0:0:0:
402,192,30714,1,0,0:0:0:0:
109,192,30857,1,2,0:0:0:0:
329,192,30928,1,2,0:0:0:0:
182,192,31000,1,2,0:0:0:0:
329,192,31071,1,2,0:0:0:0:
36,192,31142,1,8,0:0:0:0:
109,192,31142,1,0,0:0:0:0:
402,192,31214,1,0,0:0:0:0:
182,192,31285,1,0,0:0:0:0:
329,192,31357,1,0,0:0:0:0:
109,192,31428,1,0,0:0:0:0:
402,192,31500,1,0,0:0:0:0:
182,192,31571,1,0,0:0:0:0:
329,192,31642,1,0,0:0:0:0:
36,192,31714,1,2,0:0:0:0:
475,192,31714,1,0,0:0:0:0:
36,192,32000,1,2,0:0:0:0:
256,192,32000,128,4,34000:0:0:0:0:
475,192,32000,1,0,0:0:0:0:
109,192,32285,1,0,0:0:0:0:
329,192,32571,1,0,0:0:0:0:
182,192,32714,1,0,0:0:0:0:
402,192,32857,1,0,0:0:0:0:
109,192,33000,1,0,0:0:0:0:
475,192,33142,1,0,0:0:0:0:
402,192,33357,1,0,0:0:0:0:
329,192,33571,1,0,0:0:0:0:
182,192,33714,1,0,0:0:0:0:
329,192,33857,1,0,0:0:0:0:
256,192,34142,1,2,0:0:0:0:
36,192,34285,128,2,34557:0:0:0:0:
329,192,34285,128,4,34557:0:0:0:0:
475,192,34285,128,0,34557:0:0:0:0:
182,192,34557,1,0,0:0:0:0:
329,192,34694,1,0,0:0:0:0:
109,192,34830,1,0,0:0:0:0:
402,192,34966,1,0,0:0:0:0:
256,192,35103,1,0,0:0:0:0:
109,192,35239,1,2,0:0:0:0:
256,192,35307,1,2,0:0:0:0:
36,192,35375,1,2,0:0:0:0:
402,192,35375,128,4,35785:0:0:0:0:
475,192,35375,128,0,35785:0:0:0:0:
36,192,35785,128,2,36194:0:0:0:0:
109,192,35785,128,4,36194:0:0:0:0:
256,192,35785,1,0,0:0:0:0:
402,192,36194,1,2,0:0:0:0:
36,192,36466,1,2,0:0:0:0:
256,192,36466,1,4,0:0:0:0:
475,192,36466,1,0,0:0:0:0:
109,192,36596,1,0,0:0:0:0:
329,192,36726,1,0,0:0:0:0:
256,192,36857,1,0,0:0:0:0:
109,192,36987,1,0,0:0:0:0:
182,192,37118,1,0,0:0:0:0:
402,192,37248,1,0,0:0:0:0:
329,192,37379,1,0,0:0:0:0:
182,192,37509,1,0,0:0:0:0:
256,192,37639,1,0,0:0:0:0:
475,192,37770,1,0,0:0:0:0:
402,192,37900,1,0,0:0:0:0:
36,192,38031,1,2,0:0:0:0:
182,192,38161,1,0,0:0:0:0:
329,192,38292,1,2,0:0:0:0:
475,192,38422,1,2,0:0:0:0:
109,192,38552,1,2,0:0:0:0:
256,192,38552,1,0,0:0:0:0:
109,192,38677,1,2,0:0:0:0:
256,192,38802,1,2,0:0:0:0:
402,192,38802,1,0,0:0:0:0:
402,192,38927,1,2,0:0:0:0:
36,192,39052,1,2,0:0:0:0:
182,192,39052,1,0,0:0:0:0:
182,192,39177,1,2,0:0:0:0:
329,192,39302,1,2,0:0:0:0:
475,192,39302,1,0,0:0:0:0:
329,192,39427,1,2,0:0:0:0:
36,192,39552,1,2,0:0:0:0:
182,192,39614,1,2,0:0:0:0:
36,192,39677,1,2,0:0:0:0:
182,192,39739,1,2,0:0:0:0:
475,192,39802,1,2,0:0:0:0:
329,192,39864,1,2,0:0:0:0:
475,192,39927,1,2,0:0:0:0:
329,192,39989,1,2,0:0:0:0:
109,192,40052,1,2,0:0:0:0:
402,192,40114,1,2,0:0:0:0:
182,192,40177,1,2,0:0:0:0:
329,192,40239,1,2,0:0:0:0:
109,192,40302,1,2,0:0:0:0:
402,192,40364,1,2,0:0:0:0:
182,192,40427,1,2,0:0:0:0:
329,192,40489,1,2,0:0:0:0:
36,192,40552,128,2,41552:0:0:0:0:
256,192,40552,1,4,0:0:0:0:
475,192,40552,128,0,41552:0:0:0:0:
36,192,42552,1,4,0:0:0:0:
109,192,42552,1,0,0:0:0:70:electronic25.wav
182,192,42552,1,0,0:0:0:0:
329,192,42677,1,0,0:0:0:0:
36,192,42802,1,0,0:0:0:70:electronic25.wav
109,192,42802,1,0,0:0:0:0:
182,192,42802,1,0,0:0:0:0:
329,192,42927,1,0,0:0:0:0:
36,192,43052,1,0,0:0:0:70:electronic25.wav
109,192,43052,1,0,0:0:0:0:
182,192,43052,1,0,0:0:0:0:
402,192,43177,1,0,0:0:0:0:
36,192,43302,1,0,0:0:0:70:electronic25.wav
109,192,43302,1,0,0:0:0:0:
182,192,43302,1,0,0:0:0:0:
256,192,43427,1,0,0:0:0:0:
329,192,43552,1,0,0:0:0:70:electronic25.wav
402,192,43552,1,0,0:0:0:0:
475,192,43552,1,0,0:0:0:0:
329,192,43802,1,0,0:0:0:70:electronic25.wav
402,192,43802,1,0,0:0:0:0:
475,192,43802,1,0,0:0:0:0:
329,192,44052,1,0,0:0:0:70:electronic25.wav
402,192,44052,1,0,0:0:0:0:
475,192,44052,1,0,0:0:0:0:
182,192,44177,1,0,0:0:0:0:
329,192,44302,1,0,0:0:0:70:electronic25.wav
402,192,44302,1,0,0:0:0:0:
475,192,44302,1,0,0:0:0:0:
36,192,44427,1,0,0:0:0:70:electronic25.wav
109,192,44427,1,0,0:0:0:0:
256,192,44552,1,0,0:0:0:70:electronic25.wav
329,192,44552,1,0,0:0:0:0:
475,192,44552,1,0,0:0:0:0:
36,192,44677,1,0,0:0:0:0:
256,192,44802,1,0,0:0:0:70:electronic25.wav
329,192,44802,1,0,0:0:0:0:
475,192,44802,1,0,0:0:0:0:
109,192,44927,1,0,0:0:0:0:
256,192,45052,1,0,0:0:0:70:electronic25.wav
329,192,45052,1,0,0:0:0:0:
475,192,45052,1,0,0:0:0:0:
182,192,45177,1,0,0:0:0:0:
329,192,45302,1,0,0:0:0:70:electronic25.wav
402,192,45302,1,0,0:0:0:0:
475,192,45302,1,0,0:0:0:0:
256,192,45427,1,0,0:0:0:0:
36,192,45552,1,0,0:0:0:70:electronic25.wav
109,192,45552,1,0,0:0:0:0:
182,192,45552,1,0,0:0:0:0:
36,192,45802,1,0,0:0:0:70:electronic25.wav
109,192,45802,1,0,0:0:0:0:
182,192,45802,1,0,0:0:0:0:
36,192,46052,1,0,0:0:0:70:electronic25.wav
109,192,46052,1,0,0:0:0:0:
182,192,46052,1,0,0:0:0:0:
329,192,46177,1,0,0:0:0:70:electronic25.wav
475,192,46177,1,0,0:0:0:0:
36,192,46302,1,0,0:0:0:70:electronic25.wav
109,192,46302,1,0,0:0:0:0:
182,192,46302,1,0,0:0:0:0:
329,192,46427,1,0,0:0:0:70:electronic25.wav
475,192,46427,1,0,0:0:0:0:
256,192,46489,1,0,0:0:0:70:electronic25.wav
36,192,46552,1,0,0:0:0:70:electronic25.wav
109,192,46552,1,0,0:0:0:0:
182,192,46552,1,0,0:0:0:0:
329,192,46677,1,0,0:0:0:0:
182,192,46802,1,0,0:0:0:70:electronic25.wav
402,192,46802,1,0,0:0:0:0:
475,192,46802,1,0,0:0:0:0:
256,192,46927,1,0,0:0:0:0:
36,192,47052,1,0,0:0:0:70:electronic25.wav
109,192,47052,1,0,0:0:0:0:
329,192,47052,1,0,0:0:0:0:
182,192,47177,1,0,0:0:0:0:
329,192,47302,1,0,0:0:0:70:electronic25.wav
402,192,47302,1,0,0:0:0:0:
475,192,47302,1,0,0:0:0:0:
256,192,47427,1,0,0:0:0:0:
36,192,47552,1,0,0:0:0:70:electronic25.wav
109,192,47552,1,0,0:0:0:0:
182,192,47552,1,0,0:0:0:0:
256,192,47677,1,0,0:0:0:0:
329,192,47802,1,0,0:0:0:70:electronic25.wav
402,192,47802,1,0,0:0:0:0:
475,192,47802,1,0,0:0:0:0:
182,192,47927,1,0,0:0:0:0:
36,192,48052,1,0,0:0:0:70:electronic25.wav
402,192,48052,1,0,0:0:0:0:
475,192,48052,1,0,0:0:0:0:
256,192,48177,1,0,0:0:0:0:
329,192,48302,1,0,0:0:0:70:electronic25.wav
402,192,48302,1,0,0:0:0:0:
475,192,48302,1,0,0:0:0:0:
36,192,48427,1,0,0:0:0:70:electronic25.wav
182,192,48427,1,0,0:0:0:0:
109,192,48552,1,0,0:0:0:70:electronic25.wav
402,192,48552,1,0,0:0:0:0:
475,192,48552,1,0,0:0:0:0:
256,192,48677,1,0,0:0:0:0:
109,192,48802,1,0,0:0:0:70:electronic25.wav
402,192,48802,1,0,0:0:0:0:
475,192,48802,1,0,0:0:0:0:
256,192,48927,1,0,0:0:0:0:
36,192,49052,1,0,0:0:0:70:electronic25.wav
109,192,49052,1,0,0:0:0:0:
475,192,49052,1,0,0:0:0:0:
329,192,49177,1,0,0:0:0:0:
36,192,49302,1,0,0:0:0:70:electronic25.wav
109,192,49302,1,0,0:0:0:0:
475,192,49302,1,0,0:0:0:0:
182,192,49427,1,0,0:0:0:0:
402,192,49552,1,0,0:0:0:70:electronic25.wav
475,192,49552,1,0,0:0:0:0:
256,192,49614,1,0,0:0:0:70:electronic25.wav
36,192,49677,1,0,0:0:0:70:electronic25.wav
182,192,49739,1,0,0:0:0:70:electronic25.wav
402,192,49802,1,0,0:0:0:70:electronic25.wav
475,192,49802,1,0,0:0:0:0:
256,192,49864,1,0,0:0:0:70:electronic25.wav
36,192,49927,1,0,0:0:0:70:electronic25.wav
182,192,49989,1,0,0:0:0:70:electronic25.wav
329,192,50052,1,0,0:0:0:70:electronic25.wav
402,192,50052,1,0,0:0:0:0:
475,192,50052,1,0,0:0:0:0:
36,192,50177,1,0,0:0:0:70:electronic25.wav
109,192,50177,1,0,0:0:0:0:
182,192,50302,1,0,0:0:0:70:electronic25.wav
256,192,50302,1,0,0:0:0:0:
329,192,50302,1,0,0:0:0:0:
402,192,50427,1,0,0:0:0:70:electronic25.wav
475,192,50427,1,0,0:0:0:0:
36,192,50552,1,4,0:0:0:0:
109,192,50552,1,0,0:0:0:70:electronic25.wav
182,192,50552,1,0,0:0:0:0:
329,192,50677,1,0,0:0:0:0:
36,192,50802,1,0,0:0:0:70:electronic25.wav
109,192,50802,1,0,0:0:0:0:
182,192,50802,1,0,0:0:0:0:
329,192,50927,1,0,0:0:0:0:
36,192,51052,1,0,0:0:0:70:electronic25.wav
109,192,51052,1,0,0:0:0:0:
182,192,51052,1,0,0:0:0:0:
475,192,51177,1,0,0:0:0:0:
36,192,51302,1,0,0:0:0:70:electronic25.wav
109,192,51302,1,0,0:0:0:0:
256,192,51302,1,0,0:0:0:0:
329,192,51427,1,0,0:0:0:0:
109,192,51552,1,0,0:0:0:70:electronic25.wav
402,192,51552,1,0,0:0:0:0:
475,192,51552,1,0,0:0:0:0:
109,192,51802,1,0,0:0:0:70:electronic25.wav
402,192,51802,1,0,0:0:0:0:
475,192,51802,1,0,0:0:0:0:
109,192,52052,1,0,0:0:0:70:electronic25.wav
402,192,52052,1,0,0:0:0:0:
475,192,52052,1,0,0:0:0:0:
329,192,52177,1,0,0:0:0:0:
36,192,52302,1,0,0:0:0:70:electronic25.wav
109,192,52302,1,0,0:0:0:0:
402,192,52302,1,0,0:0:0:0:
182,192,52427,1,0,0:0:0:70:electronic25.wav
256,192,52552,1,0,0:0:0:70:electronic25.wav
329,192,52552,1,0,0:0:0:0:
475,192,52552,1,0,0:0:0:0:
109,192,52677,1,0,0:0:0:0:
256,192,52802,1,0,0:0:0:70:electronic25.wav
329,192,52802,1,0,0:0:0:0:
475,192,52802,1,0,0:0:0:0:
109,192,52927,1,0,0:0:0:0:
256,192,53052,1,0,0:0:0:70:electronic25.wav
329,192,53052,1,0,0:0:0:0:
475,192,53052,1,0,0:0:0:0:
36,192,53177,1,0,0:0:0:0:
256,192,53302,1,0,0:0:0:70:electronic25.wav
329,192,53302,1,0,0:0:0:0:
475,192,53302,1,0,0:0:0:0:
182,192,53427,1,0,0:0:0:0:
36,192,53552,1,0,0:0:0:70:electronic25.wav
109,192,53552,1,0,0:0:0:0:
329,192,53552,1,0,0:0:0:0:
36,192,53802,1,0,0:0:0:70:electronic25.wav
109,192,53802,1,0,0:0:0:0:
329,192,53802,1,0,0:0:0:0:
36,192,54052,1,0,0:0:0:70:electronic25.wav
109,192,54052,1,0,0:0:0:0:
329,192,54052,1,0,0:0:0:0:
182,192,54177,1,0,0:0:0:70:electronic25.wav
256,192,54177,1,0,0:0:0:0:
36,192,54302,1,0,0:0:0:70:electronic25.wav
402,192,54302,1,0,0:0:0:0:
475,192,54302,1,0,0:0:0:0:
182,192,54427,1,0,0:0:0:70:electronic25.wav
256,192,54427,1,0,0:0:0:0:
329,192,54489,1,0,0:0:0:70:electronic25.wav
109,192,54552,1,0,0:0:0:70:electronic25.wav
402,192,54552,1,0,0:0:0:0:
475,192,54552,1,0,0:0:0:0:
256,192,54677,1,0,0:0:0:0:
109,192,54802,1,0,0:0:0:70:electronic25.wav
402,192,54802,1,0,0:0:0:0:
475,192,54802,1,0,0:0:0:0:
256,192,54927,1,0,0:0:0:0:
36,192,55052,1,0,0:0:0:70:electronic25.wav
329,192,55052,1,0,0:0:0:0:
402,192,55052,1,0,0:0:0:0:
182,192,55177,1,0,0:0:0:0:
36,192,55302,1,0,0:0:0:70:electronic25.wav
329,192,55302,1,0,0:0:0:0:
402,192,55302,1,0,0:0:0:0:
475,192,55427,1,0,0:0:0:0:
182,192,55552,1,0,0:0:0:70:electronic25.wav
256,192,55552,1,0,0:0:0:0:
329,192,55552,1,0,0:0:0:0:
36,192,55677,1,0,0:0:0:0:
182,192,55802,1,0,0:0:0:70:electronic25.wav
256,192,55802,1,0,0:0:0:0:
329,192,55802,1,0,0:0:0:0:
109,192,55927,1,0,0:0:0:0:
36,192,56052,1,0,0:0:0:70:electronic25.wav
402,192,56052,1,0,0:0:0:0:
475,192,56052,1,0,0:0:0:0:
256,192,56177,1,0,0:0:0:0:
36,192,56302,1,0,0:0:0:70:electronic25.wav
402,192,56302,1,0,0:0:0:0:
475,192,56302,1,0,0:0:0:0:
182,192,56427,1,0,0:0:0:70:electronic25.wav
329,192,56427,1,0,0:0:0:0:
36,192,56552,1,4,0:0:0:0:
109,192,56552,1,0,0:0:0:70:amenbreak_kick2.wav
475,192,56552,1,0,0:0:0:0:
256,192,56677,1,0,0:0:0:0:
402,192,56802,1,0,0:0:0:70:amenbreak_snare2.wav
475,192,56802,1,0,0:0:0:0:
182,192,56927,1,0,0:0:0:0:
329,192,57052,1,0,0:0:0:70:amenbreak_kick2.wav
402,192,57052,1,0,0:0:0:0:
182,192,57177,1,0,0:0:0:70:amenbreak_snare2.wav
329,192,57177,1,0,0:0:0:0:
36,192,57302,1,0,0:0:0:0:
109,192,57427,1,0,0:0:0:70:amenbreak_kick2.wav
256,192,57427,1,0,0:0:0:0:
256,192,57552,1,0,0:0:0:70:amenbreak_kick2.wav
475,192,57552,1,0,0:0:0:0:
329,192,57677,1,0,0:0:0:0:
36,192,57802,1,0,0:0:0:70:amenbreak_snare2.wav
182,192,57802,1,0,0:0:0:0:
402,192,57927,1,0,0:0:0:0:
36,192,58052,1,0,0:0:0:70:amenbreak_kick2.wav
109,192,58052,1,0,0:0:0:0:
109,192,58177,1,0,0:0:0:70:amenbreak_snare2.wav
256,192,58177,1,0,0:0:0:0:
402,192,58302,1,0,0:0:0:70:electronic25.wav
475,192,58302,1,0,0:0:0:0:
36,192,58427,1,0,0:0:0:70:electronic25.wav
182,192,58427,1,0,0:0:0:0:
256,192,58489,1,0,0:0:0:70:electronic25.wav
109,192,58552,128,2,58677:0:0:0:0:
329,192,58552,128,0,58677:0:0:0:70:Kick 10.wav
475,192,58552,128,0,58677:0:0:0:0:
182,192,58677,128,0,58802:0:0:0:0:
109,192,58802,128,0,58927:0:0:0:70:Kick 10.wav
329,192,58802,128,0,58927:0:0:0:0:
475,192,58802,128,0,58927:0:0:0:0:
182,192,58927,128,0,59052:0:0:0:0:
109,192,59052,128,0,59177:0:0:0:70:Kick 10.wav
329,192,59052,128,0,59177:0:0:0:0:
475,192,59052,128,0,59177:0:0:0:0:
182,192,59177,128,0,59302:0:0:0:0:
109,192,59302,128,0,59427:0:0:0:70:Kick 10.wav
329,192,59302,128,0,59427:0:0:0:0:
475,192,59302,128,0,59427:0:0:0:0:
256,192,59427,128,0,59552:0:0:0:0:
36,192,59552,128,0,59677:0:0:0:70:Kick 10.wav
182,192,59552,128,0,59677:0:0:0:0:
402,192,59552,128,0,59677:0:0:0:0:
329,192,59677,128,0,59802:0:0:0:0:
36,192,59802,128,0,59927:0:0:0:70:Kick 10.wav
182,192,59802,128,0,59927:0:0:0:0:
402,192,59802,128,0,59927:0:0:0:0:
329,192,59927,128,0,60052:0:0:0:0:
36,192,60052,128,0,60177:0:0:0:70:Kick 10.wav
182,192,60052,128,0,60177:0:0:0:0:
402,192,60052,128,0,60177:0:0:0:0:
329,192,60177,128,0,60302:0:0:0:0:
36,192,60302,128,0,60427:0:0:0:70:Kick 10.wav
182,192,60302,128,0,60427:0:0:0:0:
402,192,60302,128,0,60427:0:0:0:0:
329,192,60427,1,0,0:0:0:70:Kick 10.wav
256,192,60489,1,0,0:0:0:70:Kick 10.wav
109,192,60552,128,0,60677:0:0:0:70:Kick 10.wav
329,192,60552,128,0,60677:0:0:0:0:
475,192,60552,128,0,60677:0:0:0:0:
182,192,60677,128,0,60802:0:0:0:0:
109,192,60802,128,0,60927:0:0:0:70:Kick 10.wav
329,192,60802,128,0,60927:0:0:0:0:
475,192,60802,128,0,60927:0:0:0:0:
182,192,60927,128,0,61052:0:0:0:0:
109,192,61052,128,0,61177:0:0:0:70:Kick 10.wav
329,192,61052,128,0,61177:0:0:0:0:
475,192,61052,128,0,61177:0:0:0:0:
182,192,61177,128,0,61302:0:0:0:0:
109,192,61302,128,0,61427:0:0:0:70:Kick 10.wav
329,192,61302,128,0,61427:0:0:0:0:
475,192,61302,128,0,61427:0:0:0:0:
256,192,61427,128,0,61552:0:0:0:0:
36,192,61552,1,4,0:0:0:0:
182,192,61552,1,2,0:0:0:0:
329,192,61552,1,0,0:0:0:0:
475,192,61552,1,0,0:0:0:0:
36,192,62552,1,4,0:0:0:0:
402,192,62552,1,0,0:0:0:70:amenbreak_kick2.wav
256,192,62677,1,0,0:0:0:0:
36,192,62802,1,0,0:0:0:70:amenbreak_snare2.wav
109,192,62802,1,0,0:0:0:0:
329,192,62927,1,0,0:0:0:0:
402,192,63052,1,0,0:0:0:70:amenbreak_kick2.wav
475,192,63052,1,0,0:0:0:0:
109,192,63177,1,0,0:0:0:70:amenbreak_snare2.wav
182,192,63177,1,0,0:0:0:0:
329,192,63302,1,0,0:0:0:0:
475,192,63302,1,0,0:0:0:0:
256,192,63427,1,0,0:0:0:70:amenbreak_kick2.wav
36,192,63552,1,0,0:0:0:70:amenbreak_kick2.wav
402,192,63552,1,0,0:0:0:0:
182,192,63677,1,0,0:0:0:0:
329,192,63802,1,0,0:0:0:70:amenbreak_snare2.wav
475,192,63802,1,0,0:0:0:0:
109,192,63927,1,0,0:0:0:0:
256,192,64052,1,0,0:0:0:70:amenbreak_kick2.wav
402,192,64052,1,0,0:0:0:0:
36,192,64177,1,0,0:0:0:70:amenbreak_snare2.wav
182,192,64177,1,0,0:0:0:0:
329,192,64302,1,0,0:0:0:0:
475,192,64302,1,0,0:0:0:0:
256,192,64427,1,0,0:0:0:0:
36,192,64552,1,0,0:0:0:70:amenbreak_kick2.wav
182,192,64552,1,0,0:0:0:0:
402,192,64677,1,0,0:0:0:0:
256,192,64802,1,0,0:0:0:70:amenbreak_snare2.wav
475,192,64802,1,0,0:0:0:0:
36,192,64927,1,0,0:0:0:0:
329,192,65052,1,0,0:0:0:70:amenbreak_kick2.wav
402,192,65052,1,0,0:0:0:0:
109,192,65177,1,0,0:0:0:70:amenbreak_snare2.wav
256,192,65177,1,0,0:0:0:0:
402,192,65302,1,0,0:0:0:0:
475,192,65302,1,0,0:0:0:0:
36,192,65427,1,0,0:0:0:70:amenbreak_kick2.wav
182,192,65427,1,0,0:0:0:0:
329,192,65552,128,0,66052:0:0:0:70:electronic25.wav
402,192,65552,128,0,66052:0:0:0:0:
475,192,65552,128,0,66052:0:0:0:0:
36,192,66552,1,2,0:0:0:0:
182,192,66552,1,4,0:0:0:0:
329,192,66552,1,0,0:0:0:0:
475,192,66552,1,0,0:0:0:0:
256,192,66677,1,0,0:0:0:0:
109,192,66802,1,0,0:0:0:0:
182,192,66927,1,0,0:0:0:0:
256,192,67302,1,0,0:0:0:0:
475,192,67552,1,0,0:0:0:0:
402,192,67802,1,0,0:0:0:0:
256,192,67927,1,0,0:0:0:0:
475,192,68052,1,0,0:0:0:0:
329,192,68114,1,0,0:0:0:0:
402,192,68239,1,0,0:0:0:0:
182,192,68302,1,0,0:0:0:0:
36,192,68427,1,0,0:0:0:0:
109,192,68552,1,0,0:0:0:0:
329,192,68677,1,0,0:0:0:0:
182,192,68802,1,0,0:0:0:0:
402,192,68927,1,0,0:0:0:0:
475,192,69177,1,0,0:0:0:0:
256,192,69552,1,0,0:0:0:0:
402,192,69927,1,0,0:0:0:0:
256,192,70177,1,0,0:0:0:0:
182,192,70239,1,0,0:0:0:0:
109,192,70302,1,0,0:0:0:0:
36,192,70427,1,0,0:0:0:0:
329,192,70552,1,0,0:0:0:0:
256,192,70677,1,0,0:0:0:0:
109,192,70802,1,0,0:0:0:0:
182,192,70927,1,0,0:0:0:0:
256,192,71302,1,0,0:0:0:0:
402,192,71552,1,0,0:0:0:0:
329,192,71802,1,0,0:0:0:0:
182,192,71927,1,0,0:0:0:0:
402,192,72052,1,0,0:0:0:0:
256,192,72114,1,0,0:0:0:0:
329,192,72239,1,0,0:0:0:0:
475,192,72302,1,0,0:0:0:0:
402,192,72427,1,0,0:0:0:0:
182,192,72552,1,0,0:0:0:0:
329,192,72677,1,0,0:0:0:0:
475,192,72802,1,0,0:0:0:0:
256,192,72864,1,0,0:0:0:0:
402,192,72927,1,0,0:0:0:0:
36,192,73052,1,0,0:0:0:0:
182,192,73177,1,0,0:0:0:0:
329,192,73302,1,0,0:0:0:0:
256,192,73552,1,0,0:0:0:0:
182,192,73927,1,0,0:0:0:0:
109,192,74302,1,0,0:0:0:0:
329,192,74552,1,2,0:0:0:0:
475,192,74552,128,0,75302:0:0:0:0:
109,192,74802,1,0,0:0:0:0:
182,192,74927,1,0,0:0:0:0:
256,192,75302,1,0,0:0:0:0:
109,192,75552,128,0,76302:0:0:0:0:
402,192,75552,1,0,0:0:0:0:
329,192,75802,1,0,0:0:0:0:
182,192,75927,1,0,0:0:0:0:
402,192,76052,1,0,0:0:0:0:
256,192,76114,1,0,0:0:0:0:
329,192,76239,1,0,0:0:0:0:
475,192,76302,1,0,0:0:0:0:
256,192,76427,1,0,0:0:0:0:
36,192,76552,128,0,77302:0:0:0:0:
109,192,76552,1,0,0:0:0:0:
329,192,76677,1,0,0:0:0:0:
182,192,76802,1,0,0:0:0:0:
402,192,76927,1,0,0:0:0:0:
475,192,77177,1,0,0:0:0:0:
256,192,77552,1,0,0:0:0:0:
329,192,77552,128,0,78302:0:0:0:0:
402,192,77927,1,0,0:0:0:0:
475,192,78302,1,0,0:0:0:0:
329,192,78427,1,0,0:0:0:0:
36,192,78552,1,0,0:0:0:0:
182,192,78614,1,0,0:0:0:0:
36,192,78677,1,0,0:0:0:0:
182,192,78739,1,0,0:0:0:0:
475,192,78802,1,0,0:0:0:0:
329,192,78927,1,0,0:0:0:0:
402,192,79052,1,0,0:0:0:0:
475,192,79177,1,0,0:0:0:0:
329,192,79239,1,0,0:0:0:0:
182,192,79302,1,0,0:0:0:0:
256,192,79427,1,0,0:0:0:0:
36,192,79552,1,0,0:0:0:0:
182,192,79614,1,0,0:0:0:0:
36,192,79677,1,0,0:0:0:0:
182,192,79739,1,0,0:0:0:0:
475,192,79802,1,0,0:0:0:0:
329,192,79927,1,0,0:0:0:0:
402,192,80052,1,0,0:0:0:0:
475,192,80177,1,0,0:0:0:0:
329,192,80239,1,0,0:0:0:0:
182,192,80302,1,0,0:0:0:0:
256,192,80427,1,0,0:0:0:0:
36,192,80552,1,0,0:0:0:0:
182,192,80552,1,0,0:0:0:0:
109,192,80739,1,0,0:0:0:0:
256,192,80739,1,0,0:0:0:0:
182,192,80927,1,0,0:0:0:0:
329,192,80927,1,0,0:0:0:0:
256,192,81052,1,0,0:0:0:0:
402,192,81052,1,0,0:0:0:0:
329,192,81239,1,0,0:0:0:0:
475,192,81239,1,0,0:0:0:0:
256,192,81427,1,0,0:0:0:0:
402,192,81427,1,0,0:0:0:0:
36,192,81552,1,2,0:0:0:0:
109,192,81552,1,4,0:0:0:0:
182,192,81552,1,0,0:0:0:0:
329,192,81739,1,4,0:0:0:0:
402,192,81739,1,2,0:0:0:0:
475,192,81739,1,0,0:0:0:0:
109,192,81927,1,2,0:0:0:0:
256,192,81927,1,4,0:0:0:0:
402,192,81927,1,0,0:0:0:0:
36,192,82052,1,4,0:0:0:0:
182,192,82052,128,2,82552:0:0:0:0:
329,192,82052,128,0,82552:0:0:0:0:
475,192,82052,1,0,0:0:0:0:
36,192,82552,1,2,0:0:0:0:
109,192,82552,1,4,0:0:0:0:
256,192,82552,1,0,0:0:0:0:
475,192,82552,1,0,0:0:0:0:
402,192,82802,1,0,0:0:0:0:
182,192,82927,1,0,0:0:0:0:
402,192,83052,1,0,0:0:0:0:
256,192,83239,1,0,0:0:0:0:
475,192,83427,1,0,0:0:0:0:
36,192,83552,128,0,83802:0:0:0:0:
182,192,83552,128,0,83802:0:0:0:0:
109,192,83927,128,0,84177:0:0:0:0:
256,192,83927,128,0,84177:0:0:0:0:
182,192,84302,128,0,84552:0:0:0:0:
329,192,84302,128,0,84552:0:0:0:0:
182,192,84802,1,0,0:0:0:0:
329,192,84927,1,0,0:0:0:0:
36,192,85052,1,0,0:0:0:0:
109,192,85239,1,0,0:0:0:0:
182,192,85427,1,0,0:0:0:0:
329,192,85552,128,0,85802:0:0:0:0:
475,192,85552,128,0,85802:0:0:0:0:
256,192,85927,128,0,86177:0:0:0:0:
402,192,85927,128,0,86177:0:0:0:0:
182,192,86302,128,0,86552:0:0:0:0:
329,192,86302,128,0,86552:0:0:0:0:
329,192,86802,1,0,0:0:0:0:
182,192,86927,1,0,0:0:0:0:
475,192,87052,1,0,0:0:0:0:
402,192,87239,1,0,0:0:0:0:
329,192,87427,1,0,0:0:0:0:
36,192,87552,128,0,87802:0:0:0:0:
256,192,87552,128,0,87802:0:0:0:0:
109,192,87927,128,0,88177:0:0:0:0:
329,192,87927,128,0,88177:0:0:0:0:
182,192,88302,128,0,88552:0:0:0:0:
402,192,88302,128,0,88552:0:0:0:0:
36,192,88552,1,0,0:0:0:0:
182,192,88677,1,0,0:0:0:0:
329,192,88802,1,0,0:0:0:0:
36,192,88927,1,0,0:0:0:0:
182,192,89052,1,0,0:0:0:0:
329,192,89177,1,0,0:0:0:0:
36,192,89302,1,0,0:0:0:0:
182,192,89364,1,0,0:0:0:0:
329,192,89427,1,0,0:0:0:0:
36,192,89489,1,0,0:0:0:0:
256,192,89552,1,4,0:0:0:0:
402,192,89552,1,2,0:0:0:0:
475,192,89552,1,0,0:0:0:0:
36,192,89739,1,2,0:0:0:0:
109,192,89739,1,4,0:0:0:0:
182,192,89739,1,0,0:0:0:0:
256,192,89927,1,4,0:0:0:0:
329,192,89927,1,2,0:0:0:0:
36,192,90052,1,2,0:0:0:0:
109,192,90052,1,4,0:0:0:0:
329,192,90177,1,4,0:0:0:0:
402,192,90177,1,2,0:0:0:0:
109,192,90302,1,2,0:0:0:0:
182,192,90302,1,4,0:0:0:0:
402,192,90427,1,4,0:0:0:0:
475,192,90427,1,2,0:0:0:0:
182,192,90552,1,4,0:0:0:0:
256,192,90552,128,0,91552:0:0:0:70:electronic25.wav
329,192,90552,1,0,0:0:0:0:
36,192,90802,1,0,0:0:0:0:
109,192,90927,1,0,0:0:0:0:
182,192,91052,1,0,0:0:0:0:
329,192,91239,1,0,0:0:0:0:
475,192,91427,1,0,0:0:0:0:
36,192,91552,1,4,0:0:0:0:
109,192,91552,128,2,91927:0:0:0:0:
182,192,91552,1,0,0:0:0:0:
329,192,91927,1,2,0:0:0:0:
402,192,91927,128,4,92302:0:0:0:0:
475,192,91927,1,0,0:0:0:0:
36,192,92302,1,4,0:0:0:0:
109,192,92302,1,2,0:0:0:0:
182,192,92302,1,0,0:0:0:0:
182,192,92552,1,4,0:0:0:0:
256,192,92552,128,0,93552:0:0:0:70:electronic25.wav
329,192,92552,1,0,0:0:0:0:
475,192,92802,1,0,0:0:0:0:
402,192,92927,1,0,0:0:0:0:
329,192,93052,1,0,0:0:0:0:
182,192,93239,1,0,0:0:0:0:
36,192,93427,1,0,0:0:0:0:
329,192,93552,1,4,0:0:0:0:
402,192,93552,128,2,93927:0:0:0:0:
475,192,93552,1,0,0:0:0:0:
36,192,93927,1,2,0:0:0:0:
109,192,93927,128,4,94302:0:0:0:0:
182,192,93927,1,0,0:0:0:0:
329,192,94302,1,4,0:0:0:0:
402,192,94302,1,2,0:0:0:0:
475,192,94302,1,0,0:0:0:0:
36,192,94552,1,4,0:0:0:0:
402,192,94552,1,0,0:0:0:70:electronic25.wav
475,192,94552,128,0,94927:0:0:0:0:
109,192,94677,1,0,0:0:0:0:
182,192,94802,1,0,0:0:0:0:
109,192,94927,1,0,0:0:0:0:
36,192,95052,128,0,95427:0:0:0:70:electronic25.wav
182,192,95052,1,0,0:0:0:0:
475,192,95052,1,0,0:0:0:0:
256,192,95177,1,0,0:0:0:0:
329,192,95302,1,0,0:0:0:0:
256,192,95427,1,0,0:0:0:0:
182,192,95552,128,0,95614:0:0:0:70:electronic25.wav
402,192,95552,1,0,0:0:0:0:
475,192,95552,128,0,95989:0:0:0:0:
329,192,95677,128,0,95739:0:0:0:0:
109,192,95802,128,0,95864:0:0:0:0:
256,192,95927,128,0,95989:0:0:0:0:
36,192,96052,128,0,96489:0:0:0:70:electronic25.wav
109,192,96052,1,0,0:0:0:0:
329,192,96052,128,0,96114:0:0:0:0:
182,192,96177,128,0,96239:0:0:0:0:
402,192,96302,128,0,96364:0:0:0:0:
256,192,96427,128,0,96489:0:0:0:0:
329,192,96552,1,0,0:0:0:70:electronic25.wav
475,192,96552,1,0,0:0:0:0:
109,192,96635,1,0,0:0:0:0:
256,192,96718,1,0,0:0:0:70:electronic25.wav
402,192,96718,1,0,0:0:0:0:
36,192,96802,1,0,0:0:0:0:
182,192,96885,1,0,0:0:0:70:electronic25.wav
329,192,96885,1,0,0:0:0:0:
475,192,96968,1,0,0:0:0:0:
36,192,97052,1,0,0:0:0:70:electronic25.wav
182,192,97052,1,0,0:0:0:0:
402,192,97135,1,0,0:0:0:0:
109,192,97218,1,0,0:0:0:70:electronic25.wav
256,192,97218,1,0,0:0:0:0:
475,192,97302,1,0,0:0:0:0:
182,192,97385,1,0,0:0:0:70:electronic25.wav
329,192,97385,1,0,0:0:0:0:
36,192,97468,1,0,0:0:0:0:
402,192,97552,1,2,0:0:0:0:
182,192,97635,1,0,0:0:0:0:
329,192,97718,1,0,0:0:0:0:
109,192,97802,1,0,0:0:0:0:
402,192,97885,1,0,0:0:0:0:
182,192,97968,1,0,0:0:0:0:
329,192,98052,1,0,0:0:0:0:
109,192,98135,1,0,0:0:0:0:
402,192,98218,1,0,0:0:0:0:
182,192,98302,1,0,0:0:0:70:electronic25.wav
256,192,98364,1,0,0:0:0:0:
329,192,98427,1,0,0:0:0:70:electronic25.wav
182,192,98489,1,0,0:0:0:0:
36,192,98552,1,4,0:0:0:0:
256,192,98552,128,0,101965:0:0:0:70:electronic25.wav
402,192,98552,1,0,0:0:0:0:
109,192,98792,1,0,0:0:0:0:
402,192,99032,1,0,0:0:0:0:
109,192,99272,1,0,0:0:0:0:
402,192,99512,1,0,0:0:0:0:
109,192,99742,1,0,0:0:0:0:
402,192,99973,1,0,0:0:0:0:
109,192,100204,1,0,0:0:0:0:
402,192,100435,1,0,0:0:0:0:
109,192,100657,1,0,0:0:0:0:
402,192,100879,1,0,0:0:0:0:
109,192,101101,1,0,0:0:0:0:
402,192,101323,1,0,0:0:0:0:
109,192,101537,1,0,0:0:0:0:
402,192,101751,1,0,0:0:0:0:
109,192,101965,1,0,0:0:0:0:
36,192,102180,1,2,0:0:0:0:
182,192,102180,1,4,0:0:0:0:
36,192,102394,1,0,0:0:0:70:snare01.wav
109,192,102608,1,0,0:0:0:70:snare01.wav
256,192,102608,1,0,0:0:0:0:
109,192,102823,1,0,0:0:0:70:snare01.wav
182,192,103037,1,0,0:0:0:70:snare01.wav
329,192,103037,1,0,0:0:0:0:
182,192,103251,1,0,0:0:0:70:snare01.wav
256,192,103465,1,0,0:0:0:70:snare01.wav
402,192,103465,1,0,0:0:0:0:
256,192,103680,1,0,0:0:0:70:snare01.wav
402,192,103894,1,0,0:0:0:70:snare01.wav
475,192,103894,1,0,0:0:0:0:
329,192,104001,1,0,0:0:0:70:snare01.wav
36,192,104108,1,0,0:0:0:70:snare01.wav
109,192,104108,1,0,0:0:0:0:
182,192,104215,1,0,0:0:0:70:snare01.wav
475,192,104323,1,0,0:0:0:70:snare01.wav
329,192,104376,1,0,0:0:0:0:
36,192,104430,1,0,0:0:0:70:snare01.wav
182,192,104483,1,0,0:0:0:0:
402,192,104537,1,0,0:0:0:70:snare01.wav
329,192,104590,1,0,0:0:0:0:
109,192,104644,1,0,0:0:0:70:snare01.wav
182,192,104698,1,0,0:0:0:0:
36,192,104751,1,2,0:0:0:0:
256,192,104751,1,0,0:0:0:0:
475,192,104751,1,0,0:0:0:0:
36,192,105608,128,4,105930:0:0:0:0:
182,192,105608,128,2,105930:0:0:0:0:
256,192,105608,1,0,0:0:0:0:
475,192,105608,1,0,0:0:0:0:
329,192,105823,128,0,106037:0:0:0:0:
402,192,105823,1,0,0:0:0:0:
36,192,106037,1,0,0:0:0:100:LR3_Snare WRH.wav
182,192,106037,1,0,0:0:0:0:
475,192,106037,1,0,0:0:0:0:
256,192,106090,1,0,0:0:0:0:
402,192,106144,1,0,0:0:0:0:
475,192,106198,1,0,0:0:0:0:
109,192,106251,1,0,0:0:0:0:
182,192,106305,1,0,0:0:0:0:
329,192,106358,1,2,0:0:0:0:
402,192,106412,1,0,0:0:0:0:
475,192,106465,1,0,0:0:0:0:
182,192,106519,1,0,0:0:0:0:
329,192,106573,1,0,0:0:0:0:
36,192,106626,1,0,0:0:0:0:
475,192,106680,1,2,0:0:0:0:
182,192,106733,1,0,0:0:0:0:
329,192,106787,1,0,0:0:0:0:
36,192,106840,1,0,0:0:0:0:
402,192,106894,1,0,0:0:0:100:LR3_Snare WRH.wav
475,192,106894,1,0,0:0:0:0:
182,192,106948,1,0,0:0:0:0:
329,192,107001,1,0,0:0:0:0:
36,192,107055,1,0,0:0:0:0:
475,192,107108,1,0,0:0:0:0:
182,192,107162,1,0,0:0:0:0:
329,192,107215,1,0,0:0:0:0:
36,192,107269,1,0,0:0:0:0:
256,192,107322,1,2,0:0:0:0:
402,192,107322,128,0,107644:0:0:0:0:
475,192,107322,128,0,107644:0:0:0:0:
109,192,107537,128,0,107751:0:0:0:0:
182,192,107537,1,0,0:0:0:0:
36,192,107751,1,0,0:0:0:100:LR3_Snare WRH.wav
402,192,107751,1,0,0:0:0:0:
475,192,107751,1,0,0:0:0:0:
329,192,107965,1,0,0:0:0:0:
256,192,108019,1,0,0:0:0:0:
36,192,108072,1,2,0:0:0:0:
109,192,108126,1,0,0:0:0:0:
402,192,108180,1,0,0:0:0:0:
329,192,108233,1,0,0:0:0:0:
182,192,108287,1,0,0:0:0:0:
256,192,108340,1,0,0:0:0:0:
475,192,108394,1,2,0:0:0:0:
402,192,108447,1,0,0:0:0:0:
256,192,108501,1,0,0:0:0:0:
329,192,108555,1,0,0:0:0:0:
36,192,108608,1,0,0:0:0:100:LR3_Snare WRH.wav
109,192,108608,1,0,0:0:0:0:
402,192,108715,1,2,0:0:0:0:
475,192,108715,1,0,0:0:0:0:
256,192,108769,1,0,0:0:0:0:
109,192,108822,1,0,0:0:0:0:
329,192,108876,1,0,0:0:0:0:
182,192,108930,1,0,0:0:0:0:
36,192,108983,1,0,0:0:0:0:
256,192,109037,1,2,0:0:0:0:
402,192,109037,128,0,109465:0:0:0:0:
475,192,109037,128,0,109251:0:0:0:0:
109,192,109251,128,0,109465:0:0:0:0:
329,192,109251,1,0,0:0:0:0:
36,192,109465,1,0,0:0:0:100:LR3_Snare WRH.wav
182,192,109465,1,0,0:0:0:0:
475,192,109465,1,0,0:0:0:0:
256,192,109572,1,0,0:0:0:0:
402,192,109626,1,0,0:0:0:0:
36,192,109680,1,0,0:0:0:0:
182,192,109733,1,0,0:0:0:0:
475,192,109787,1,2,0:0:0:0:
329,192,109840,1,0,0:0:0:0:
36,192,109894,1,0,0:0:0:0:
256,192,109947,1,0,0:0:0:0:
475,192,110001,1,0,0:0:0:0:
329,192,110055,1,0,0:0:0:0:
36,192,110108,1,2,0:0:0:0:
182,192,110162,1,0,0:0:0:0:
475,192,110215,1,0,0:0:0:0:
109,192,110269,1,0,0:0:0:0:
256,192,110322,1,0,0:0:0:100:LR3_Snare WRH.wav
402,192,110322,1,0,0:0:0:0:
256,192,110483,1,0,0:0:0:0:
402,192,110483,1,0,0:0:0:0:
256,192,110644,1,0,0:0:0:0:
402,192,110644,1,0,0:0:0:0:
36,192,110751,1,2,0:0:0:0:
182,192,110805,1,0,0:0:0:0:
329,192,110858,1,0,0:0:0:0:
109,192,110912,1,0,0:0:0:0:
402,192,110965,1,0,0:0:0:0:
256,192,111019,1,0,0:0:0:0:
475,192,111072,1,0,0:0:0:0:
329,192,111126,1,0,0:0:0:0:
36,192,111180,1,0,0:0:0:100:LR3_Snare WRH.wav
182,192,111180,1,0,0:0:0:0:
256,192,111287,1,0,0:0:0:0:
475,192,111394,1,0,0:0:0:0:
329,192,111447,1,0,0:0:0:0:
182,192,111501,1,2,0:0:0:0:
402,192,111555,1,0,0:0:0:0:
36,192,111608,1,0,0:0:0:0:
256,192,111608,1,0,0:0:0:0:
109,192,111715,1,0,0:0:0:0:
36,192,111822,1,2,0:0:0:0:
256,192,111822,1,0,0:0:0:0:
182,192,111930,1,0,0:0:0:0:
36,192,112037,1,0,0:0:0:100:LR3_Snare WRH.wav
402,192,112037,1,0,0:0:0:0:
475,192,112037,1,0,0:0:0:0:
182,192,112144,1,2,0:0:0:0:
329,192,112144,1,0,0:0:0:0:
256,192,112251,1,2,0:0:0:0:
475,192,112251,1,0,0:0:0:0:
402,192,112358,1,0,0:0:0:0:
36,192,112465,1,2,0:0:0:0:
109,192,112465,128,4,112608:0:0:0:0:
475,192,112465,1,0,0:0:0:0:
329,192,112608,1,0,0:0:0:0:
182,192,112680,1,0,0:0:0:0:
475,192,112680,1,0,0:0:0:0:
329,192,112751,1,0,0:0:0:0:
402,192,112822,1,0,0:0:0:0:
36,192,112894,1,0,0:0:0:100:LR3_Snare WRH.wav
182,192,112894,1,0,0:0:0:0:
475,192,112894,1,0,0:0:0:0:
402,192,113037,1,0,0:0:0:0:
109,192,113108,1,0,0:0:0:0:
256,192,113108,1,0,0:0:0:0:
329,192,113180,1,0,0:0:0:0:
182,192,113251,1,0,0:0:0:0:
36,192,113322,1,0,0:0:0:0:
402,192,113322,128,0,113465:0:0:0:0:
182,192,113465,1,0,0:0:0:0:
109,192,113537,1,2,0:0:0:0:
402,192,113537,1,0,0:0:0:0:
256,192,113608,1,0,0:0:0:0:
182,192,113680,1,0,0:0:0:0:
36,192,113751,1,0,0:0:0:100:LR3_Snare WRH.wav
329,192,113751,1,0,0:0:0:0:
475,192,113751,1,0,0:0:0:0:
256,192,113894,1,0,0:0:0:0:
109,192,113965,1,0,0:0:0:0:
182,192,113965,1,0,0:0:0:0:
329,192,114037,1,0,0:0:0:0:
182,192,114108,1,0,0:0:0:0:
36,192,114180,1,2,0:0:0:0:
475,192,114180,128,0,114322:0:0:0:0:
182,192,114322,1,0,0:0:0:0:
36,192,114394,1,0,0:0:0:0:
329,192,114394,1,0,0:0:0:0:
256,192,114465,1,0,0:0:0:0:
182,192,114537,1,0,0:0:0:0:
36,192,114608,1,0,0:0:0:100:LR3_Snare WRH.wav
329,192,114608,1,0,0:0:0:0:
475,192,114608,1,0,0:0:0:0:
402,192,114751,1,0,0:0:0:0:
109,192,114822,1,0,0:0:0:0:
256,192,114822,1,0,0:0:0:0:
329,192,114894,1,0,0:0:0:0:
182,192,114965,1,0,0:0:0:0:
36,192,115037,128,0,115180:0:0:0:0:
475,192,115037,1,0,0:0:0:0:
256,192,115180,1,0,0:0:0:0:
36,192,115251,1,2,0:0:0:0:
475,192,115251,1,0,0:0:0:0:
329,192,115358,1,0,0:0:0:0:
182,192,115412,1,0,0:0:0:0:
329,192,115465,1,0,0:0:0:100:LR3_Snare WRH.wav
475,192,115465,1,0,0:0:0:0:
182,192,115519,1,0,0:0:0:0:
402,192,115572,1,2,0:0:0:0:
109,192,115626,1,0,0:0:0:0:
256,192,115680,1,0,0:0:0:0:
329,192,115787,1,0,0:0:0:0:
36,192,115894,1,2,0:0:0:0:
182,192,115894,128,0,116108:0:0:0:0:
475,192,115894,1,0,0:0:0:0:
256,192,116108,1,0,0:0:0:0:
329,192,116108,128,0,116322:0:0:0:0:
36,192,116322,1,0,0:0:0:100:LR3_Snare WRH.wav
109,192,116322,128,0,116537:0:0:0:0:
475,192,116322,1,0,0:0:0:0:
182,192,116537,1,0,0:0:0:0:
402,192,116537,1,0,0:0:0:0:
256,192,116644,1,2,0:0:0:0:
36,192,116751,1,0,0:0:0:0:
329,192,116751,128,0,116965:0:0:0:0:
475,192,116751,1,0,0:0:0:0:
182,192,116965,128,2,117180:0:0:0:0:
256,192,116965,1,0,0:0:0:0:
329,192,117072,1,0,0:0:0:0:
36,192,117180,1,0,0:0:0:100:LR3_Snare WRH.wav
402,192,117180,128,0,117394:0:0:0:0:
475,192,117180,1,0,0:0:0:0:
182,192,117287,1,2,0:0:0:0:
109,192,117394,1,0,0:0:0:0:
329,192,117394,1,0,0:0:0:0:
256,192,117501,1,0,0:0:0:0:
36,192,117608,1,2,0:0:0:0:
182,192,117608,1,0,0:0:0:0:
475,192,117608,1,0,0:0:0:0:
109,192,117822,1,0,0:0:0:0:
256,192,117930,128,0,118144:0:0:0:0:
182,192,118144,1,0,0:0:0:0:
329,192,118251,128,0,118465:0:0:0:0:
475,192,118465,128,0,118680:0:0:0:0:
402,192,118572,1,0,0:0:0:0:
256,192,118680,128,0,118894:0:0:0:0:
329,192,118787,1,0,0:0:0:0:
402,192,118894,128,0,119108:0:0:0:0:
256,192,119001,1,0,0:0:0:0:
182,192,119108,128,0,119322:0:0:0:0:
329,192,119215,1,0,0:0:0:0:
36,192,119322,1,4,0:0:0:0:
402,192,119322,128,2,119644:0:0:0:0:
475,192,119322,128,0,119644:0:0:0:0:
109,192,119537,1,0,0:0:0:0:
182,192,119537,128,0,119751:0:0:0:0:
36,192,119751,1,0,0:0:0:100:LR3_Snare WRH.wav
329,192,119751,1,0,0:0:0:0:
475,192,119751,1,0,0:0:0:0:
256,192,119805,1,0,0:0:0:0:
109,192,119858,1,0,0:0:0:0:
36,192,119912,1,0,0:0:0:0:
402,192,119965,1,0,0:0:0:0:
329,192,120019,1,0,0:0:0:0:
182,192,120072,1,2,0:0:0:0:
109,192,120126,1,0,0:0:0:0:
36,192,120180,1,0,0:0:0:0:
329,192,120233,1,0,0:0:0:0:
182,192,120287,1,0,0:0:0:0:
475,192,120340,1,0,0:0:0:0:
36,192,120394,1,2,0:0:0:0:
329,192,120447,1,0,0:0:0:0:
182,192,120501,1,0,0:0:0:0:
475,192,120555,1,0,0:0:0:0:
36,192,120608,1,0,0:0:0:100:LR3_Snare WRH.wav
109,192,120608,1,0,0:0:0:0:
329,192,120662,1,0,0:0:0:0:
182,192,120715,1,0,0:0:0:0:
475,192,120769,1,0,0:0:0:0:
36,192,120822,1,0,0:0:0:0:
329,192,120876,1,0,0:0:0:0:
182,192,120930,1,0,0:0:0:0:
475,192,120983,1,0,0:0:0:0:
36,192,121037,1,2,0:0:0:0:
109,192,121037,128,0,121251:0:0:0:0:
256,192,121037,128,0,121251:0:0:0:0:
475,192,121251,1,0,0:0:0:0:
182,192,121305,1,0,0:0:0:0:
329,192,121358,1,0,0:0:0:0:
36,192,121412,1,0,0:0:0:0:
402,192,121465,1,0,0:0:0:100:LR3_Snare WRH.wav
475,192,121465,1,0,0:0:0:0:
182,192,121519,1,0,0:0:0:0:
329,192,121572,1,0,0:0:0:0:
36,192,121626,1,0,0:0:0:0:
475,192,121680,1,0,0:0:0:0:
182,192,121733,1,0,0:0:0:0:
329,192,121787,1,2,0:0:0:0:
36,192,121840,1,0,0:0:0:0:
475,192,121894,1,0,0:0:0:0:
182,192,121947,1,0,0:0:0:0:
329,192,122001,1,0,0:0:0:0:
36,192,122055,1,0,0:0:0:0:
402,192,122108,1,2,0:0:0:0:
475,192,122108,1,0,0:0:0:0:
256,192,122215,1,0,0:0:0:0:
36,192,122322,1,0,0:0:0:100:LR3_Snare WRH.wav
182,192,122322,1,0,0:0:0:0:
329,192,122430,1,2,0:0:0:0:
475,192,122430,1,0,0:0:0:0:
109,192,122537,1,0,0:0:0:0:
402,192,122644,1,0,0:0:0:0:
36,192,122751,128,2,122965:0:0:0:0:
182,192,122751,128,0,122965:0:0:0:0:
256,192,122751,1,0,0:0:0:0:
329,192,122965,1,0,0:0:0:0:
402,192,122965,128,0,123180:0:0:0:0:
182,192,123180,1,0,0:0:0:100:LR3_Snare WRH.wav
475,192,123180,1,0,0:0:0:0:
329,192,123287,1,0,0:0:0:0:
182,192,123394,1,0,0:0:0:0:
475,192,123394,1,0,0:0:0:0:
329,192,123501,1,2,0:0:0:0:
36,192,123608,1,0,0:0:0:0:
109,192,123608,1,0,0:0:0:0:
256,192,123715,1,0,0:0:0:0:
402,192,123822,1,2,0:0:0:0:
475,192,123822,1,0,0:0:0:0:
256,192,123930,1,0,0:0:0:0:
36,192,124037,1,0,0:0:0:100:LR3_Snare WRH.wav
109,192,124037,1,0,0:0:0:0:
182,192,124144,1,0,0:0:0:0:
402,192,124251,1,0,0:0:0:0:
475,192,124251,1,0,0:0:0:0:
329,192,124358,1,0,0:0:0:0:
36,192,124465,1,2,0:0:0:0:
109,192,124465,128,0,124680:0:0:0:0:
182,192,124465,1,0,0:0:0:0:
329,192,124680,128,0,124787:0:0:0:0:
475,192,124680,128,0,124787:0:0:0:0:
256,192,124894,128,0,125001:0:0:0:100:LR3_Snare WRH.wav
402,192,124894,128,0,125001:0:0:0:0:
182,192,125108,128,0,125215:0:0:0:0:
329,192,125108,128,0,125215:0:0:0:0:
402,192,125215,1,2,0:0:0:0:
109,192,125322,128,0,125430:0:0:0:0:
256,192,125322,128,0,125430:0:0:0:0:
36,192,125537,128,2,125644:0:0:0:0:
182,192,125537,128,0,125644:0:0:0:0:
402,192,125537,1,0,0:0:0:0:
329,192,125644,128,0,125751:0:0:0:0:
475,192,125644,128,0,125751:0:0:0:0:
36,192,125751,1,0,0:0:0:100:LR3_Snare WRH.wav
182,192,125751,1,0,0:0:0:0:
329,192,125858,1,2,0:0:0:0:
475,192,125858,1,0,0:0:0:0:
36,192,125965,1,2,0:0:0:0:
182,192,125965,1,0,0:0:0:0:
109,192,126180,1,2,0:0:0:0:
402,192,126180,1,4,0:0:0:0:
256,192,126287,1,0,0:0:0:0:
109,192,126394,1,0,0:0:0:0:
402,192,126394,1,0,0:0:0:0:
256,192,126501,1,0,0:0:0:0:
36,192,126608,1,0,0:0:0:100:LR3_Snare WRH.wav
329,192,126608,1,0,0:0:0:0:
475,192,126608,1,0,0:0:0:0:
36,192,126822,1,0,0:0:0:0:
329,192,126822,1,0,0:0:0:0:
182,192,126930,1,2,0:0:0:0:
109,192,127037,1,0,0:0:0:0:
402,192,127037,1,0,0:0:0:0:
256,192,127144,1,0,0:0:0:0:
109,192,127251,1,2,0:0:0:0:
402,192,127251,1,0,0:0:0:0:
256,192,127358,1,0,0:0:0:0:
36,192,127465,1,0,0:0:0:100:LR3_Snare WRH.wav
182,192,127465,1,0,0:0:0:0:
475,192,127465,1,0,0:0:0:0:
329,192,127572,1,0,0:0:0:0:
475,192,127680,1,0,0:0:0:0:
329,192,127787,1,0,0:0:0:0:
36,192,127894,1,2,0:0:0:0:
182,192,127947,1,0,0:0:0:0:
36,192,128001,1,0,0:0:0:0:
329,192,128108,1,0,0:0:0:0:
475,192,128162,1,0,0:0:0:0:
256,192,128215,1,0,0:0:0:0:
402,192,128269,1,0,0:0:0:0:
36,192,128322,1,0,0:0:0:100:LR3_Snare WRH.wav
182,192,128322,1,0,0:0:0:0:
329,192,128376,1,0,0:0:0:0:
109,192,128430,1,0,0:0:0:0:
256,192,128483,1,0,0:0:0:0:
36,192,128537,1,0,0:0:0:0:
182,192,128590,1,0,0:0:0:0:
329,192,128644,1,2,0:0:0:0:
475,192,128644,1,0,0:0:0:0:
109,192,128751,1,0,0:0:0:0:
256,192,128805,1,0,0:0:0:0:
109,192,128858,1,0,0:0:0:0:
402,192,128965,1,2,0:0:0:0:
475,192,128965,1,0,0:0:0:0:
256,192,129072,1,0,0:0:0:0:
182,192,129126,1,0,0:0:0:0:
329,192,129180,1,0,0:0:0:100:LR3_Snare WRH.wav
475,192,129180,1,0,0:0:0:0:
36,192,129287,1,2,0:0:0:0:
109,192,129287,1,0,0:0:0:0:
182,192,129340,1,0,0:0:0:0:
402,192,129394,1,0,0:0:0:0:
329,192,129447,1,0,0:0:0:0:
109,192,129501,1,0,0:0:0:0:
182,192,129555,1,0,0:0:0:0:
36,192,129608,1,2,0:0:0:0:
256,192,129608,128,0,129822:0:0:0:0:
475,192,129608,1,0,0:0:0:0:
109,192,129822,1,0,0:0:0:0:
402,192,129822,128,0,130037:0:0:0:0:
36,192,130037,1,0,0:0:0:100:LR3_Snare WRH.wav
182,192,130037,1,0,0:0:0:0:
475,192,130037,1,0,0:0:0:0:
256,192,130144,1,0,0:0:0:0:
109,192,130251,1,0,0:0:0:0:
402,192,130251,1,0,0:0:0:0:
182,192,130358,1,2,0:0:0:0:
36,192,130465,1,0,0:0:0:0:
475,192,130465,1,0,0:0:0:0:
109,192,130572,1,0,0:0:0:0:
182,192,130680,1,2,0:0:0:0:
329,192,130680,128,0,130894:0:0:0:0:
475,192,130680,1,0,0:0:0:0:
36,192,130894,1,0,0:0:0:100:LR3_Snare WRH.wav
182,192,130894,1,0,0:0:0:0:
402,192,130894,1,0,0:0:0:0:
256,192,131108,1,0,0:0:0:0:
256,192,131215,1,0,0:0:0:0:
182,192,131322,1,2,0:0:0:0:
329,192,131322,1,4,0:0:0:0:
36,192,131430,1,0,0:0:0:100:snare01.wav
109,192,131537,1,0,0:0:0:100:snare01.wav
402,192,131537,1,0,0:0:0:0:
256,192,131644,1,0,0:0:0:100:Kick 12.wav
36,192,131751,1,0,0:0:0:100:snare01.wav
329,192,131751,1,0,0:0:0:0:
475,192,131751,1,0,0:0:0:0:
182,192,131858,1,0,0:0:0:100:snare01.wav
402,192,131965,1,0,0:0:0:100:Kick 12.wav
256,192,132072,1,0,0:0:0:0:
36,192,132180,1,0,0:0:0:100:snare01.wav
182,192,132180,1,0,0:0:0:0:
256,192,132287,1,0,0:0:0:100:snare01.wav
109,192,132394,1,0,0:0:0:0:
402,192,132394,1,0,0:0:0:0:
329,192,132501,1,0,0:0:0:100:snare01.wav
36,192,132608,1,0,0:0:0:100:snare01.wav
182,192,132608,1,0,0:0:0:0:
475,192,132608,1,0,0:0:0:0:
329,192,132715,1,0,0:0:0:100:snare01.wav
109,192,132769,1,0,0:0:0:100:snare01.wav
329,192,132822,1,0,0:0:0:100:snare01.wav
182,192,132930,1,0,0:0:0:100:snare01.wav
36,192,133037,1,2,0:0:0:0:
256,192,133037,1,4,0:0:0:0:
475,192,133037,1,0,0:0:0:0:
329,192,133144,1,0,0:0:0:0:
109,192,133251,1,0,0:0:0:0:
329,192,133358,1,0,0:0:0:0:
182,192,133465,1,2,0:0:0:0:
329,192,133572,1,0,0:0:0:0:
109,192,133680,1,0,0:0:0:0:
329,192,133787,1,0,0:0:0:0:
36,192,133894,1,2,0:0:0:0:
329,192,134001,1,0,0:0:0:0:
109,192,134108,1,0,0:0:0:0:
329,192,134215,1,0,0:0:0:0:
182,192,134322,1,2,0:0:0:0:
329,192,134430,1,0,0:0:0:0:
109,192,134537,1,0,0:0:0:0:
329,192,134644,1,0,0:0:0:0:
475,192,134751,1,2,0:0:0:0:
256,192,134858,1,0,0:0:0:0:
402,192,134965,1,0,0:0:0:0:
256,192,135072,1,0,0:0:0:0:
36,192,135180,1,2,0:0:0:0:
256,192,135287,1,0,0:0:0:0:
109,192,135394,1,0,0:0:0:0:
256,192,135501,1,0,0:0:0:0:
475,192,135608,1,2,0:0:0:0:
256,192,135715,1,0,0:0:0:0:
402,192,135822,1,0,0:0:0:0:
256,192,135930,1,0,0:0:0:0:
36,192,136037,1,2,0:0:0:0:
256,192,136144,1,0,0:0:0:0:
109,192,136251,1,0,0:0:0:0:
256,192,136358,1,0,0:0:0:0:
182,192,136465,1,2,0:0:0:0:
402,192,136572,1,0,0:0:0:0:
182,192,136680,1,0,0:0:0:0:
329,192,136787,1,0,0:0:0:0:
182,192,136894,1,2,0:0:0:0:
402,192,137001,1,0,0:0:0:0:
182,192,137108,1,0,0:0:0:0:
475,192,137215,1,0,0:0:0:0:
182,192,137322,1,2,0:0:0:0:
402,192,137430,1,0,0:0:0:0:
182,192,137537,1,0,0:0:0:0:
329,192,137644,1,0,0:0:0:0:
182,192,137751,1,2,0:0:0:0:
402,192,137858,1,0,0:0:0:0:
182,192,137965,1,0,0:0:0:0:
475,192,138072,1,0,0:0:0:0:
109,192,138180,1,2,0:0:0:0:
256,192,138287,1,0,0:0:0:0:
402,192,138394,1,0,0:0:0:0:
256,192,138501,1,0,0:0:0:0:
109,192,138608,1,2,0:0:0:0:
256,192,138715,1,0,0:0:0:0:
402,192,138822,1,0,0:0:0:0:
256,192,138930,1,0,0:0:0:0:
36,192,139037,1,2,0:0:0:0:
36,192,139144,1,0,0:0:0:0:
36,192,139251,1,0,0:0:0:0:
36,192,139358,1,0,0:0:0:0:
256,192,139465,1,2,0:0:0:0:
329,192,139572,1,0,0:0:0:0:
182,192,139680,1,0,0:0:0:0:
329,192,139787,1,0,0:0:0:0:
36,192,139894,1,2,0:0:0:0:
256,192,139894,1,4,0:0:0:0:
475,192,139894,1,0,0:0:0:0:
182,192,139997,1,0,0:0:0:0:
36,192,140100,1,0,0:0:0:0:
182,192,140204,1,0,0:0:0:0:
109,192,140307,1,2,0:0:0:0:
475,192,140307,1,8,0:0:0:0:
329,192,140411,1,0,0:0:0:0:
475,192,140514,1,0,0:0:0:0:
329,192,140618,1,0,0:0:0:0:
36,192,140721,1,2,0:0:0:0:
182,192,140721,1,0,0:0:0:0:
329,192,140825,1,0,0:0:0:0:
475,192,140928,1,0,0:0:0:0:
256,192,141031,1,0,0:0:0:0:
36,192,141135,1,2,0:0:0:0:
402,192,141135,1,8,0:0:0:0:
182,192,141238,1,0,0:0:0:0:
329,192,141342,1,0,0:0:0:0:
109,192,141445,1,0,0:0:0:0:
256,192,141549,1,2,0:0:0:0:
475,192,141549,1,0,0:0:0:0:
329,192,141652,1,0,0:0:0:0:
475,192,141756,1,0,0:0:0:0:
329,192,141859,1,0,0:0:0:0:
36,192,141962,1,2,0:0:0:0:
402,192,141962,1,8,0:0:0:0:
182,192,142066,1,0,0:0:0:0:
36,192,142169,1,0,0:0:0:0:
182,192,142273,1,0,0:0:0:0:
329,192,142376,1,2,0:0:0:0:
475,192,142376,1,0,0:0:0:0:
182,192,142480,1,0,0:0:0:0:
36,192,142583,1,0,0:0:0:0:
256,192,142687,1,0,0:0:0:0:
109,192,142790,1,8,0:0:0:0:
475,192,142790,1,2,0:0:0:0:
329,192,142894,1,0,0:0:0:0:
182,192,142997,1,0,0:0:0:0:
402,192,143100,1,0,0:0:0:0:
36,192,143204,1,2,0:0:0:0:
256,192,143204,1,0,0:0:0:0:
182,192,143307,1,0,0:0:0:0:
36,192,143411,1,0,0:0:0:0:
182,192,143514,1,0,0:0:0:0:
109,192,143618,1,8,0:0:0:0:
475,192,143618,1,2,0:0:0:0:
329,192,143721,1,0,0:0:0:0:
475,192,143825,1,0,0:0:0:0:
329,192,143928,1,0,0:0:0:0:
36,192,144031,1,2,0:0:0:0:
182,192,144031,1,0,0:0:0:0:
329,192,144135,1,0,0:0:0:0:
475,192,144238,1,0,0:0:0:0:
256,192,144342,1,0,0:0:0:0:
36,192,144445,1,8,0:0:0:0:
402,192,144445,1,2,0:0:0:0:
182,192,144549,1,0,0:0:0:0:
329,192,144652,1,0,0:0:0:0:
109,192,144756,1,0,0:0:0:0:
256,192,144859,1,2,0:0:0:0:
475,192,144859,1,0,0:0:0:0:
329,192,144962,1,0,0:0:0:0:
475,192,145066,1,0,0:0:0:0:
329,192,145169,1,0,0:0:0:0:
36,192,145273,1,2,0:0:0:0:
402,192,145273,1,8,0:0:0:0:
182,192,145376,1,0,0:0:0:0:
36,192,145480,1,0,0:0:0:0:
182,192,145583,1,0,0:0:0:0:
329,192,145687,1,2,0:0:0:0:
475,192,145687,1,0,0:0:0:0:
182,192,145790,1,0,0:0:0:0:
36,192,145894,1,0,0:0:0:0:
256,192,145997,1,0,0:0:0:0:
109,192,146100,1,2,0:0:0:0:
475,192,146100,1,8,0:0:0:0:
329,192,146204,1,0,0:0:0:0:
182,192,146307,1,0,0:0:0:0:
402,192,146411,1,0,0:0:0:0:
36,192,146514,1,2,0:0:0:0:
109,192,146514,1,4,0:0:0:0:
256,192,146514,1,0,0:0:0:0:
329,192,146614,1,0,0:0:0:0:
182,192,146714,1,0,0:0:0:0:
329,192,146814,1,0,0:0:0:0:
36,192,146914,1,8,0:0:0:0:
182,192,146914,1,2,0:0:0:0:
402,192,147014,1,0,0:0:0:0:
256,192,147114,1,0,0:0:0:0:
402,192,147214,1,0,0:0:0:0:
36,192,147314,1,2,0:0:0:0:
329,192,147314,1,0,0:0:0:0:
182,192,147414,1,0,0:0:0:0:
36,192,147514,1,0,0:0:0:0:
182,192,147614,1,0,0:0:0:0:
36,192,147714,1,8,0:0:0:0:
329,192,147714,1,2,0:0:0:0:
475,192,147814,1,0,0:0:0:0:
329,192,147914,1,0,0:0:0:0:
475,192,148014,1,0,0:0:0:0:
36,192,148114,1,2,0:0:0:0:
256,192,148114,1,0,0:0:0:0:
182,192,148214,1,0,0:0:0:0:
329,192,148314,1,0,0:0:0:0:
182,192,148414,1,0,0:0:0:0:
329,192,148514,1,2,0:0:0:0:
475,192,148514,1,8,0:0:0:0:
109,192,148614,1,0,0:0:0:0:
256,192,148714,1,0,0:0:0:0:
109,192,148814,1,0,0:0:0:0:
182,192,148914,1,2,0:0:0:0:
475,192,148914,1,0,0:0:0:0:
329,192,149014,1,0,0:0:0:0:
475,192,149114,1,0,0:0:0:0:
329,192,149214,1,0,0:0:0:0:
182,192,149314,1,8,0:0:0:0:
475,192,149314,1,2,0:0:0:0:
36,192,149414,1,0,0:0:0:0:
182,192,149514,1,0,0:0:0:0:
36,192,149614,1,0,0:0:0:0:
329,192,149714,1,2,0:0:0:0:
402,192,149714,128,0,149914:0:0:0:0:
109,192,149914,128,0,150114:0:0:0:0:
182,192,149914,1,0,0:0:0:0:
256,192,150014,1,0,0:0:0:0:
36,192,150114,1,2,0:0:0:0:
329,192,150114,1,8,0:0:0:0:
475,192,150114,128,0,150314:0:0:0:0:
329,192,150314,1,0,0:0:0:0:
402,192,150314,1,0,0:0:0:0:
256,192,150414,1,0,0:0:0:0:
109,192,150514,1,2,0:0:0:0:
182,192,150514,1,0,0:0:0:0:
402,192,150614,1,0,0:0:0:0:
182,192,150714,1,0,0:0:0:0:
329,192,150714,1,0,0:0:0:0:
402,192,150814,1,0,0:0:0:0:
36,192,150914,1,8,0:0:0:0:
182,192,150914,1,2,0:0:0:0:
256,192,151014,1,0,0:0:0:0:
329,192,151114,1,0,0:0:0:0:
475,192,151114,1,0,0:0:0:0:
256,192,151214,1,0,0:0:0:0:
109,192,151314,128,2,151514:0:0:0:0:
182,192,151314,1,0,0:0:0:0:
329,192,151514,1,0,0:0:0:0:
402,192,151514,128,0,151714:0:0:0:0:
256,192,151614,1,0,0:0:0:0:
36,192,151714,128,2,151914:0:0:0:0:
182,192,151714,1,8,0:0:0:0:
475,192,151714,1,0,0:0:0:0:
109,192,151914,1,0,0:0:0:0:
182,192,151914,1,0,0:0:0:0:
256,192,152014,1,0,0:0:0:0:
329,192,152114,1,2,0:0:0:0:
402,192,152114,1,0,0:0:0:0:
109,192,152214,1,0,0:0:0:0:
182,192,152314,1,0,0:0:0:0:
329,192,152314,1,0,0:0:0:0:
109,192,152414,1,0,0:0:0:0:
329,192,152514,1,8,0:0:0:0:
475,192,152514,1,2,0:0:0:0:
256,192,152614,1,0,0:0:0:0:
36,192,152714,1,0,0:0:0:0:
182,192,152714,1,0,0:0:0:0:
256,192,152814,1,0,0:0:0:0:
109,192,152914,1,2,0:0:0:0:
329,192,152914,1,4,0:0:0:0:
475,192,152914,1,0,0:0:0:0:
182,192,153014,1,0,0:0:0:0:
36,192,153114,1,0,0:0:0:0:
256,192,153214,1,0,0:0:0:0:
109,192,153314,1,2,0:0:0:0:
329,192,153314,1,8,0:0:0:0:
475,192,153414,1,0,0:0:0:0:
256,192,153514,1,0,0:0:0:0:
402,192,153614,1,0,0:0:0:0:
36,192,153714,1,2,0:0:0:0:
109,192,153714,1,0,0:0:0:0:
256,192,153814,1,0,0:0:0:0:
36,192,153914,1,0,0:0:0:0:
182,192,154014,1,0,0:0:0:0:
109,192,154114,1,8,0:0:0:0:
402,192,154114,1,2,0:0:0:0:
256,192,154214,1,0,0:0:0:0:
475,192,154314,1,0,0:0:0:0:
329,192,154414,1,0,0:0:0:0:
402,192,154514,1,2,0:0:0:0:
475,192,154514,1,0,0:0:0:0:
182,192,154614,1,0,0:0:0:0:
329,192,154714,1,0,0:0:0:0:
475,192,154814,1,0,0:0:0:0:
36,192,154914,1,2,0:0:0:0:
182,192,154914,1,8,0:0:0:0:
402,192,155014,1,0,0:0:0:0:
256,192,155114,1,0,0:0:0:0:
109,192,155214,1,0,0:0:0:0:
329,192,155314,1,2,0:0:0:0:
475,192,155314,1,0,0:0:0:0:
182,192,155414,1,0,0:0:0:0:
402,192,155514,1,0,0:0:0:0:
256,192,155614,1,0,0:0:0:0:
36,192,155714,1,8,0:0:0:0:
109,192,155714,1,2,0:0:0:0:
329,192,155814,1,0,0:0:0:0:
182,192,155914,1,0,0:0:0:0:
329,192,156014,1,0,0:0:0:0:
109,192,156114,1,2,0:0:0:0:
475,192,156114,1,0,0:0:0:0:
256,192,156314,1,0,0:0:0:70:Kick 12.wav
36,192,156514,1,2,0:0:0:0:
475,192,156514,1,8,0:0:0:0:
329,192,156714,1,0,0:0:0:70:Kick 12.wav
109,192,156914,1,2,0:0:0:0:
182,192,156914,1,0,0:0:0:0:
256,192,157114,1,0,0:0:0:70:Kick 12.wav
329,192,157314,1,8,0:0:0:0:
475,192,157314,1,2,0:0:0:0:
182,192,157514,1,0,0:0:0:70:Kick 12.wav
36,192,157714,1,2,0:0:0:0:
475,192,157814,1,0,0:0:0:70:Kick 12.wav
36,192,157914,1,0,0:0:0:70:Kick 12.wav
475,192,158014,1,0,0:0:0:70:Kick 12.wav
109,192,158114,1,10,0:0:0:0:
402,192,158214,1,0,0:0:0:70:Kick 12.wav
109,192,158314,1,0,0:0:0:70:Kick 12.wav
402,192,158414,1,0,0:0:0:70:Kick 12.wav
182,192,158514,1,0,0:0:0:70:Kick 12.wav
329,192,158614,1,0,0:0:0:70:Kick 12.wav
475,192,158714,1,0,0:0:0:70:Kick 12.wav
109,192,158814,1,0,0:0:0:70:Kick 12.wav
256,192,158914,1,0,0:0:0:0:
402,192,159014,1,0,0:0:0:0:
36,192,159114,1,0,0:0:0:0:
182,192,159214,1,0,0:0:0:0:
36,192,159314,1,0,0:0:0:70:electronic25.wav
329,192,159314,128,0,160114:0:0:0:0:
475,192,159314,128,0,160114:0:0:0:0:
109,192,160114,128,0,162514:0:0:0:0:
256,192,160914,128,0,162514:0:0:0:0:
36,192,162514,1,0,0:0:0:100:LR3_Snare WRH.wav
182,192,162514,1,0,0:0:0:0:
36,192,162714,1,0,0:0:0:100:LR3_Snare WRH.wav
182,192,162714,1,0,0:0:0:0:
109,192,162914,1,0,0:0:0:100:LR3_Snare WRH.wav
256,192,162914,1,0,0:0:0:0:
109,192,163114,1,0,0:0:0:100:LR3_Snare WRH.wav
256,192,163114,1,0,0:0:0:0:
182,192,163314,1,0,0:0:0:100:LR3_Snare WRH.wav
329,192,163314,1,0,0:0:0:0:
36,192,163414,1,0,0:0:0:100:LR3_Snare WRH.wav
256,192,163514,1,0,0:0:0:100:LR3_Snare WRH.wav
402,192,163514,1,0,0:0:0:0:
109,192,163614,1,0,0:0:0:100:LR3_Snare WRH.wav
329,192,163714,1,0,0:0:0:100:LR3_Snare WRH.wav
475,192,163714,1,0,0:0:0:0:
182,192,163814,1,0,0:0:0:100:LR3_Snare WRH.wav
256,192,163914,1,0,0:0:0:100:LR3_Snare WRH.wav
475,192,163964,1,0,0:0:0:0:
329,192,164014,1,0,0:0:0:100:LR3_Snare WRH.wav
182,192,164064,1,0,0:0:0:0:
36,192,164114,128,2,164314:0:0:0:0:
475,192,164114,128,4,165314:0:0:0:0:
36,192,164514,128,0,164714:0:0:0:0:
109,192,164514,128,0,164714:0:0:0:0:
36,192,164914,128,0,165314:0:0:0:0:
109,192,164914,128,0,165314:0:0:0:0:
182,192,164914,128,0,165314:0:0:0:0:
329,192,165314,1,0,0:0:0:0:
256,192,165514,128,0,165714:0:0:0:0:
109,192,165714,1,4,0:0:0:0:
329,192,165714,1,0,0:0:0:70:electronic25.wav
475,192,165714,1,0,0:0:0:0:
109,192,165914,1,0,0:0:0:70:electronic25.wav
329,192,165914,1,0,0:0:0:0:
475,192,165914,1,0,0:0:0:0:
109,192,166114,1,0,0:0:0:70:electronic25.wav
329,192,166114,1,0,0:0:0:0:
475,192,166114,1,0,0:0:0:0:
109,192,166314,1,0,0:0:0:70:electronic25.wav
329,192,166314,1,0,0:0:0:0:
475,192,166314,1,0,0:0:0:0:
36,192,166514,1,0,0:0:0:70:electronic25.wav
182,192,166514,1,0,0:0:0:0:
402,192,166514,1,0,0:0:0:0:
36,192,166714,1,0,0:0:0:70:electronic25.wav
182,192,166714,1,0,0:0:0:0:
402,192,166714,1,0,0:0:0:0:
36,192,166914,1,0,0:0:0:70:electronic25.wav
182,192,166914,1,0,0:0:0:0:
402,192,166914,1,0,0:0:0:0:
36,192,167114,1,0,0:0:0:70:electronic25.wav
182,192,167114,1,0,0:0:0:0:
402,192,167114,1,0,0:0:0:0:
109,192,167214,1,0,0:0:0:70:electronic25.wav
256,192,167214,1,0,0:0:0:0:
182,192,167314,1,0,0:0:0:70:electronic25.wav
329,192,167314,1,0,0:0:0:0:
475,192,167314,1,0,0:0:0:0:
182,192,167514,1,0,0:0:0:70:electronic25.wav
329,192,167514,1,0,0:0:0:0:
475,192,167514,1,0,0:0:0:0:
182,192,167714,1,0,0:0:0:70:electronic25.wav
329,192,167714,1,0,0:0:0:0:
475,192,167714,1,0,0:0:0:0:
182,192,167914,1,0,0:0:0:70:electronic25.wav
329,192,167914,1,0,0:0:0:0:
475,192,167914,1,0,0:0:0:0:
36,192,168114,1,0,0:0:0:70:electronic25.wav
109,192,168114,1,0,0:0:0:0:
256,192,168114,1,0,0:0:0:0:
402,192,168214,1,0,0:0:0:70:electronic25.wav
475,192,168214,1,0,0:0:0:0:
36,192,168314,1,0,0:0:0:70:electronic25.wav
109,192,168314,1,0,0:0:0:0:
256,192,168314,1,0,0:0:0:0:
256,192,168514,1,0,0:0:0:70:electronic25.wav
402,192,168514,1,0,0:0:0:0:
475,192,168514,1,0,0:0:0:0:
182,192,168714,1,0,0:0:0:70:electronic25.wav
329,192,168764,1,0,0:0:0:70:electronic25.wav
182,192,168814,1,0,0:0:0:70:electronic25.wav
329,192,168864,1,0,0:0:0:70:electronic25.wav
36,192,168914,1,0,0:0:0:70:electronic25.wav
109,192,168914,1,0,0:0:0:0:
256,192,168914,1,0,0:0:0:0:
36,192,169114,1,0,0:0:0:70:electronic25.wav
109,192,169114,1,0,0:0:0:0:
256,192,169114,1,0,0:0:0:0:
36,192,169314,1,0,0:0:0:70:electronic25.wav
109,192,169314,1,0,0:0:0:0:
256,192,169314,1,0,0:0:0:0:
36,192,169514,1,0,0:0:0:70:electronic25.wav
109,192,169514,1,0,0:0:0:0:
256,192,169514,1,0,0:0:0:0:
182,192,169614,1,0,0:0:0:70:electronic25.wav
329,192,169614,1,0,0:0:0:0:
256,192,169714,1,0,0:0:0:70:electronic25.wav
402,192,169714,1,0,0:0:0:0:
475,192,169714,1,0,0:0:0:0:
36,192,169814,1,0,0:0:0:70:electronic25.wav
109,192,169814,1,0,0:0:0:0:
256,192,169914,1,0,0:0:0:70:electronic25.wav
402,192,169914,1,0,0:0:0:0:
475,192,169914,1,0,0:0:0:0:
36,192,170114,1,0,0:0:0:70:electronic25.wav
109,192,170114,1,0,0:0:0:0:
256,192,170114,1,0,0:0:0:0:
329,192,170314,1,0,0:0:0:70:electronic25.wav
182,192,170364,1,0,0:0:0:70:electronic25.wav
329,192,170414,1,0,0:0:0:70:electronic25.wav
182,192,170464,1,0,0:0:0:70:electronic25.wav
256,192,170514,1,0,0:0:0:70:electronic25.wav
402,192,170514,1,0,0:0:0:0:
475,192,170514,1,0,0:0:0:0:
36,192,170714,1,0,0:0:0:70:electronic25.wav
109,192,170714,1,0,0:0:0:0:
182,192,170714,1,0,0:0:0:0:
329,192,170814,1,0,0:0:0:70:electronic25.wav
475,192,170814,1,0,0:0:0:0:
36,192,170914,1,0,0:0:0:70:electronic25.wav
109,192,170914,1,0,0:0:0:0:
182,192,170914,1,0,0:0:0:0:
329,192,171114,1,0,0:0:0:70:electronic25.wav
402,192,171114,1,0,0:0:0:0:
475,192,171114,1,0,0:0:0:0:
109,192,171314,1,0,0:0:0:70:Kick 10.wav
256,192,171314,1,0,0:0:0:0:
402,192,171314,1,0,0:0:0:0:
109,192,171514,1,0,0:0:0:70:Kick 10.wav
256,192,171514,1,0,0:0:0:0:
402,192,171514,1,0,0:0:0:0:
36,192,171714,1,0,0:0:0:70:Kick 10.wav
182,192,171714,1,0,0:0:0:0:
329,192,171814,1,0,0:0:0:70:Kick 10.wav
475,192,171814,1,0,0:0:0:0:
109,192,171914,1,0,0:0:0:70:Kick 10.wav
402,192,171964,1,0,0:0:0:70:Kick 10.wav
109,192,172014,1,0,0:0:0:70:Kick 10.wav
402,192,172064,1,0,0:0:0:70:Kick 10.wav
36,192,172114,1,2,0:0:0:0:
182,192,172114,1,4,0:0:0:0:
256,192,172114,1,0,0:0:0:0:
36,192,172314,1,2,0:0:0:0:
182,192,172314,1,0,0:0:0:0:
256,192,172314,1,0,0:0:0:0:
256,192,172514,1,2,0:0:0:0:
329,192,172514,1,0,0:0:0:0:
475,192,172514,1,0,0:0:0:0:
256,192,172714,1,2,0:0:0:0:
329,192,172714,1,0,0:0:0:0:
475,192,172714,1,0,0:0:0:0:
36,192,172914,1,2,0:0:0:0:
109,192,172914,1,0,0:0:0:0:
402,192,172914,1,0,0:0:0:0:
36,192,173114,1,2,0:0:0:0:
109,192,173114,1,0,0:0:0:0:
402,192,173114,1,0,0:0:0:0:
109,192,173314,1,2,0:0:0:0:
402,192,173314,1,0,0:0:0:0:
475,192,173314,1,0,0:0:0:0:
182,192,173514,1,2,0:0:0:0:
256,192,173514,1,0,0:0:0:0:
36,192,173614,1,2,0:0:0:0:
109,192,173614,1,0,0:0:0:0:
256,192,173714,1,2,0:0:0:0:
329,192,173714,1,0,0:0:0:0:
109,192,173814,1,2,0:0:0:0:
182,192,173814,1,0,0:0:0:0:
329,192,173914,1,2,0:0:0:0:
402,192,173914,1,0,0:0:0:0:
475,192,173914,1,0,0:0:0:0:
36,192,174114,1,2,0:0:0:0:
109,192,174114,1,0,0:0:0:0:
182,192,174114,1,0,0:0:0:0:
329,192,174214,1,2,0:0:0:0:
475,192,174214,1,0,0:0:0:0:
36,192,174314,1,2,0:0:0:0:
109,192,174364,1,2,0:0:0:0:
182,192,174414,1,2,0:0:0:0:
256,192,174464,1,2,0:0:0:0:
329,192,174514,1,2,0:0:0:0:
402,192,174514,1,0,0:0:0:0:
475,192,174514,1,0,0:0:0:0:
36,192,174614,1,2,0:0:0:0:
182,192,174614,1,0,0:0:0:0:
402,192,174714,1,2,0:0:0:0:
475,192,174714,1,0,0:0:0:0:
109,192,174814,1,2,0:0:0:0:
256,192,174814,1,0,0:0:0:0:
402,192,174914,1,2,0:0:0:0:
475,192,174914,1,0,0:0:0:0:
182,192,175014,1,2,0:0:0:0:
329,192,175014,1,0,0:0:0:0:
36,192,175114,1,2,0:0:0:0:
109,192,175114,1,0,0:0:0:0:
182,192,175164,1,2,0:0:0:0:
256,192,175214,1,2,0:0:0:0:
329,192,175264,1,2,0:0:0:0:
182,192,175314,128,0,175414:0:0:0:70:Kick 10.wav
402,192,175314,128,0,175414:0:0:0:0:
475,192,175314,128,0,175414:0:0:0:0:
182,192,175514,128,0,175614:0:0:0:70:Kick 10.wav
402,192,175514,128,0,175614:0:0:0:0:
475,192,175514,128,0,175614:0:0:0:0:
182,192,175714,128,0,175814:0:0:0:70:Kick 10.wav
402,192,175714,128,0,175814:0:0:0:0:
475,192,175714,128,0,175814:0:0:0:0:
182,192,175914,128,0,176014:0:0:0:70:Kick 10.wav
402,192,175914,128,0,176014:0:0:0:0:
475,192,175914,128,0,176014:0:0:0:0:
36,192,176114,128,0,176214:0:0:0:70:Kick 10.wav
109,192,176114,128,0,176214:0:0:0:0:
256,192,176114,128,0,176214:0:0:0:0:
402,192,176214,128,0,176314:0:0:0:70:Kick 10.wav
475,192,176214,128,0,176314:0:0:0:0:
36,192,176314,128,0,176414:0:0:0:70:Kick 10.wav
109,192,176314,128,0,176414:0:0:0:0:
256,192,176314,128,0,176414:0:0:0:0:
36,192,176514,128,0,176614:0:0:0:70:Kick 10.wav
182,192,176514,128,0,176614:0:0:0:0:
329,192,176614,128,0,176714:0:0:0:70:Kick 10.wav
475,192,176614,128,0,176714:0:0:0:0:
36,192,176714,1,0,0:0:0:70:Kick 10.wav
182,192,176714,1,0,0:0:0:0:
256,192,176764,1,0,0:0:0:70:Kick 10.wav
329,192,176814,1,0,0:0:0:70:Kick 10.wav
402,192,176864,1,0,0:0:0:70:Kick 10.wav
36,192,176914,1,4,0:0:0:0:
182,192,176914,1,0,0:0:0:70:amenbreak_kick2.wav
475,192,176914,1,0,0:0:0:0:
329,192,177014,1,0,0:0:0:0:
109,192,177114,1,0,0:0:0:70:amenbreak_snare2.wav
329,192,177214,1,0,0:0:0:0:
36,192,177314,1,0,0:0:0:70:amenbreak_kick2.wav
182,192,177314,1,0,0:0:0:0:
256,192,177414,1,0,0:0:0:70:amenbreak_snare2.wav
402,192,177514,1,0,0:0:0:0:
182,192,177614,1,0,0:0:0:70:amenbreak_kick2.wav
329,192,177614,1,0,0:0:0:0:
402,192,177714,1,0,0:0:0:70:amenbreak_kick2.wav
475,192,177714,1,0,0:0:0:0:
109,192,177814,1,0,0:0:0:0:
36,192,177914,1,0,0:0:0:70:amenbreak_snare2.wav
182,192,177914,1,0,0:0:0:0:
329,192,178014,1,0,0:0:0:0:
256,192,178114,1,0,0:0:0:70:amenbreak_kick2.wav
475,192,178114,1,0,0:0:0:0:
109,192,178214,1,0,0:0:0:70:amenbreak_snare2.wav
402,192,178314,1,0,0:0:0:0:
256,192,178414,1,0,0:0:0:0:
36,192,178514,1,4,0:0:0:0:
182,192,178514,1,0,0:0:0:70:electronic25.wav
475,192,178514,1,0,0:0:0:0:
36,192,178714,1,0,0:0:0:70:electronic25.wav
182,192,178714,1,0,0:0:0:0:
475,192,178714,1,0,0:0:0:0:
402,192,178914,1,0,0:0:0:70:electronic25.wav
475,192,178914,1,0,0:0:0:0:
109,192,179014,1,0,0:0:0:70:electronic25.wav
182,192,179014,1,0,0:0:0:0:
329,192,179114,1,0,0:0:0:70:electronic25.wav
402,192,179114,1,0,0:0:0:0:
36,192,179214,1,0,0:0:0:70:electronic25.wav
109,192,179214,1,0,0:0:0:0:
182,192,179264,1,0,0:0:0:70:electronic25.wav
256,192,179314,1,0,0:0:0:70:electronic25.wav
329,192,179314,1,0,0:0:0:0:
36,192,179414,1,0,0:0:0:70:electronic25.wav
109,192,179414,1,0,0:0:0:0:
329,192,179514,1,0,0:0:0:70:electronic25.wav
402,192,179514,1,0,0:0:0:0:
109,192,179614,1,0,0:0:0:70:electronic25.wav
182,192,179614,1,0,0:0:0:0:
402,192,179714,1,0,0:0:0:70:electronic25.wav
475,192,179714,1,0,0:0:0:0:
36,192,179814,1,0,0:0:0:70:electronic25.wav
109,192,179814,1,0,0:0:0:0:
182,192,179864,1,0,0:0:0:70:electronic25.wav
256,192,179914,1,0,0:0:0:70:electronic25.wav
329,192,179914,1,0,0:0:0:0:
402,192,180014,1,0,0:0:0:70:electronic25.wav
475,192,180014,1,0,0:0:0:0:
256,192,180064,1,0,0:0:0:70:electronic25.wav
36,192,180114,1,0,0:0:0:70:electronic25.wav
109,192,180114,1,0,0:0:0:0:
329,192,180214,1,0,0:0:0:70:electronic25.wav
402,192,180214,1,0,0:0:0:0:
36,192,180314,1,0,0:0:0:70:electronic25.wav
109,192,180314,1,0,0:0:0:0:
256,192,180414,1,0,0:0:0:70:electronic25.wav
329,192,180414,1,0,0:0:0:0:
402,192,180514,1,0,0:0:0:70:electronic25.wav
475,192,180514,1,0,0:0:0:0:
329,192,180564,1,0,0:0:0:70:electronic25.wav
182,192,180614,1,0,0:0:0:70:electronic25.wav
256,192,180614,1,0,0:0:0:0:
36,192,180714,1,0,0:0:0:70:electronic25.wav
109,192,180714,1,0,0:0:0:0:
182,192,180764,1,0,0:0:0:70:electronic25.wav
256,192,180814,1,0,0:0:0:70:electronic25.wav
329,192,180814,1,0,0:0:0:0:
402,192,180914,1,0,0:0:0:70:electronic25.wav
475,192,180914,1,0,0:0:0:0:
109,192,181014,1,0,0:0:0:70:electronic25.wav
182,192,181014,1,0,0:0:0:0:
329,192,181114,1,0,0:0:0:70:electronic25.wav
402,192,181114,1,0,0:0:0:0:
36,192,181214,1,0,0:0:0:70:electronic25.wav
109,192,181214,1,0,0:0:0:0:
256,192,181314,1,0,0:0:0:70:electronic25.wav
329,192,181314,1,0,0:0:0:0:
182,192,181380,1,0,0:0:0:70:electronic25.wav
109,192,181447,1,0,0:0:0:70:electronic25.wav
402,192,181514,1,0,0:0:0:70:electronic25.wav
475,192,181514,1,0,0:0:0:0:
329,192,181580,1,0,0:0:0:70:electronic25.wav
256,192,181647,1,0,0:0:0:70:electronic25.wav
36,192,181714,128,0,181814:0:0:0:70:Kick 10.wav
109,192,181714,128,0,181814:0:0:0:0:
182,192,181714,128,0,181814:0:0:0:0:
36,192,181914,128,0,182014:0:0:0:70:Kick 10.wav
109,192,181914,128,0,182014:0:0:0:0:
182,192,181914,128,0,182014:0:0:0:0:
36,192,182114,128,0,182214:0:0:0:70:Kick 10.wav
109,192,182114,128,0,182214:0:0:0:0:
182,192,182114,128,0,182214:0:0:0:0:
36,192,182314,128,0,182414:0:0:0:70:Kick 10.wav
109,192,182314,128,0,182414:0:0:0:0:
182,192,182314,128,0,182414:0:0:0:0:
329,192,182514,128,0,182614:0:0:0:70:Kick 10.wav
402,192,182514,128,0,182614:0:0:0:0:
475,192,182514,128,0,182614:0:0:0:0:
329,192,182714,128,0,182814:0:0:0:70:Kick 10.wav
402,192,182714,128,0,182814:0:0:0:0:
475,192,182714,128,0,182814:0:0:0:0:
329,192,182914,128,0,183014:0:0:0:70:Kick 10.wav
402,192,182914,128,0,183014:0:0:0:0:
475,192,182914,128,0,183014:0:0:0:0:
329,192,183114,128,0,183214:0:0:0:70:Kick 10.wav
402,192,183114,128,0,183214:0:0:0:0:
475,192,183114,128,0,183214:0:0:0:0:
36,192,183314,1,0,0:0:0:70:electronic25.wav
256,192,183314,1,0,0:0:0:0:
475,192,183314,1,0,0:0:0:0:
36,192,183514,1,0,0:0:0:70:electronic25.wav
256,192,183514,1,0,0:0:0:0:
475,192,183514,1,0,0:0:0:0:
36,192,183714,1,0,0:0:0:70:electronic25.wav
256,192,183714,1,0,0:0:0:0:
475,192,183714,1,0,0:0:0:0:
36,192,183914,1,0,0:0:0:70:electronic25.wav
256,192,183914,1,0,0:0:0:0:
475,192,183914,1,0,0:0:0:0:
329,192,184014,1,0,0:0:0:70:electronic25.wav
402,192,184014,1,0,0:0:0:0:
256,192,184064,1,0,0:0:0:70:electronic25.wav
109,192,184114,1,0,0:0:0:70:electronic25.wav
182,192,184114,1,0,0:0:0:0:
402,192,184214,1,0,0:0:0:70:electronic25.wav
475,192,184214,1,0,0:0:0:0:
36,192,184314,1,0,0:0:0:70:electronic25.wav
109,192,184314,1,0,0:0:0:0:
329,192,184414,1,0,0:0:0:70:electronic25.wav
402,192,184414,1,0,0:0:0:0:
109,192,184514,1,0,0:0:0:70:electronic25.wav
182,192,184514,1,0,0:0:0:0:
402,192,184614,1,0,0:0:0:70:electronic25.wav
475,192,184614,1,0,0:0:0:0:
36,192,184714,1,0,0:0:0:70:electronic25.wav
109,192,184714,1,0,0:0:0:0:
182,192,184764,1,0,0:0:0:70:electronic25.wav
329,192,184814,1,0,0:0:0:70:electronic25.wav
256,192,184864,1,0,0:0:0:70:electronic25.wav
182,192,184914,128,2,185014:0:0:0:0:
402,192,184914,128,4,185014:0:0:0:0:
475,192,184914,128,0,185014:0:0:0:0:
182,192,185114,128,2,185214:0:0:0:0:
402,192,185114,128,0,185214:0:0:0:0:
475,192,185114,128,0,185214:0:0:0:0:
182,192,185314,128,2,185414:0:0:0:0:
402,192,185314,128,0,185414:0:0:0:0:
475,192,185314,128,0,185414:0:0:0:0:
36,192,185514,1,2,0:0:0:0:
182,192,185514,1,0,0:0:0:0:
329,192,185614,1,2,0:0:0:0:
475,192,185614,1,0,0:0:0:0:
109,192,185714,1,2,0:0:0:0:
256,192,185714,1,0,0:0:0:0:
329,192,185814,1,2,0:0:0:0:
475,192,185814,1,0,0:0:0:0:
36,192,185914,1,2,0:0:0:0:
182,192,185914,1,0,0:0:0:0:
256,192,186014,1,2,0:0:0:0:
402,192,186014,1,0,0:0:0:0:
182,192,186064,1,2,0:0:0:0:
36,192,186114,1,2,0:0:0:0:
109,192,186114,1,0,0:0:0:0:
329,192,186214,1,2,0:0:0:0:
475,192,186214,1,0,0:0:0:0:
36,192,186314,1,2,0:0:0:0:
182,192,186314,1,0,0:0:0:0:
402,192,186364,1,2,0:0:0:0:
256,192,186414,1,2,0:0:0:0:
329,192,186464,1,2,0:0:0:0:
109,192,186514,1,0,0:0:0:70:electronic25.wav
402,192,186514,1,0,0:0:0:0:
475,192,186514,1,0,0:0:0:0:
36,192,186914,128,0,187314:0:0:0:70:electronic25.wav
109,192,186914,128,0,187314:0:0:0:0:
182,192,186914,1,0,0:0:0:0:
475,192,186914,128,0,187214:0:0:0:0:
402,192,186964,128,0,187214:0:0:0:0:
329,192,187014,128,0,187214:0:0:0:0:
182,192,187314,1,0,0:0:0:70:electronic25.wav
402,192,187314,1,0,0:0:0:0:
475,192,187314,1,0,0:0:0:0:
36,192,187714,128,0,188014:0:0:0:70:electronic25.wav
329,192,187714,1,0,0:0:0:0:
402,192,187714,128,0,188114:0:0:0:0:
475,192,187714,128,0,188114:0:0:0:0:
109,192,187764,128,0,188014:0:0:0:0:
182,192,187814,128,0,188014:0:0:0:0:
36,192,188114,1,0,0:0:0:70:electronic25.wav
109,192,188114,1,0,0:0:0:0:
329,192,188114,1,0,0:0:0:0:
36,192,188314,1,0,0:0:0:70:electronic25.wav
109,192,188314,1,0,0:0:0:0:
329,192,188314,1,0,0:0:0:0:
36,192,188514,1,0,0:0:0:70:electronic25.wav
109,192,188514,1,0,0:0:0:0:
329,192,188514,1,0,0:0:0:0:
36,192,188714,1,0,0:0:0:70:electronic25.wav
109,192,188714,1,0,0:0:0:0:
329,192,188714,1,0,0:0:0:0:
402,192,188914,1,0,0:0:0:70:electronic25.wav
475,192,188914,1,0,0:0:0:0:
109,192,189014,1,0,0:0:0:70:electronic25.wav
182,192,189014,1,0,0:0:0:0:
402,192,189114,1,0,0:0:0:70:electronic25.wav
475,192,189114,1,0,0:0:0:0:
36,192,189214,1,0,0:0:0:70:electronic25.wav
109,192,189214,1,0,0:0:0:0:
329,192,189314,1,0,0:0:0:70:electronic25.wav
402,192,189314,1,0,0:0:0:0:
256,192,189364,1,0,0:0:0:70:electronic25.wav
109,192,189414,1,0,0:0:0:70:electronic25.wav
182,192,189464,1,0,0:0:0:70:electronic25.wav
475,192,189514,1,0,0:0:0:70:electronic25.wav
329,192,189564,1,0,0:0:0:70:electronic25.wav
109,192,189614,1,0,0:0:0:70:electronic25.wav
256,192,189664,1,0,0:0:0:70:electronic25.wav
36,192,189714,1,2,0:0:0:0:
402,192,189714,1,0,0:0:0:100:LR3_Snare WRH.wav
475,192,189714,1,0,0:0:0:0:
36,192,189928,1,2,0:0:0:0:
329,192,189928,1,0,0:0:0:100:LR3_Snare WRH.wav
402,192,189928,1,0,0:0:0:0:
256,192,190142,1,2,0:0:0:0:
329,192,190142,1,0,0:0:0:100:LR3_Snare WRH.wav
475,192,190142,1,0,0:0:0:0:
182,192,190372,1,2,0:0:0:0:
256,192,190372,1,0,0:0:0:100:LR3_Snare WRH.wav
475,192,190372,1,0,0:0:0:0:
36,192,190603,1,2,0:0:0:0:
109,192,190603,1,0,0:0:0:100:LR3_Snare WRH.wav
182,192,190603,1,0,0:0:0:0:
182,192,190728,1,0,0:0:0:100:LR3_Snare WRH.wav
329,192,190853,1,2,0:0:0:0:
402,192,190853,1,0,0:0:0:100:LR3_Snare WRH.wav
475,192,190853,1,0,0:0:0:0:
329,192,190978,1,0,0:0:0:100:LR3_Snare WRH.wav
36,192,191103,1,2,0:0:0:0:
109,192,191103,1,0,0:0:0:100:LR3_Snare WRH.wav
182,192,191103,1,0,0:0:0:0:
182,192,191228,1,0,0:0:0:100:LR3_Snare WRH.wav
329,192,191353,1,2,0:0:0:0:
402,192,191353,1,0,0:0:0:100:LR3_Snare WRH.wav
475,192,191353,1,0,0:0:0:0:
109,192,191415,1,0,0:0:0:0:
329,192,191478,1,0,0:0:0:100:LR3_Snare WRH.wav
182,192,191540,1,0,0:0:0:0:
36,192,191603,1,2,0:0:0:0:
256,192,191603,1,4,0:0:0:0:
475,192,191603,1,0,0:0:0:0:
36,192,193603,1,4,0:0:0:0:
109,192,193603,1,2,0:0:0:0:
402,192,193603,1,0,0:0:0:0:
475,192,193603,1,0,0:0:0:0:
182,192,193978,1,0,0:0:0:0:
256,192,194353,1,0,0:0:0:0:
36,192,194603,1,0,0:0:0:0:
109,192,195103,1,0,0:0:0:0:
182,192,195353,1,0,0:0:0:0:
329,192,195603,1,0,0:0:0:0:
256,192,195853,1,0,0:0:0:0:
109,192,195978,1,0,0:0:0:0:
182,192,196228,1,0,0:0:0:0:
329,192,196353,1,0,0:0:0:0:
475,192,196478,1,0,0:0:0:0:
256,192,196603,1,0,0:0:0:0:
402,192,196728,1,0,0:0:0:0:
329,192,196978,1,0,0:0:0:0:
109,192,197228,1,0,0:0:0:0:
256,192,197353,1,0,0:0:0:0:
402,192,197478,1,0,0:0:0:0:
36,192,197603,1,0,0:0:0:0:
182,192,198603,1,0,0:0:0:0:
256,192,198978,1,0,0:0:0:0:
329,192,199353,1,0,0:0:0:0:
182,192,199478,1,0,0:0:0:0:
329,192,199603,1,0,0:0:0:0:
109,192,199728,1,0,0:0:0:0:
36,192,199978,1,0,0:0:0:0:
109,192,200228,1,0,0:0:0:0:
182,192,200353,1,0,0:0:0:0:
36,192,200478,1,0,0:0:0:0:
329,192,200603,1,0,0:0:0:0:
256,192,200728,1,0,0:0:0:0:
402,192,200978,1,0,0:0:0:0:
182,192,201228,1,0,0:0:0:0:
256,192,201353,1,0,0:0:0:0:
329,192,201478,1,0,0:0:0:0:
109,192,201603,1,0,0:0:0:0:
182,192,201978,1,0,0:0:0:0:
256,192,202353,1,0,0:0:0:0:
36,192,202603,1,0,0:0:0:0:
109,192,202978,1,0,0:0:0:0:
182,192,203228,1,0,0:0:0:0:
329,192,203603,1,0,0:0:0:0:
256,192,203978,1,0,0:0:0:0:
329,192,204353,1,0,0:0:0:0:
475,192,204478,1,0,0:0:0:0:
256,192,204603,1,0,0:0:0:0:
402,192,204728,1,0,0:0:0:0:
329,192,204978,1,0,0:0:0:0:
256,192,205228,1,0,0:0:0:0:
109,192,205353,1,0,0:0:0:0:
329,192,205478,1,0,0:0:0:0:
475,192,205603,1,0,0:0:0:0:
182,192,206603,1,0,0:0:0:0:
256,192,206978,1,0,0:0:0:0:
329,192,207353,1,0,0:0:0:0:
182,192,207603,1,0,0:0:0:0:
109,192,207728,1,0,0:0:0:0:
36,192,207978,1,0,0:0:0:0:
182,192,208353,1,0,0:0:0:0:
329,192,208603,1,0,0:0:0:0:
256,192,208728,1,0,0:0:0:0:
109,192,208853,1,0,0:0:0:0:
36,192,208978,1,0,0:0:0:0:
182,192,209228,1,0,0:0:0:0:
329,192,209353,1,0,0:0:0:0:
36,192,209603,1,0,0:0:0:70:Kick 12.wav
329,192,209603,1,0,0:0:0:0:
475,192,209603,1,0,0:0:0:0:
109,192,209978,1,0,0:0:0:70:Kick 12.wav
475,192,209978,1,0,0:0:0:0:
182,192,210353,1,0,0:0:0:70:Kick 12.wav
475,192,210353,1,0,0:0:0:0:
402,192,210478,1,0,0:0:0:0:
36,192,210603,1,0,0:0:0:70:Kick 12.wav
329,192,210603,1,0,0:0:0:0:
36,192,210978,1,0,0:0:0:70:Kick 12.wav
329,192,211103,1,0,0:0:0:0:
109,192,211228,1,0,0:0:0:70:Kick 12.wav
36,192,211353,1,0,0:0:0:70:Kick 12.wav
182,192,211353,1,0,0:0:0:0:
109,192,211603,1,0,0:0:0:70:Kick 12.wav
256,192,211603,1,0,0:0:0:0:
402,192,211603,1,0,0:0:0:0:
109,192,211853,1,0,0:0:0:0:
329,192,211853,1,0,0:0:0:0:
475,192,211978,1,0,0:0:0:70:Kick 12.wav
256,192,212228,1,0,0:0:0:0:
402,192,212353,1,0,0:0:0:70:Kick 12.wav
475,192,212353,1,0,0:0:0:0:
182,192,212478,1,0,0:0:0:70:Kick 12.wav
36,192,212603,1,0,0:0:0:70:Kick 12.wav
329,192,212603,1,0,0:0:0:0:
329,192,212728,1,0,0:0:0:70:Kick 12.wav
475,192,212728,1,0,0:0:0:0:
109,192,212978,1,0,0:0:0:70:Kick 12.wav
402,192,212978,1,0,0:0:0:0:
402,192,213228,1,0,0:0:0:70:Kick 12.wav
109,192,213353,1,0,0:0:0:70:Kick 12.wav
329,192,213353,1,0,0:0:0:0:
182,192,213478,1,0,0:0:0:70:Kick 12.wav
256,192,213540,1,0,0:0:0:70:Kick 12.wav
36,192,213603,1,0,0:0:0:70:Kick 12.wav
329,192,213603,1,0,0:0:0:0:
475,192,213603,1,0,0:0:0:0:
329,192,214603,1,0,0:0:0:70:Kick 12.wav
475,192,214603,1,0,0:0:0:0:
256,192,214978,1,0,0:0:0:70:Kick 12.wav
475,192,214978,1,0,0:0:0:0:
109,192,215228,1,0,0:0:0:70:Kick 12.wav
182,192,215353,1,0,0:0:0:70:Kick 12.wav
402,192,215353,1,0,0:0:0:0:
329,192,215478,1,0,0:0:0:0:
36,192,215603,1,0,0:0:0:70:Kick 12.wav
109,192,215603,1,0,0:0:0:0:
475,192,215603,1,0,0:0:0:0:
256,192,215728,1,0,0:0:0:0:
182,192,215978,1,0,0:0:0:70:Kick 12.wav
475,192,215978,1,0,0:0:0:0:
402,192,216228,1,0,0:0:0:0:
36,192,216353,1,0,0:0:0:70:Kick 12.wav
256,192,216353,1,0,0:0:0:0:
109,192,216478,1,0,0:0:0:70:Kick 12.wav
182,192,216603,1,0,0:0:0:70:Kick 12.wav
402,192,216603,1,0,0:0:0:0:
475,192,216603,1,0,0:0:0:0:
329,192,216728,1,0,0:0:0:0:
109,192,216978,1,0,0:0:0:70:Kick 12.wav
402,192,216978,1,0,0:0:0:0:
36,192,217228,1,0,0:0:0:0:
109,192,217353,1,0,0:0:0:70:Kick 12.wav
402,192,217353,1,0,0:0:0:0:
256,192,217478,1,0,0:0:0:70:Kick 12.wav
182,192,217540,1,0,0:0:0:70:Kick 12.wav
109,192,217603,1,0,0:0:0:70:Kick 12.wav
329,192,217603,1,0,0:0:0:0:
475,192,217603,1,0,0:0:0:0:
109,192,217978,1,0,0:0:0:70:Kick 12.wav
402,192,217978,1,0,0:0:0:0:
109,192,218353,1,0,0:0:0:70:Kick 12.wav
329,192,218353,1,0,0:0:0:0:
256,192,218478,1,0,0:0:0:0:
36,192,218603,1,0,0:0:0:70:Kick 12.wav
182,192,218603,1,0,0:0:0:0:
256,192,218978,1,0,0:0:0:70:Kick 12.wav
475,192,218978,1,0,0:0:0:0:
402,192,219228,1,0,0:0:0:70:Kick 12.wav
109,192,219353,1,0,0:0:0:70:Kick 12.wav
256,192,219353,1,0,0:0:0:0:
36,192,219603,1,0,0:0:0:70:Kick 12.wav
329,192,219603,1,0,0:0:0:0:
475,192,219603,1,0,0:0:0:0:
36,192,219978,1,0,0:0:0:70:Kick 12.wav
402,192,219978,1,0,0:0:0:0:
109,192,220353,1,0,0:0:0:70:Kick 12.wav
256,192,220353,1,0,0:0:0:0:
329,192,220478,1,0,0:0:0:70:Kick 12.wav
182,192,220603,1,0,0:0:0:70:Kick 12.wav
475,192,220603,1,0,0:0:0:0:
36,192,220728,1,0,0:0:0:70:Kick 12.wav
182,192,220728,1,0,0:0:0:0:
256,192,220978,1,0,0:0:0:70:Kick 12.wav
402,192,220978,1,0,0:0:0:0:
109,192,221228,1,0,0:0:0:70:Kick 12.wav
182,192,221353,1,0,0:0:0:70:Kick 12.wav
475,192,221353,1,0,0:0:0:0:
329,192,221478,1,0,0:0:0:70:Kick 12.wav
402,192,221540,1,0,0:0:0:70:Kick 12.wav
36,192,221603,1,0,0:0:0:70:Kick 12.wav
182,192,221603,1,0,0:0:0:0:
475,192,221603,1,0,0:0:0:0:
182,192,222603,1,0,0:0:0:70:Kick 12.wav
402,192,222603,1,0,0:0:0:0:
256,192,222978,1,0,0:0:0:70:Kick 12.wav
475,192,222978,1,0,0:0:0:0:
329,192,223228,1,0,0:0:0:70:Kick 12.wav
36,192,223353,1,0,0:0:0:70:Kick 12.wav
109,192,223353,1,0,0:0:0:0:
36,192,223603,1,4,0:0:0:0:
256,192,223603,1,0,0:0:0:70:Kick 12.wav
475,192,223603,1,0,0:0:0:0:
402,192,223728,1,0,0:0:0:0:
329,192,223978,1,0,0:0:0:0:
256,192,224353,1,0,0:0:0:0:
109,192,224603,1,0,0:0:0:0:
182,192,224728,1,0,0:0:0:0:
36,192,224853,1,0,0:0:0:0:
109,192,224978,1,0,0:0:0:0:
36,192,225603,1,4,0:0:0:0:
329,192,225603,1,2,0:0:0:0:
402,192,225603,1,0,0:0:0:0:
475,192,225603,1,0,0:0:0:0:
109,192,225728,1,0,0:0:0:0:
182,192,225853,1,0,0:0:0:0:
36,192,225978,1,0,0:0:0:0:
256,192,226103,128,0,226228:0:0:0:0:
182,192,226228,1,0,0:0:0:0:
329,192,226290,1,0,0:0:0:0:
182,192,226353,1,0,0:0:0:0:
256,192,226478,1,0,0:0:0:0:
329,192,226603,128,0,226728:0:0:0:0:
182,192,226728,128,0,226853:0:0:0:0:
329,192,226978,128,0,227103:0:0:0:0:
182,192,227103,128,0,227228:0:0:0:0:
256,192,227228,1,0,0:0:0:0:
329,192,227353,1,0,0:0:0:0:
402,192,227478,1,0,0:0:0:0:
475,192,227603,128,0,227728:0:0:0:0:
329,192,227728,128,0,227853:0:0:0:0:
475,192,227978,128,0,228103:0:0:0:0:
329,192,228103,128,0,228228:0:0:0:0:
475,192,228228,1,0,0:0:0:0:
329,192,228353,1,0,0:0:0:0:
182,192,228478,1,0,0:0:0:0:
36,192,228603,1,0,0:0:0:0:
182,192,228665,1,0,0:0:0:0:
36,192,228728,128,0,228853:0:0:0:0:
109,192,228853,1,0,0:0:0:0:
256,192,228978,128,0,229228:0:0:0:0:
109,192,229228,1,0,0:0:0:0:
36,192,229353,1,0,0:0:0:0:
182,192,229478,1,0,0:0:0:0:
329,192,229603,128,0,229728:0:0:0:0:
475,192,229728,128,0,229853:0:0:0:0:
329,192,229978,128,0,230103:0:0:0:0:
475,192,230103,128,0,230228:0:0:0:0:
329,192,230353,1,0,0:0:0:0:
256,192,230478,1,0,0:0:0:0:
182,192,230603,128,0,230728:0:0:0:0:
36,192,230728,128,0,230853:0:0:0:0:
182,192,230978,128,0,231103:0:0:0:0:
36,192,231103,128,0,231228:0:0:0:0:
182,192,231228,1,0,0:0:0:0:
256,192,231353,1,0,0:0:0:0:
329,192,231478,1,0,0:0:0:0:
402,192,231603,128,0,231728:0:0:0:0:
256,192,231728,1,0,0:0:0:0:
329,192,231853,1,0,0:0:0:0:
475,192,231978,128,0,232228:0:0:0:0:
256,192,232228,1,0,0:0:0:0:
402,192,232353,1,0,0:0:0:0:
475,192,232478,1,0,0:0:0:0:
109,192,232603,128,0,232728:0:0:0:0:
256,192,232728,1,0,0:0:0:0:
182,192,232853,1,0,0:0:0:0:
36,192,232978,128,0,233228:0:0:0:0:
256,192,233228,1,0,0:0:0:0:
182,192,233353,1,0,0:0:0:0:
109,192,233478,1,0,0:0:0:0:
36,192,233603,1,2,0:0:0:0:
329,192,233603,1,0,0:0:0:0:
256,192,233728,1,0,0:0:0:0:
109,192,233853,1,8,0:0:0:0:
182,192,233853,1,0,0:0:0:0:
329,192,233978,1,0,0:0:0:0:
475,192,234103,128,0,234228:0:0:0:0:
402,192,234228,1,0,0:0:0:0:
256,192,234290,1,0,0:0:0:0:
36,192,234353,1,8,0:0:0:0:
109,192,234353,1,0,0:0:0:0:
182,192,234478,1,0,0:0:0:0:
475,192,234603,128,0,234728:0:0:0:0:
329,192,234728,128,0,234853:0:0:0:0:
109,192,234853,1,8,0:0:0:0:
475,192,234978,128,0,235103:0:0:0:0:
329,192,235103,128,0,235228:0:0:0:0:
475,192,235228,1,0,0:0:0:0:
109,192,235353,1,8,0:0:0:0:
329,192,235353,1,0,0:0:0:0:
182,192,235478,1,0,0:0:0:0:
36,192,235603,128,0,235728:0:0:0:0:
182,192,235728,128,0,235853:0:0:0:0:
402,192,235853,1,8,0:0:0:0:
36,192,235978,128,0,236103:0:0:0:0:
182,192,236103,128,0,236228:0:0:0:0:
329,192,236228,1,0,0:0:0:0:
109,192,236353,1,8,0:0:0:0:
402,192,236353,1,0,0:0:0:0:
256,192,236478,1,0,0:0:0:0:
182,192,236603,1,0,0:0:0:0:
329,192,236665,1,0,0:0:0:0:
182,192,236728,128,0,236853:0:0:0:0:
402,192,236853,1,8,0:0:0:0:
475,192,236853,1,0,0:0:0:0:
256,192,236978,128,0,237228:0:0:0:0:
329,192,237228,1,0,0:0:0:0:
109,192,237353,1,8,0:0:0:0:
402,192,237353,128,0,237478:0:0:0:0:
256,192,237478,1,0,0:0:0:0:
329,192,237603,128,0,237728:0:0:0:0:
475,192,237728,128,0,237853:0:0:0:0:
109,192,237853,1,8,0:0:0:0:
329,192,237978,128,0,238103:0:0:0:0:
475,192,238103,128,0,238228:0:0:0:0:
109,192,238353,1,8,0:0:0:0:
402,192,238353,1,0,0:0:0:0:
256,192,238478,1,0,0:0:0:0:
182,192,238603,128,0,238728:0:0:0:0:
36,192,238728,128,0,238853:0:0:0:0:
402,192,238853,1,8,0:0:0:0:
182,192,238978,128,0,239103:0:0:0:0:
36,192,239103,128,0,239228:0:0:0:0:
182,192,239228,1,0,0:0:0:0:
109,192,239353,1,8,0:0:0:0:
402,192,239353,1,0,0:0:0:0:
36,192,239478,1,0,0:0:0:0:
182,192,239603,1,0,0:0:0:0:
256,192,239728,1,0,0:0:0:0:
109,192,239853,1,8,0:0:0:0:
329,192,239853,1,0,0:0:0:0:
475,192,239978,128,0,240228:0:0:0:0:
329,192,240228,1,0,0:0:0:0:
109,192,240353,1,8,0:0:0:0:
256,192,240353,1,0,0:0:0:0:
182,192,240478,1,0,0:0:0:0:
329,192,240603,1,0,0:0:0:0:
402,192,240728,1,0,0:0:0:0:
182,192,240853,1,8,0:0:0:0:
475,192,240853,1,0,0:0:0:0:
36,192,240978,128,0,241228:0:0:0:0:
182,192,241228,1,0,0:0:0:0:
109,192,241353,1,8,0:0:0:0:
402,192,241353,1,0,0:0:0:0:
36,192,241478,1,0,0:0:0:0:
182,192,241603,1,2,0:0:0:0:
256,192,241603,1,4,0:0:0:0:
329,192,241603,128,0,242603:0:0:0:0:
475,192,241603,128,0,243353:0:0:0:0:
36,192,241853,1,8,0:0:0:0:
109,192,241853,1,0,0:0:0:0:
36,192,242353,1,8,0:0:0:0:
109,192,242353,1,0,0:0:0:0:
36,192,242853,1,8,0:0:0:0:
109,192,242853,1,0,0:0:0:0:
36,192,243353,1,8,0:0:0:0:
109,192,243353,1,0,0:0:0:0:
36,192,243603,128,4,245353:0:0:0:0:
182,192,243603,128,2,244603:0:0:0:0:
256,192,243603,1,0,0:0:0:0:
329,192,243603,1,0,0:0:0:0:
402,192,243853,1,8,0:0:0:0:
475,192,243853,1,0,0:0:0:0:
402,192,244353,1,8,0:0:0:0:
475,192,244353,1,0,0:0:0:0:
402,192,244853,1,8,0:0:0:0:
475,192,244853,1,0,0:0:0:0:
402,192,245353,1,8,0:0:0:0:
475,192,245353,1,0,0:0:0:0:
182,192,245603,1,2,0:0:0:0:
256,192,245603,1,4,0:0:0:0:
329,192,245603,128,0,246603:0:0:0:0:
475,192,245603,128,0,247353:0:0:0:0:
36,192,245853,1,8,0:0:0:0:
109,192,245853,1,0,0:0:0:0:
36,192,246353,1,8,0:0:0:0:
109,192,246353,1,0,0:0:0:0:
36,192,246853,1,8,0:0:0:0:
109,192,246853,1,0,0:0:0:0:
36,192,247353,1,8,0:0:0:0:
109,192,247353,1,0,0:0:0:0:
36,192,247603,128,4,249353:0:0:0:0:
182,192,247603,128,2,248603:0:0:0:0:
256,192,247603,1,0,0:0:0:0:
329,192,247603,1,0,0:0:0:0:
402,192,247853,1,8,0:0:0:0:
475,192,247853,1,0,0:0:0:0:
402,192,248353,1,8,0:0:0:0:
475,192,248353,1,0,0:0:0:0:
402,192,248853,1,8,0:0:0:0:
475,192,248853,1,0,0:0:0:0:
402,192,249353,1,8,0:0:0:0:
475,192,249353,1,0,0:0:0:0:
36,192,249603,1,2,0:0:0:0:
109,192,249603,128,4,249853:0:0:0:0:
329,192,249603,1,0,0:0:0:0:
475,192,249603,1,0,0:0:0:0:
256,192,249728,1,0,0:0:0:0:
182,192,249853,1,8,0:0:0:0:
402,192,249853,128,0,250103:0:0:0:0:
256,192,249978,1,0,0:0:0:0:
109,192,250103,128,2,250353:0:0:0:0:
329,192,250103,1,0,0:0:0:0:
256,192,250228,1,0,0:0:0:0:
182,192,250353,1,8,0:0:0:0:
402,192,250353,128,0,250603:0:0:0:0:
256,192,250478,1,0,0:0:0:0:
109,192,250603,128,2,250853:0:0:0:0:
329,192,250603,1,0,0:0:0:0:
256,192,250728,1,0,0:0:0:0:
182,192,250853,1,8,0:0:0:0:
402,192,250853,128,0,251103:0:0:0:0:
256,192,250978,1,0,0:0:0:0:
109,192,251103,128,2,251353:0:0:0:0:
329,192,251103,1,0,0:0:0:0:
256,192,251228,1,0,0:0:0:0:
182,192,251353,1,8,0:0:0:0:
402,192,251353,128,0,251603:0:0:0:0:
256,192,251478,1,0,0:0:0:0:
36,192,251603,128,2,251853:0:0:0:0:
109,192,251603,1,4,0:0:0:0:
475,192,251603,1,0,0:0:0:0:
256,192,251728,1,0,0:0:0:0:
402,192,251853,1,8,0:0:0:0:
475,192,251853,128,0,252103:0:0:0:0:
256,192,251978,1,0,0:0:0:0:
36,192,252103,128,2,252353:0:0:0:0:
109,192,252103,1,0,0:0:0:0:
256,192,252228,1,0,0:0:0:0:
402,192,252353,1,8,0:0:0:0:
475,192,252353,128,0,252603:0:0:0:0:
256,192,252478,1,0,0:0:0:0:
36,192,252603,128,2,252853:0:0:0:0:
109,192,252603,1,0,0:0:0:0:
256,192,252728,1,0,0:0:0:0:
402,192,252853,1,8,0:0:0:0:
475,192,252853,128,0,253103:0:0:0:0:
256,192,252978,1,0,0:0:0:0:
36,192,253103,128,2,253353:0:0:0:0:
109,192,253103,1,0,0:0:0:0:
256,192,253228,1,0,0:0:0:0:
402,192,253353,1,8,0:0:0:0:
475,192,253353,128,0,253603:0:0:0:0:
256,192,253478,1,0,0:0:0:0:
36,192,253603,1,2,0:0:0:0:
109,192,253603,1,4,0:0:0:0:
329,192,253603,1,0,0:0:0:0:
329,192,253728,1,0,0:0:0:0:
109,192,253853,1,2,0:0:0:0:
182,192,253853,1,8,0:0:0:0:
402,192,253853,1,0,0:0:0:0:
402,192,253978,1,0,0:0:0:0:
182,192,254103,1,2,0:0:0:0:
256,192,254103,1,0,0:0:0:0:
475,192,254103,1,0,0:0:0:0:
475,192,254228,1,0,0:0:0:0:
256,192,254353,1,2,0:0:0:0:
329,192,254353,1,8,0:0:0:0:
475,192,254478,1,0,0:0:0:0:
402,192,254540,1,0,0:0:0:0:
36,192,254603,1,2,0:0:0:0:
182,192,254603,1,0,0:0:0:0:
329,192,254603,1,0,0:0:0:0:
329,192,254728,1,0,0:0:0:0:
109,192,254853,1,2,0:0:0:0:
256,192,254853,1,8,0:0:0:0:
402,192,254853,1,0,0:0:0:0:
402,192,254978,1,0,0:0:0:0:
182,192,255103,1,2,0:0:0:0:
329,192,255103,1,0,0:0:0:0:
475,192,255103,1,0,0:0:0:0:
475,192,255228,1,0,0:0:0:0:
256,192,255353,1,2,0:0:0:0:
402,192,255353,1,8,0:0:0:0:
182,192,255478,1,0,0:0:0:0:
109,192,255540,1,0,0:0:0:0:
36,192,255603,1,2,0:0:0:0:
329,192,255603,1,0,0:0:0:0:
475,192,255603,1,0,0:0:0:0:
109,192,255728,1,2,0:0:0:0:
256,192,255728,1,0,0:0:0:0:
182,192,255853,1,2,0:0:0:0:
402,192,255853,1,0,0:0:0:0:
109,192,255978,1,2,0:0:0:0:
329,192,255978,1,0,0:0:0:0:
36,192,256103,1,2,0:0:0:0:
256,192,256103,1,0,0:0:0:0:
475,192,256103,1,0,0:0:0:0:
182,192,256228,1,2,0:0:0:0:
402,192,256228,1,0,0:0:0:0:
36,192,256353,1,2,0:0:0:0:
109,192,256353,1,0,0:0:0:0:
256,192,256415,1,2,0:0:0:0:
402,192,256478,1,2,0:0:0:0:
475,192,256478,1,0,0:0:0:0:
256,192,256540,1,2,0:0:0:0:
36,192,256603,1,2,0:0:0:0:
109,192,256603,1,0,0:0:0:0:
475,192,256603,1,0,0:0:0:0:
36,192,257603,1,2,0:0:0:0:
182,192,257603,1,4,0:0:0:0:
402,192,257603,1,0,0:0:0:0:
475,192,257603,1,0,0:0:0:0:
256,192,257728,1,0,0:0:0:0:
182,192,257790,1,0,0:0:0:0:
36,192,257853,128,2,257978:0:0:0:0:
329,192,257853,1,8,0:0:0:0:
475,192,257853,1,0,0:0:0:0:
256,192,257978,128,0,258103:0:0:0:0:
36,192,258103,128,2,258228:0:0:0:0:
402,192,258103,1,0,0:0:0:0:
475,192,258103,1,0,0:0:0:0:
256,192,258228,1,0,0:0:0:0:
329,192,258290,1,0,0:0:0:0:
36,192,258353,1,2,0:0:0:0:
182,192,258353,1,8,0:0:0:0:
475,192,258353,1,0,0:0:0:0:
256,192,258478,1,0,0:0:0:0:
402,192,258478,1,0,0:0:0:0:
109,192,258603,128,2,258728:0:0:0:0:
329,192,258603,1,0,0:0:0:0:
475,192,258603,1,0,0:0:0:0:
256,192,258728,128,0,258853:0:0:0:0:
36,192,258853,1,8,0:0:0:0:
182,192,258853,1,2,0:0:0:0:
475,192,258853,1,0,0:0:0:0:
329,192,258978,128,0,259103:0:0:0:0:
36,192,259103,1,2,0:0:0:0:
109,192,259103,1,0,0:0:0:0:
475,192,259103,128,0,259228:0:0:0:0:
182,192,259228,128,0,259353:0:0:0:0:
329,192,259228,1,0,0:0:0:0:
36,192,259353,1,8,0:0:0:0:
256,192,259353,1,2,0:0:0:0:
475,192,259353,1,0,0:0:0:0:
109,192,259478,1,0,0:0:0:0:
329,192,259478,1,0,0:0:0:0:
182,192,259603,1,2,0:0:0:0:
402,192,259603,1,0,0:0:0:0:
475,192,259603,1,0,0:0:0:0:
256,192,259728,1,0,0:0:0:0:
36,192,259853,1,8,0:0:0:0:
329,192,259853,1,2,0:0:0:0:
475,192,259853,1,0,0:0:0:0:
182,192,259915,1,0,0:0:0:0:
109,192,259978,1,0,0:0:0:0:
402,192,259978,1,0,0:0:0:0:
256,192,260103,1,2,0:0:0:0:
475,192,260103,1,0,0:0:0:0:
109,192,260228,1,0,0:0:0:0:
329,192,260228,1,0,0:0:0:0:
36,192,260353,1,8,0:0:0:0:
182,192,260353,1,2,0:0:0:0:
475,192,260353,1,0,0:0:0:0:
256,192,260478,1,0,0:0:0:0:
402,192,260478,1,0,0:0:0:0:
182,192,260540,1,0,0:0:0:0:
36,192,260603,1,2,0:0:0:0:
109,192,260603,128,0,260728:0:0:0:0:
329,192,260603,1,0,0:0:0:0:
256,192,260728,128,0,260853:0:0:0:0:
36,192,260853,1,8,0:0:0:0:
182,192,260853,1,2,0:0:0:0:
475,192,260853,1,0,0:0:0:0:
256,192,260978,1,0,0:0:0:0:
402,192,260978,1,0,0:0:0:0:
109,192,261103,1,2,0:0:0:0:
329,192,261103,1,0,0:0:0:0:
182,192,261165,1,0,0:0:0:0:
36,192,261228,1,0,0:0:0:0:
329,192,261228,1,0,0:0:0:0:
256,192,261353,1,8,0:0:0:0:
402,192,261353,1,2,0:0:0:0:
475,192,261353,1,0,0:0:0:0:
182,192,261478,1,2,0:0:0:0:
402,192,261478,1,0,0:0:0:0:
475,192,261478,1,0,0:0:0:0:
36,192,261603,1,2,0:0:0:0:
109,192,261603,128,0,261728:0:0:0:0:
256,192,261603,1,0,0:0:0:0:
402,192,261728,128,0,261853:0:0:0:0:
36,192,261853,1,8,0:0:0:0:
182,192,261853,1,2,0:0:0:0:
329,192,261853,1,0,0:0:0:0:
256,192,261978,128,0,262228:0:0:0:0:
109,192,262103,128,2,262353:0:0:0:0:
329,192,262103,1,0,0:0:0:0:
475,192,262103,1,0,0:0:0:0:
402,192,262228,1,0,0:0:0:0:
329,192,262290,1,0,0:0:0:0:
36,192,262353,1,8,0:0:0:0:
256,192,262353,1,2,0:0:0:0:
475,192,262353,128,0,262478:0:0:0:0:
109,192,262478,1,0,0:0:0:0:
329,192,262478,128,0,262603:0:0:0:0:
256,192,262603,1,2,0:0:0:0:
402,192,262603,128,0,262728:0:0:0:0:
475,192,262603,1,0,0:0:0:0:
109,192,262728,128,0,262853:0:0:0:0:
182,192,262853,1,8,0:0:0:0:
329,192,262853,1,2,0:0:0:0:
475,192,262853,1,0,0:0:0:0:
256,192,262978,128,0,263228:0:0:0:0:
36,192,263103,1,2,0:0:0:0:
182,192,263103,1,0,0:0:0:0:
402,192,263103,128,0,263353:0:0:0:0:
109,192,263228,1,0,0:0:0:0:
182,192,263290,1,0,0:0:0:0:
36,192,263353,128,8,263603:0:0:0:0:
256,192,263353,1,2,0:0:0:0:
475,192,263353,1,0,0:0:0:0:
109,192,263478,128,0,263603:0:0:0:0:
402,192,263478,1,0,0:0:0:0:
256,192,263603,1,2,0:0:0:0:
329,192,263603,128,0,263728:0:0:0:0:
475,192,263603,128,0,263853:0:0:0:0:
182,192,263728,1,0,0:0:0:0:
256,192,263790,1,0,0:0:0:0:
36,192,263853,1,8,0:0:0:0:
109,192,263853,128,2,263978:0:0:0:0:
329,192,263853,1,0,0:0:0:0:
402,192,263978,1,0,0:0:0:0:
256,192,264040,1,0,0:0:0:0:
36,192,264103,128,2,264353:0:0:0:0:
182,192,264103,128,0,264228:0:0:0:0:
475,192,264103,1,0,0:0:0:0:
329,192,264228,1,0,0:0:0:0:
256,192,264290,1,0,0:0:0:0:
182,192,264353,1,8,0:0:0:0:
402,192,264353,128,2,264478:0:0:0:0:
475,192,264353,1,0,0:0:0:0:
256,192,264478,1,0,0:0:0:0:
36,192,264603,1,2,0:0:0:0:
109,192,264603,1,0,0:0:0:0:
329,192,264603,128,0,264728:0:0:0:0:
182,192,264728,1,0,0:0:0:0:
475,192,264728,128,0,264853:0:0:0:0:
36,192,264853,1,8,0:0:0:0:
256,192,264853,128,2,264978:0:0:0:0:
329,192,264853,1,0,0:0:0:0:
109,192,264978,1,0,0:0:0:0:
402,192,264978,128,0,265103:0:0:0:0:
36,192,265103,1,2,0:0:0:0:
182,192,265103,1,0,0:0:0:0:
36,192,265228,1,2,0:0:0:0:
182,192,265228,1,0,0:0:0:0:
329,192,265353,1,8,0:0:0:0:
475,192,265353,1,2,0:0:0:0:
109,192,265415,1,2,0:0:0:0:
329,192,265478,1,2,0:0:0:0:
475,192,265478,1,0,0:0:0:0:
182,192,265540,1,2,0:0:0:0:
36,192,265603,1,4,0:0:0:0:
256,192,265603,1,2,0:0:0:0:
475,192,265603,1,0,0:0:0:0:
329,192,265728,1,0,0:0:0:0:
256,192,265790,1,0,0:0:0:0:
36,192,265853,128,2,265978:0:0:0:0:
182,192,265853,1,8,0:0:0:0:
475,192,265853,1,0,0:0:0:0:
256,192,265978,128,0,266103:0:0:0:0:
36,192,266103,128,2,266228:0:0:0:0:
402,192,266103,1,0,0:0:0:0:
475,192,266103,1,0,0:0:0:0:
182,192,266228,1,0,0:0:0:0:
329,192,266290,1,0,0:0:0:0:
36,192,266353,1,2,0:0:0:0:
256,192,266353,1,8,0:0:0:0:
475,192,266353,1,0,0:0:0:0:
182,192,266478,1,0,0:0:0:0:
329,192,266478,1,0,0:0:0:0:
109,192,266603,128,2,266728:0:0:0:0:
402,192,266603,1,0,0:0:0:0:
475,192,266603,1,0,0:0:0:0:
256,192,266728,128,0,266853:0:0:0:0:
36,192,266853,1,2,0:0:0:0:
182,192,266853,1,8,0:0:0:0:
475,192,266853,1,0,0:0:0:0:
402,192,266978,128,0,267103:0:0:0:0:
36,192,267103,1,2,0:0:0:0:
256,192,267103,1,0,0:0:0:0:
475,192,267103,128,0,267228:0:0:0:0:
109,192,267228,1,0,0:0:0:0:
329,192,267228,128,0,267353:0:0:0:0:
36,192,267353,1,2,0:0:0:0:
182,192,267353,1,8,0:0:0:0:
402,192,267353,1,0,0:0:0:0:
256,192,267478,1,0,0:0:0:0:
475,192,267478,1,0,0:0:0:0:
109,192,267603,1,2,0:0:0:0:
329,192,267603,1,0,0:0:0:0:
402,192,267603,1,0,0:0:0:0:
182,192,267728,1,0,0:0:0:0:
36,192,267853,1,2,0:0:0:0:
329,192,267853,1,8,0:0:0:0:
475,192,267853,1,0,0:0:0:0:
256,192,267915,1,0,0:0:0:0:
182,192,267978,1,0,0:0:0:0:
402,192,267978,1,0,0:0:0:0:
36,192,268103,1,2,0:0:0:0:
256,192,268103,1,0,0:0:0:0:
109,192,268228,1,0,0:0:0:0:
329,192,268228,1,0,0:0:0:0:
36,192,268353,1,2,0:0:0:0:
182,192,268353,1,8,0:0:0:0:
475,192,268353,1,0,0:0:0:0:
256,192,268478,1,0,0:0:0:0:
402,192,268478,1,0,0:0:0:0:
182,192,268540,1,0,0:0:0:0:
36,192,268603,1,2,0:0:0:0:
109,192,268603,128,0,268728:0:0:0:0:
329,192,268603,1,0,0:0:0:0:
256,192,268728,128,0,268853:0:0:0:0:
36,192,268853,1,2,0:0:0:0:
182,192,268853,1,8,0:0:0:0:
475,192,268853,1,0,0:0:0:0:
256,192,268978,1,0,0:0:0:0:
402,192,268978,1,0,0:0:0:0:
109,192,269103,1,2,0:0:0:0:
475,192,269103,1,0,0:0:0:0:
36,192,269228,1,0,0:0:0:0:
256,192,269228,1,0,0:0:0:0:
109,192,269290,1,0,0:0:0:0:
182,192,269353,1,2,0:0:0:0:
329,192,269353,1,8,0:0:0:0:
475,192,269353,1,0,0:0:0:0:
256,192,269478,1,2,0:0:0:0:
329,192,269478,1,0,0:0:0:0:
475,192,269478,1,0,0:0:0:0:
109,192,269603,1,2,0:0:0:0:
182,192,269603,128,0,269728:0:0:0:0:
402,192,269603,1,0,0:0:0:0:
36,192,269728,128,0,269853:0:0:0:0:
182,192,269853,1,2,0:0:0:0:
329,192,269853,1,8,0:0:0:0:
475,192,269853,1,0,0:0:0:0:
256,192,269915,1,0,0:0:0:0:
402,192,269978,128,0,270103:0:0:0:0:
109,192,270103,1,2,0:0:0:0:
182,192,270103,128,0,270228:0:0:0:0:
475,192,270103,1,0,0:0:0:0:
36,192,270228,128,0,270353:0:0:0:0:
182,192,270353,1,2,0:0:0:0:
329,192,270353,1,8,0:0:0:0:
475,192,270353,1,0,0:0:0:0:
256,192,270415,1,0,0:0:0:0:
109,192,270478,128,0,270603:0:0:0:0:
36,192,270603,1,2,0:0:0:0:
329,192,270603,1,0,0:0:0:0:
475,192,270603,1,0,0:0:0:0:
109,192,270728,1,0,0:0:0:0:
475,192,270728,128,0,270853:0:0:0:0:
182,192,270853,1,2,0:0:0:0:
329,192,270853,1,8,0:0:0:0:
402,192,270853,1,0,0:0:0:0:
109,192,270978,1,0,0:0:0:0:
329,192,270978,128,0,271103:0:0:0:0:
36,192,271103,1,2,0:0:0:0:
182,192,271103,1,0,0:0:0:0:
182,192,271228,128,0,271353:0:0:0:0:
402,192,271228,1,0,0:0:0:0:
36,192,271353,1,2,0:0:0:0:
329,192,271353,1,8,0:0:0:0:
475,192,271353,1,0,0:0:0:0:
36,192,271478,128,0,271603:0:0:0:0:
256,192,271478,1,0,0:0:0:0:
182,192,271603,1,2,0:0:0:0:
475,192,271603,1,0,0:0:0:0:
402,192,271665,1,0,0:0:0:0:
256,192,271728,1,0,0:0:0:0:
182,192,271790,1,0,0:0:0:0:
36,192,271853,1,2,0:0:0:0:
402,192,271853,1,8,0:0:0:0:
475,192,271853,1,0,0:0:0:0:
329,192,271915,1,0,0:0:0:0:
182,192,271978,1,0,0:0:0:0:
109,192,272040,1,0,0:0:0:0:
329,192,272103,1,2,0:0:0:0:
475,192,272103,1,0,0:0:0:0:
256,192,272165,1,0,0:0:0:0:
109,192,272228,1,0,0:0:0:0:
36,192,272290,1,0,0:0:0:0:
182,192,272353,1,2,0:0:0:0:
329,192,272353,1,8,0:0:0:0:
475,192,272353,1,0,0:0:0:0:
256,192,272415,1,0,0:0:0:0:
402,192,272478,1,0,0:0:0:0:
475,192,272540,1,0,0:0:0:0:
36,192,272603,1,2,0:0:0:0:
182,192,272603,128,0,272728:0:0:0:0:
109,192,272790,128,0,272915:0:0:0:0:
256,192,272790,1,0,0:0:0:0:
329,192,272853,1,2,0:0:0:0:
402,192,272853,1,8,0:0:0:0:
475,192,272853,1,0,0:0:0:0:
36,192,272978,128,0,273103:0:0:0:0:
182,192,272978,1,0,0:0:0:0:
329,192,273103,1,2,0:0:0:0:
475,192,273103,1,0,0:0:0:0:
256,192,273228,1,2,0:0:0:0:
402,192,273228,1,0,0:0:0:0:
36,192,273353,1,2,0:0:0:0:
109,192,273353,1,8,0:0:0:0:
182,192,273415,1,2,0:0:0:0:
329,192,273478,1,2,0:0:0:0:
475,192,273478,1,0,0:0:0:0:
182,192,273540,1,2,0:0:0:0:
36,192,273603,1,2,0:0:0:0:
109,192,273603,1,4,0:0:0:0:
329,192,273603,1,0,0:0:0:0:
475,192,273603,1,0,0:0:0:0:
256,192,273728,1,0,0:0:0:0:
329,192,273790,1,0,0:0:0:0:
36,192,273853,1,2,0:0:0:0:
182,192,273853,1,8,0:0:0:0:
475,192,273853,128,0,273978:0:0:0:0:
256,192,273978,128,0,274103:0:0:0:0:
36,192,274103,1,2,0:0:0:0:
109,192,274103,1,0,0:0:0:0:
475,192,274103,128,0,274228:0:0:0:0:
329,192,274228,1,0,0:0:0:0:
182,192,274290,1,0,0:0:0:0:
36,192,274353,1,2,0:0:0:0:
256,192,274353,1,8,0:0:0:0:
475,192,274353,1,0,0:0:0:0:
329,192,274478,1,0,0:0:0:0:
36,192,274603,1,2,0:0:0:0:
109,192,274603,1,0,0:0:0:0:
402,192,274603,128,0,274728:0:0:0:0:
256,192,274728,128,0,274853:0:0:0:0:
36,192,274853,1,8,0:0:0:0:
329,192,274853,1,2,0:0:0:0:
475,192,274853,1,0,0:0:0:0:
182,192,274978,128,0,275103:0:0:0:0:
256,192,275103,128,2,275228:0:0:0:0:
402,192,275103,1,0,0:0:0:0:
475,192,275103,1,0,0:0:0:0:
109,192,275228,128,0,275353:0:0:0:0:
329,192,275228,1,0,0:0:0:0:
36,192,275353,1,8,0:0:0:0:
256,192,275353,1,2,0:0:0:0:
475,192,275353,1,0,0:0:0:0:
182,192,275478,1,0,0:0:0:0:
402,192,275478,1,0,0:0:0:0:
36,192,275603,1,2,0:0:0:0:
109,192,275603,1,0,0:0:0:0:
329,192,275603,1,0,0:0:0:0:
402,192,275728,1,0,0:0:0:0:
36,192,275853,1,8,0:0:0:0:
182,192,275853,1,2,0:0:0:0:
475,192,275853,1,0,0:0:0:0:
329,192,275915,1,0,0:0:0:0:
182,192,275978,1,0,0:0:0:0:
402,192,275978,1,0,0:0:0:0:
36,192,276103,1,2,0:0:0:0:
256,192,276103,1,0,0:0:0:0:
182,192,276228,1,0,0:0:0:0:
402,192,276228,1,0,0:0:0:0:
36,192,276353,1,8,0:0:0:0:
329,192,276353,1,2,0:0:0:0:
475,192,276353,1,0,0:0:0:0:
109,192,276478,1,0,0:0:0:0:
256,192,276478,1,0,0:0:0:0:
329,192,276540,1,0,0:0:0:0:
182,192,276603,1,2,0:0:0:0:
402,192,276603,128,0,276728:0:0:0:0:
475,192,276603,1,0,0:0:0:0:
256,192,276728,128,0,276853:0:0:0:0:
36,192,276853,1,8,0:0:0:0:
329,192,276853,1,2,0:0:0:0:
475,192,276853,1,0,0:0:0:0:
109,192,276978,1,0,0:0:0:0:
256,192,276978,1,0,0:0:0:0:
36,192,277103,1,2,0:0:0:0:
329,192,277103,1,0,0:0:0:0:
475,192,277103,1,0,0:0:0:0:
182,192,277165,1,0,0:0:0:0:
256,192,277228,1,0,0:0:0:0:
402,192,277228,1,0,0:0:0:0:
36,192,277353,1,8,0:0:0:0:
109,192,277353,1,2,0:0:0:0:
329,192,277353,1,0,0:0:0:0:
36,192,277478,1,2,0:0:0:0:
109,192,277478,1,0,0:0:0:0:
256,192,277603,1,2,0:0:0:0:
402,192,277603,128,0,277728:0:0:0:0:
475,192,277603,1,0,0:0:0:0:
109,192,277728,128,0,277853:0:0:0:0:
182,192,277853,1,8,0:0:0:0:
329,192,277853,1,2,0:0:0:0:
475,192,277853,1,0,0:0:0:0:
256,192,277978,128,0,278228:0:0:0:0:
36,192,278103,1,2,0:0:0:0:
182,192,278103,1,0,0:0:0:0:
402,192,278103,128,0,278353:0:0:0:0:
109,192,278228,1,0,0:0:0:0:
182,192,278290,1,0,0:0:0:0:
36,192,278353,128,8,278478:0:0:0:0:
256,192,278353,1,2,0:0:0:0:
475,192,278353,1,0,0:0:0:0:
182,192,278478,128,0,278603:0:0:0:0:
402,192,278478,1,0,0:0:0:0:
36,192,278603,1,2,0:0:0:0:
109,192,278603,128,0,278728:0:0:0:0:
256,192,278603,1,0,0:0:0:0:
402,192,278728,128,0,278853:0:0:0:0:
36,192,278853,1,8,0:0:0:0:
182,192,278853,1,2,0:0:0:0:
329,192,278853,1,0,0:0:0:0:
256,192,278978,128,0,279228:0:0:0:0:
109,192,279103,128,2,279353:0:0:0:0:
329,192,279103,1,0,0:0:0:0:
475,192,279103,1,0,0:0:0:0:
402,192,279228,1,0,0:0:0:0:
329,192,279290,1,0,0:0:0:0:
36,192,279353,1,8,0:0:0:0:
256,192,279353,1,2,0:0:0:0:
475,192,279353,128,0,279603:0:0:0:0:
109,192,279478,1,0,0:0:0:0:
402,192,279478,128,0,279603:0:0:0:0:
36,192,279603,128,2,279853:0:0:0:0:
182,192,279603,128,0,279728:0:0:0:0:
329,192,279728,1,0,0:0:0:0:
256,192,279790,1,0,0:0:0:0:
182,192,279853,1,8,0:0:0:0:
402,192,279853,128,2,279978:0:0:0:0:
475,192,279853,1,0,0:0:0:0:
109,192,279978,1,0,0:0:0:0:
256,192,280040,1,0,0:0:0:0:
329,192,280103,128,2,280228:0:0:0:0:
475,192,280103,128,0,280353:0:0:0:0:
182,192,280228,1,0,0:0:0:0:
256,192,280290,1,0,0:0:0:0:
36,192,280353,1,8,0:0:0:0:
109,192,280353,128,2,280478:0:0:0:0:
329,192,280353,1,0,0:0:0:0:
256,192,280478,1,0,0:0:0:0:
182,192,280603,128,2,280728:0:0:0:0:
402,192,280603,1,0,0:0:0:0:
475,192,280603,1,0,0:0:0:0:
36,192,280728,128,0,280853:0:0:0:0:
329,192,280728,1,0,0:0:0:0:
182,192,280853,1,8,0:0:0:0:
256,192,280853,128,2,280978:0:0:0:0:
475,192,280853,1,0,0:0:0:0:
109,192,280978,128,0,281103:0:0:0:0:
402,192,280978,1,0,0:0:0:0:
329,192,281103,1,2,0:0:0:0:
475,192,281103,1,0,0:0:0:0:
329,192,281228,1,2,0:0:0:0:
475,192,281228,1,0,0:0:0:0:
36,192,281353,1,8,0:0:0:0:
182,192,281353,1,2,0:0:0:0:
402,192,281415,1,2,0:0:0:0:
36,192,281478,1,2,0:0:0:0:
182,192,281478,1,0,0:0:0:0:
329,192,281540,1,2,0:0:0:0:
36,192,281603,1,4,0:0:0:0:
256,192,281603,1,2,0:0:0:0:
475,192,281603,1,0,0:0:0:0:
182,192,281728,1,0,0:0:0:0:
256,192,281790,1,0,0:0:0:0:
36,192,281853,1,2,0:0:0:0:
329,192,281853,1,8,0:0:0:0:
402,192,281853,1,0,0:0:0:0:
475,192,281853,128,0,281978:0:0:0:0:
256,192,281978,128,0,282103:0:0:0:0:
36,192,282103,1,2,0:0:0:0:
109,192,282103,1,0,0:0:0:0:
475,192,282103,128,0,282228:0:0:0:0:
329,192,282228,1,0,0:0:0:0:
182,192,282290,1,0,0:0:0:0:
36,192,282353,1,2,0:0:0:0:
256,192,282353,1,8,0:0:0:0:
402,192,282353,1,0,0:0:0:0:
475,192,282353,1,0,0:0:0:0:
182,192,282478,1,0,0:0:0:0:
329,192,282478,1,0,0:0:0:0:
36,192,282603,1,2,0:0:0:0:
109,192,282603,1,0,0:0:0:0:
402,192,282603,128,0,282728:0:0:0:0:
256,192,282728,128,0,282853:0:0:0:0:
36,192,282853,1,2,0:0:0:0:
182,192,282853,1,8,0:0:0:0:
329,192,282853,1,0,0:0:0:0:
475,192,282853,1,0,0:0:0:0:
109,192,282978,128,0,283103:0:0:0:0:
36,192,283103,128,2,283228:0:0:0:0:
256,192,283103,1,0,0:0:0:0:
475,192,283103,1,0,0:0:0:0:
182,192,283228,128,0,283353:0:0:0:0:
402,192,283228,1,0,0:0:0:0:
36,192,283353,1,2,0:0:0:0:
109,192,283353,1,8,0:0:0:0:
329,192,283353,1,0,0:0:0:0:
475,192,283353,1,0,0:0:0:0:
256,192,283478,1,0,0:0:0:0:
402,192,283478,1,0,0:0:0:0:
109,192,283603,1,2,0:0:0:0:
182,192,283603,1,0,0:0:0:0:
475,192,283603,1,0,0:0:0:0:
329,192,283728,1,0,0:0:0:0:
36,192,283853,1,2,0:0:0:0:
256,192,283853,1,8,0:0:0:0:
402,192,283853,1,0,0:0:0:0:
475,192,283853,1,0,0:0:0:0:
329,192,283915,1,0,0:0:0:0:
109,192,283978,1,0,0:0:0:0:
182,192,283978,1,0,0:0:0:0:
256,192,284103,1,2,0:0:0:0:
475,192,284103,1,0,0:0:0:0:
109,192,284228,1,0,0:0:0:0:
402,192,284228,1,0,0:0:0:0:
36,192,284353,1,2,0:0:0:0:
182,192,284353,1,8,0:0:0:0:
329,192,284353,1,0,0:0:0:0:
475,192,284353,1,0,0:0:0:0:
109,192,284478,1,0,0:0:0:0:
256,192,284478,1,0,0:0:0:0:
329,192,284540,1,0,0:0:0:0:
182,192,284603,1,2,0:0:0:0:
402,192,284603,128,0,284728:0:0:0:0:
475,192,284603,1,0,0:0:0:0:
256,192,284728,128,0,284853:0:0:0:0:
36,192,284853,1,2,0:0:0:0:
182,192,284853,1,8,0:0:0:0:
329,192,284853,1,0,0:0:0:0:
475,192,284853,1,0,0:0:0:0:
109,192,284978,1,0,0:0:0:0:
256,192,284978,1,0,0:0:0:0:
36,192,285103,1,2,0:0:0:0:
475,192,285103,1,0,0:0:0:0:
256,192,285228,1,0,0:0:0:0:
402,192,285228,1,0,0:0:0:0:
182,192,285290,1,0,0:0:0:0:
36,192,285353,1,2,0:0:0:0:
109,192,285353,1,8,0:0:0:0:
329,192,285353,1,0,0:0:0:0:
475,192,285353,1,0,0:0:0:0:
36,192,285478,1,2,0:0:0:0:
109,192,285478,1,0,0:0:0:0:
256,192,285478,1,0,0:0:0:0:
182,192,285603,1,2,0:0:0:0:
329,192,285603,128,0,285728:0:0:0:0:
402,192,285603,1,0,0:0:0:0:
475,192,285728,128,0,285853:0:0:0:0:
36,192,285853,1,2,0:0:0:0:
182,192,285853,1,8,0:0:0:0:
329,192,285853,1,0,0:0:0:0:
402,192,285853,1,0,0:0:0:0:
256,192,285915,1,0,0:0:0:0:
109,192,285978,128,0,286103:0:0:0:0:
36,192,286103,1,2,0:0:0:0:
329,192,286103,128,0,286228:0:0:0:0:
402,192,286103,1,0,0:0:0:0:
475,192,286228,128,0,286353:0:0:0:0:
36,192,286353,1,2,0:0:0:0:
109,192,286353,1,8,0:0:0:0:
182,192,286353,1,0,0:0:0:0:
329,192,286353,1,0,0:0:0:0:
256,192,286415,1,0,0:0:0:0:
402,192,286478,1,0,0:0:0:0:
329,192,286540,1,0,0:0:0:0:
36,192,286603,1,2,0:0:0:0:
182,192,286603,1,0,0:0:0:0:
475,192,286603,1,0,0:0:0:0:
36,192,286728,128,0,286853:0:0:0:0:
402,192,286728,1,0,0:0:0:0:
109,192,286853,1,2,0:0:0:0:
182,192,286853,1,8,0:0:0:0:
329,192,286853,1,0,0:0:0:0:
475,192,286853,1,0,0:0:0:0:
182,192,286978,128,0,287103:0:0:0:0:
402,192,286978,1,0,0:0:0:0:
329,192,287103,1,2,0:0:0:0:
475,192,287103,1,0,0:0:0:0:
182,192,287228,1,0,0:0:0:0:
329,192,287228,128,0,287353:0:0:0:0:
36,192,287353,1,2,0:0:0:0:
109,192,287353,1,8,0:0:0:0:
402,192,287353,1,0,0:0:0:0:
475,192,287353,1,0,0:0:0:0:
182,192,287478,1,0,0:0:0:0:
256,192,287478,1,0,0:0:0:0:
475,192,287478,128,0,287603:0:0:0:0:
36,192,287603,1,2,0:0:0:0:
402,192,287603,1,0,0:0:0:0:
329,192,287665,1,0,0:0:0:0:
109,192,287728,1,0,0:0:0:0:
256,192,287728,1,0,0:0:0:0:
402,192,287790,1,0,0:0:0:0:
36,192,287853,1,2,0:0:0:0:
182,192,287853,1,8,0:0:0:0:
475,192,287853,1,0,0:0:0:0:
256,192,287915,1,0,0:0:0:0:
109,192,287978,1,0,0:0:0:0:
329,192,287978,1,0,0:0:0:0:
182,192,288040,1,0,0:0:0:0:
36,192,288103,1,2,0:0:0:0:
475,192,288103,1,0,0:0:0:0:
402,192,288165,1,0,0:0:0:0:
182,192,288228,1,0,0:0:0:0:
329,192,288228,1,0,0:0:0:0:
475,192,288290,1,0,0:0:0:0:
36,192,288353,1,2,0:0:0:0:
109,192,288353,1,8,0:0:0:0:
256,192,288353,1,0,0:0:0:0:
402,192,288415,1,0,0:0:0:0:
36,192,288478,1,0,0:0:0:0:
182,192,288478,1,0,0:0:0:0:
329,192,288540,1,0,0:0:0:0:
109,192,288603,1,2,0:0:0:0:
256,192,288603,1,4,0:0:0:0:
475,192,288603,1,0,0:0:0:0:
36,192,288790,1,2,0:0:0:0:
182,192,288790,1,4,0:0:0:0:
402,192,288790,1,0,0:0:0:0:
109,192,288978,1,4,0:0:0:0:
329,192,288978,1,2,0:0:0:0:
475,192,288978,1,0,0:0:0:0:
36,192,289103,1,2,0:0:0:0:
182,192,289103,1,4,0:0:0:0:
402,192,289165,1,2,0:0:0:0:
109,192,289228,1,2,0:0:0:0:
256,192,289290,1,2,0:0:0:0:
402,192,289353,1,2,0:0:0:0:
475,192,289353,1,0,0:0:0:0:
36,192,289415,1,2,0:0:0:0:
182,192,289478,1,2,0:0:0:0:
329,192,289540,1,2,0:0:0:0:
36,192,289603,1,2,0:0:0:0:
109,192,289603,1,4,0:0:0:0:
475,192,289603,128,0,291603:0:0:0:0:
402,192,289728,1,0,0:0:0:0:
182,192,289790,1,0,0:0:0:0:
329,192,289853,1,0,0:0:0:0:
36,192,289978,1,0,0:0:0:0:
109,192,290228,1,0,0:0:0:0:
182,192,290290,1,0,0:0:0:0:
329,192,290353,1,0,0:0:0:0:
109,192,290478,1,0,0:0:0:0:
182,192,290603,128,0,290728:0:0:0:0:
36,192,290728,128,0,290853:0:0:0:0:
109,192,290978,128,0,291603:0:0:0:0:
36,192,291228,1,0,0:0:0:0:
182,192,291353,1,0,0:0:0:0:
329,192,291478,1,0,0:0:0:0:
256,192,291603,128,0,293603:0:0:0:0:
402,192,291728,1,0,0:0:0:0:
182,192,291790,1,0,0:0:0:0:
329,192,291853,1,0,0:0:0:0:
475,192,291978,1,0,0:0:0:0:
402,192,292228,1,0,0:0:0:0:
329,192,292290,1,0,0:0:0:0:
182,192,292353,1,0,0:0:0:0:
402,192,292478,1,0,0:0:0:0:
329,192,292603,128,0,292728:0:0:0:0:
475,192,292728,128,0,292853:0:0:0:0:
402,192,292978,128,0,293603:0:0:0:0:
475,192,293228,1,0,0:0:0:0:
329,192,293353,1,0,0:0:0:0:
182,192,293478,1,0,0:0:0:0:
36,192,293603,128,0,295353:0:0:0:0:
109,192,293603,1,0,0:0:0:0:
182,192,293728,1,0,0:0:0:0:
402,192,293790,1,0,0:0:0:0:
256,192,293853,1,0,0:0:0:0:
475,192,293978,1,0,0:0:0:0:
402,192,294228,1,0,0:0:0:0:
329,192,294290,1,0,0:0:0:0:
182,192,294353,1,0,0:0:0:0:
256,192,294478,1,0,0:0:0:0:
329,192,294603,128,0,294728:0:0:0:0:
182,192,294728,128,0,294853:0:0:0:0:
256,192,294978,128,0,295353:0:0:0:0:
329,192,295353,1,0,0:0:0:0:
182,192,295478,1,0,0:0:0:0:
402,192,295603,1,0,0:0:0:0:
475,192,295728,1,0,0:0:0:0:
402,192,295978,1,0,0:0:0:0:
182,192,296228,1,0,0:0:0:0:
329,192,296353,1,0,0:0:0:0:
182,192,296478,1,0,0:0:0:0:
402,192,296603,1,0,0:0:0:0:
36,192,296728,1,0,0:0:0:0:
182,192,296978,1,0,0:0:0:0:
109,192,297228,1,0,0:0:0:0:
256,192,297353,1,0,0:0:0:0:
329,192,297478,1,0,0:0:0:0:
36,192,297603,128,2,298603:0:0:0:0:
109,192,297603,1,0,0:0:0:0:
475,192,297603,1,0,0:0:0:0:
182,192,297978,1,0,0:0:0:0:
256,192,298353,1,0,0:0:0:0:
475,192,298603,1,0,0:0:0:0:
402,192,298978,1,0,0:0:0:0:
329,192,299228,1,0,0:0:0:0:
182,192,299603,1,0,0:0:0:0:
36,192,299978,1,0,0:0:0:0:
329,192,300353,1,0,0:0:0:0:
475,192,300478,1,0,0:0:0:0:
256,192,300603,1,0,0:0:0:0:
402,192,300728,1,0,0:0:0:0:
329,192,300978,1,0,0:0:0:0:
256,192,301228,1,0,0:0:0:0:
109,192,301353,1,0,0:0:0:0:
182,192,301478,1,0,0:0:0:0:
36,192,301603,1,0,0:0:0:70:snare01.wav
329,192,301603,1,0,0:0:0:0:
475,192,301603,1,0,0:0:0:0:
36,192,301853,1,0,0:0:0:70:snare01.wav
329,192,301853,1,0,0:0:0:0:
36,192,302103,1,0,0:0:0:70:snare01.wav
182,192,302103,1,0,0:0:0:0:
475,192,302103,1,0,0:0:0:0:
182,192,302353,1,0,0:0:0:70:snare01.wav
475,192,302353,1,0,0:0:0:0:
109,192,302478,1,0,0:0:0:70:snare01.wav
329,192,302478,1,0,0:0:0:0:
256,192,302540,1,0,0:0:0:70:snare01.wav
36,192,302603,1,0,0:0:0:70:snare01.wav
182,192,302603,1,0,0:0:0:0:
475,192,302603,1,0,0:0:0:0:
36,192,302853,1,0,0:0:0:70:snare01.wav
182,192,302853,1,0,0:0:0:0:
36,192,303103,1,0,0:0:0:70:snare01.wav
329,192,303103,1,0,0:0:0:0:
475,192,303103,1,0,0:0:0:0:
329,192,303353,1,0,0:0:0:70:snare01.wav
475,192,303353,1,0,0:0:0:0:
182,192,303478,1,0,0:0:0:70:snare01.wav
402,192,303478,1,0,0:0:0:0:
329,192,303540,1,0,0:0:0:70:snare01.wav
36,192,303603,1,0,0:0:0:70:snare01.wav
256,192,303603,1,0,0:0:0:0:
109,192,303728,1,0,0:0:0:70:snare01.wav
329,192,303728,1,0,0:0:0:0:
182,192,303853,1,0,0:0:0:70:snare01.wav
402,192,303853,1,0,0:0:0:0:
256,192,303978,1,0,0:0:0:70:snare01.wav
475,192,303978,1,0,0:0:0:0:
109,192,304103,1,0,0:0:0:70:snare01.wav
329,192,304103,1,0,0:0:0:0:
182,192,304228,1,0,0:0:0:70:snare01.wav
402,192,304228,1,0,0:0:0:0:
256,192,304353,1,0,0:0:0:70:snare01.wav
475,192,304353,1,0,0:0:0:0:
36,192,304478,1,0,0:0:0:70:snare01.wav
329,192,304478,1,0,0:0:0:0:
182,192,304540,1,0,0:0:0:0:
36,192,304603,1,2,0:0:0:0:
402,192,304603,1,0,0:0:0:0:
475,192,304603,1,0,0:0:0:0:
36,192,305603,1,2,0:0:0:0:
109,192,305603,1,4,0:0:0:0:
329,192,305603,1,0,0:0:0:0:
475,192,305603,1,0,0:0:0:0:
256,192,305728,1,0,0:0:0:0:
36,192,305853,1,2,0:0:0:0:
182,192,305853,1,8,0:0:0:0:
402,192,305853,1,0,0:0:0:0:
329,192,305978,1,0,0:0:0:0:
109,192,306103,1,2,0:0:0:0:
475,192,306103,1,0,0:0:0:0:
329,192,306228,1,0,0:0:0:0:
36,192,306353,1,2,0:0:0:0:
402,192,306353,1,8,0:0:0:0:
475,192,306353,1,0,0:0:0:0:
256,192,306478,1,0,0:0:0:0:
182,192,306540,1,0,0:0:0:0:
109,192,306603,1,2,0:0:0:0:
475,192,306603,1,0,0:0:0:0:
402,192,306665,1,0,0:0:0:0:
182,192,306728,1,0,0:0:0:0:
329,192,306790,1,0,0:0:0:0:
36,192,306853,1,8,0:0:0:0:
109,192,306853,1,2,0:0:0:0:
402,192,306915,1,0,0:0:0:0:
182,192,306978,1,0,0:0:0:0:
329,192,307040,1,0,0:0:0:0:
109,192,307103,1,2,0:0:0:0:
475,192,307103,1,0,0:0:0:0:
402,192,307165,1,0,0:0:0:0:
182,192,307228,1,0,0:0:0:0:
329,192,307290,1,0,0:0:0:0:
36,192,307353,1,8,0:0:0:0:
109,192,307353,1,2,0:0:0:0:
402,192,307415,1,0,0:0:0:0:
182,192,307478,1,0,0:0:0:0:
329,192,307540,1,0,0:0:0:0:
36,192,307603,1,2,0:0:0:0:
256,192,307603,1,0,0:0:0:0:
475,192,307603,128,0,307978:0:0:0:0:
402,192,307728,1,0,0:0:0:0:
109,192,307853,1,8,0:0:0:0:
182,192,307853,1,2,0:0:0:0:
329,192,307853,128,0,308103:0:0:0:0:
36,192,308103,1,2,0:0:0:0:
256,192,308103,1,0,0:0:0:0:
475,192,308103,1,0,0:0:0:0:
256,192,308228,1,0,0:0:0:0:
475,192,308228,128,0,308353:0:0:0:0:
36,192,308353,1,8,0:0:0:0:
109,192,308353,1,2,0:0:0:0:
182,192,308415,1,0,0:0:0:0:
402,192,308478,1,0,0:0:0:0:
329,192,308540,1,0,0:0:0:0:
36,192,308603,1,2,0:0:0:0:
475,192,308603,1,0,0:0:0:0:
109,192,308665,1,0,0:0:0:0:
329,192,308728,1,0,0:0:0:0:
256,192,308790,1,0,0:0:0:0:
109,192,308853,1,8,0:0:0:0:
475,192,308853,1,2,0:0:0:0:
182,192,308915,1,0,0:0:0:0:
402,192,308978,1,0,0:0:0:0:
329,192,309040,1,0,0:0:0:0:
36,192,309103,1,2,0:0:0:0:
109,192,309103,1,0,0:0:0:0:
256,192,309165,1,0,0:0:0:0:
182,192,309228,1,0,0:0:0:0:
329,192,309290,1,0,0:0:0:0:
402,192,309353,1,8,0:0:0:0:
475,192,309353,1,2,0:0:0:0:
256,192,309415,1,0,0:0:0:0:
329,192,309478,1,0,0:0:0:0:
182,192,309540,1,0,0:0:0:0:
36,192,309603,1,2,0:0:0:0:
109,192,309603,1,0,0:0:0:0:
475,192,309603,1,0,0:0:0:0:
256,192,309728,1,0,0:0:0:0:
182,192,309853,1,8,0:0:0:0:
329,192,309853,1,2,0:0:0:0:
475,192,309853,1,0,0:0:0:0:
109,192,309978,1,0,0:0:0:0:
36,192,310103,1,2,0:0:0:0:
402,192,310103,1,0,0:0:0:0:
329,192,310165,1,0,0:0:0:0:
256,192,310228,1,0,0:0:0:0:
182,192,310290,1,0,0:0:0:0:
109,192,310353,1,8,0:0:0:0:
475,192,310353,1,2,0:0:0:0:
402,192,310415,1,0,0:0:0:0:
256,192,310478,1,0,0:0:0:0:
329,192,310540,1,0,0:0:0:0:
36,192,310603,1,2,0:0:0:0:
109,192,310603,1,0,0:0:0:0:
182,192,310665,1,0,0:0:0:0:
402,192,310728,1,0,0:0:0:0:
329,192,310790,1,0,0:0:0:0:
36,192,310853,1,8,0:0:0:0:
475,192,310853,1,2,0:0:0:0:
109,192,310915,1,0,0:0:0:0:
256,192,310978,1,0,0:0:0:0:
182,192,311040,1,0,0:0:0:0:
329,192,311103,1,2,0:0:0:0:
402,192,311103,1,0,0:0:0:0:
475,192,311103,1,0,0:0:0:0:
402,192,311290,1,0,0:0:0:0:
475,192,311290,1,0,0:0:0:0:
36,192,311353,1,8,0:0:0:0:
182,192,311353,1,2,0:0:0:0:
256,192,311353,1,0,0:0:0:0:
402,192,311478,1,0,0:0:0:0:
475,192,311478,1,0,0:0:0:0:
36,192,311603,1,2,0:0:0:0:
109,192,311603,1,0,0:0:0:0:
182,192,311665,1,0,0:0:0:0:
402,192,311728,1,0,0:0:0:0:
329,192,311790,1,0,0:0:0:0:
36,192,311853,1,8,0:0:0:0:
475,192,311853,1,2,0:0:0:0:
182,192,311915,1,0,0:0:0:0:
329,192,311978,1,0,0:0:0:0:
475,192,312040,1,0,0:0:0:0:
36,192,312103,1,2,0:0:0:0:
256,192,312103,1,0,0:0:0:0:
182,192,312228,1,0,0:0:0:0:
402,192,312353,1,8,0:0:0:0:
475,192,312353,1,2,0:0:0:0:
329,192,312415,1,0,0:0:0:0:
109,192,312478,1,0,0:0:0:0:
182,192,312540,1,0,0:0:0:0:
256,192,312603,1,2,0:0:0:0:
402,192,312603,1,0,0:0:0:0:
475,192,312603,1,0,0:0:0:0:
402,192,312728,1,0,0:0:0:0:
475,192,312728,1,0,0:0:0:0:
36,192,312853,1,8,0:0:0:0:
109,192,312853,1,2,0:0:0:0:
256,192,312853,1,0,0:0:0:0:
36,192,312978,1,0,0:0:0:0:
109,192,312978,1,0,0:0:0:0:
182,192,313103,1,2,0:0:0:0:
329,192,313103,128,0,313353:0:0:0:0:
475,192,313103,1,0,0:0:0:0:
256,192,313228,1,0,0:0:0:0:
36,192,313353,1,8,0:0:0:0:
109,192,313353,1,2,0:0:0:0:
402,192,313353,1,0,0:0:0:0:
109,192,313478,1,0,0:0:0:0:
402,192,313478,1,0,0:0:0:0:
182,192,313603,128,2,313853:0:0:0:0:
329,192,313603,128,0,313853:0:0:0:0:
475,192,313603,1,0,0:0:0:0:
36,192,313853,1,2,0:0:0:0:
256,192,313853,1,8,0:0:0:0:
475,192,313853,1,0,0:0:0:0:
182,192,313936,1,0,0:0:0:0:
329,192,314019,1,0,0:0:0:0:
36,192,314103,128,2,314353:0:0:0:0:
182,192,314103,128,0,314353:0:0:0:0:
475,192,314103,1,0,0:0:0:0:
109,192,314353,1,2,0:0:0:0:
329,192,314353,1,8,0:0:0:0:
475,192,314353,1,0,0:0:0:0:
402,192,314436,1,0,0:0:0:0:
256,192,314519,1,0,0:0:0:0:
36,192,314603,1,2,0:0:0:0:
182,192,314603,128,0,314853:0:0:0:0:
329,192,314603,128,0,314853:0:0:0:0:
36,192,314853,1,2,0:0:0:0:
256,192,314853,1,8,0:0:0:0:
475,192,314853,1,0,0:0:0:0:
329,192,314936,1,0,0:0:0:0:
182,192,315019,1,0,0:0:0:0:
36,192,315103,1,2,0:0:0:0:
329,192,315103,128,0,315353:0:0:0:0:
475,192,315103,128,0,315353:0:0:0:0:
36,192,315353,1,2,0:0:0:0:
182,192,315353,1,8,0:0:0:0:
402,192,315353,1,0,0:0:0:0:
109,192,315436,1,0,0:0:0:0:
256,192,315519,1,0,0:0:0:0:
182,192,315603,128,2,315853:0:0:0:0:
329,192,315603,128,0,315853:0:0:0:0:
475,192,315603,1,0,0:0:0:0:
36,192,315853,1,2,0:0:0:0:
256,192,315853,1,8,0:0:0:0:
475,192,315853,1,0,0:0:0:0:
182,192,315936,1,0,0:0:0:0:
329,192,316019,1,0,0:0:0:0:
36,192,316103,128,2,316353:0:0:0:0:
182,192,316103,128,0,316353:0:0:0:0:
475,192,316103,1,0,0:0:0:0:
109,192,316353,1,2,0:0:0:0:
329,192,316353,1,8,0:0:0:0:
475,192,316353,1,0,0:0:0:0:
402,192,316436,1,0,0:0:0:0:
256,192,316519,1,0,0:0:0:0:
109,192,316603,1,2,0:0:0:0:
329,192,316603,128,0,316853:0:0:0:0:
475,192,316603,128,0,316853:0:0:0:0:
36,192,316853,1,2,0:0:0:0:
182,192,316853,1,8,0:0:0:0:
402,192,316853,1,0,0:0:0:0:
256,192,316978,1,0,0:0:0:0:
402,192,317040,1,0,0:0:0:0:
109,192,317103,1,2,0:0:0:0:
256,192,317103,1,0,0:0:0:0:
475,192,317165,1,0,0:0:0:0:
329,192,317228,1,0,0:0:0:0:
475,192,317290,1,0,0:0:0:0:
36,192,317353,1,2,0:0:0:0:
182,192,317353,1,8,0:0:0:0:
256,192,317353,1,0,0:0:0:0:
329,192,317478,1,0,0:0:0:0:
109,192,317603,1,2,0:0:0:0:
402,192,317603,1,0,0:0:0:0:
475,192,317603,1,0,0:0:0:0:
182,192,317728,1,0,0:0:0:0:
36,192,317853,128,2,317978:0:0:0:0:
109,192,317853,128,8,317978:0:0:0:0:
329,192,317853,1,0,0:0:0:0:
475,192,317853,1,0,0:0:0:0:
109,192,318103,128,2,318353:0:0:0:0:
256,192,318103,128,0,318353:0:0:0:0:
402,192,318103,1,0,0:0:0:0:
36,192,318353,1,2,0:0:0:0:
329,192,318353,1,8,0:0:0:0:
475,192,318353,1,0,0:0:0:0:
256,192,318478,1,0,0:0:0:0:
109,192,318603,1,2,0:0:0:0:
182,192,318603,1,0,0:0:0:0:
402,192,318603,1,0,0:0:0:0:
329,192,318728,1,0,0:0:0:0:
36,192,318853,1,2,0:0:0:0:
182,192,318853,1,8,0:0:0:0:
402,192,318853,128,0,318978:0:0:0:0:
475,192,318853,128,0,318978:0:0:0:0:
109,192,319103,1,2,0:0:0:0:
256,192,319103,128,0,319353:0:0:0:0:
402,192,319103,128,0,319353:0:0:0:0:
36,192,319353,1,2,0:0:0:0:
182,192,319353,1,8,0:0:0:0:
475,192,319353,1,0,0:0:0:0:
256,192,319478,1,0,0:0:0:0:
109,192,319603,1,2,0:0:0:0:
329,192,319603,1,0,0:0:0:0:
402,192,319603,1,0,0:0:0:0:
182,192,319853,1,0,0:0:0:0:
182,192,319978,128,0,320228:0:0:0:0:
329,192,320228,1,0,0:0:0:0:
182,192,320353,1,0,0:0:0:0:
329,192,320478,1,0,0:0:0:0:
36,192,320603,128,0,320728:0:0:0:0:
182,192,320728,128,0,320853:0:0:0:0:
329,192,320853,128,0,320978:0:0:0:0:
109,192,320978,128,0,321103:0:0:0:0:
256,192,321103,128,0,321228:0:0:0:0:
402,192,321228,128,0,321353:0:0:0:0:
256,192,321353,1,0,0:0:0:0:
256,192,321478,1,0,0:0:0:0:
36,192,321603,128,2,322103:0:0:0:0:
182,192,321603,1,0,0:0:0:0:
329,192,321603,1,0,0:0:0:0:
475,192,321603,128,0,322103:0:0:0:0:
402,192,326103,1,0,0:0:0:70:electronic25.wav
329,192,326165,1,0,0:0:0:70:electronic25.wav
109,192,326228,1,0,0:0:0:70:electronic25.wav
182,192,326290,1,0,0:0:0:70:electronic25.wav
402,192,326353,1,0,0:0:0:70:electronic25.wav
329,192,326415,1,0,0:0:0:70:electronic25.wav
109,192,326478,1,0,0:0:0:70:electronic25.wav
182,192,326540,1,0,0:0:0:70:electronic25.wav
402,192,326603,1,0,0:0:0:70:electronic25.wav
329,192,326665,1,0,0:0:0:70:electronic25.wav
109,192,326728,1,0,0:0:0:70:electronic25.wav
182,192,326790,1,0,0:0:0:70:electronic25.wav
402,192,326853,1,0,0:0:0:70:electronic25.wav
329,192,326915,1,0,0:0:0:70:electronic25.wav
109,192,326978,1,0,0:0:0:70:electronic25.wav
182,192,327040,1,0,0:0:0:70:electronic25.wav
402,192,327103,1,0,0:0:0:70:electronic25.wav
329,192,327165,1,0,0:0:0:70:electronic25.wav
109,192,327228,1,0,0:0:0:70:electronic25.wav
182,192,327290,1,0,0:0:0:70:electronic25.wav
402,192,327353,1,0,0:0:0:70:electronic25.wav
329,192,327415,1,0,0:0:0:70:electronic25.wav
109,192,327478,1,0,0:0:0:70:electronic25.wav
182,192,327540,1,0,0:0:0:70:electronic25.wav
402,192,327603,1,0,0:0:0:70:electronic25.wav
329,192,327665,1,0,0:0:0:70:electronic25.wav
109,192,327728,1,0,0:0:0:70:electronic25.wav
182,192,327790,1,0,0:0:0:70:electronic25.wav
402,192,327853,1,0,0:0:0:70:electronic25.wav
329,192,327915,1,0,0:0:0:70:electronic25.wav
109,192,327978,1,0,0:0:0:70:electronic25.wav
182,192,328040,1,0,0:0:0:70:electronic25.wav
475,192,328103,1,0,0:0:0:70:electronic25.wav
329,192,328165,1,0,0:0:0:70:electronic25.wav
36,192,328228,1,0,0:0:0:70:electronic25.wav
182,192,328290,1,0,0:0:0:70:electronic25.wav
475,192,328353,1,0,0:0:0:70:electronic25.wav
329,192,328415,1,0,0:0:0:70:electronic25.wav
36,192,328478,1,0,0:0:0:70:electronic25.wav
182,192,328540,1,0,0:0:0:70:electronic25.wav
475,192,328603,1,0,0:0:0:70:electronic25.wav
329,192,328665,1,0,0:0:0:70:electronic25.wav
36,192,328728,1,0,0:0:0:70:electronic25.wav
182,192,328790,1,0,0:0:0:70:electronic25.wav
475,192,328853,1,0,0:0:0:70:electronic25.wav
329,192,328915,1,0,0:0:0:70:electronic25.wav
36,192,328978,1,0,0:0:0:70:electronic25.wav
182,192,329040,1,0,0:0:0:70:electronic25.wav
475,192,329103,1,0,0:0:0:70:electronic25.wav
329,192,329165,1,0,0:0:0:70:electronic25.wav
36,192,329228,1,0,0:0:0:70:electronic25.wav
182,192,329290,1,0,0:0:0:70:electronic25.wav
475,192,329353,1,0,0:0:0:70:electronic25.wav
329,192,329415,1,0,0:0:0:70:electronic25.wav
36,192,329478,1,0,0:0:0:70:electronic25.wav
182,192,329540,1,0,0:0:0:70:electronic25.wav
475,192,329603,1,0,0:0:0:70:electronic25.wav
329,192,329665,1,0,0:0:0:70:electronic25.wav
36,192,329728,1,0,0:0:0:70:electronic25.wav
182,192,329790,1,0,0:0:0:70:electronic25.wav
475,192,329853,1,0,0:0:0:70:electronic25.wav
329,192,329915,1,0,0:0:0:70:electronic25.wav
36,192,329978,1,0,0:0:0:70:electronic25.wav
182,192,330040,1,0,0:0:0:70:electronic25.wav
329,192,330103,1,0,0:0:0:70:electronic25.wav
402,192,330103,128,0,330853:0:0:0:0:
475,192,330103,128,0,330853:0:0:0:0:
