osu file format v14

[General]
AudioFilename: audio.mp3
AudioLeadIn: 0
PreviewTime: 256603
Countdown: 0
SampleSet: Soft
StackLeniency: 0.7
Mode: 3
LetterboxInBreaks: 0
SpecialStyle: 0
WidescreenStoryboard: 1

[Editor]
Bookmarks: 42552,56552,58552,61552,105608,117608,119322,133037,139894,146514,165714,171314,172114,176914,178514,186514,191603,225603,289603
DistanceSpacing: 1.7
BeatDivisor: 4
GridSize: 32
TimelineZoom: 2.999999

[Metadata]
Title:Last Wish (feat. Ice)
TitleUnicode:Last Wish (feat. Ice)
Artist:Kry.exe
ArtistUnicode:Kry.exe
Creator:hemoo
Version:Grandeur
Source:Beat Saber World Cup 2022
Tags:BSWC 2022 Grand Finals tiebreaker Artcore Gabber Breakcore 200step Speedcore Psytrance Hardcore Gothic Instrumental Electronic
BeatmapID:3896728
BeatmapSetID:1891274

[Difficulty]
HPDrainRate:8.5
CircleSize:4
OverallDifficulty:7.5
ApproachRate:5
SliderMultiplier:1.4
SliderTickRate:1

[Events]
//Background and Video events
0,0,"bg.jpg",0,0
//Break Periods
2,322303,324403
//Storyboard Layer 0 (Background)
//Storyboard Layer 1 (Fail)
//Storyboard Layer 2 (Pass)
//Storyboard Layer 3 (Foreground)
//Storyboard Layer 4 (Overlay)
//Storyboard Sound Samples

[TimingPoints]
0,285.714285714286,4,2,1,30,1,0
0,-87.719298245614,4,2,1,30,0,0
34285,272.727272727273,4,2,1,30,1,0
34285,-91.743119266055,4,2,1,30,0,0
36466,260.869565217391,4,2,1,30,1,0
36466,-96.1538461538461,4,2,1,30,0,0
38552,250,4,2,1,30,1,0
38552,-100,4,2,1,30,0,0
42552,-100,4,2,1,30,0,1
56552,-100,4,2,1,30,0,0
58552,-100,4,2,1,30,0,1
61552,-100,4,2,1,30,0,0
98552,240,4,2,1,30,1,0
98552,-104.166666666667,4,2,1,30,0,0
99512,230.769230769231,4,2,1,30,1,0
99512,-108.695652173913,4,2,1,30,0,0
100435,222.222222222222,4,2,1,30,1,0
100435,-112.359550561798,4,2,1,30,0,0
101323,214.285714285714,4,2,1,30,1,0
101323,-116.279069767442,4,2,1,30,0,0
105608,-116.279069767442,4,2,1,30,0,1
117608,-116.279069767442,4,2,1,30,0,0
119322,-116.279069767442,4,2,1,30,0,1
133037,-116.279069767442,4,2,1,30,0,0
139894,206.896551724138,4,2,1,30,1,0
139894,-120.481927710843,4,2,1,30,0,1
146514,200,4,2,1,30,1,0
146514,-125,4,2,1,30,0,0
165714,-125,4,2,1,30,0,1
171314,-125,4,2,1,30,0,0
172114,-125,4,2,1,30,0,1
176914,-125,4,2,1,30,0,0
178514,-125,4,2,1,30,0,1
186514,-125,4,2,1,30,0,0
188114,-125,4,2,1,30,0,1
189714,214.285714285714,4,2,1,30,1,0
189714,-116.279069767442,4,2,1,30,0,1
190142,230.769230769231,4,2,1,30,1,0
190142,-108.695652173913,4,2,1,30,0,1
190603,250,4,2,1,30,1,0
190603,-100,4,2,1,30,0,1
191603,-100,4,2,1,30,0,0
225603,-100,4,2,1,30,0,0
257603,-100,4,2,1,30,0,1
289603,-100,4,2,1,30,0,0
326103,125,4,2,1,30,1,0
326103,-200,4,2,1,30,0,0
328103,62.5,4,2,1,30,1,0
328103,-400,4,2,1,30,0,0

[HitObjects]
64,192,2285,5,0,0:0:0:0:
448,192,2285,1,0,0:0:0:0:
192,192,2357,1,0,0:0:0:0:
320,192,2428,1,0,0:0:0:0:
64,192,2500,1,0,0:0:0:0:
320,192,2571,1,0,0:0:0:0:
448,192,2642,1,0,0:0:0:0:
64,192,2714,1,0,0:0:0:0:
192,192,2785,1,0,0:0:0:0:
320,192,2857,1,0,0:0:0:0:
192,192,2928,1,0,0:0:0:0:
448,192,3000,1,0,0:0:0:0:
192,192,3071,1,0,0:0:0:0:
320,192,3142,1,0,0:0:0:0:
64,192,3214,1,0,0:0:0:0:
192,192,3285,1,0,0:0:0:0:
64,192,3357,1,0,0:0:0:0:
320,192,3428,1,0,0:0:0:0:
448,192,3428,1,0,0:0:0:0:
192,192,3500,1,0,0:0:0:0:
320,192,3571,1,0,0:0:0:0:
64,192,3642,1,0,0:0:0:0:
192,192,3714,1,0,0:0:0:0:
320,192,3785,1,0,0:0:0:0:
64,192,3857,1,0,0:0:0:0:
192,192,3928,1,0,0:0:0:0:
448,192,4000,1,0,0:0:0:0:
320,192,4071,1,0,0:0:0:0:
192,192,4142,1,0,0:0:0:0:
64,192,4214,1,0,0:0:0:0:
320,192,4285,1,0,0:0:0:0:
192,192,4357,1,0,0:0:0:0:
64,192,4428,1,0,0:0:0:0:
192,192,4500,1,0,0:0:0:0:
320,192,4571,1,0,0:0:0:0:
448,192,4571,1,0,0:0:0:0:
64,192,4642,1,0,0:0:0:0:
192,192,4714,1,0,0:0:0:0:
64,192,4785,1,0,0:0:0:0:
320,192,4857,1,0,0:0:0:0:
448,192,4928,1,0,0:0:0:0:
192,192,5000,1,0,0:0:0:0:
320,192,5071,1,0,0:0:0:0:
448,192,5142,1,0,0:0:0:0:
320,192,5214,1,0,0:0:0:0:
192,192,5285,1,0,0:0:0:0:
64,192,5357,1,0,0:0:0:0:
320,192,5428,1,0,0:0:0:0:
192,192,5500,1,0,0:0:0:0:
64,192,5571,1,0,0:0:0:0:
192,192,5642,1,0,0:0:0:0:
320,192,5714,1,0,0:0:0:0:
448,192,5714,1,0,0:0:0:0:
64,192,5785,1,0,0:0:0:0:
192,192,5857,1,0,0:0:0:0:
320,192,5857,1,0,0:0:0:0:
448,192,5928,1,0,0:0:0:0:
192,192,6000,1,0,0:0:0:0:
64,192,6000,1,0,0:0:0:0:
320,192,6071,1,0,0:0:0:0:
192,192,6142,1,0,0:0:0:0:
448,192,6142,1,0,0:0:0:0:
64,192,6214,1,0,0:0:0:0:
320,192,6285,1,0,0:0:0:0:
448,192,6285,1,0,0:0:0:0:
192,192,6357,1,0,0:0:0:0:
64,192,6357,1,0,0:0:0:0:
320,192,6428,1,0,0:0:0:0:
448,192,6428,1,0,0:0:0:0:
192,192,6500,1,0,0:0:0:0:
64,192,6571,1,0,0:0:0:0:
448,192,6571,1,0,0:0:0:0:
320,192,6642,1,0,0:0:0:0:
192,192,6714,1,0,0:0:0:0:
320,192,6785,1,0,0:0:0:0:
448,192,6857,1,0,0:0:0:0:
64,192,6857,1,0,0:0:0:0:
192,192,6928,1,0,0:0:0:0:
320,192,7000,1,0,0:0:0:0:
192,192,7071,1,0,0:0:0:0:
64,192,7142,1,0,0:0:0:0:
448,192,7142,1,0,0:0:0:0:
320,192,7214,1,0,0:0:0:0:
448,192,7285,1,0,0:0:0:0:
192,192,7357,1,0,0:0:0:0:
320,192,7428,1,0,0:0:0:0:
64,192,7428,1,0,0:0:0:0:
192,192,7500,1,0,0:0:0:0:
64,192,7571,1,0,0:0:0:0:
320,192,7642,1,0,0:0:0:0:
192,192,7714,1,0,0:0:0:0:
448,192,7714,1,0,0:0:0:0:
320,192,7785,1,0,0:0:0:0:
448,192,7857,1,0,0:0:0:0:
64,192,7928,1,0,0:0:0:0:
448,192,8000,1,0,0:0:0:0:
192,192,8000,1,0,0:0:0:0:
320,192,8071,1,0,0:0:0:0:
192,192,8142,1,0,0:0:0:0:
64,192,8214,1,0,0:0:0:0:
320,192,8285,1,0,0:0:0:0:
448,192,8285,1,0,0:0:0:0:
64,192,8357,1,0,0:0:0:0:
192,192,8428,1,0,0:0:0:0:
320,192,8500,1,0,0:0:0:0:
448,192,8571,1,0,0:0:0:0:
64,192,8571,1,0,0:0:0:0:
320,192,8642,1,0,0:0:0:0:
192,192,8714,1,0,0:0:0:0:
64,192,8785,1,0,0:0:0:0:
320,192,8857,1,0,0:0:0:0:
448,192,8857,1,0,0:0:0:0:
192,192,8928,1,0,0:0:0:0:
448,192,9000,1,0,0:0:0:0:
320,192,9071,1,0,0:0:0:0:
64,192,9142,1,0,0:0:0:0:
192,192,9142,1,0,0:0:0:0:
448,192,9214,1,0,0:0:0:0:
192,192,9285,1,0,0:0:0:0:
320,192,9357,1,0,0:0:0:0:
64,192,9428,1,0,0:0:0:0:
448,192,9428,1,0,0:0:0:0:
192,192,9500,1,0,0:0:0:0:
320,192,9571,1,0,0:0:0:0:
192,192,9642,1,0,0:0:0:0:
64,192,9714,1,0,0:0:0:0:
448,192,9714,1,0,0:0:0:0:
320,192,9785,1,0,0:0:0:0:
192,192,9857,1,0,0:0:0:0:
320,192,9928,1,0,0:0:0:0:
64,192,10000,1,0,0:0:0:0:
448,192,10000,1,0,0:0:0:0:
320,192,10071,1,0,0:0:0:0:
192,192,10142,1,0,0:0:0:0:
64,192,10214,1,0,0:0:0:0:
320,192,10285,1,0,0:0:0:0:
448,192,10285,1,0,0:0:0:0:
64,192,10357,1,0,0:0:0:0:
192,192,10428,1,0,0:0:0:0:
448,192,10428,1,0,0:0:0:0:
320,192,10500,1,0,0:0:0:0:
192,192,10571,1,0,0:0:0:0:
64,192,10571,1,0,0:0:0:0:
448,192,10642,1,0,0:0:0:0:
320,192,10714,1,0,0:0:0:0:
64,192,10714,1,0,0:0:0:0:
192,192,10785,1,0,0:0:0:0:
448,192,10857,1,0,0:0:0:0:
320,192,10857,1,0,0:0:0:0:
64,192,10928,1,0,0:0:0:0:
320,192,11000,1,0,0:0:0:0:
192,192,11071,1,0,0:0:0:0:
448,192,11142,1,0,0:0:0:0:
64,192,11142,1,0,0:0:0:0:
320,192,11214,1,0,0:0:0:0:
192,192,11285,1,0,0:0:0:0:
64,192,11357,1,0,0:0:0:0:
448,192,11428,128,0,12500:0:0:0:0:
320,192,11428,128,0,11714:0:0:0:0:
192,192,11714,1,0,0:0:0:0:
64,192,11785,1,0,0:0:0:0:
320,192,11857,1,0,0:0:0:0:
64,192,11928,1,0,0:0:0:0:
320,192,12000,1,0,0:0:0:0:
192,192,12071,1,0,0:0:0:0:
64,192,12142,1,0,0:0:0:0:
320,192,12214,1,0,0:0:0:0:
64,192,12285,1,0,0:0:0:0:
192,192,12357,1,0,0:0:0:0:
320,192,12428,1,0,0:0:0:0:
64,192,12500,1,0,0:0:0:0:
192,192,12571,1,0,0:0:0:0:
320,192,12571,1,0,0:0:0:0:
448,192,12571,1,0,0:0:0:0:
448,192,12642,1,0,0:0:0:0:
320,192,12642,1,0,0:0:0:0:
192,192,12642,1,0,0:0:0:0:
192,192,12785,1,0,0:0:0:0:
320,192,12785,1,0,0:0:0:0:
64,192,12785,1,0,0:0:0:0:
320,192,12928,1,0,0:0:0:0:
64,192,12928,1,0,0:0:0:0:
192,192,12928,1,0,0:0:0:0:
448,192,13071,1,0,0:0:0:0:
64,192,13071,1,0,0:0:0:0:
64,192,13214,1,0,0:0:0:0:
448,192,13214,1,0,0:0:0:0:
64,192,13357,1,0,0:0:0:0:
448,192,13357,1,0,0:0:0:0:
192,192,13428,1,0,0:0:0:0:
320,192,13428,1,0,0:0:0:0:
192,192,13571,1,0,0:0:0:0:
320,192,13571,1,0,0:0:0:0:
64,192,13714,1,0,0:0:0:0:
320,192,13714,1,0,0:0:0:0:
448,192,13714,1,0,0:0:0:0:
192,192,13857,128,0,13928:0:0:0:0:
64,192,14000,1,0,0:0:0:0:
320,192,14000,1,0,0:0:0:0:
192,192,14000,1,0,0:0:0:0:
320,192,14142,128,0,14214:0:0:0:0:
192,192,14285,1,0,0:0:0:0:
320,192,14285,1,0,0:0:0:0:
448,192,14285,1,0,0:0:0:0:
64,192,14428,128,0,14500:0:0:0:0:
64,192,14571,1,0,0:0:0:0:
192,192,14571,1,0,0:0:0:0:
320,192,14571,1,0,0:0:0:0:
448,192,14714,128,0,14785:0:0:0:0:
320,192,14857,1,0,0:0:0:0:
192,192,14857,1,0,0:0:0:0:
448,192,14857,1,0,0:0:0:0:
192,192,15000,128,0,15071:0:0:0:0:
64,192,15142,1,0,0:0:0:0:
192,192,15142,1,0,0:0:0:0:
320,192,15142,1,0,0:0:0:0:
320,192,15285,128,0,15357:0:0:0:0:
192,192,15428,1,0,0:0:0:0:
320,192,15428,1,0,0:0:0:0:
448,192,15428,1,0,0:0:0:0:
192,192,15571,128,0,15642:0:0:0:0:
64,192,15714,1,0,0:0:0:0:
192,192,15714,1,0,0:0:0:0:
320,192,15714,1,0,0:0:0:0:
448,192,15857,128,0,15928:0:0:0:0:
320,192,15928,128,0,16000:0:0:0:0:
192,192,16000,1,0,0:0:0:0:
64,192,16000,1,0,0:0:0:0:
320,192,16071,1,0,0:0:0:0:
192,192,16142,1,0,0:0:0:0:
320,192,16214,1,0,0:0:0:0:
64,192,16285,1,0,0:0:0:0:
448,192,16285,1,0,0:0:0:0:
192,192,16357,1,0,0:0:0:0:
64,192,16428,1,0,0:0:0:0:
192,192,16500,1,0,0:0:0:0:
320,192,16571,1,0,0:0:0:0:
64,192,16571,1,0,0:0:0:0:
448,192,16642,1,0,0:0:0:0:
320,192,16714,1,0,0:0:0:0:
448,192,16785,1,0,0:0:0:0:
64,192,16857,1,0,0:0:0:0:
320,192,16857,1,0,0:0:0:0:
192,192,16928,1,0,0:0:0:0:
320,192,17000,1,0,0:0:0:0:
192,192,17071,1,0,0:0:0:0:
64,192,17142,1,0,0:0:0:0:
448,192,17142,1,0,0:0:0:0:
192,192,17214,1,0,0:0:0:0:
320,192,17285,1,0,0:0:0:0:
448,192,17285,128,0,17357:0:0:0:0:
192,192,17357,1,0,0:0:0:0:
64,192,17428,1,0,0:0:0:0:
320,192,17428,128,0,17500:0:0:0:0:
192,192,17500,1,0,0:0:0:0:
64,192,17571,1,0,0:0:0:0:
448,192,17571,128,0,17642:0:0:0:0:
320,192,17642,1,0,0:0:0:0:
192,192,17714,1,0,0:0:0:0:
64,192,17714,128,0,17785:0:0:0:0:
320,192,17785,1,0,0:0:0:0:
448,192,17857,1,0,0:0:0:0:
192,192,17857,128,0,17928:0:0:0:0:
64,192,17928,1,0,0:0:0:0:
320,192,18000,128,0,18071:0:0:0:0:
448,192,18000,1,0,0:0:0:0:
192,192,18142,1,0,0:0:0:0:
320,192,18142,1,0,0:0:0:0:
448,192,18142,1,0,0:0:0:0:
320,192,18285,1,0,0:0:0:0:
64,192,18285,1,0,0:0:0:0:
192,192,18285,1,0,0:0:0:0:
192,192,18428,128,0,18500:0:0:0:0:
320,192,18571,1,0,0:0:0:0:
192,192,18571,1,0,0:0:0:0:
448,192,18571,1,0,0:0:0:0:
320,192,18714,128,0,18785:0:0:0:0:
64,192,18857,1,0,0:0:0:0:
320,192,18857,1,0,0:0:0:0:
448,192,18857,1,0,0:0:0:0:
64,192,19000,128,0,19071:0:0:0:0:
64,192,19142,1,0,0:0:0:0:
192,192,19142,1,0,0:0:0:0:
448,192,19142,1,0,0:0:0:0:
448,192,19285,128,0,19357:0:0:0:0:
192,192,19428,1,0,0:0:0:0:
320,192,19428,1,0,0:0:0:0:
448,192,19428,128,0,19500:0:0:0:0:
192,192,19571,128,0,19642:0:0:0:0:
64,192,19714,1,0,0:0:0:0:
192,192,19714,1,0,0:0:0:0:
448,192,19714,128,0,19785:0:0:0:0:
192,192,19857,128,0,19928:0:0:0:0:
320,192,20000,1,0,0:0:0:0:
448,192,20000,1,0,0:0:0:0:
192,192,20000,1,0,0:0:0:0:
320,192,20142,128,0,20214:0:0:0:0:
192,192,20285,1,0,0:0:0:0:
64,192,20285,1,0,0:0:0:0:
320,192,20285,128,0,20357:0:0:0:0:
448,192,20428,128,0,20500:0:0:0:0:
320,192,20500,128,0,20571:0:0:0:0:
192,192,20571,1,0,0:0:0:0:
64,192,20571,1,0,0:0:0:0:
448,192,20642,1,0,0:0:0:0:
320,192,20714,1,0,0:0:0:0:
448,192,20785,1,0,0:0:0:0:
192,192,20857,1,0,0:0:0:0:
64,192,20857,1,0,0:0:0:0:
448,192,20928,1,0,0:0:0:0:
320,192,21000,1,0,0:0:0:0:
448,192,21071,1,0,0:0:0:0:
192,192,21142,1,0,0:0:0:0:
320,192,21142,1,0,0:0:0:0:
64,192,21214,1,0,0:0:0:0:
192,192,21285,1,0,0:0:0:0:
64,192,21357,1,0,0:0:0:0:
320,192,21428,1,0,0:0:0:0:
448,192,21428,1,0,0:0:0:0:
64,192,21500,1,0,0:0:0:0:
192,192,21571,1,0,0:0:0:0:
320,192,21642,1,0,0:0:0:0:
192,192,21714,1,0,0:0:0:0:
448,192,21714,1,0,0:0:0:0:
64,192,21785,1,0,0:0:0:0:
320,192,21857,1,0,0:0:0:0:
448,192,21857,1,0,0:0:0:0:
64,192,21928,1,0,0:0:0:0:
192,192,21928,1,0,0:0:0:0:
448,192,22000,1,0,0:0:0:0:
320,192,22000,1,0,0:0:0:0:
192,192,22071,1,0,0:0:0:0:
64,192,22142,1,0,0:0:0:0:
320,192,22142,1,0,0:0:0:0:
448,192,22214,1,0,0:0:0:0:
64,192,22285,1,0,0:0:0:0:
192,192,22285,1,0,0:0:0:0:
320,192,22357,1,0,0:0:0:0:
448,192,22357,1,0,0:0:0:0:
192,192,22428,1,0,0:0:0:0:
64,192,22428,1,0,0:0:0:0:
320,192,22500,1,0,0:0:0:0:
192,192,22571,1,0,0:0:0:0:
448,192,22571,1,0,0:0:0:0:
64,192,22642,1,0,0:0:0:0:
320,192,22642,1,0,0:0:0:0:
192,192,22714,1,0,0:0:0:0:
448,192,22714,1,0,0:0:0:0:
320,192,22785,1,0,0:0:0:0:
64,192,22785,1,0,0:0:0:0:
448,192,22857,1,0,0:0:0:0:
192,192,22857,1,0,0:0:0:0:
64,192,22928,1,0,0:0:0:0:
320,192,23000,1,0,0:0:0:0:
192,192,23071,1,0,0:0:0:0:
320,192,23142,1,0,0:0:0:0:
64,192,23142,1,0,0:0:0:0:
448,192,23142,1,0,0:0:0:0:
192,192,23214,1,0,0:0:0:0:
320,192,23285,1,0,0:0:0:0:
448,192,23357,1,0,0:0:0:0:
192,192,23428,1,0,0:0:0:0:
64,192,23428,1,0,0:0:0:0:
320,192,23428,1,0,0:0:0:0:
448,192,23500,1,0,0:0:0:0:
192,192,23571,1,0,0:0:0:0:
64,192,23642,1,0,0:0:0:0:
192,192,23714,1,0,0:0:0:0:
320,192,23714,1,0,0:0:0:0:
448,192,23714,1,0,0:0:0:0:
64,192,23785,1,0,0:0:0:0:
192,192,23857,1,0,0:0:0:0:
320,192,23928,1,0,0:0:0:0:
64,192,24000,1,0,0:0:0:0:
192,192,24000,1,0,0:0:0:0:
448,192,24000,1,0,0:0:0:0:
320,192,24071,1,0,0:0:0:0:
448,192,24142,1,0,0:0:0:0:
192,192,24214,1,0,0:0:0:0:
448,192,24285,1,0,0:0:0:0:
64,192,24285,1,0,0:0:0:0:
320,192,24285,1,0,0:0:0:0:
192,192,24357,1,0,0:0:0:0:
64,192,24428,1,0,0:0:0:0:
320,192,24500,1,0,0:0:0:0:
64,192,24571,1,0,0:0:0:0:
192,192,24571,1,0,0:0:0:0:
448,192,24571,1,0,0:0:0:0:
320,192,24642,1,0,0:0:0:0:
192,192,24714,1,0,0:0:0:0:
64,192,24785,1,0,0:0:0:0:
320,192,24857,1,0,0:0:0:0:
448,192,24857,1,0,0:0:0:0:
192,192,24857,1,0,0:0:0:0:
64,192,24928,1,0,0:0:0:0:
192,192,25000,1,0,0:0:0:0:
320,192,25071,1,0,0:0:0:0:
64,192,25142,1,0,0:0:0:0:
192,192,25142,1,0,0:0:0:0:
448,192,25142,1,0,0:0:0:0:
320,192,25214,1,0,0:0:0:0:
448,192,25285,1,0,0:0:0:0:
192,192,25357,1,0,0:0:0:0:
64,192,25428,1,0,0:0:0:0:
320,192,25428,1,0,0:0:0:0:
448,192,25428,1,0,0:0:0:0:
192,192,25500,1,0,0:0:0:0:
320,192,25571,1,0,0:0:0:0:
448,192,25642,1,0,0:0:0:0:
320,192,25714,1,0,0:0:0:0:
192,192,25714,1,0,0:0:0:0:
64,192,25714,1,0,0:0:0:0:
448,192,25785,1,0,0:0:0:0:
320,192,25857,1,0,0:0:0:0:
192,192,25928,1,0,0:0:0:0:
64,192,26000,1,0,0:0:0:0:
320,192,26000,1,0,0:0:0:0:
448,192,26000,1,0,0:0:0:0:
192,192,26071,1,0,0:0:0:0:
320,192,26142,1,0,0:0:0:0:
64,192,26214,1,0,0:0:0:0:
320,192,26285,1,0,0:0:0:0:
192,192,26285,1,0,0:0:0:0:
448,192,26285,1,0,0:0:0:0:
64,192,26357,1,0,0:0:0:0:
192,192,26428,1,0,0:0:0:0:
320,192,26500,1,0,0:0:0:0:
192,192,26571,1,0,0:0:0:0:
64,192,26571,1,0,0:0:0:0:
448,192,26571,1,0,0:0:0:0:
320,192,26642,1,0,0:0:0:0:
192,192,26714,1,0,0:0:0:0:
64,192,26785,1,0,0:0:0:0:
192,192,26857,1,0,0:0:0:0:
320,192,26857,1,0,0:0:0:0:
448,192,26857,1,0,0:0:0:0:
64,192,26928,1,0,0:0:0:0:
192,192,27000,1,0,0:0:0:0:
320,192,27071,1,0,0:0:0:0:
192,192,27142,1,0,0:0:0:0:
64,192,27142,1,0,0:0:0:0:
448,192,27142,1,0,0:0:0:0:
192,192,27285,1,0,0:0:0:0:
320,192,27285,1,0,0:0:0:0:
64,192,27428,1,0,0:0:0:0:
320,192,27428,1,0,0:0:0:0:
448,192,27428,1,0,0:0:0:0:
192,192,27500,1,0,0:0:0:0:
320,192,27571,1,0,0:0:0:0:
192,192,27642,1,0,0:0:0:0:
64,192,27714,1,0,0:0:0:0:
320,192,27714,1,0,0:0:0:0:
448,192,27714,1,0,0:0:0:0:
192,192,27785,1,0,0:0:0:0:
320,192,27857,1,0,0:0:0:0:
448,192,27928,1,0,0:0:0:0:
64,192,28000,1,0,0:0:0:0:
192,192,28000,1,0,0:0:0:0:
320,192,28000,1,0,0:0:0:0:
448,192,28071,1,0,0:0:0:0:
320,192,28142,1,0,0:0:0:0:
192,192,28214,1,0,0:0:0:0:
64,192,28285,1,0,0:0:0:0:
320,192,28285,1,0,0:0:0:0:
448,192,28285,1,0,0:0:0:0:
192,192,28357,1,0,0:0:0:0:
320,192,28428,1,0,0:0:0:0:
192,192,28500,1,0,0:0:0:0:
64,192,28571,1,0,0:0:0:0:
320,192,28571,1,0,0:0:0:0:
448,192,28571,1,0,0:0:0:0:
192,192,28642,1,0,0:0:0:0:
320,192,28714,1,0,0:0:0:0:
448,192,28785,1,0,0:0:0:0:
192,192,28857,1,0,0:0:0:0:
320,192,28857,1,0,0:0:0:0:
64,192,28857,1,0,0:0:0:0:
448,192,28928,1,0,0:0:0:0:
320,192,29000,1,0,0:0:0:0:
192,192,29071,1,0,0:0:0:0:
320,192,29142,1,0,0:0:0:0:
64,192,29142,1,0,0:0:0:0:
448,192,29142,1,0,0:0:0:0:
192,192,29214,1,0,0:0:0:0:
64,192,29285,1,0,0:0:0:0:
320,192,29357,1,0,0:0:0:0:
64,192,29428,1,0,0:0:0:0:
448,192,29428,1,0,0:0:0:0:
192,192,29428,1,0,0:0:0:0:
320,192,29500,1,0,0:0:0:0:
192,192,29571,1,0,0:0:0:0:
320,192,29642,1,0,0:0:0:0:
64,192,29714,1,0,0:0:0:0:
448,192,29714,1,0,0:0:0:0:
192,192,29785,1,0,0:0:0:0:
320,192,29857,1,0,0:0:0:0:
448,192,29857,1,0,0:0:0:0:
192,192,29928,1,0,0:0:0:0:
64,192,30000,1,0,0:0:0:0:
320,192,30000,1,0,0:0:0:0:
192,192,30071,1,0,0:0:0:0:
64,192,30142,1,0,0:0:0:0:
448,192,30142,1,0,0:0:0:0:
320,192,30214,1,0,0:0:0:0:
448,192,30285,1,0,0:0:0:0:
192,192,30285,1,0,0:0:0:0:
320,192,30357,1,0,0:0:0:0:
192,192,30428,1,0,0:0:0:0:
64,192,30428,1,0,0:0:0:0:
320,192,30500,1,0,0:0:0:0:
448,192,30571,1,0,0:0:0:0:
64,192,30571,1,0,0:0:0:0:
320,192,30642,1,0,0:0:0:0:
192,192,30714,1,0,0:0:0:0:
448,192,30714,1,0,0:0:0:0:
64,192,30785,1,0,0:0:0:0:
320,192,30857,1,0,0:0:0:0:
448,192,30857,1,0,0:0:0:0:
192,192,30928,1,0,0:0:0:0:
64,192,30928,1,0,0:0:0:0:
320,192,31000,1,0,0:0:0:0:
448,192,31000,1,0,0:0:0:0:
192,192,31071,1,0,0:0:0:0:
64,192,31071,1,0,0:0:0:0:
64,192,31142,1,0,0:0:0:0:
192,192,31142,1,0,0:0:0:0:
320,192,31214,1,0,0:0:0:0:
448,192,31214,1,0,0:0:0:0:
192,192,31285,1,0,0:0:0:0:
64,192,31285,1,0,0:0:0:0:
320,192,31357,1,0,0:0:0:0:
448,192,31357,1,0,0:0:0:0:
64,192,31428,1,0,0:0:0:0:
192,192,31428,1,0,0:0:0:0:
320,192,31500,1,0,0:0:0:0:
448,192,31500,1,0,0:0:0:0:
192,192,31571,1,0,0:0:0:0:
64,192,31571,1,0,0:0:0:0:
448,192,31642,1,0,0:0:0:0:
320,192,31642,1,0,0:0:0:0:
320,192,31714,1,0,0:0:0:0:
448,192,31714,1,0,0:0:0:0:
192,192,31714,1,0,0:0:0:0:
64,192,31714,1,0,0:0:0:0:
192,192,32000,1,0,0:0:0:0:
320,192,32000,1,0,0:0:0:0:
64,192,32000,128,0,34000:0:0:0:0:
448,192,32142,1,0,0:0:0:0:
192,192,32285,1,0,0:0:0:0:
320,192,32428,1,0,0:0:0:0:
448,192,32500,1,0,0:0:0:0:
192,192,32571,1,0,0:0:0:0:
320,192,32642,1,0,0:0:0:0:
192,192,32714,1,0,0:0:0:0:
448,192,32785,1,0,0:0:0:0:
320,192,32857,1,0,0:0:0:0:
448,192,32928,1,0,0:0:0:0:
192,192,33000,1,0,0:0:0:0:
320,192,33071,1,0,0:0:0:0:
192,192,33142,1,0,0:0:0:0:
320,192,33285,1,0,0:0:0:0:
448,192,33428,1,0,0:0:0:0:
320,192,33571,1,0,0:0:0:0:
448,192,33642,1,0,0:0:0:0:
192,192,33714,1,0,0:0:0:0:
320,192,33785,1,0,0:0:0:0:
448,192,33857,1,0,0:0:0:0:
320,192,33928,1,0,0:0:0:0:
192,192,34000,1,0,0:0:0:0:
64,192,34142,1,0,0:0:0:0:
320,192,34142,1,0,0:0:0:0:
448,192,34142,1,0,0:0:0:0:
448,192,34285,128,0,35103:0:0:0:0:
192,192,34285,1,0,0:0:0:0:
320,192,34285,1,0,0:0:0:0:
64,192,34421,1,0,0:0:0:0:
192,192,34557,1,0,0:0:0:0:
320,192,34625,1,0,0:0:0:0:
64,192,34694,1,0,0:0:0:0:
320,192,34830,1,0,0:0:0:0:
192,192,34966,1,0,0:0:0:0:
64,192,35103,1,0,0:0:0:0:
64,192,35239,1,0,0:0:0:0:
192,192,35239,1,0,0:0:0:0:
320,192,35307,1,0,0:0:0:0:
448,192,35307,1,0,0:0:0:0:
192,192,35375,128,0,35648:0:0:0:0:
64,192,35375,128,0,35648:0:0:0:0:
320,192,35375,128,0,35648:0:0:0:0:
448,192,35375,128,0,35648:0:0:0:0:
192,192,35785,128,0,36057:0:0:0:0:
64,192,35785,128,0,36057:0:0:0:0:
320,192,35785,128,0,36057:0:0:0:0:
448,192,35785,128,0,36057:0:0:0:0:
64,192,36194,1,0,0:0:0:0:
192,192,36194,1,0,0:0:0:0:
320,192,36194,1,0,0:0:0:0:
448,192,36194,1,0,0:0:0:0:
192,192,36466,1,0,0:0:0:0:
320,192,36466,1,0,0:0:0:0:
448,192,36466,1,0,0:0:0:0:
64,192,36596,1,0,0:0:0:0:
320,192,36661,1,0,0:0:0:0:
192,192,36726,1,0,0:0:0:0:
448,192,36726,1,0,0:0:0:0:
64,192,36857,1,0,0:0:0:0:
192,192,36922,1,0,0:0:0:0:
320,192,36987,1,0,0:0:0:0:
448,192,36987,1,0,0:0:0:0:
192,192,37118,1,0,0:0:0:0:
320,192,37183,1,0,0:0:0:0:
64,192,37248,1,0,0:0:0:0:
448,192,37248,1,0,0:0:0:0:
192,192,37313,1,0,0:0:0:0:
320,192,37379,1,0,0:0:0:0:
192,192,37444,1,0,0:0:0:0:
64,192,37509,1,0,0:0:0:0:
448,192,37509,1,0,0:0:0:0:
320,192,37639,1,0,0:0:0:0:
448,192,37639,1,0,0:0:0:0:
192,192,37770,1,0,0:0:0:0:
64,192,37770,1,0,0:0:0:0:
320,192,37900,1,0,0:0:0:0:
192,192,37966,1,0,0:0:0:0:
448,192,38031,1,0,0:0:0:0:
64,192,38031,1,0,0:0:0:0:
192,192,38161,1,0,0:0:0:0:
64,192,38161,1,0,0:0:0:0:
320,192,38292,1,0,0:0:0:0:
448,192,38292,1,0,0:0:0:0:
64,192,38357,1,0,0:0:0:0:
192,192,38422,1,0,0:0:0:0:
320,192,38487,1,0,0:0:0:0:
448,192,38552,1,0,0:0:0:0:
64,192,38552,1,0,0:0:0:0:
192,192,38614,1,0,0:0:0:0:
64,192,38677,1,0,0:0:0:0:
192,192,38739,1,0,0:0:0:0:
320,192,38802,1,0,0:0:0:0:
448,192,38802,1,0,0:0:0:0:
192,192,38864,1,0,0:0:0:0:
320,192,38927,1,0,0:0:0:0:
192,192,38989,1,0,0:0:0:0:
64,192,39052,1,0,0:0:0:0:
320,192,39052,1,0,0:0:0:0:
448,192,39114,1,0,0:0:0:0:
320,192,39177,1,0,0:0:0:0:
448,192,39239,1,0,0:0:0:0:
192,192,39302,1,0,0:0:0:0:
64,192,39302,1,0,0:0:0:0:
320,192,39364,1,0,0:0:0:0:
192,192,39427,1,0,0:0:0:0:
64,192,39489,1,0,0:0:0:0:
320,192,39552,1,0,0:0:0:0:
448,192,39552,1,0,0:0:0:0:
192,192,39614,1,0,0:0:0:0:
64,192,39614,1,0,0:0:0:0:
320,192,39677,1,0,0:0:0:0:
448,192,39677,1,0,0:0:0:0:
192,192,39739,1,0,0:0:0:0:
64,192,39739,1,0,0:0:0:0:
320,192,39802,1,0,0:0:0:0:
448,192,39802,1,0,0:0:0:0:
192,192,39864,1,0,0:0:0:0:
64,192,39864,1,0,0:0:0:0:
320,192,39927,1,0,0:0:0:0:
448,192,39927,1,0,0:0:0:0:
192,192,39989,1,0,0:0:0:0:
64,192,39989,1,0,0:0:0:0:
320,192,40052,1,0,0:0:0:0:
448,192,40052,1,0,0:0:0:0:
192,192,40114,1,0,0:0:0:0:
64,192,40114,1,0,0:0:0:0:
320,192,40177,1,0,0:0:0:0:
448,192,40177,1,0,0:0:0:0:
192,192,40239,1,0,0:0:0:0:
64,192,40239,1,0,0:0:0:0:
320,192,40302,1,0,0:0:0:0:
448,192,40302,1,0,0:0:0:0:
192,192,40364,1,0,0:0:0:0:
64,192,40364,1,0,0:0:0:0:
320,192,40427,1,0,0:0:0:0:
448,192,40427,1,0,0:0:0:0:
192,192,40489,1,0,0:0:0:0:
64,192,40489,1,0,0:0:0:0:
192,192,40552,128,0,41552:0:0:0:0:
64,192,40552,128,0,41552:0:0:0:0:
320,192,40552,128,0,41302:0:0:0:0:
448,192,40927,128,0,41302:0:0:0:0:
448,192,41552,1,0,0:0:0:0:
320,192,41677,1,0,0:0:0:0:
192,192,41802,1,0,0:0:0:0:
64,192,41989,1,0,0:0:0:0:
320,192,41989,1,0,0:0:0:0:
448,192,42239,1,0,0:0:0:0:
192,192,42239,1,0,0:0:0:0:
64,192,42552,1,0,0:0:0:0:
320,192,42552,1,0,0:0:0:0:
448,192,42552,1,0,0:0:0:0:
320,192,42677,1,0,0:0:0:0:
448,192,42677,1,0,0:0:0:0:
64,192,42802,1,0,0:0:0:0:
192,192,42802,1,0,0:0:0:0:
320,192,42802,1,0,0:0:0:0:
320,192,42927,1,0,0:0:0:0:
448,192,42927,1,0,0:0:0:0:
64,192,43052,1,0,0:0:0:0:
448,192,43052,1,0,0:0:0:0:
192,192,43052,1,0,0:0:0:0:
192,192,43177,1,0,0:0:0:0:
64,192,43177,1,0,0:0:0:0:
320,192,43302,1,0,0:0:0:0:
448,192,43302,1,0,0:0:0:0:
64,192,43302,1,0,0:0:0:0:
192,192,43427,1,0,0:0:0:0:
320,192,43427,1,0,0:0:0:0:
64,192,43552,1,0,0:0:0:0:
192,192,43552,1,0,0:0:0:0:
448,192,43552,1,0,0:0:0:0:
64,192,43677,1,0,0:0:0:0:
192,192,43802,1,0,0:0:0:0:
320,192,43802,1,0,0:0:0:0:
448,192,43802,1,0,0:0:0:0:
448,192,43927,1,0,0:0:0:0:
64,192,44052,1,0,0:0:0:0:
192,192,44052,1,0,0:0:0:0:
320,192,44052,1,0,0:0:0:0:
192,192,44177,1,0,0:0:0:0:
320,192,44239,1,0,0:0:0:0:
192,192,44302,1,0,0:0:0:0:
64,192,44302,1,0,0:0:0:0:
448,192,44302,1,0,0:0:0:0:
320,192,44427,1,0,0:0:0:0:
448,192,44427,1,0,0:0:0:0:
64,192,44427,1,0,0:0:0:0:
64,192,44552,1,0,0:0:0:0:
192,192,44552,1,0,0:0:0:0:
320,192,44552,1,0,0:0:0:0:
192,192,44677,1,0,0:0:0:0:
64,192,44677,1,0,0:0:0:0:
192,192,44802,1,0,0:0:0:0:
320,192,44802,1,0,0:0:0:0:
448,192,44802,1,0,0:0:0:0:
192,192,44927,1,0,0:0:0:0:
64,192,44927,1,0,0:0:0:0:
64,192,45052,1,0,0:0:0:0:
320,192,45052,1,0,0:0:0:0:
448,192,45052,1,0,0:0:0:0:
320,192,45177,1,0,0:0:0:0:
448,192,45177,1,0,0:0:0:0:
192,192,45302,1,0,0:0:0:0:
64,192,45302,1,0,0:0:0:0:
448,192,45302,1,0,0:0:0:0:
192,192,45427,1,0,0:0:0:0:
320,192,45427,1,0,0:0:0:0:
64,192,45552,1,0,0:0:0:0:
320,192,45552,1,0,0:0:0:0:
448,192,45552,1,0,0:0:0:0:
64,192,45677,1,0,0:0:0:0:
192,192,45802,1,0,0:0:0:0:
320,192,45802,1,0,0:0:0:0:
448,192,45802,1,0,0:0:0:0:
320,192,45927,1,0,0:0:0:0:
192,192,46052,1,0,0:0:0:0:
64,192,46052,1,0,0:0:0:0:
448,192,46052,1,0,0:0:0:0:
64,192,46177,1,0,0:0:0:0:
192,192,46177,1,0,0:0:0:0:
448,192,46177,1,0,0:0:0:0:
192,192,46302,1,0,0:0:0:0:
320,192,46302,1,0,0:0:0:0:
448,192,46302,1,0,0:0:0:0:
320,192,46427,1,0,0:0:0:0:
192,192,46489,1,0,0:0:0:0:
64,192,46552,1,0,0:0:0:0:
448,192,46552,1,0,0:0:0:0:
320,192,46552,1,0,0:0:0:0:
64,192,46677,1,0,0:0:0:0:
448,192,46677,1,0,0:0:0:0:
64,192,46802,1,0,0:0:0:0:
192,192,46802,1,0,0:0:0:0:
320,192,46802,1,0,0:0:0:0:
192,192,46927,1,0,0:0:0:0:
320,192,46968,1,0,0:0:0:0:
448,192,47010,1,0,0:0:0:0:
64,192,47052,1,0,0:0:0:0:
192,192,47052,1,0,0:0:0:0:
320,192,47052,1,0,0:0:0:0:
320,192,47177,1,0,0:0:0:0:
192,192,47239,1,0,0:0:0:0:
64,192,47302,1,0,0:0:0:0:
320,192,47302,1,0,0:0:0:0:
448,192,47302,1,0,0:0:0:0:
192,192,47364,1,0,0:0:0:0:
64,192,47427,1,0,0:0:0:0:
192,192,47552,1,0,0:0:0:0:
320,192,47552,1,0,0:0:0:0:
448,192,47552,1,0,0:0:0:0:
192,192,47677,1,0,0:0:0:0:
448,192,47677,1,0,0:0:0:0:
64,192,47802,1,0,0:0:0:0:
192,192,47802,1,0,0:0:0:0:
320,192,47802,1,0,0:0:0:0:
64,192,47927,1,0,0:0:0:0:
192,192,47968,1,0,0:0:0:0:
320,192,48010,1,0,0:0:0:0:
448,192,48052,1,0,0:0:0:0:
64,192,48052,1,0,0:0:0:0:
192,192,48052,1,0,0:0:0:0:
448,192,48177,1,0,0:0:0:0:
320,192,48239,1,0,0:0:0:0:
64,192,48302,1,0,0:0:0:0:
448,192,48302,1,0,0:0:0:0:
192,192,48302,1,0,0:0:0:0:
320,192,48364,1,0,0:0:0:0:
192,192,48427,1,0,0:0:0:0:
64,192,48427,1,0,0:0:0:0:
320,192,48552,1,0,0:0:0:0:
448,192,48552,1,0,0:0:0:0:
64,192,48552,1,0,0:0:0:0:
320,192,48677,1,0,0:0:0:0:
448,192,48677,1,0,0:0:0:0:
192,192,48802,1,0,0:0:0:0:
64,192,48802,1,0,0:0:0:0:
320,192,48802,1,0,0:0:0:0:
320,192,48927,1,0,0:0:0:0:
448,192,48927,1,0,0:0:0:0:
192,192,49052,1,0,0:0:0:0:
64,192,49052,1,0,0:0:0:0:
448,192,49052,1,0,0:0:0:0:
192,192,49177,1,0,0:0:0:0:
64,192,49177,1,0,0:0:0:0:
320,192,49302,1,0,0:0:0:0:
448,192,49302,1,0,0:0:0:0:
192,192,49302,1,0,0:0:0:0:
192,192,49427,1,0,0:0:0:0:
64,192,49427,1,0,0:0:0:0:
320,192,49552,1,0,0:0:0:0:
448,192,49552,1,0,0:0:0:0:
192,192,49614,1,0,0:0:0:0:
64,192,49614,1,0,0:0:0:0:
448,192,49677,1,0,0:0:0:0:
320,192,49718,1,0,0:0:0:0:
192,192,49760,1,0,0:0:0:0:
64,192,49802,1,0,0:0:0:0:
448,192,49802,1,0,0:0:0:0:
192,192,49864,1,0,0:0:0:0:
320,192,49864,1,0,0:0:0:0:
64,192,49927,1,0,0:0:0:0:
448,192,49927,1,0,0:0:0:0:
320,192,49968,1,0,0:0:0:0:
192,192,50010,1,0,0:0:0:0:
64,192,50052,1,0,0:0:0:0:
448,192,50052,1,0,0:0:0:0:
320,192,50177,1,0,0:0:0:0:
448,192,50177,1,0,0:0:0:0:
192,192,50302,1,0,0:0:0:0:
64,192,50302,1,0,0:0:0:0:
320,192,50364,1,0,0:0:0:0:
448,192,50364,1,0,0:0:0:0:
192,192,50427,1,0,0:0:0:0:
64,192,50427,1,0,0:0:0:0:
320,192,50489,1,0,0:0:0:0:
448,192,50489,1,0,0:0:0:0:
192,192,50552,1,0,0:0:0:0:
64,192,50552,1,0,0:0:0:0:
320,192,50677,1,0,0:0:0:0:
448,192,50677,1,0,0:0:0:0:
64,192,50802,1,0,0:0:0:0:
320,192,50802,1,0,0:0:0:0:
448,192,50802,1,0,0:0:0:0:
192,192,50927,1,0,0:0:0:0:
64,192,50927,1,0,0:0:0:0:
192,192,51052,1,0,0:0:0:0:
320,192,51052,1,0,0:0:0:0:
448,192,51052,1,0,0:0:0:0:
320,192,51177,1,0,0:0:0:0:
448,192,51177,1,0,0:0:0:0:
192,192,51302,1,0,0:0:0:0:
64,192,51302,1,0,0:0:0:0:
320,192,51302,1,0,0:0:0:0:
320,192,51427,1,0,0:0:0:0:
448,192,51427,1,0,0:0:0:0:
192,192,51552,1,0,0:0:0:0:
64,192,51552,1,0,0:0:0:0:
448,192,51552,1,0,0:0:0:0:
64,192,51677,1,0,0:0:0:0:
320,192,51802,1,0,0:0:0:0:
448,192,51802,1,0,0:0:0:0:
192,192,51802,1,0,0:0:0:0:
448,192,51927,1,0,0:0:0:0:
64,192,52052,1,0,0:0:0:0:
192,192,52052,1,0,0:0:0:0:
320,192,52052,1,0,0:0:0:0:
192,192,52177,1,0,0:0:0:0:
320,192,52239,1,0,0:0:0:0:
448,192,52302,1,0,0:0:0:0:
64,192,52302,1,0,0:0:0:0:
192,192,52302,1,0,0:0:0:0:
192,192,52427,1,0,0:0:0:0:
320,192,52427,1,0,0:0:0:0:
448,192,52427,1,0,0:0:0:0:
64,192,52552,1,0,0:0:0:0:
320,192,52552,1,0,0:0:0:0:
448,192,52552,1,0,0:0:0:0:
192,192,52677,1,0,0:0:0:0:
64,192,52677,1,0,0:0:0:0:
320,192,52802,1,0,0:0:0:0:
448,192,52802,1,0,0:0:0:0:
192,192,52802,1,0,0:0:0:0:
192,192,52927,1,0,0:0:0:0:
64,192,52927,1,0,0:0:0:0:
320,192,53052,1,0,0:0:0:0:
448,192,53052,1,0,0:0:0:0:
64,192,53052,1,0,0:0:0:0:
320,192,53177,1,0,0:0:0:0:
448,192,53177,1,0,0:0:0:0:
192,192,53302,1,0,0:0:0:0:
64,192,53302,1,0,0:0:0:0:
320,192,53302,1,0,0:0:0:0:
192,192,53427,1,0,0:0:0:0:
64,192,53427,1,0,0:0:0:0:
64,192,53552,1,0,0:0:0:0:
320,192,53552,1,0,0:0:0:0:
448,192,53552,1,0,0:0:0:0:
320,192,53677,1,0,0:0:0:0:
192,192,53802,1,0,0:0:0:0:
64,192,53802,1,0,0:0:0:0:
448,192,53802,1,0,0:0:0:0:
64,192,53927,1,0,0:0:0:0:
320,192,54052,1,0,0:0:0:0:
448,192,54052,1,0,0:0:0:0:
192,192,54052,1,0,0:0:0:0:
64,192,54177,1,0,0:0:0:0:
192,192,54177,1,0,0:0:0:0:
448,192,54177,1,0,0:0:0:0:
320,192,54239,1,0,0:0:0:0:
192,192,54302,1,0,0:0:0:0:
448,192,54302,1,0,0:0:0:0:
64,192,54364,1,0,0:0:0:0:
320,192,54427,1,0,0:0:0:0:
448,192,54427,1,0,0:0:0:0:
192,192,54489,1,0,0:0:0:0:
64,192,54489,1,0,0:0:0:0:
320,192,54552,1,0,0:0:0:0:
448,192,54552,1,0,0:0:0:0:
192,192,54677,1,0,0:0:0:0:
64,192,54677,1,0,0:0:0:0:
192,192,54802,1,0,0:0:0:0:
320,192,54802,1,0,0:0:0:0:
448,192,54802,1,0,0:0:0:0:
64,192,54927,1,0,0:0:0:0:
192,192,54968,1,0,0:0:0:0:
320,192,55010,1,0,0:0:0:0:
448,192,55052,1,0,0:0:0:0:
192,192,55052,1,0,0:0:0:0:
64,192,55052,1,0,0:0:0:0:
320,192,55177,1,0,0:0:0:0:
192,192,55239,1,0,0:0:0:0:
64,192,55302,1,0,0:0:0:0:
320,192,55302,1,0,0:0:0:0:
448,192,55302,1,0,0:0:0:0:
192,192,55364,1,0,0:0:0:0:
64,192,55427,1,0,0:0:0:0:
320,192,55552,1,0,0:0:0:0:
448,192,55552,1,0,0:0:0:0:
192,192,55552,1,0,0:0:0:0:
192,192,55677,1,0,0:0:0:0:
64,192,55677,1,0,0:0:0:0:
64,192,55802,1,0,0:0:0:0:
320,192,55802,1,0,0:0:0:0:
448,192,55802,1,0,0:0:0:0:
192,192,55927,1,0,0:0:0:0:
320,192,55968,1,0,0:0:0:0:
448,192,56010,1,0,0:0:0:0:
320,192,56052,1,0,0:0:0:0:
192,192,56052,1,0,0:0:0:0:
64,192,56052,1,0,0:0:0:0:
64,192,56177,1,0,0:0:0:0:
192,192,56239,1,0,0:0:0:0:
64,192,56302,1,0,0:0:0:0:
320,192,56302,1,0,0:0:0:0:
448,192,56302,1,0,0:0:0:0:
192,192,56427,1,0,0:0:0:0:
320,192,56427,1,0,0:0:0:0:
192,192,56552,1,0,0:0:0:0:
64,192,56552,1,0,0:0:0:0:
320,192,56677,1,0,0:0:0:0:
448,192,56677,1,0,0:0:0:0:
192,192,56802,1,0,0:0:0:0:
448,192,56802,1,0,0:0:0:0:
320,192,56927,1,0,0:0:0:0:
64,192,56927,1,0,0:0:0:0:
192,192,57052,1,0,0:0:0:0:
64,192,57052,1,0,0:0:0:0:
320,192,57177,1,0,0:0:0:0:
448,192,57177,1,0,0:0:0:0:
192,192,57239,1,0,0:0:0:0:
448,192,57302,1,0,0:0:0:0:
192,192,57364,1,0,0:0:0:0:
320,192,57427,1,0,0:0:0:0:
64,192,57427,1,0,0:0:0:0:
192,192,57489,1,0,0:0:0:0:
320,192,57552,1,0,0:0:0:0:
448,192,57552,1,0,0:0:0:0:
192,192,57677,1,0,0:0:0:0:
64,192,57677,1,0,0:0:0:0:
64,192,57802,1,0,0:0:0:0:
320,192,57802,1,0,0:0:0:0:
192,192,57927,1,0,0:0:0:0:
448,192,57927,1,0,0:0:0:0:
320,192,58052,1,0,0:0:0:0:
448,192,58052,1,0,0:0:0:0:
64,192,58177,1,0,0:0:0:0:
320,192,58177,1,0,0:0:0:0:
192,192,58302,1,0,0:0:0:0:
448,192,58302,1,0,0:0:0:0:
64,192,58364,1,0,0:0:0:0:
320,192,58427,1,0,0:0:0:0:
448,192,58427,1,0,0:0:0:0:
64,192,58489,1,0,0:0:0:0:
192,192,58489,1,0,0:0:0:0:
320,192,58552,1,0,0:0:0:0:
448,192,58552,1,0,0:0:0:0:
64,192,58614,1,0,0:0:0:0:
192,192,58677,1,0,0:0:0:0:
320,192,58739,1,0,0:0:0:0:
192,192,58802,1,0,0:0:0:0:
64,192,58802,1,0,0:0:0:0:
320,192,58864,1,0,0:0:0:0:
448,192,58927,1,0,0:0:0:0:
320,192,58989,1,0,0:0:0:0:
64,192,59052,1,0,0:0:0:0:
192,192,59052,1,0,0:0:0:0:
448,192,59114,1,0,0:0:0:0:
320,192,59177,1,0,0:0:0:0:
192,192,59239,1,0,0:0:0:0:
320,192,59302,1,0,0:0:0:0:
448,192,59302,1,0,0:0:0:0:
192,192,59364,1,0,0:0:0:0:
64,192,59427,1,0,0:0:0:0:
192,192,59489,1,0,0:0:0:0:
320,192,59552,1,0,0:0:0:0:
448,192,59552,1,0,0:0:0:0:
64,192,59614,1,0,0:0:0:0:
192,192,59677,1,0,0:0:0:0:
320,192,59739,1,0,0:0:0:0:
64,192,59802,1,0,0:0:0:0:
192,192,59802,1,0,0:0:0:0:
320,192,59864,1,0,0:0:0:0:
448,192,59927,1,0,0:0:0:0:
320,192,59989,1,0,0:0:0:0:
64,192,60052,1,0,0:0:0:0:
192,192,60052,1,0,0:0:0:0:
448,192,60114,1,0,0:0:0:0:
320,192,60177,1,0,0:0:0:0:
192,192,60239,1,0,0:0:0:0:
320,192,60302,1,0,0:0:0:0:
448,192,60302,1,0,0:0:0:0:
64,192,60364,1,0,0:0:0:0:
448,192,60427,1,0,0:0:0:0:
320,192,60427,1,0,0:0:0:0:
64,192,60489,1,0,0:0:0:0:
192,192,60489,1,0,0:0:0:0:
320,192,60552,1,0,0:0:0:0:
448,192,60552,1,0,0:0:0:0:
64,192,60614,1,0,0:0:0:0:
192,192,60677,1,0,0:0:0:0:
320,192,60739,1,0,0:0:0:0:
64,192,60802,1,0,0:0:0:0:
192,192,60802,1,0,0:0:0:0:
320,192,60864,1,0,0:0:0:0:
448,192,60927,1,0,0:0:0:0:
320,192,60989,1,0,0:0:0:0:
64,192,61052,1,0,0:0:0:0:
192,192,61052,1,0,0:0:0:0:
448,192,61114,1,0,0:0:0:0:
320,192,61177,1,0,0:0:0:0:
192,192,61239,1,0,0:0:0:0:
320,192,61302,1,0,0:0:0:0:
448,192,61302,1,0,0:0:0:0:
192,192,61364,1,0,0:0:0:0:
64,192,61427,1,0,0:0:0:0:
192,192,61489,1,0,0:0:0:0:
320,192,61552,128,0,62489:0:0:0:0:
448,192,61552,128,0,62489:0:0:0:0:
64,192,61552,128,0,62489:0:0:0:0:
320,192,62552,1,0,0:0:0:0:
448,192,62552,1,0,0:0:0:0:
320,192,62677,1,0,0:0:0:0:
64,192,62677,1,0,0:0:0:0:
192,192,62802,1,0,0:0:0:0:
64,192,62802,1,0,0:0:0:0:
192,192,62927,1,0,0:0:0:0:
448,192,62927,1,0,0:0:0:0:
320,192,63052,1,0,0:0:0:0:
448,192,63052,1,0,0:0:0:0:
64,192,63177,1,0,0:0:0:0:
320,192,63177,1,0,0:0:0:0:
192,192,63302,1,0,0:0:0:0:
64,192,63302,1,0,0:0:0:0:
448,192,63364,1,0,0:0:0:0:
320,192,63427,1,0,0:0:0:0:
192,192,63427,1,0,0:0:0:0:
64,192,63489,1,0,0:0:0:0:
320,192,63552,1,0,0:0:0:0:
448,192,63552,1,0,0:0:0:0:
192,192,63677,1,0,0:0:0:0:
448,192,63677,1,0,0:0:0:0:
64,192,63802,1,0,0:0:0:0:
192,192,63802,1,0,0:0:0:0:
64,192,63927,1,0,0:0:0:0:
320,192,63927,1,0,0:0:0:0:
192,192,64052,1,0,0:0:0:0:
320,192,64052,1,0,0:0:0:0:
448,192,64114,1,0,0:0:0:0:
192,192,64177,1,0,0:0:0:0:
64,192,64177,1,0,0:0:0:0:
320,192,64239,1,0,0:0:0:0:
448,192,64302,1,0,0:0:0:0:
192,192,64364,1,0,0:0:0:0:
448,192,64427,1,0,0:0:0:0:
192,192,64489,1,0,0:0:0:0:
64,192,64552,1,0,0:0:0:0:
320,192,64552,1,0,0:0:0:0:
192,192,64677,1,0,0:0:0:0:
448,192,64677,1,0,0:0:0:0:
320,192,64802,1,0,0:0:0:0:
448,192,64802,1,0,0:0:0:0:
192,192,64927,1,0,0:0:0:0:
64,192,64927,1,0,0:0:0:0:
64,192,65052,1,0,0:0:0:0:
320,192,65052,1,0,0:0:0:0:
192,192,65177,1,0,0:0:0:0:
320,192,65177,1,0,0:0:0:0:
64,192,65302,1,0,0:0:0:0:
320,192,65364,5,0,0:0:0:0:
64,192,65427,1,0,0:0:0:0:
320,192,65489,1,0,0:0:0:0:
192,192,65552,128,0,65989:0:0:0:0:
448,192,65552,128,0,65989:0:0:0:0:
64,192,65552,128,0,65989:0:0:0:0:
192,192,66052,1,0,0:0:0:0:
320,192,66177,1,0,0:0:0:0:
192,192,66302,1,0,0:0:0:0:
64,192,66343,1,0,0:0:0:0:
192,192,66552,5,0,0:0:0:0:
320,192,66552,1,0,0:0:0:0:
448,192,66552,128,0,66677:0:0:0:0:
64,192,66677,128,0,66802:0:0:0:0:
192,192,66802,128,0,66927:0:0:0:0:
320,192,66927,128,0,67302:0:0:0:0:
192,192,67052,1,0,0:0:0:0:
64,192,67177,128,0,67302:0:0:0:0:
192,192,67302,128,0,67427:0:0:0:0:
448,192,67302,128,0,67552:0:0:0:0:
64,192,67364,128,0,67489:0:0:0:0:
192,192,67552,128,0,67677:0:0:0:0:
320,192,67552,128,0,67802:0:0:0:0:
448,192,67677,128,0,67802:0:0:0:0:
192,192,67802,128,0,67927:0:0:0:0:
64,192,67927,128,0,68052:0:0:0:0:
192,192,67989,128,0,68114:0:0:0:0:
320,192,68052,128,0,68302:0:0:0:0:
448,192,68052,128,0,68177:0:0:0:0:
192,192,68302,128,0,68427:0:0:0:0:
64,192,68427,128,0,68552:0:0:0:0:
192,192,68552,128,0,68677:0:0:0:0:
64,192,68614,128,0,68739:0:0:0:0:
320,192,68677,128,0,68802:0:0:0:0:
192,192,68739,128,0,68864:0:0:0:0:
448,192,68802,128,0,68927:0:0:0:0:
64,192,68864,128,0,68989:0:0:0:0:
192,192,68927,128,0,69177:0:0:0:0:
320,192,68989,128,0,69114:0:0:0:0:
64,192,69114,128,0,69239:0:0:0:0:
448,192,69177,128,0,69552:0:0:0:0:
320,192,69302,128,0,69427:0:0:0:0:
192,192,69364,128,0,69489:0:0:0:0:
64,192,69427,128,0,69489:0:0:0:0:
192,192,69552,1,0,0:0:0:0:
64,192,69552,128,0,69927:0:0:0:0:
448,192,69614,128,0,69739:0:0:0:0:
320,192,69677,128,0,69802:0:0:0:0:
192,192,69739,128,0,69864:0:0:0:0:
448,192,69802,128,0,69927:0:0:0:0:
320,192,69927,128,0,70302:0:0:0:0:
64,192,69989,128,0,70114:0:0:0:0:
192,192,70052,128,0,70177:0:0:0:0:
448,192,70177,128,0,70302:0:0:0:0:
192,192,70239,128,0,70364:0:0:0:0:
64,192,70302,128,0,70427:0:0:0:0:
192,192,70427,128,0,70552:0:0:0:0:
320,192,70552,128,0,70677:0:0:0:0:
64,192,70677,128,0,70802:0:0:0:0:
192,192,70802,128,0,70927:0:0:0:0:
320,192,70927,128,0,71302:0:0:0:0:
448,192,71302,128,0,71552:0:0:0:0:
320,192,71552,128,0,71802:0:0:0:0:
448,192,71677,1,0,0:0:0:0:
192,192,71802,128,0,71927:0:0:0:0:
64,192,71927,128,0,72052:0:0:0:0:
192,192,72052,128,0,72177:0:0:0:0:
320,192,72114,128,0,72239:0:0:0:0:
448,192,72239,128,0,72364:0:0:0:0:
192,192,72302,128,0,72427:0:0:0:0:
448,192,72427,128,0,72552:0:0:0:0:
320,192,72552,128,0,72677:0:0:0:0:
192,192,72677,128,0,72802:0:0:0:0:
64,192,72802,128,0,72864:0:0:0:0:
192,192,72864,128,0,72989:0:0:0:0:
64,192,72927,128,0,73052:0:0:0:0:
448,192,73052,128,0,73177:0:0:0:0:
320,192,73177,128,0,73302:0:0:0:0:
192,192,73302,128,0,73927:0:0:0:0:
320,192,73552,128,0,74302:0:0:0:0:
64,192,73552,128,0,73927:0:0:0:0:
448,192,73927,128,0,74302:0:0:0:0:
64,192,74302,1,0,0:0:0:0:
192,192,74552,1,0,0:0:0:0:
320,192,74552,1,0,0:0:0:0:
448,192,74552,128,0,74677:0:0:0:0:
64,192,74677,128,0,74802:0:0:0:0:
192,192,74802,128,0,74927:0:0:0:0:
448,192,74802,128,0,74927:0:0:0:0:
320,192,74927,128,0,75364:0:0:0:0:
192,192,75052,128,0,75114:0:0:0:0:
64,192,75114,128,0,75239:0:0:0:0:
192,192,75177,128,0,75302:0:0:0:0:
448,192,75239,128,0,75364:0:0:0:0:
64,192,75302,128,0,75552:0:0:0:0:
320,192,75552,128,0,75802:0:0:0:0:
448,192,75552,128,0,75677:0:0:0:0:
64,192,75677,128,0,75802:0:0:0:0:
192,192,75802,128,0,75927:0:0:0:0:
448,192,75802,128,0,75927:0:0:0:0:
64,192,75927,128,0,76052:0:0:0:0:
192,192,76052,128,0,76177:0:0:0:0:
320,192,76114,128,0,76302:0:0:0:0:
448,192,76177,128,0,76239:0:0:0:0:
192,192,76239,128,0,76364:0:0:0:0:
64,192,76302,128,0,76427:0:0:0:0:
192,192,76427,128,0,76552:0:0:0:0:
448,192,76552,128,0,76677:0:0:0:0:
320,192,76552,128,0,76677:0:0:0:0:
192,192,76677,128,0,76802:0:0:0:0:
320,192,76802,128,0,76927:0:0:0:0:
64,192,76864,128,0,76989:0:0:0:0:
448,192,76927,128,0,77177:0:0:0:0:
192,192,76989,128,0,77114:0:0:0:0:
64,192,77052,128,0,77177:0:0:0:0:
192,192,77177,128,0,77239:0:0:0:0:
320,192,77177,128,0,77364:0:0:0:0:
448,192,77239,128,0,77302:0:0:0:0:
192,192,77302,128,0,77427:0:0:0:0:
64,192,77427,128,0,77552:0:0:0:0:
192,192,77552,128,0,77802:0:0:0:0:
320,192,77614,128,0,77739:0:0:0:0:
448,192,77739,128,0,77864:0:0:0:0:
320,192,77802,128,0,77927:0:0:0:0:
64,192,77927,128,0,78114:0:0:0:0:
192,192,77989,128,0,78052:0:0:0:0:
320,192,78052,128,0,78114:0:0:0:0:
192,192,78114,128,0,78177:0:0:0:0:
64,192,78177,128,0,78239:0:0:0:0:
448,192,78302,128,0,78364:0:0:0:0:
320,192,78427,128,0,78489:0:0:0:0:
64,192,78427,128,0,78552:0:0:0:0:
192,192,78552,1,0,0:0:0:0:
448,192,78614,1,0,0:0:0:0:
320,192,78677,128,0,78802:0:0:0:0:
64,192,78739,1,0,0:0:0:0:
192,192,78802,1,0,0:0:0:0:
448,192,78802,128,0,78927:0:0:0:0:
320,192,78927,1,0,0:0:0:0:
64,192,78927,128,0,78989:0:0:0:0:
64,192,79052,1,0,0:0:0:0:
320,192,79052,128,0,79177:0:0:0:0:
448,192,79177,128,0,79302:0:0:0:0:
192,192,79177,1,0,0:0:0:0:
320,192,79239,1,0,0:0:0:0:
64,192,79302,128,0,79427:0:0:0:0:
320,192,79364,128,0,79489:0:0:0:0:
192,192,79427,1,0,0:0:0:0:
64,192,79552,128,0,79677:0:0:0:0:
448,192,79552,1,0,0:0:0:0:
192,192,79614,1,0,0:0:0:0:
320,192,79677,1,0,0:0:0:0:
64,192,79739,1,0,0:0:0:0:
192,192,79802,1,0,0:0:0:0:
448,192,79802,1,0,0:0:0:0:
320,192,79927,1,0,0:0:0:0:
192,192,80052,1,0,0:0:0:0:
64,192,80052,1,0,0:0:0:0:
320,192,80114,1,0,0:0:0:0:
448,192,80177,1,0,0:0:0:0:
192,192,80177,1,0,0:0:0:0:
64,192,80239,1,0,0:0:0:0:
320,192,80302,1,0,0:0:0:0:
448,192,80302,1,0,0:0:0:0:
192,192,80364,1,0,0:0:0:0:
448,192,80427,1,0,0:0:0:0:
192,192,80489,1,0,0:0:0:0:
64,192,80552,1,0,0:0:0:0:
320,192,80552,1,0,0:0:0:0:
448,192,80614,1,0,0:0:0:0:
192,192,80677,1,0,0:0:0:0:
320,192,80739,1,0,0:0:0:0:
64,192,80802,1,0,0:0:0:0:
448,192,80802,1,0,0:0:0:0:
192,192,80864,1,0,0:0:0:0:
64,192,80927,1,0,0:0:0:0:
448,192,80927,1,0,0:0:0:0:
320,192,80989,1,0,0:0:0:0:
448,192,81052,1,0,0:0:0:0:
192,192,81052,1,0,0:0:0:0:
64,192,81114,1,0,0:0:0:0:
320,192,81177,1,0,0:0:0:0:
192,192,81239,1,0,0:0:0:0:
448,192,81302,1,0,0:0:0:0:
64,192,81302,1,0,0:0:0:0:
320,192,81364,1,0,0:0:0:0:
448,192,81427,1,0,0:0:0:0:
64,192,81427,1,0,0:0:0:0:
192,192,81489,1,0,0:0:0:0:
448,192,81552,128,0,81677:0:0:0:0:
64,192,81552,128,0,81677:0:0:0:0:
320,192,81552,128,0,81864:0:0:0:0:
192,192,81739,128,0,81864:0:0:0:0:
64,192,81739,128,0,81864:0:0:0:0:
448,192,81739,128,0,81989:0:0:0:0:
320,192,81927,128,0,81989:0:0:0:0:
192,192,81927,128,0,81989:0:0:0:0:
64,192,81927,128,0,81989:0:0:0:0:
64,192,82052,128,0,82489:0:0:0:0:
192,192,82052,128,0,82489:0:0:0:0:
320,192,82052,128,0,82489:0:0:0:0:
448,192,82052,128,0,82489:0:0:0:0:
192,192,82552,128,0,83052:0:0:0:0:
64,192,82552,128,0,83239:0:0:0:0:
320,192,82802,1,0,0:0:0:0:
448,192,82927,1,0,0:0:0:0:
320,192,83052,1,0,0:0:0:0:
448,192,83052,1,0,0:0:0:0:
192,192,83239,1,0,0:0:0:0:
320,192,83239,1,0,0:0:0:0:
192,192,83427,1,0,0:0:0:0:
64,192,83427,1,0,0:0:0:0:
448,192,83552,128,0,83802:0:0:0:0:
64,192,83552,128,0,83739:0:0:0:0:
192,192,83677,1,0,0:0:0:0:
320,192,83802,1,0,0:0:0:0:
448,192,83927,128,0,84177:0:0:0:0:
192,192,83927,128,0,84114:0:0:0:0:
320,192,84052,1,0,0:0:0:0:
192,192,84177,1,0,0:0:0:0:
64,192,84302,128,0,84552:0:0:0:0:
320,192,84302,128,0,84552:0:0:0:0:
192,192,84552,1,0,0:0:0:0:
320,192,84677,1,0,0:0:0:0:
448,192,84802,1,0,0:0:0:0:
320,192,84927,1,0,0:0:0:0:
192,192,85052,1,0,0:0:0:0:
448,192,85052,1,0,0:0:0:0:
320,192,85239,1,0,0:0:0:0:
64,192,85239,1,0,0:0:0:0:
64,192,85427,1,0,0:0:0:0:
192,192,85427,1,0,0:0:0:0:
192,192,85552,128,0,85739:0:0:0:0:
448,192,85552,128,0,85802:0:0:0:0:
320,192,85677,1,0,0:0:0:0:
192,192,85802,1,0,0:0:0:0:
320,192,85927,128,0,86114:0:0:0:0:
64,192,85927,128,0,86177:0:0:0:0:
192,192,86052,1,0,0:0:0:0:
320,192,86177,1,0,0:0:0:0:
192,192,86302,128,0,86552:0:0:0:0:
448,192,86302,128,0,86552:0:0:0:0:
64,192,86552,1,0,0:0:0:0:
192,192,86677,1,0,0:0:0:0:
320,192,86802,1,0,0:0:0:0:
448,192,86927,1,0,0:0:0:0:
320,192,87052,1,0,0:0:0:0:
192,192,87052,1,0,0:0:0:0:
192,192,87239,1,0,0:0:0:0:
64,192,87239,1,0,0:0:0:0:
64,192,87427,1,0,0:0:0:0:
320,192,87427,1,0,0:0:0:0:
192,192,87552,128,0,87739:0:0:0:0:
448,192,87552,128,0,87802:0:0:0:0:
320,192,87677,1,0,0:0:0:0:
192,192,87802,1,0,0:0:0:0:
64,192,87927,128,0,88114:0:0:0:0:
448,192,87927,128,0,88177:0:0:0:0:
192,192,88052,1,0,0:0:0:0:
320,192,88177,1,0,0:0:0:0:
64,192,88302,128,0,88552:0:0:0:0:
448,192,88302,128,0,88552:0:0:0:0:
192,192,88552,1,0,0:0:0:0:
320,192,88677,1,0,0:0:0:0:
192,192,88802,1,0,0:0:0:0:
320,192,88927,1,0,0:0:0:0:
448,192,89052,1,0,0:0:0:0:
320,192,89177,1,0,0:0:0:0:
192,192,89302,1,0,0:0:0:0:
320,192,89364,1,0,0:0:0:0:
64,192,89427,1,0,0:0:0:0:
192,192,89489,1,0,0:0:0:0:
64,192,89552,1,0,0:0:0:0:
320,192,89552,1,0,0:0:0:0:
448,192,89552,1,0,0:0:0:0:
192,192,89739,1,0,0:0:0:0:
320,192,89739,1,0,0:0:0:0:
64,192,89739,1,0,0:0:0:0:
448,192,89927,1,0,0:0:0:0:
64,192,89927,1,0,0:0:0:0:
192,192,89927,1,0,0:0:0:0:
320,192,90052,1,0,0:0:0:0:
448,192,90052,1,0,0:0:0:0:
192,192,90052,1,0,0:0:0:0:
64,192,90177,1,0,0:0:0:0:
192,192,90177,1,0,0:0:0:0:
320,192,90177,1,0,0:0:0:0:
64,192,90302,1,0,0:0:0:0:
320,192,90302,1,0,0:0:0:0:
448,192,90302,1,0,0:0:0:0:
64,192,90427,1,0,0:0:0:0:
192,192,90427,1,0,0:0:0:0:
448,192,90427,1,0,0:0:0:0:
320,192,90552,1,0,0:0:0:0:
448,192,90552,1,0,0:0:0:0:
192,192,90552,128,0,90677:0:0:0:0:
64,192,90552,1,0,0:0:0:0:
320,192,90677,1,0,0:0:0:0:
64,192,90802,128,0,90927:0:0:0:0:
192,192,90927,128,0,91052:0:0:0:0:
448,192,91052,128,0,91489:0:0:0:0:
320,192,91052,128,0,91489:0:0:0:0:
192,192,91239,128,0,91489:0:0:0:0:
64,192,91427,128,0,91489:0:0:0:0:
192,192,91552,128,0,91802:0:0:0:0:
64,192,91552,128,0,91802:0:0:0:0:
448,192,91552,128,0,91802:0:0:0:0:
192,192,91927,128,0,92177:0:0:0:0:
320,192,91927,128,0,92177:0:0:0:0:
448,192,91927,128,0,92177:0:0:0:0:
64,192,92302,128,0,92489:0:0:0:0:
192,192,92302,128,0,92489:0:0:0:0:
320,192,92302,128,0,92489:0:0:0:0:
192,192,92552,1,0,0:0:0:0:
448,192,92552,1,0,0:0:0:0:
64,192,92552,1,0,0:0:0:0:
320,192,92552,128,0,92677:0:0:0:0:
192,192,92677,1,0,0:0:0:0:
64,192,92802,128,0,92927:0:0:0:0:
192,192,92927,128,0,93052:0:0:0:0:
320,192,93052,128,0,93489:0:0:0:0:
448,192,93052,128,0,93489:0:0:0:0:
192,192,93239,128,0,93489:0:0:0:0:
64,192,93427,128,0,93489:0:0:0:0:
192,192,93552,128,0,93802:0:0:0:0:
64,192,93552,128,0,93802:0:0:0:0:
320,192,93552,128,0,93802:0:0:0:0:
448,192,93927,128,0,94177:0:0:0:0:
192,192,93927,128,0,94177:0:0:0:0:
320,192,93927,128,0,94177:0:0:0:0:
192,192,94302,128,0,94489:0:0:0:0:
448,192,94302,128,0,94489:0:0:0:0:
64,192,94302,128,0,94489:0:0:0:0:
320,192,94552,128,0,94802:0:0:0:0:
64,192,94552,128,0,94614:0:0:0:0:
192,192,94614,128,0,94677:0:0:0:0:
448,192,94677,128,0,94739:0:0:0:0:
192,192,94739,128,0,94802:0:0:0:0:
64,192,94802,128,0,94864:0:0:0:0:
192,192,94864,128,0,94927:0:0:0:0:
320,192,94927,128,0,94989:0:0:0:0:
448,192,94989,128,0,95052:0:0:0:0:
64,192,95052,128,0,95302:0:0:0:0:
192,192,95052,128,0,95114:0:0:0:0:
320,192,95114,128,0,95177:0:0:0:0:
448,192,95177,128,0,95239:0:0:0:0:
320,192,95239,128,0,95302:0:0:0:0:
192,192,95302,128,0,95364:0:0:0:0:
64,192,95364,128,0,95427:0:0:0:0:
192,192,95427,128,0,95489:0:0:0:0:
320,192,95489,128,0,95552:0:0:0:0:
448,192,95552,128,0,95677:0:0:0:0:
192,192,95552,128,0,95614:0:0:0:0:
64,192,95614,128,0,95677:0:0:0:0:
192,192,95677,128,0,95739:0:0:0:0:
320,192,95739,128,0,95802:0:0:0:0:
448,192,95802,128,0,95864:0:0:0:0:
192,192,95864,128,0,95927:0:0:0:0:
320,192,95927,128,0,95989:0:0:0:0:
64,192,95989,128,0,96052:0:0:0:0:
192,192,96052,128,0,96177:0:0:0:0:
448,192,96052,128,0,96114:0:0:0:0:
320,192,96114,128,0,96177:0:0:0:0:
64,192,96177,128,0,96239:0:0:0:0:
192,192,96239,128,0,96302:0:0:0:0:
320,192,96302,128,0,96364:0:0:0:0:
448,192,96364,128,0,96427:0:0:0:0:
192,192,96427,128,0,96489:0:0:0:0:
64,192,96489,128,0,96552:0:0:0:0:
320,192,96552,128,0,96677:0:0:0:0:
448,192,96552,128,0,96614:0:0:0:0:
192,192,96614,128,0,96677:0:0:0:0:
64,192,96677,128,0,96802:0:0:0:0:
448,192,96677,128,0,96739:0:0:0:0:
192,192,96739,128,0,96802:0:0:0:0:
320,192,96802,128,0,96864:0:0:0:0:
448,192,96802,128,0,96927:0:0:0:0:
64,192,96864,128,0,96927:0:0:0:0:
192,192,96927,128,0,97052:0:0:0:0:
320,192,96927,128,0,96989:0:0:0:0:
64,192,96989,128,0,97052:0:0:0:0:
320,192,97052,128,0,97177:0:0:0:0:
448,192,97052,128,0,97114:0:0:0:0:
192,192,97114,128,0,97177:0:0:0:0:
448,192,97177,128,0,97239:0:0:0:0:
64,192,97177,128,0,97302:0:0:0:0:
192,192,97239,128,0,97302:0:0:0:0:
320,192,97302,128,0,97364:0:0:0:0:
448,192,97302,128,0,97427:0:0:0:0:
64,192,97364,128,0,97427:0:0:0:0:
192,192,97427,128,0,97552:0:0:0:0:
320,192,97427,128,0,97489:0:0:0:0:
64,192,97489,128,0,97552:0:0:0:0:
448,192,97552,1,0,0:0:0:0:
320,192,97593,1,0,0:0:0:0:
64,192,97635,1,0,0:0:0:0:
192,192,97677,1,0,0:0:0:0:
448,192,97718,1,0,0:0:0:0:
320,192,97760,1,0,0:0:0:0:
192,192,97802,1,0,0:0:0:0:
64,192,97843,1,0,0:0:0:0:
320,192,97885,1,0,0:0:0:0:
448,192,97927,1,0,0:0:0:0:
192,192,97968,1,0,0:0:0:0:
64,192,98010,1,0,0:0:0:0:
448,192,98052,1,0,0:0:0:0:
320,192,98093,1,0,0:0:0:0:
64,192,98135,1,0,0:0:0:0:
192,192,98177,1,0,0:0:0:0:
448,192,98218,1,0,0:0:0:0:
320,192,98260,1,0,0:0:0:0:
192,192,98302,1,0,0:0:0:0:
64,192,98343,1,0,0:0:0:0:
192,192,98385,1,0,0:0:0:0:
320,192,98427,1,0,0:0:0:0:
448,192,98468,1,0,0:0:0:0:
320,192,98510,1,0,0:0:0:0:
64,192,98552,128,0,100204:0:0:0:0:
192,192,98552,128,0,100204:0:0:0:0:
320,192,98792,1,0,0:0:0:0:
320,192,99032,1,0,0:0:0:0:
320,192,99272,1,0,0:0:0:0:
448,192,99512,1,0,0:0:0:0:
448,192,99742,1,0,0:0:0:0:
448,192,99973,1,0,0:0:0:0:
448,192,100204,1,0,0:0:0:0:
192,192,100435,128,0,101965:0:0:0:0:
64,192,100435,128,0,101965:0:0:0:0:
320,192,100435,1,0,0:0:0:0:
320,192,100657,1,0,0:0:0:0:
320,192,100879,1,0,0:0:0:0:
320,192,101101,1,0,0:0:0:0:
448,192,101323,1,0,0:0:0:0:
448,192,101537,1,0,0:0:0:0:
448,192,101751,1,0,0:0:0:0:
320,192,101858,1,0,0:0:0:0:
448,192,101965,1,0,0:0:0:0:
192,192,102019,1,0,0:0:0:0:
320,192,102073,1,0,0:0:0:0:
64,192,102126,1,0,0:0:0:0:
192,192,102180,1,0,0:0:0:0:
320,192,102180,128,0,102823:0:0:0:0:
448,192,102180,128,0,102823:0:0:0:0:
192,192,102394,1,0,0:0:0:0:
64,192,102608,1,0,0:0:0:0:
64,192,102823,1,0,0:0:0:0:
192,192,103037,128,0,103680:0:0:0:0:
448,192,103037,128,0,103680:0:0:0:0:
320,192,103037,1,0,0:0:0:0:
320,192,103251,1,0,0:0:0:0:
64,192,103465,1,0,0:0:0:0:
64,192,103680,1,0,0:0:0:0:
64,192,103894,128,0,104537:0:0:0:0:
448,192,103894,128,0,104537:0:0:0:0:
320,192,103894,1,0,0:0:0:0:
192,192,104001,1,0,0:0:0:0:
320,192,104108,1,0,0:0:0:0:
192,192,104215,1,0,0:0:0:0:
320,192,104323,1,0,0:0:0:0:
192,192,104430,1,0,0:0:0:0:
320,192,104537,1,0,0:0:0:0:
192,192,104590,1,0,0:0:0:0:
320,192,104644,1,0,0:0:0:0:
192,192,104698,1,0,0:0:0:0:
64,192,104751,5,0,0:0:0:0:
448,192,104751,1,0,0:0:0:0:
320,192,104751,1,0,0:0:0:0:
192,192,104894,1,0,0:0:0:0:
448,192,104965,1,0,0:0:0:0:
320,192,105046,1,0,0:0:0:0:
192,192,105180,1,0,0:0:0:0:
64,192,105394,1,0,0:0:0:0:
448,192,105608,5,0,0:0:0:0:
192,192,105608,1,0,0:0:0:0:
320,192,105662,1,0,0:0:0:0:
192,192,105715,1,0,0:0:0:0:
64,192,105769,1,0,0:0:0:0:
448,192,105823,1,0,0:0:0:0:
320,192,105858,1,0,0:0:0:0:
192,192,105894,1,0,0:0:0:0:
64,192,105930,1,0,0:0:0:0:
320,192,106037,1,0,0:0:0:0:
448,192,106037,1,0,0:0:0:0:
192,192,106144,1,0,0:0:0:0:
320,192,106198,1,0,0:0:0:0:
64,192,106251,1,0,0:0:0:0:
448,192,106251,1,0,0:0:0:0:
192,192,106305,1,0,0:0:0:0:
320,192,106358,1,0,0:0:0:0:
448,192,106358,1,0,0:0:0:0:
192,192,106412,1,0,0:0:0:0:
64,192,106465,1,0,0:0:0:0:
320,192,106519,1,0,0:0:0:0:
192,192,106573,1,0,0:0:0:0:
320,192,106626,1,0,0:0:0:0:
448,192,106680,1,0,0:0:0:0:
64,192,106680,1,0,0:0:0:0:
192,192,106733,1,0,0:0:0:0:
320,192,106787,1,0,0:0:0:0:
192,192,106840,1,0,0:0:0:0:
64,192,106894,1,0,0:0:0:0:
448,192,106894,1,0,0:0:0:0:
320,192,106948,1,0,0:0:0:0:
192,192,107001,1,0,0:0:0:0:
64,192,107055,1,0,0:0:0:0:
448,192,107108,1,0,0:0:0:0:
64,192,107162,1,0,0:0:0:0:
192,192,107215,1,0,0:0:0:0:
320,192,107269,1,0,0:0:0:0:
448,192,107322,1,0,0:0:0:0:
192,192,107376,1,0,0:0:0:0:
64,192,107430,1,0,0:0:0:0:
192,192,107483,1,0,0:0:0:0:
320,192,107537,1,0,0:0:0:0:
448,192,107590,1,0,0:0:0:0:
192,192,107644,1,0,0:0:0:0:
64,192,107697,1,0,0:0:0:0:
320,192,107751,1,0,0:0:0:0:
448,192,107751,1,0,0:0:0:0:
192,192,107751,1,0,0:0:0:0:
64,192,107858,1,0,0:0:0:0:
448,192,107965,1,0,0:0:0:0:
320,192,108019,1,0,0:0:0:0:
192,192,108072,1,0,0:0:0:0:
64,192,108072,1,0,0:0:0:0:
320,192,108126,1,0,0:0:0:0:
448,192,108180,1,0,0:0:0:0:
64,192,108233,1,0,0:0:0:0:
192,192,108287,1,0,0:0:0:0:
320,192,108340,1,0,0:0:0:0:
192,192,108394,1,0,0:0:0:0:
448,192,108394,1,0,0:0:0:0:
64,192,108447,1,0,0:0:0:0:
320,192,108501,1,0,0:0:0:0:
192,192,108555,1,0,0:0:0:0:
448,192,108608,1,0,0:0:0:0:
64,192,108608,1,0,0:0:0:0:
320,192,108662,1,0,0:0:0:0:
192,192,108715,1,0,0:0:0:0:
64,192,108715,1,0,0:0:0:0:
448,192,108769,1,0,0:0:0:0:
320,192,108822,1,0,0:0:0:0:
64,192,108876,1,0,0:0:0:0:
448,192,108930,1,0,0:0:0:0:
192,192,108983,1,0,0:0:0:0:
64,192,109037,1,0,0:0:0:0:
320,192,109037,1,0,0:0:0:0:
64,192,109197,1,0,0:0:0:0:
192,192,109358,1,0,0:0:0:0:
64,192,109465,1,0,0:0:0:0:
448,192,109465,1,0,0:0:0:0:
320,192,109465,1,0,0:0:0:0:
192,192,109572,1,0,0:0:0:0:
320,192,109626,1,0,0:0:0:0:
448,192,109680,1,0,0:0:0:0:
320,192,109733,1,0,0:0:0:0:
192,192,109787,1,0,0:0:0:0:
448,192,109787,1,0,0:0:0:0:
64,192,109840,1,0,0:0:0:0:
192,192,109894,1,0,0:0:0:0:
320,192,109947,1,0,0:0:0:0:
192,192,110001,1,0,0:0:0:0:
64,192,110055,1,0,0:0:0:0:
448,192,110108,1,0,0:0:0:0:
320,192,110108,1,0,0:0:0:0:
64,192,110162,1,0,0:0:0:0:
192,192,110215,1,0,0:0:0:0:
320,192,110269,1,0,0:0:0:0:
64,192,110322,1,0,0:0:0:0:
448,192,110322,1,0,0:0:0:0:
448,192,110483,1,0,0:0:0:0:
192,192,110483,1,0,0:0:0:0:
64,192,110644,1,0,0:0:0:0:
320,192,110644,1,0,0:0:0:0:
448,192,110751,1,0,0:0:0:0:
320,192,110805,1,0,0:0:0:0:
192,192,110858,1,0,0:0:0:0:
64,192,110912,1,0,0:0:0:0:
448,192,110965,1,0,0:0:0:0:
64,192,111019,1,0,0:0:0:0:
192,192,111072,1,0,0:0:0:0:
320,192,111126,1,0,0:0:0:0:
64,192,111180,1,0,0:0:0:0:
448,192,111180,1,0,0:0:0:0:
192,192,111287,1,0,0:0:0:0:
320,192,111287,1,0,0:0:0:0:
64,192,111394,1,0,0:0:0:0:
192,192,111447,1,0,0:0:0:0:
320,192,111501,1,0,0:0:0:0:
448,192,111501,1,0,0:0:0:0:
192,192,111555,1,0,0:0:0:0:
64,192,111608,1,0,0:0:0:0:
64,192,111715,1,0,0:0:0:0:
192,192,111822,1,0,0:0:0:0:
448,192,111822,1,0,0:0:0:0:
320,192,111822,1,0,0:0:0:0:
64,192,111930,1,0,0:0:0:0:
64,192,112037,1,0,0:0:0:0:
320,192,112037,1,0,0:0:0:0:
192,192,112037,1,0,0:0:0:0:
192,192,112144,1,0,0:0:0:0:
448,192,112144,1,0,0:0:0:0:
64,192,112251,1,0,0:0:0:0:
320,192,112251,1,0,0:0:0:0:
192,192,112358,1,0,0:0:0:0:
320,192,112465,1,0,0:0:0:0:
448,192,112465,1,0,0:0:0:0:
64,192,112608,1,0,0:0:0:0:
320,192,112680,1,0,0:0:0:0:
448,192,112680,1,0,0:0:0:0:
64,192,112751,1,0,0:0:0:0:
448,192,112822,1,0,0:0:0:0:
64,192,112894,1,0,0:0:0:0:
192,192,112894,1,0,0:0:0:0:
320,192,112894,1,0,0:0:0:0:
448,192,113037,1,0,0:0:0:0:
192,192,113108,1,0,0:0:0:0:
64,192,113108,1,0,0:0:0:0:
448,192,113180,1,0,0:0:0:0:
64,192,113251,1,0,0:0:0:0:
192,192,113322,1,0,0:0:0:0:
320,192,113322,1,0,0:0:0:0:
448,192,113322,1,0,0:0:0:0:
64,192,113465,1,0,0:0:0:0:
320,192,113537,1,0,0:0:0:0:
448,192,113537,1,0,0:0:0:0:
64,192,113608,1,0,0:0:0:0:
448,192,113680,1,0,0:0:0:0:
320,192,113751,1,0,0:0:0:0:
192,192,113751,1,0,0:0:0:0:
64,192,113751,1,0,0:0:0:0:
448,192,113894,1,0,0:0:0:0:
64,192,113965,1,0,0:0:0:0:
320,192,113965,1,0,0:0:0:0:
192,192,114037,1,0,0:0:0:0:
64,192,114108,1,0,0:0:0:0:
192,192,114180,1,0,0:0:0:0:
320,192,114180,1,0,0:0:0:0:
448,192,114180,1,0,0:0:0:0:
64,192,114322,1,0,0:0:0:0:
320,192,114394,1,0,0:0:0:0:
448,192,114394,1,0,0:0:0:0:
64,192,114465,1,0,0:0:0:0:
448,192,114537,1,0,0:0:0:0:
320,192,114608,1,0,0:0:0:0:
192,192,114608,1,0,0:0:0:0:
64,192,114608,1,0,0:0:0:0:
448,192,114751,1,0,0:0:0:0:
192,192,114822,1,0,0:0:0:0:
64,192,114822,1,0,0:0:0:0:
448,192,114894,1,0,0:0:0:0:
64,192,114965,1,0,0:0:0:0:
320,192,115037,128,0,115197:0:0:0:0:
192,192,115144,128,0,115197:0:0:0:0:
64,192,115144,128,0,115197:0:0:0:0:
320,192,115251,1,0,0:0:0:0:
448,192,115251,1,0,0:0:0:0:
64,192,115251,1,0,0:0:0:0:
192,192,115358,1,0,0:0:0:0:
320,192,115412,1,0,0:0:0:0:
64,192,115465,1,0,0:0:0:0:
448,192,115465,1,0,0:0:0:0:
192,192,115519,1,0,0:0:0:0:
320,192,115572,1,0,0:0:0:0:
448,192,115572,1,0,0:0:0:0:
192,192,115626,1,0,0:0:0:0:
64,192,115680,1,0,0:0:0:0:
320,192,115680,1,0,0:0:0:0:
448,192,115787,1,0,0:0:0:0:
64,192,115894,1,0,0:0:0:0:
192,192,115930,1,0,0:0:0:0:
320,192,115965,1,0,0:0:0:0:
448,192,116001,1,0,0:0:0:0:
320,192,116037,1,0,0:0:0:0:
192,192,116072,1,0,0:0:0:0:
64,192,116108,128,0,116269:0:0:0:0:
64,192,116322,1,0,0:0:0:0:
192,192,116322,1,0,0:0:0:0:
320,192,116322,1,0,0:0:0:0:
448,192,116537,1,0,0:0:0:0:
320,192,116590,1,0,0:0:0:0:
192,192,116644,1,0,0:0:0:0:
448,192,116644,1,0,0:0:0:0:
64,192,116751,1,0,0:0:0:0:
192,192,116787,1,0,0:0:0:0:
320,192,116822,1,0,0:0:0:0:
448,192,116858,1,0,0:0:0:0:
320,192,116894,1,0,0:0:0:0:
192,192,116930,1,0,0:0:0:0:
64,192,116965,128,0,117126:0:0:0:0:
448,192,117072,128,0,117126:0:0:0:0:
64,192,117180,1,0,0:0:0:0:
192,192,117180,1,0,0:0:0:0:
320,192,117180,1,0,0:0:0:0:
320,192,117287,1,0,0:0:0:0:
448,192,117287,1,0,0:0:0:0:
64,192,117394,1,0,0:0:0:0:
448,192,117394,1,0,0:0:0:0:
192,192,117501,1,0,0:0:0:0:
320,192,117555,1,0,0:0:0:0:
448,192,117608,128,0,117769:0:0:0:0:
192,192,117608,128,0,117822:0:0:0:0:
64,192,117608,128,0,117930:0:0:0:0:
320,192,117822,128,0,118144:0:0:0:0:
448,192,117930,128,0,118144:0:0:0:0:
192,192,118144,128,0,118251:0:0:0:0:
448,192,118251,128,0,118358:0:0:0:0:
64,192,118251,128,0,118465:0:0:0:0:
320,192,118358,128,0,118465:0:0:0:0:
192,192,118465,128,0,118572:0:0:0:0:
448,192,118465,128,0,118787:0:0:0:0:
64,192,118572,128,0,119108:0:0:0:0:
192,192,118680,128,0,119001:0:0:0:0:
320,192,118787,128,0,118894:0:0:0:0:
448,192,118894,128,0,119001:0:0:0:0:
320,192,119001,128,0,119108:0:0:0:0:
192,192,119108,128,0,119215:0:0:0:0:
64,192,119215,128,0,119322:0:0:0:0:
448,192,119322,5,0,0:0:0:0:
192,192,119322,1,0,0:0:0:0:
320,192,119376,1,0,0:0:0:0:
192,192,119430,1,0,0:0:0:0:
64,192,119483,1,0,0:0:0:0:
448,192,119537,1,0,0:0:0:0:
320,192,119572,1,0,0:0:0:0:
192,192,119608,1,0,0:0:0:0:
64,192,119644,1,0,0:0:0:0:
320,192,119751,1,0,0:0:0:0:
448,192,119751,1,0,0:0:0:0:
192,192,119858,1,0,0:0:0:0:
320,192,119912,1,0,0:0:0:0:
64,192,119965,1,0,0:0:0:0:
448,192,119965,1,0,0:0:0:0:
192,192,120019,1,0,0:0:0:0:
320,192,120072,1,0,0:0:0:0:
448,192,120072,1,0,0:0:0:0:
192,192,120126,1,0,0:0:0:0:
64,192,120180,1,0,0:0:0:0:
320,192,120233,1,0,0:0:0:0:
192,192,120287,1,0,0:0:0:0:
320,192,120340,1,0,0:0:0:0:
448,192,120394,1,0,0:0:0:0:
64,192,120394,1,0,0:0:0:0:
192,192,120447,1,0,0:0:0:0:
320,192,120501,1,0,0:0:0:0:
192,192,120555,1,0,0:0:0:0:
64,192,120608,1,0,0:0:0:0:
448,192,120608,1,0,0:0:0:0:
320,192,120662,1,0,0:0:0:0:
192,192,120715,1,0,0:0:0:0:
64,192,120769,1,0,0:0:0:0:
448,192,120822,1,0,0:0:0:0:
192,192,120876,1,0,0:0:0:0:
320,192,120930,1,0,0:0:0:0:
64,192,120983,1,0,0:0:0:0:
448,192,121037,1,0,0:0:0:0:
320,192,121072,1,0,0:0:0:0:
192,192,121108,1,0,0:0:0:0:
64,192,121144,1,0,0:0:0:0:
320,192,121251,1,0,0:0:0:0:
64,192,121305,1,0,0:0:0:0:
192,192,121358,1,0,0:0:0:0:
320,192,121412,1,0,0:0:0:0:
192,192,121465,1,0,0:0:0:0:
448,192,121465,1,0,0:0:0:0:
64,192,121519,1,0,0:0:0:0:
448,192,121572,1,0,0:0:0:0:
320,192,121626,1,0,0:0:0:0:
192,192,121680,1,0,0:0:0:0:
320,192,121733,1,0,0:0:0:0:
448,192,121787,1,0,0:0:0:0:
64,192,121787,1,0,0:0:0:0:
192,192,121840,1,0,0:0:0:0:
320,192,121894,1,0,0:0:0:0:
192,192,121947,1,0,0:0:0:0:
64,192,122001,1,0,0:0:0:0:
320,192,122055,1,0,0:0:0:0:
448,192,122108,1,0,0:0:0:0:
192,192,122108,1,0,0:0:0:0:
64,192,122215,1,0,0:0:0:0:
320,192,122215,1,0,0:0:0:0:
64,192,122322,1,0,0:0:0:0:
192,192,122322,1,0,0:0:0:0:
448,192,122430,1,0,0:0:0:0:
320,192,122430,1,0,0:0:0:0:
320,192,122537,1,0,0:0:0:0:
64,192,122537,1,0,0:0:0:0:
192,192,122644,1,0,0:0:0:0:
448,192,122644,1,0,0:0:0:0:
192,192,122751,1,0,0:0:0:0:
64,192,122751,1,0,0:0:0:0:
448,192,122805,1,0,0:0:0:0:
320,192,122858,1,0,0:0:0:0:
192,192,122912,1,0,0:0:0:0:
64,192,122965,1,0,0:0:0:0:
448,192,122965,1,0,0:0:0:0:
64,192,123072,1,0,0:0:0:0:
192,192,123126,1,0,0:0:0:0:
448,192,123180,1,0,0:0:0:0:
64,192,123180,1,0,0:0:0:0:
320,192,123180,1,0,0:0:0:0:
192,192,123287,1,0,0:0:0:0:
64,192,123287,1,0,0:0:0:0:
320,192,123394,1,0,0:0:0:0:
448,192,123394,1,0,0:0:0:0:
192,192,123501,1,0,0:0:0:0:
64,192,123501,1,0,0:0:0:0:
192,192,123608,1,0,0:0:0:0:
320,192,123608,1,0,0:0:0:0:
320,192,123715,1,0,0:0:0:0:
448,192,123715,1,0,0:0:0:0:
64,192,123822,1,0,0:0:0:0:
448,192,123822,1,0,0:0:0:0:
192,192,123930,1,0,0:0:0:0:
320,192,123930,1,0,0:0:0:0:
320,192,124037,1,0,0:0:0:0:
448,192,124037,1,0,0:0:0:0:
64,192,124037,1,0,0:0:0:0:
192,192,124144,1,0,0:0:0:0:
448,192,124144,1,0,0:0:0:0:
320,192,124251,1,0,0:0:0:0:
64,192,124251,1,0,0:0:0:0:
64,192,124358,1,0,0:0:0:0:
192,192,124358,1,0,0:0:0:0:
320,192,124465,1,0,0:0:0:0:
448,192,124465,1,0,0:0:0:0:
320,192,124572,1,0,0:0:0:0:
64,192,124680,1,0,0:0:0:0:
192,192,124733,1,0,0:0:0:0:
320,192,124787,1,0,0:0:0:0:
448,192,124840,1,0,0:0:0:0:
192,192,124894,1,0,0:0:0:0:
320,192,124930,1,0,0:0:0:0:
448,192,124965,1,0,0:0:0:0:
64,192,125001,1,0,0:0:0:0:
192,192,125037,1,0,0:0:0:0:
320,192,125072,1,0,0:0:0:0:
64,192,125108,1,0,0:0:0:0:
192,192,125162,1,0,0:0:0:0:
320,192,125215,1,0,0:0:0:0:
448,192,125215,1,0,0:0:0:0:
320,192,125322,1,0,0:0:0:0:
192,192,125358,1,0,0:0:0:0:
64,192,125394,1,0,0:0:0:0:
448,192,125430,1,0,0:0:0:0:
320,192,125465,1,0,0:0:0:0:
192,192,125501,1,0,0:0:0:0:
448,192,125537,1,0,0:0:0:0:
320,192,125590,1,0,0:0:0:0:
192,192,125644,1,0,0:0:0:0:
64,192,125697,1,0,0:0:0:0:
320,192,125751,1,0,0:0:0:0:
448,192,125751,1,0,0:0:0:0:
320,192,125858,1,0,0:0:0:0:
192,192,125858,1,0,0:0:0:0:
192,192,125965,1,0,0:0:0:0:
64,192,125965,128,0,126126:0:0:0:0:
448,192,126180,1,0,0:0:0:0:
64,192,126180,1,0,0:0:0:0:
192,192,126180,1,0,0:0:0:0:
320,192,126180,1,0,0:0:0:0:
64,192,126287,1,0,0:0:0:0:
448,192,126287,1,0,0:0:0:0:
192,192,126394,1,0,0:0:0:0:
320,192,126394,1,0,0:0:0:0:
448,192,126501,1,0,0:0:0:0:
64,192,126501,1,0,0:0:0:0:
64,192,126608,1,0,0:0:0:0:
192,192,126608,1,0,0:0:0:0:
448,192,126608,1,0,0:0:0:0:
320,192,126608,1,0,0:0:0:0:
192,192,126822,1,0,0:0:0:0:
320,192,126822,1,0,0:0:0:0:
64,192,126930,1,0,0:0:0:0:
448,192,126930,1,0,0:0:0:0:
192,192,126930,1,0,0:0:0:0:
320,192,126930,1,0,0:0:0:0:
448,192,127037,1,0,0:0:0:0:
64,192,127037,1,0,0:0:0:0:
64,192,127144,1,0,0:0:0:0:
448,192,127144,1,0,0:0:0:0:
448,192,127251,1,0,0:0:0:0:
320,192,127251,1,0,0:0:0:0:
64,192,127251,1,0,0:0:0:0:
192,192,127251,1,0,0:0:0:0:
192,192,127358,1,0,0:0:0:0:
320,192,127358,1,0,0:0:0:0:
448,192,127465,1,0,0:0:0:0:
192,192,127465,1,0,0:0:0:0:
64,192,127465,1,0,0:0:0:0:
320,192,127465,1,0,0:0:0:0:
64,192,127572,1,0,0:0:0:0:
448,192,127572,1,0,0:0:0:0:
192,192,127680,1,0,0:0:0:0:
64,192,127733,1,0,0:0:0:0:
320,192,127787,1,0,0:0:0:0:
192,192,127840,1,0,0:0:0:0:
448,192,127894,1,0,0:0:0:0:
192,192,127947,1,0,0:0:0:0:
320,192,128001,1,0,0:0:0:0:
320,192,128108,1,0,0:0:0:0:
64,192,128162,1,0,0:0:0:0:
448,192,128215,1,0,0:0:0:0:
192,192,128269,1,0,0:0:0:0:
64,192,128322,1,0,0:0:0:0:
320,192,128322,1,0,0:0:0:0:
448,192,128376,1,0,0:0:0:0:
192,192,128430,1,0,0:0:0:0:
448,192,128483,1,0,0:0:0:0:
192,192,128537,1,0,0:0:0:0:
320,192,128590,1,0,0:0:0:0:
64,192,128644,1,0,0:0:0:0:
448,192,128644,1,0,0:0:0:0:
64,192,128751,1,0,0:0:0:0:
320,192,128805,1,0,0:0:0:0:
192,192,128858,1,0,0:0:0:0:
64,192,128965,1,0,0:0:0:0:
320,192,128965,1,0,0:0:0:0:
320,192,129072,1,0,0:0:0:0:
192,192,129126,1,0,0:0:0:0:
448,192,129180,1,0,0:0:0:0:
64,192,129180,1,0,0:0:0:0:
320,192,129287,1,0,0:0:0:0:
448,192,129287,1,0,0:0:0:0:
192,192,129340,1,0,0:0:0:0:
320,192,129394,1,0,0:0:0:0:
64,192,129447,1,0,0:0:0:0:
192,192,129501,1,0,0:0:0:0:
320,192,129555,1,0,0:0:0:0:
64,192,129608,1,0,0:0:0:0:
448,192,129608,1,0,0:0:0:0:
320,192,129662,1,0,0:0:0:0:
192,192,129715,1,0,0:0:0:0:
64,192,129769,1,0,0:0:0:0:
448,192,129822,1,0,0:0:0:0:
320,192,129858,1,0,0:0:0:0:
192,192,129894,1,0,0:0:0:0:
64,192,129930,1,0,0:0:0:0:
192,192,130037,1,0,0:0:0:0:
64,192,130037,1,0,0:0:0:0:
448,192,130037,1,0,0:0:0:0:
192,192,130144,1,0,0:0:0:0:
320,192,130144,1,0,0:0:0:0:
448,192,130251,1,0,0:0:0:0:
192,192,130251,1,0,0:0:0:0:
64,192,130358,1,0,0:0:0:0:
448,192,130358,1,0,0:0:0:0:
320,192,130358,1,0,0:0:0:0:
64,192,130465,1,0,0:0:0:0:
320,192,130465,1,0,0:0:0:0:
192,192,130572,1,0,0:0:0:0:
448,192,130572,1,0,0:0:0:0:
448,192,130680,1,0,0:0:0:0:
320,192,130715,1,0,0:0:0:0:
192,192,130751,1,0,0:0:0:0:
64,192,130787,1,0,0:0:0:0:
320,192,130894,1,0,0:0:0:0:
448,192,130894,1,0,0:0:0:0:
64,192,130894,1,0,0:0:0:0:
192,192,131001,1,0,0:0:0:0:
320,192,131108,1,0,0:0:0:0:
320,192,131215,1,0,0:0:0:0:
192,192,131322,1,0,0:0:0:0:
64,192,131322,1,0,0:0:0:0:
64,192,131430,1,0,0:0:0:0:
192,192,131430,1,0,0:0:0:0:
320,192,131483,1,0,0:0:0:0:
448,192,131537,1,0,0:0:0:0:
192,192,131537,1,0,0:0:0:0:
64,192,131644,1,0,0:0:0:0:
320,192,131644,1,0,0:0:0:0:
192,192,131751,1,0,0:0:0:0:
320,192,131751,1,0,0:0:0:0:
448,192,131751,1,0,0:0:0:0:
64,192,131858,1,0,0:0:0:0:
192,192,131858,1,0,0:0:0:0:
64,192,131965,1,0,0:0:0:0:
448,192,131965,1,0,0:0:0:0:
192,192,132072,1,0,0:0:0:0:
320,192,132072,1,0,0:0:0:0:
64,192,132072,1,0,0:0:0:0:
320,192,132180,1,0,0:0:0:0:
448,192,132180,1,0,0:0:0:0:
192,192,132287,1,0,0:0:0:0:
64,192,132287,1,0,0:0:0:0:
64,192,132394,1,0,0:0:0:0:
320,192,132394,1,0,0:0:0:0:
448,192,132394,1,0,0:0:0:0:
192,192,132501,1,0,0:0:0:0:
320,192,132501,1,0,0:0:0:0:
192,192,132608,1,0,0:0:0:0:
64,192,132608,1,0,0:0:0:0:
448,192,132608,1,0,0:0:0:0:
64,192,132715,1,0,0:0:0:0:
192,192,132715,1,0,0:0:0:0:
320,192,132769,1,0,0:0:0:0:
448,192,132769,1,0,0:0:0:0:
64,192,132822,1,0,0:0:0:0:
192,192,132822,1,0,0:0:0:0:
320,192,132930,1,0,0:0:0:0:
448,192,133037,5,0,0:0:0:0:
192,192,133037,1,0,0:0:0:0:
64,192,133037,1,0,0:0:0:0:
320,192,133144,1,0,0:0:0:0:
64,192,133144,1,0,0:0:0:0:
448,192,133251,1,0,0:0:0:0:
192,192,133251,1,0,0:0:0:0:
320,192,133358,1,0,0:0:0:0:
320,192,133465,1,0,0:0:0:0:
192,192,133465,1,0,0:0:0:0:
64,192,133465,1,0,0:0:0:0:
192,192,133572,1,0,0:0:0:0:
448,192,133572,1,0,0:0:0:0:
64,192,133680,1,0,0:0:0:0:
320,192,133680,1,0,0:0:0:0:
64,192,133787,1,0,0:0:0:0:
192,192,133894,5,0,0:0:0:0:
320,192,133894,1,0,0:0:0:0:
448,192,133894,1,0,0:0:0:0:
64,192,134001,1,0,0:0:0:0:
448,192,134001,1,0,0:0:0:0:
192,192,134108,1,0,0:0:0:0:
320,192,134108,1,0,0:0:0:0:
64,192,134215,1,0,0:0:0:0:
64,192,134322,1,0,0:0:0:0:
320,192,134322,1,0,0:0:0:0:
448,192,134322,1,0,0:0:0:0:
448,192,134430,1,0,0:0:0:0:
192,192,134430,1,0,0:0:0:0:
320,192,134537,1,0,0:0:0:0:
64,192,134537,1,0,0:0:0:0:
448,192,134644,1,0,0:0:0:0:
64,192,134751,1,0,0:0:0:0:
320,192,134751,1,0,0:0:0:0:
192,192,134751,1,0,0:0:0:0:
192,192,134858,1,0,0:0:0:0:
448,192,134858,1,0,0:0:0:0:
64,192,134965,1,0,0:0:0:0:
320,192,134965,1,0,0:0:0:0:
448,192,135072,1,0,0:0:0:0:
64,192,135180,1,0,0:0:0:0:
320,192,135180,1,0,0:0:0:0:
448,192,135180,1,0,0:0:0:0:
192,192,135287,1,0,0:0:0:0:
64,192,135287,1,0,0:0:0:0:
320,192,135394,1,0,0:0:0:0:
448,192,135394,1,0,0:0:0:0:
192,192,135501,1,0,0:0:0:0:
64,192,135608,1,0,0:0:0:0:
320,192,135608,1,0,0:0:0:0:
448,192,135608,1,0,0:0:0:0:
64,192,135715,1,0,0:0:0:0:
192,192,135715,1,0,0:0:0:0:
320,192,135822,1,0,0:0:0:0:
448,192,135822,1,0,0:0:0:0:
192,192,135930,1,0,0:0:0:0:
192,192,136037,1,0,0:0:0:0:
64,192,136037,1,0,0:0:0:0:
320,192,136037,1,0,0:0:0:0:
448,192,136144,1,0,0:0:0:0:
64,192,136144,1,0,0:0:0:0:
320,192,136251,1,0,0:0:0:0:
192,192,136251,1,0,0:0:0:0:
64,192,136358,1,0,0:0:0:0:
192,192,136465,1,0,0:0:0:0:
320,192,136465,1,0,0:0:0:0:
448,192,136465,1,0,0:0:0:0:
64,192,136572,1,0,0:0:0:0:
320,192,136572,1,0,0:0:0:0:
192,192,136680,1,0,0:0:0:0:
448,192,136680,1,0,0:0:0:0:
320,192,136787,1,0,0:0:0:0:
192,192,136894,1,0,0:0:0:0:
320,192,136894,1,0,0:0:0:0:
448,192,136894,1,0,0:0:0:0:
64,192,137001,1,0,0:0:0:0:
448,192,137001,1,0,0:0:0:0:
192,192,137108,1,0,0:0:0:0:
320,192,137108,1,0,0:0:0:0:
64,192,137215,1,0,0:0:0:0:
192,192,137322,1,0,0:0:0:0:
320,192,137322,1,0,0:0:0:0:
448,192,137322,1,0,0:0:0:0:
64,192,137430,1,0,0:0:0:0:
448,192,137430,1,0,0:0:0:0:
192,192,137537,1,0,0:0:0:0:
64,192,137537,1,0,0:0:0:0:
320,192,137644,1,0,0:0:0:0:
448,192,137751,1,0,0:0:0:0:
320,192,137751,1,0,0:0:0:0:
64,192,137751,1,0,0:0:0:0:
192,192,137858,1,0,0:0:0:0:
448,192,137858,1,0,0:0:0:0:
64,192,137965,1,0,0:0:0:0:
320,192,137965,1,0,0:0:0:0:
192,192,138072,1,0,0:0:0:0:
64,192,138180,1,0,0:0:0:0:
320,192,138180,1,0,0:0:0:0:
448,192,138180,1,0,0:0:0:0:
192,192,138287,1,0,0:0:0:0:
448,192,138287,1,0,0:0:0:0:
320,192,138394,1,0,0:0:0:0:
64,192,138394,1,0,0:0:0:0:
64,192,138501,1,0,0:0:0:0:
448,192,138608,1,0,0:0:0:0:
192,192,138608,1,0,0:0:0:0:
320,192,138608,1,0,0:0:0:0:
448,192,138715,5,0,0:0:0:0:
64,192,138715,1,0,0:0:0:0:
64,192,138822,1,0,0:0:0:0:
320,192,138822,1,0,0:0:0:0:
448,192,138930,1,0,0:0:0:0:
192,192,138930,1,0,0:0:0:0:
192,192,139037,1,0,0:0:0:0:
320,192,139037,1,0,0:0:0:0:
448,192,139037,1,0,0:0:0:0:
64,192,139144,1,0,0:0:0:0:
320,192,139144,1,0,0:0:0:0:
64,192,139251,1,0,0:0:0:0:
448,192,139251,1,0,0:0:0:0:
192,192,139358,1,0,0:0:0:0:
448,192,139358,1,0,0:0:0:0:
320,192,139465,1,0,0:0:0:0:
192,192,139465,1,0,0:0:0:0:
64,192,139465,1,0,0:0:0:0:
448,192,139572,1,0,0:0:0:0:
64,192,139680,1,0,0:0:0:0:
192,192,139733,1,0,0:0:0:0:
320,192,139787,1,0,0:0:0:0:
192,192,139840,1,0,0:0:0:0:
64,192,139894,5,0,0:0:0:0:
320,192,139894,1,0,0:0:0:0:
448,192,139894,1,0,0:0:0:0:
192,192,139997,1,0,0:0:0:0:
448,192,140100,1,0,0:0:0:0:
320,192,140100,1,0,0:0:0:0:
192,192,140204,1,0,0:0:0:0:
64,192,140204,1,0,0:0:0:0:
192,192,140307,1,0,0:0:0:0:
320,192,140307,1,0,0:0:0:0:
64,192,140307,1,0,0:0:0:0:
448,192,140411,1,0,0:0:0:0:
64,192,140514,1,0,0:0:0:0:
192,192,140514,1,0,0:0:0:0:
320,192,140618,1,0,0:0:0:0:
448,192,140618,1,0,0:0:0:0:
64,192,140721,1,0,0:0:0:0:
448,192,140721,1,0,0:0:0:0:
192,192,140721,1,0,0:0:0:0:
320,192,140825,1,0,0:0:0:0:
64,192,140825,1,0,0:0:0:0:
192,192,140928,1,0,0:0:0:0:
448,192,140928,1,0,0:0:0:0:
64,192,141031,1,0,0:0:0:0:
320,192,141031,1,0,0:0:0:0:
192,192,141135,1,0,0:0:0:0:
64,192,141135,1,0,0:0:0:0:
448,192,141135,1,0,0:0:0:0:
320,192,141238,1,0,0:0:0:0:
192,192,141342,1,0,0:0:0:0:
64,192,141445,1,0,0:0:0:0:
192,192,141549,1,0,0:0:0:0:
320,192,141549,1,0,0:0:0:0:
448,192,141549,1,0,0:0:0:0:
64,192,141652,1,0,0:0:0:0:
192,192,141652,1,0,0:0:0:0:
320,192,141756,1,0,0:0:0:0:
448,192,141756,1,0,0:0:0:0:
192,192,141859,1,0,0:0:0:0:
64,192,141859,1,0,0:0:0:0:
64,192,141962,1,0,0:0:0:0:
320,192,141962,1,0,0:0:0:0:
448,192,141962,1,0,0:0:0:0:
192,192,142066,1,0,0:0:0:0:
320,192,142169,1,0,0:0:0:0:
448,192,142169,1,0,0:0:0:0:
192,192,142273,1,0,0:0:0:0:
64,192,142273,1,0,0:0:0:0:
64,192,142376,1,0,0:0:0:0:
320,192,142376,1,0,0:0:0:0:
448,192,142376,1,0,0:0:0:0:
192,192,142480,1,0,0:0:0:0:
448,192,142480,1,0,0:0:0:0:
320,192,142583,1,0,0:0:0:0:
192,192,142687,1,0,0:0:0:0:
64,192,142687,1,0,0:0:0:0:
64,192,142790,1,0,0:0:0:0:
448,192,142790,1,0,0:0:0:0:
320,192,142790,1,0,0:0:0:0:
192,192,142894,1,0,0:0:0:0:
64,192,142997,1,0,0:0:0:0:
320,192,143100,1,0,0:0:0:0:
192,192,143204,1,0,0:0:0:0:
64,192,143204,1,0,0:0:0:0:
448,192,143204,1,0,0:0:0:0:
320,192,143307,1,0,0:0:0:0:
64,192,143411,1,0,0:0:0:0:
448,192,143411,1,0,0:0:0:0:
192,192,143514,1,0,0:0:0:0:
320,192,143514,1,0,0:0:0:0:
320,192,143618,1,0,0:0:0:0:
448,192,143618,1,0,0:0:0:0:
64,192,143618,1,0,0:0:0:0:
192,192,143721,1,0,0:0:0:0:
320,192,143825,1,0,0:0:0:0:
448,192,143825,1,0,0:0:0:0:
192,192,143928,1,0,0:0:0:0:
64,192,143928,1,0,0:0:0:0:
64,192,144031,1,0,0:0:0:0:
320,192,144031,1,0,0:0:0:0:
448,192,144031,1,0,0:0:0:0:
192,192,144135,1,0,0:0:0:0:
448,192,144135,1,0,0:0:0:0:
320,192,144238,1,0,0:0:0:0:
64,192,144238,1,0,0:0:0:0:
192,192,144342,1,0,0:0:0:0:
64,192,144342,1,0,0:0:0:0:
320,192,144445,1,0,0:0:0:0:
448,192,144445,1,0,0:0:0:0:
192,192,144445,1,0,0:0:0:0:
64,192,144549,1,0,0:0:0:0:
192,192,144652,1,0,0:0:0:0:
320,192,144756,1,0,0:0:0:0:
192,192,144859,1,0,0:0:0:0:
64,192,144859,1,0,0:0:0:0:
448,192,144859,1,0,0:0:0:0:
320,192,144962,1,0,0:0:0:0:
192,192,145066,1,0,0:0:0:0:
448,192,145066,1,0,0:0:0:0:
64,192,145169,1,0,0:0:0:0:
320,192,145169,1,0,0:0:0:0:
64,192,145273,1,0,0:0:0:0:
448,192,145273,1,0,0:0:0:0:
192,192,145273,1,0,0:0:0:0:
320,192,145376,1,0,0:0:0:0:
192,192,145480,1,0,0:0:0:0:
64,192,145480,1,0,0:0:0:0:
320,192,145583,1,0,0:0:0:0:
448,192,145583,1,0,0:0:0:0:
192,192,145687,1,0,0:0:0:0:
64,192,145687,1,0,0:0:0:0:
448,192,145687,1,0,0:0:0:0:
320,192,145790,1,0,0:0:0:0:
64,192,145790,1,0,0:0:0:0:
192,192,145894,1,0,0:0:0:0:
64,192,145997,1,0,0:0:0:0:
320,192,145997,1,0,0:0:0:0:
320,192,146100,1,0,0:0:0:0:
448,192,146100,1,0,0:0:0:0:
192,192,146100,1,0,0:0:0:0:
64,192,146204,1,0,0:0:0:0:
192,192,146307,1,0,0:0:0:0:
320,192,146411,1,0,0:0:0:0:
192,192,146514,1,0,0:0:0:0:
64,192,146514,1,0,0:0:0:0:
448,192,146514,1,0,0:0:0:0:
320,192,146614,1,0,0:0:0:0:
192,192,146714,1,0,0:0:0:0:
448,192,146714,1,0,0:0:0:0:
320,192,146814,1,0,0:0:0:0:
64,192,146814,1,0,0:0:0:0:
64,192,146914,1,0,0:0:0:0:
192,192,146914,1,0,0:0:0:0:
320,192,146914,1,0,0:0:0:0:
448,192,147014,1,0,0:0:0:0:
64,192,147114,1,0,0:0:0:0:
320,192,147114,1,0,0:0:0:0:
192,192,147214,1,0,0:0:0:0:
64,192,147314,1,0,0:0:0:0:
448,192,147314,1,0,0:0:0:0:
320,192,147314,1,0,0:0:0:0:
192,192,147414,1,0,0:0:0:0:
192,192,147514,1,0,0:0:0:0:
64,192,147514,1,0,0:0:0:0:
320,192,147614,1,0,0:0:0:0:
448,192,147614,1,0,0:0:0:0:
64,192,147714,1,0,0:0:0:0:
192,192,147714,1,0,0:0:0:0:
448,192,147714,1,0,0:0:0:0:
320,192,147814,1,0,0:0:0:0:
64,192,147814,1,0,0:0:0:0:
320,192,147914,1,0,0:0:0:0:
448,192,147914,1,0,0:0:0:0:
64,192,148014,1,0,0:0:0:0:
192,192,148014,1,0,0:0:0:0:
64,192,148114,1,0,0:0:0:0:
320,192,148114,1,0,0:0:0:0:
448,192,148114,1,0,0:0:0:0:
192,192,148214,1,0,0:0:0:0:
320,192,148314,1,0,0:0:0:0:
64,192,148314,1,0,0:0:0:0:
192,192,148414,1,0,0:0:0:0:
448,192,148414,1,0,0:0:0:0:
192,192,148514,1,0,0:0:0:0:
320,192,148514,1,0,0:0:0:0:
448,192,148514,1,0,0:0:0:0:
64,192,148614,1,0,0:0:0:0:
192,192,148714,1,0,0:0:0:0:
448,192,148714,1,0,0:0:0:0:
320,192,148814,1,0,0:0:0:0:
192,192,148914,1,0,0:0:0:0:
64,192,148914,1,0,0:0:0:0:
448,192,148914,1,0,0:0:0:0:
320,192,149014,1,0,0:0:0:0:
192,192,149114,1,0,0:0:0:0:
448,192,149114,1,0,0:0:0:0:
64,192,149214,1,0,0:0:0:0:
320,192,149314,1,0,0:0:0:0:
448,192,149314,1,0,0:0:0:0:
192,192,149314,1,0,0:0:0:0:
64,192,149414,1,0,0:0:0:0:
320,192,149414,1,0,0:0:0:0:
192,192,149514,1,0,0:0:0:0:
448,192,149514,1,0,0:0:0:0:
64,192,149614,1,0,0:0:0:0:
448,192,149714,1,0,0:0:0:0:
64,192,149714,1,0,0:0:0:0:
320,192,149764,1,0,0:0:0:0:
192,192,149814,1,0,0:0:0:0:
320,192,149864,1,0,0:0:0:0:
448,192,149914,1,0,0:0:0:0:
320,192,150014,1,0,0:0:0:0:
192,192,150047,1,0,0:0:0:0:
64,192,150080,1,0,0:0:0:0:
448,192,150114,1,0,0:0:0:0:
320,192,150214,1,0,0:0:0:0:
64,192,150314,1,0,0:0:0:0:
192,192,150347,1,0,0:0:0:0:
320,192,150380,1,0,0:0:0:0:
448,192,150414,1,0,0:0:0:0:
64,192,150514,1,0,0:0:0:0:
448,192,150514,1,0,0:0:0:0:
192,192,150564,1,0,0:0:0:0:
320,192,150614,1,0,0:0:0:0:
192,192,150664,1,0,0:0:0:0:
64,192,150714,1,0,0:0:0:0:
448,192,150814,1,0,0:0:0:0:
320,192,150847,1,0,0:0:0:0:
192,192,150880,1,0,0:0:0:0:
64,192,150914,1,0,0:0:0:0:
320,192,151014,1,0,0:0:0:0:
192,192,151114,1,0,0:0:0:0:
64,192,151147,1,0,0:0:0:0:
320,192,151180,1,0,0:0:0:0:
448,192,151214,1,0,0:0:0:0:
448,192,151314,1,0,0:0:0:0:
64,192,151314,1,0,0:0:0:0:
320,192,151364,1,0,0:0:0:0:
192,192,151414,1,0,0:0:0:0:
320,192,151464,1,0,0:0:0:0:
448,192,151514,1,0,0:0:0:0:
320,192,151614,1,0,0:0:0:0:
192,192,151647,1,0,0:0:0:0:
64,192,151680,1,0,0:0:0:0:
448,192,151714,1,0,0:0:0:0:
320,192,151814,1,0,0:0:0:0:
64,192,151914,1,0,0:0:0:0:
192,192,151947,1,0,0:0:0:0:
320,192,151980,1,0,0:0:0:0:
448,192,152014,1,0,0:0:0:0:
64,192,152114,1,0,0:0:0:0:
448,192,152114,1,0,0:0:0:0:
192,192,152164,1,0,0:0:0:0:
320,192,152214,1,0,0:0:0:0:
192,192,152264,1,0,0:0:0:0:
64,192,152314,1,0,0:0:0:0:
320,192,152414,1,0,0:0:0:0:
448,192,152447,1,0,0:0:0:0:
192,192,152480,1,0,0:0:0:0:
64,192,152514,1,0,0:0:0:0:
320,192,152614,1,0,0:0:0:0:
192,192,152714,1,0,0:0:0:0:
64,192,152747,1,0,0:0:0:0:
320,192,152780,1,0,0:0:0:0:
448,192,152814,1,0,0:0:0:0:
448,192,152914,1,0,0:0:0:0:
64,192,152914,1,0,0:0:0:0:
320,192,152964,1,0,0:0:0:0:
192,192,153014,1,0,0:0:0:0:
320,192,153064,1,0,0:0:0:0:
192,192,153114,1,0,0:0:0:0:
64,192,153164,1,0,0:0:0:0:
192,192,153214,1,0,0:0:0:0:
448,192,153314,1,0,0:0:0:0:
320,192,153314,1,0,0:0:0:0:
64,192,153314,1,0,0:0:0:0:
192,192,153414,1,0,0:0:0:0:
320,192,153514,1,0,0:0:0:0:
448,192,153514,1,0,0:0:0:0:
192,192,153614,1,0,0:0:0:0:
64,192,153614,1,0,0:0:0:0:
192,192,153714,1,0,0:0:0:0:
64,192,153714,1,0,0:0:0:0:
448,192,153714,1,0,0:0:0:0:
320,192,153814,1,0,0:0:0:0:
64,192,153914,1,0,0:0:0:0:
192,192,154014,1,0,0:0:0:0:
320,192,154064,1,0,0:0:0:0:
448,192,154114,1,0,0:0:0:0:
64,192,154114,1,0,0:0:0:0:
192,192,154114,1,0,0:0:0:0:
320,192,154214,1,0,0:0:0:0:
192,192,154314,1,0,0:0:0:0:
320,192,154364,1,0,0:0:0:0:
192,192,154414,1,0,0:0:0:0:
64,192,154464,1,0,0:0:0:0:
192,192,154514,1,0,0:0:0:0:
448,192,154514,1,0,0:0:0:0:
320,192,154614,1,0,0:0:0:0:
448,192,154664,1,0,0:0:0:0:
320,192,154714,1,0,0:0:0:0:
192,192,154764,1,0,0:0:0:0:
64,192,154814,1,0,0:0:0:0:
448,192,154914,1,0,0:0:0:0:
320,192,154914,1,0,0:0:0:0:
64,192,154914,1,0,0:0:0:0:
192,192,155014,1,0,0:0:0:0:
320,192,155114,1,0,0:0:0:0:
448,192,155114,1,0,0:0:0:0:
192,192,155214,1,0,0:0:0:0:
64,192,155214,1,0,0:0:0:0:
192,192,155314,1,0,0:0:0:0:
64,192,155314,1,0,0:0:0:0:
448,192,155314,1,0,0:0:0:0:
320,192,155414,1,0,0:0:0:0:
64,192,155514,1,0,0:0:0:0:
192,192,155514,1,0,0:0:0:0:
320,192,155614,1,0,0:0:0:0:
448,192,155614,1,0,0:0:0:0:
64,192,155714,1,0,0:0:0:0:
448,192,155714,1,0,0:0:0:0:
320,192,155714,1,0,0:0:0:0:
192,192,155814,1,0,0:0:0:0:
320,192,155864,1,0,0:0:0:0:
192,192,155914,1,0,0:0:0:0:
64,192,155964,1,0,0:0:0:0:
192,192,156014,1,0,0:0:0:0:
320,192,156064,1,0,0:0:0:0:
448,192,156114,1,0,0:0:0:0:
64,192,156114,1,0,0:0:0:0:
192,192,156114,1,0,0:0:0:0:
320,192,156214,1,0,0:0:0:0:
192,192,156314,1,0,0:0:0:0:
64,192,156347,1,0,0:0:0:0:
320,192,156380,1,0,0:0:0:0:
448,192,156414,1,0,0:0:0:0:
192,192,156514,1,0,0:0:0:0:
64,192,156514,1,0,0:0:0:0:
448,192,156514,1,0,0:0:0:0:
448,192,156714,1,0,0:0:0:0:
192,192,156739,1,0,0:0:0:0:
64,192,156764,1,0,0:0:0:0:
320,192,156814,1,0,0:0:0:0:
192,192,156914,1,0,0:0:0:0:
64,192,156914,1,0,0:0:0:0:
448,192,156914,1,0,0:0:0:0:
320,192,157014,1,0,0:0:0:0:
448,192,157114,1,0,0:0:0:0:
64,192,157164,1,0,0:0:0:0:
192,192,157214,1,0,0:0:0:0:
320,192,157264,1,0,0:0:0:0:
192,192,157314,1,0,0:0:0:0:
64,192,157314,1,0,0:0:0:0:
320,192,157364,1,0,0:0:0:0:
448,192,157414,1,0,0:0:0:0:
320,192,157464,1,0,0:0:0:0:
192,192,157514,1,0,0:0:0:0:
64,192,157514,1,0,0:0:0:0:
320,192,157614,1,0,0:0:0:0:
448,192,157614,1,0,0:0:0:0:
64,192,157714,1,0,0:0:0:0:
448,192,157714,1,0,0:0:0:0:
192,192,157714,1,0,0:0:0:0:
192,192,157814,1,0,0:0:0:0:
64,192,157914,1,0,0:0:0:0:
320,192,157914,1,0,0:0:0:0:
448,192,157914,1,0,0:0:0:0:
192,192,158014,1,0,0:0:0:0:
64,192,158114,1,0,0:0:0:0:
320,192,158114,1,0,0:0:0:0:
192,192,158114,1,0,0:0:0:0:
448,192,158214,1,0,0:0:0:0:
64,192,158314,1,0,0:0:0:0:
192,192,158314,1,0,0:0:0:0:
320,192,158414,1,0,0:0:0:0:
448,192,158414,1,0,0:0:0:0:
64,192,158514,1,0,0:0:0:0:
320,192,158564,1,0,0:0:0:0:
192,192,158614,1,0,0:0:0:0:
448,192,158664,1,0,0:0:0:0:
320,192,158714,1,0,0:0:0:0:
192,192,158764,1,0,0:0:0:0:
64,192,158814,1,0,0:0:0:0:
448,192,158864,1,0,0:0:0:0:
320,192,158914,1,0,0:0:0:0:
192,192,158964,1,0,0:0:0:0:
64,192,159014,1,0,0:0:0:0:
192,192,159064,1,0,0:0:0:0:
320,192,159114,1,0,0:0:0:0:
448,192,159164,1,0,0:0:0:0:
320,192,159214,1,0,0:0:0:0:
192,192,159264,1,0,0:0:0:0:
64,192,159314,128,0,159447:0:0:0:0:
320,192,159314,128,0,159780:0:0:0:0:
448,192,159314,128,0,159780:0:0:0:0:
64,192,159514,128,0,159780:0:0:0:0:
192,192,159647,128,0,159780:0:0:0:0:
192,192,159864,128,0,160064:0:0:0:0:
64,192,159964,128,0,160064:0:0:0:0:
192,192,160114,128,0,160864:0:0:0:0:
64,192,160114,128,0,161364:0:0:0:0:
448,192,160114,128,0,160247:0:0:0:0:
448,192,160314,128,0,160580:0:0:0:0:
320,192,160447,128,0,160580:0:0:0:0:
320,192,160664,128,0,160864:0:0:0:0:
448,192,160764,128,0,160864:0:0:0:0:
192,192,160914,128,0,161014:0:0:0:0:
320,192,161014,128,0,161114:0:0:0:0:
448,192,161114,128,0,161614:0:0:0:0:
192,192,161214,128,0,161314:0:0:0:0:
320,192,161314,128,0,161714:0:0:0:0:
192,192,161414,128,0,161514:0:0:0:0:
64,192,161514,128,0,161914:0:0:0:0:
192,192,161614,128,0,161814:0:0:0:0:
448,192,161714,128,0,162414:0:0:0:0:
320,192,161814,128,0,162114:0:0:0:0:
192,192,161914,128,0,162014:0:0:0:0:
64,192,162014,128,0,162314:0:0:0:0:
192,192,162114,128,0,162214:0:0:0:0:
320,192,162214,128,0,162414:0:0:0:0:
192,192,162314,128,0,162414:0:0:0:0:
64,192,162414,128,0,162614:0:0:0:0:
192,192,162514,128,0,162614:0:0:0:0:
320,192,162514,128,0,162614:0:0:0:0:
448,192,162514,128,0,162814:0:0:0:0:
192,192,162714,128,0,162814:0:0:0:0:
320,192,162714,128,0,162814:0:0:0:0:
64,192,162714,128,0,163014:0:0:0:0:
192,192,162914,128,0,163014:0:0:0:0:
320,192,162914,128,0,163014:0:0:0:0:
448,192,162914,128,0,163214:0:0:0:0:
320,192,163114,128,0,163214:0:0:0:0:
192,192,163114,128,0,163214:0:0:0:0:
64,192,163114,128,0,163364:0:0:0:0:
448,192,163314,128,0,163464:0:0:0:0:
320,192,163314,128,0,163364:0:0:0:0:
192,192,163414,128,0,163464:0:0:0:0:
320,192,163414,128,0,163564:0:0:0:0:
64,192,163514,128,0,163564:0:0:0:0:
192,192,163514,128,0,163664:0:0:0:0:
64,192,163614,128,0,163764:0:0:0:0:
448,192,163614,128,0,163664:0:0:0:0:
320,192,163714,128,0,163764:0:0:0:0:
448,192,163714,128,0,163864:0:0:0:0:
192,192,163814,128,0,163864:0:0:0:0:
320,192,163814,128,0,163864:0:0:0:0:
64,192,163914,128,0,163964:0:0:0:0:
192,192,163914,128,0,163964:0:0:0:0:
320,192,163964,128,0,164014:0:0:0:0:
448,192,164014,128,0,164064:0:0:0:0:
192,192,164064,128,0,164114:0:0:0:0:
64,192,164114,1,0,0:0:0:0:
320,192,164114,1,0,0:0:0:0:
448,192,164114,1,0,0:0:0:0:
320,192,164514,5,0,0:0:0:0:
192,192,164514,1,0,0:0:0:0:
64,192,164914,1,0,0:0:0:0:
320,192,165314,1,0,0:0:0:0:
192,192,165414,1,0,0:0:0:0:
448,192,165514,128,0,165714:0:0:0:0:
320,192,165714,1,0,0:0:0:0:
192,192,165714,1,0,0:0:0:0:
64,192,165714,1,0,0:0:0:0:
64,192,165814,1,0,0:0:0:0:
192,192,165914,1,0,0:0:0:0:
448,192,165914,1,0,0:0:0:0:
320,192,165914,1,0,0:0:0:0:
448,192,166014,1,0,0:0:0:0:
64,192,166114,1,0,0:0:0:0:
192,192,166114,1,0,0:0:0:0:
320,192,166114,1,0,0:0:0:0:
64,192,166214,1,0,0:0:0:0:
320,192,166314,1,0,0:0:0:0:
448,192,166314,1,0,0:0:0:0:
192,192,166314,1,0,0:0:0:0:
448,192,166414,1,0,0:0:0:0:
64,192,166514,1,0,0:0:0:0:
192,192,166514,1,0,0:0:0:0:
320,192,166514,1,0,0:0:0:0:
192,192,166614,1,0,0:0:0:0:
64,192,166714,1,0,0:0:0:0:
320,192,166714,1,0,0:0:0:0:
448,192,166714,1,0,0:0:0:0:
320,192,166814,1,0,0:0:0:0:
192,192,166914,1,0,0:0:0:0:
64,192,166914,1,0,0:0:0:0:
448,192,166914,1,0,0:0:0:0:
192,192,167014,1,0,0:0:0:0:
64,192,167114,1,0,0:0:0:0:
448,192,167114,1,0,0:0:0:0:
320,192,167114,1,0,0:0:0:0:
192,192,167214,1,0,0:0:0:0:
320,192,167264,1,0,0:0:0:0:
64,192,167314,1,0,0:0:0:0:
448,192,167314,1,0,0:0:0:0:
192,192,167314,1,0,0:0:0:0:
448,192,167414,1,0,0:0:0:0:
320,192,167514,1,0,0:0:0:0:
192,192,167514,1,0,0:0:0:0:
64,192,167514,1,0,0:0:0:0:
64,192,167614,1,0,0:0:0:0:
192,192,167714,1,0,0:0:0:0:
320,192,167714,1,0,0:0:0:0:
448,192,167714,1,0,0:0:0:0:
448,192,167814,1,0,0:0:0:0:
320,192,167914,1,0,0:0:0:0:
192,192,167914,1,0,0:0:0:0:
64,192,167914,1,0,0:0:0:0:
64,192,168014,1,0,0:0:0:0:
192,192,168114,1,0,0:0:0:0:
320,192,168114,1,0,0:0:0:0:
448,192,168114,1,0,0:0:0:0:
192,192,168214,1,0,0:0:0:0:
64,192,168214,1,0,0:0:0:0:
192,192,168314,1,0,0:0:0:0:
64,192,168314,1,0,0:0:0:0:
448,192,168314,1,0,0:0:0:0:
448,192,168414,1,0,0:0:0:0:
192,192,168514,1,0,0:0:0:0:
64,192,168514,1,0,0:0:0:0:
320,192,168514,1,0,0:0:0:0:
192,192,168614,1,0,0:0:0:0:
320,192,168714,1,0,0:0:0:0:
448,192,168714,1,0,0:0:0:0:
192,192,168764,1,0,0:0:0:0:
320,192,168814,1,0,0:0:0:0:
192,192,168864,1,0,0:0:0:0:
64,192,168914,1,0,0:0:0:0:
448,192,168914,1,0,0:0:0:0:
320,192,169014,1,0,0:0:0:0:
192,192,169114,1,0,0:0:0:0:
64,192,169114,1,0,0:0:0:0:
448,192,169114,1,0,0:0:0:0:
192,192,169214,1,0,0:0:0:0:
64,192,169314,1,0,0:0:0:0:
320,192,169314,1,0,0:0:0:0:
448,192,169314,1,0,0:0:0:0:
320,192,169414,1,0,0:0:0:0:
192,192,169514,1,0,0:0:0:0:
448,192,169514,1,0,0:0:0:0:
64,192,169514,1,0,0:0:0:0:
192,192,169614,1,0,0:0:0:0:
64,192,169614,1,0,0:0:0:0:
320,192,169714,1,0,0:0:0:0:
448,192,169714,1,0,0:0:0:0:
64,192,169714,1,0,0:0:0:0:
448,192,169814,1,0,0:0:0:0:
320,192,169814,1,0,0:0:0:0:
192,192,169914,1,0,0:0:0:0:
64,192,169914,1,0,0:0:0:0:
448,192,169914,1,0,0:0:0:0:
192,192,170014,1,0,0:0:0:0:
64,192,170114,1,0,0:0:0:0:
320,192,170114,1,0,0:0:0:0:
448,192,170114,1,0,0:0:0:0:
320,192,170214,1,0,0:0:0:0:
192,192,170314,1,0,0:0:0:0:
64,192,170364,1,0,0:0:0:0:
192,192,170414,1,0,0:0:0:0:
320,192,170464,1,0,0:0:0:0:
64,192,170514,1,0,0:0:0:0:
448,192,170514,1,0,0:0:0:0:
192,192,170514,1,0,0:0:0:0:
192,192,170614,1,0,0:0:0:0:
320,192,170714,1,0,0:0:0:0:
64,192,170714,1,0,0:0:0:0:
448,192,170714,1,0,0:0:0:0:
320,192,170814,1,0,0:0:0:0:
448,192,170814,1,0,0:0:0:0:
192,192,170914,1,0,0:0:0:0:
64,192,170914,1,0,0:0:0:0:
448,192,170914,1,0,0:0:0:0:
192,192,171014,1,0,0:0:0:0:
320,192,171114,1,0,0:0:0:0:
448,192,171114,1,0,0:0:0:0:
64,192,171114,1,0,0:0:0:0:
320,192,171214,1,0,0:0:0:0:
192,192,171314,128,0,171464:0:0:0:0:
64,192,171314,128,0,171464:0:0:0:0:
448,192,171314,128,0,171464:0:0:0:0:
192,192,171514,128,0,171664:0:0:0:0:
320,192,171514,128,0,171664:0:0:0:0:
448,192,171514,128,0,171664:0:0:0:0:
64,192,171714,128,0,171764:0:0:0:0:
320,192,171714,128,0,171764:0:0:0:0:
448,192,171714,128,0,171764:0:0:0:0:
64,192,171814,128,0,171864:0:0:0:0:
320,192,171814,128,0,171864:0:0:0:0:
192,192,171914,128,0,171964:0:0:0:0:
320,192,171964,128,0,172014:0:0:0:0:
192,192,172014,128,0,172064:0:0:0:0:
320,192,172064,128,0,172114:0:0:0:0:
448,192,172114,1,0,0:0:0:0:
192,192,172114,1,0,0:0:0:0:
64,192,172114,1,0,0:0:0:0:
448,192,172214,1,0,0:0:0:0:
64,192,172314,1,0,0:0:0:0:
320,192,172314,1,0,0:0:0:0:
192,192,172314,1,0,0:0:0:0:
192,192,172414,1,0,0:0:0:0:
64,192,172514,1,0,0:0:0:0:
320,192,172514,1,0,0:0:0:0:
448,192,172514,1,0,0:0:0:0:
448,192,172614,1,0,0:0:0:0:
320,192,172714,1,0,0:0:0:0:
192,192,172714,1,0,0:0:0:0:
64,192,172714,1,0,0:0:0:0:
192,192,172814,1,0,0:0:0:0:
64,192,172914,1,0,0:0:0:0:
320,192,172914,1,0,0:0:0:0:
448,192,172914,1,0,0:0:0:0:
320,192,173014,1,0,0:0:0:0:
192,192,173114,1,0,0:0:0:0:
64,192,173114,1,0,0:0:0:0:
448,192,173114,1,0,0:0:0:0:
64,192,173214,1,0,0:0:0:0:
192,192,173314,1,0,0:0:0:0:
320,192,173314,1,0,0:0:0:0:
448,192,173314,1,0,0:0:0:0:
320,192,173414,1,0,0:0:0:0:
192,192,173514,1,0,0:0:0:0:
448,192,173514,1,0,0:0:0:0:
64,192,173514,1,0,0:0:0:0:
192,192,173614,1,0,0:0:0:0:
64,192,173614,1,0,0:0:0:0:
64,192,173714,1,0,0:0:0:0:
320,192,173714,1,0,0:0:0:0:
448,192,173714,1,0,0:0:0:0:
320,192,173814,1,0,0:0:0:0:
448,192,173814,1,0,0:0:0:0:
64,192,173914,1,0,0:0:0:0:
192,192,173914,1,0,0:0:0:0:
448,192,173914,1,0,0:0:0:0:
192,192,174014,1,0,0:0:0:0:
448,192,174114,1,0,0:0:0:0:
320,192,174114,1,0,0:0:0:0:
64,192,174114,1,0,0:0:0:0:
320,192,174214,1,0,0:0:0:0:
448,192,174314,1,0,0:0:0:0:
64,192,174314,1,0,0:0:0:0:
320,192,174364,1,0,0:0:0:0:
192,192,174414,1,0,0:0:0:0:
64,192,174464,1,0,0:0:0:0:
448,192,174514,1,0,0:0:0:0:
320,192,174514,1,0,0:0:0:0:
192,192,174614,1,0,0:0:0:0:
64,192,174614,1,0,0:0:0:0:
320,192,174714,1,0,0:0:0:0:
448,192,174714,1,0,0:0:0:0:
320,192,174814,1,0,0:0:0:0:
64,192,174814,1,0,0:0:0:0:
448,192,174914,1,0,0:0:0:0:
192,192,174914,1,0,0:0:0:0:
192,192,175014,1,0,0:0:0:0:
64,192,175014,1,0,0:0:0:0:
320,192,175114,1,0,0:0:0:0:
448,192,175114,1,0,0:0:0:0:
192,192,175164,1,0,0:0:0:0:
64,192,175164,1,0,0:0:0:0:
320,192,175214,1,0,0:0:0:0:
448,192,175214,1,0,0:0:0:0:
192,192,175264,1,0,0:0:0:0:
64,192,175264,1,0,0:0:0:0:
448,192,175314,128,0,175380:0:0:0:0:
320,192,175364,128,0,175430:0:0:0:0:
192,192,175414,128,0,175480:0:0:0:0:
448,192,175464,128,0,175530:0:0:0:0:
64,192,175514,128,0,175580:0:0:0:0:
192,192,175564,128,0,175647:0:0:0:0:
320,192,175614,128,0,175680:0:0:0:0:
64,192,175664,128,0,175730:0:0:0:0:
448,192,175714,128,0,175780:0:0:0:0:
320,192,175764,128,0,175830:0:0:0:0:
192,192,175814,128,0,175880:0:0:0:0:
448,192,175864,128,0,175930:0:0:0:0:
64,192,175914,128,0,175980:0:0:0:0:
192,192,175964,128,0,176030:0:0:0:0:
320,192,176014,128,0,176080:0:0:0:0:
64,192,176064,128,0,176114:0:0:0:0:
448,192,176114,1,0,0:0:0:0:
320,192,176114,1,0,0:0:0:0:
192,192,176214,1,0,0:0:0:0:
64,192,176214,1,0,0:0:0:0:
448,192,176314,128,0,176380:0:0:0:0:
320,192,176364,128,0,176430:0:0:0:0:
192,192,176414,128,0,176480:0:0:0:0:
448,192,176464,128,0,176514:0:0:0:0:
64,192,176514,1,0,0:0:0:0:
192,192,176514,1,0,0:0:0:0:
192,192,176614,1,0,0:0:0:0:
448,192,176614,1,0,0:0:0:0:
320,192,176714,1,0,0:0:0:0:
192,192,176764,1,0,0:0:0:0:
320,192,176814,1,0,0:0:0:0:
192,192,176864,1,0,0:0:0:0:
64,192,176914,1,0,0:0:0:0:
448,192,176914,1,0,0:0:0:0:
192,192,177014,1,0,0:0:0:0:
320,192,177114,1,0,0:0:0:0:
448,192,177114,1,0,0:0:0:0:
192,192,177214,1,0,0:0:0:0:
448,192,177314,1,0,0:0:0:0:
64,192,177314,1,0,0:0:0:0:
320,192,177414,1,0,0:0:0:0:
192,192,177464,1,0,0:0:0:0:
448,192,177464,1,0,0:0:0:0:
64,192,177514,1,0,0:0:0:0:
320,192,177564,1,0,0:0:0:0:
192,192,177614,1,0,0:0:0:0:
448,192,177614,1,0,0:0:0:0:
64,192,177714,1,0,0:0:0:0:
320,192,177714,1,0,0:0:0:0:
192,192,177814,1,0,0:0:0:0:
448,192,177914,1,0,0:0:0:0:
320,192,177914,1,0,0:0:0:0:
192,192,177964,1,0,0:0:0:0:
320,192,178014,1,0,0:0:0:0:
64,192,178064,1,0,0:0:0:0:
192,192,178114,1,0,0:0:0:0:
448,192,178114,1,0,0:0:0:0:
320,192,178164,1,0,0:0:0:0:
192,192,178214,1,0,0:0:0:0:
64,192,178214,1,0,0:0:0:0:
448,192,178264,1,0,0:0:0:0:
320,192,178314,1,0,0:0:0:0:
192,192,178364,1,0,0:0:0:0:
64,192,178414,1,0,0:0:0:0:
320,192,178464,1,0,0:0:0:0:
64,192,178514,1,0,0:0:0:0:
448,192,178514,1,0,0:0:0:0:
192,192,178514,1,0,0:0:0:0:
64,192,178614,1,0,0:0:0:0:
192,192,178714,1,0,0:0:0:0:
320,192,178714,1,0,0:0:0:0:
448,192,178714,1,0,0:0:0:0:
320,192,178814,1,0,0:0:0:0:
192,192,178914,1,0,0:0:0:0:
64,192,178914,1,0,0:0:0:0:
448,192,178914,1,0,0:0:0:0:
192,192,179014,1,0,0:0:0:0:
64,192,179014,1,0,0:0:0:0:
192,192,179114,1,0,0:0:0:0:
320,192,179114,1,0,0:0:0:0:
448,192,179114,1,0,0:0:0:0:
448,192,179214,1,0,0:0:0:0:
320,192,179264,1,0,0:0:0:0:
64,192,179314,1,0,0:0:0:0:
192,192,179314,1,0,0:0:0:0:
192,192,179414,1,0,0:0:0:0:
64,192,179414,1,0,0:0:0:0:
320,192,179514,1,0,0:0:0:0:
64,192,179514,1,0,0:0:0:0:
448,192,179514,1,0,0:0:0:0:
320,192,179614,1,0,0:0:0:0:
448,192,179614,1,0,0:0:0:0:
192,192,179714,1,0,0:0:0:0:
64,192,179714,1,0,0:0:0:0:
448,192,179714,1,0,0:0:0:0:
320,192,179814,1,0,0:0:0:0:
192,192,179864,1,0,0:0:0:0:
64,192,179914,1,0,0:0:0:0:
448,192,179914,1,0,0:0:0:0:
192,192,180014,1,0,0:0:0:0:
320,192,180064,1,0,0:0:0:0:
448,192,180114,1,0,0:0:0:0:
192,192,180114,1,0,0:0:0:0:
64,192,180114,1,0,0:0:0:0:
64,192,180214,1,0,0:0:0:0:
192,192,180214,1,0,0:0:0:0:
320,192,180314,1,0,0:0:0:0:
448,192,180314,1,0,0:0:0:0:
64,192,180314,1,0,0:0:0:0:
192,192,180414,1,0,0:0:0:0:
64,192,180414,1,0,0:0:0:0:
320,192,180514,1,0,0:0:0:0:
448,192,180514,1,0,0:0:0:0:
192,192,180564,1,0,0:0:0:0:
64,192,180564,1,0,0:0:0:0:
320,192,180614,1,0,0:0:0:0:
448,192,180614,1,0,0:0:0:0:
64,192,180714,1,0,0:0:0:0:
192,192,180714,1,0,0:0:0:0:
320,192,180764,1,0,0:0:0:0:
448,192,180764,1,0,0:0:0:0:
64,192,180814,1,0,0:0:0:0:
192,192,180814,1,0,0:0:0:0:
320,192,180914,1,0,0:0:0:0:
448,192,180914,1,0,0:0:0:0:
64,192,180914,1,0,0:0:0:0:
320,192,181014,1,0,0:0:0:0:
448,192,181014,1,0,0:0:0:0:
192,192,181114,1,0,0:0:0:0:
64,192,181114,1,0,0:0:0:0:
320,192,181114,1,0,0:0:0:0:
192,192,181214,1,0,0:0:0:0:
64,192,181214,1,0,0:0:0:0:
320,192,181314,1,0,0:0:0:0:
448,192,181314,1,0,0:0:0:0:
192,192,181380,1,0,0:0:0:0:
64,192,181380,1,0,0:0:0:0:
448,192,181447,1,0,0:0:0:0:
192,192,181514,1,0,0:0:0:0:
64,192,181514,1,0,0:0:0:0:
320,192,181580,1,0,0:0:0:0:
448,192,181580,1,0,0:0:0:0:
64,192,181647,1,0,0:0:0:0:
448,192,181714,128,0,181814:0:0:0:0:
320,192,181764,128,0,181864:0:0:0:0:
192,192,181814,128,0,181914:0:0:0:0:
64,192,181864,128,0,181964:0:0:0:0:
448,192,181914,128,0,182014:0:0:0:0:
320,192,181964,128,0,182064:0:0:0:0:
192,192,182014,128,0,182114:0:0:0:0:
448,192,182064,1,0,0:0:0:0:
64,192,182114,128,0,182214:0:0:0:0:
192,192,182164,128,0,182264:0:0:0:0:
320,192,182214,128,0,182314:0:0:0:0:
448,192,182264,128,0,182364:0:0:0:0:
64,192,182314,128,0,182414:0:0:0:0:
192,192,182364,128,0,182464:0:0:0:0:
320,192,182414,128,0,182514:0:0:0:0:
64,192,182464,1,0,0:0:0:0:
448,192,182514,128,0,182614:0:0:0:0:
320,192,182564,128,0,182664:0:0:0:0:
192,192,182614,128,0,182714:0:0:0:0:
64,192,182664,128,0,182764:0:0:0:0:
448,192,182714,128,0,182814:0:0:0:0:
320,192,182764,128,0,182864:0:0:0:0:
192,192,182814,128,0,182914:0:0:0:0:
448,192,182864,1,0,0:0:0:0:
64,192,182914,128,0,183014:0:0:0:0:
192,192,182964,128,0,183064:0:0:0:0:
320,192,183014,128,0,183114:0:0:0:0:
448,192,183064,128,0,183164:0:0:0:0:
64,192,183114,128,0,183214:0:0:0:0:
192,192,183164,128,0,183264:0:0:0:0:
320,192,183214,128,0,183264:0:0:0:0:
64,192,183264,1,0,0:0:0:0:
192,192,183314,1,0,0:0:0:0:
448,192,183314,1,0,0:0:0:0:
320,192,183314,1,0,0:0:0:0:
448,192,183414,1,0,0:0:0:0:
320,192,183514,1,0,0:0:0:0:
192,192,183514,1,0,0:0:0:0:
64,192,183514,1,0,0:0:0:0:
192,192,183614,1,0,0:0:0:0:
64,192,183714,1,0,0:0:0:0:
320,192,183714,1,0,0:0:0:0:
448,192,183714,1,0,0:0:0:0:
448,192,183814,1,0,0:0:0:0:
320,192,183914,1,0,0:0:0:0:
192,192,183914,1,0,0:0:0:0:
64,192,183914,1,0,0:0:0:0:
192,192,184014,1,0,0:0:0:0:
320,192,184064,1,0,0:0:0:0:
64,192,184114,1,0,0:0:0:0:
448,192,184114,1,0,0:0:0:0:
64,192,184214,1,0,0:0:0:0:
192,192,184314,1,0,0:0:0:0:
320,192,184314,1,0,0:0:0:0:
448,192,184314,1,0,0:0:0:0:
320,192,184414,1,0,0:0:0:0:
448,192,184414,1,0,0:0:0:0:
192,192,184514,1,0,0:0:0:0:
64,192,184514,1,0,0:0:0:0:
448,192,184514,1,0,0:0:0:0:
192,192,184614,1,0,0:0:0:0:
64,192,184614,1,0,0:0:0:0:
320,192,184714,1,0,0:0:0:0:
448,192,184714,1,0,0:0:0:0:
192,192,184764,1,0,0:0:0:0:
64,192,184764,1,0,0:0:0:0:
320,192,184814,1,0,0:0:0:0:
448,192,184814,1,0,0:0:0:0:
192,192,184864,1,0,0:0:0:0:
64,192,184914,128,0,185064:0:0:0:0:
320,192,184914,128,0,185064:0:0:0:0:
448,192,184914,128,0,185064:0:0:0:0:
192,192,185114,128,0,185264:0:0:0:0:
64,192,185114,128,0,185264:0:0:0:0:
320,192,185114,128,0,185264:0:0:0:0:
192,192,185314,128,0,185464:0:0:0:0:
320,192,185314,128,0,185464:0:0:0:0:
448,192,185314,128,0,185464:0:0:0:0:
64,192,185514,128,0,185564:0:0:0:0:
448,192,185514,128,0,185564:0:0:0:0:
192,192,185514,128,0,185564:0:0:0:0:
64,192,185614,128,0,185664:0:0:0:0:
192,192,185614,128,0,185664:0:0:0:0:
64,192,185714,128,0,185764:0:0:0:0:
448,192,185714,128,0,185764:0:0:0:0:
320,192,185714,128,0,185764:0:0:0:0:
448,192,185814,128,0,185864:0:0:0:0:
320,192,185814,128,0,185864:0:0:0:0:
192,192,185914,128,0,185964:0:0:0:0:
64,192,185914,128,0,185964:0:0:0:0:
448,192,185914,128,0,185964:0:0:0:0:
320,192,186014,128,0,186064:0:0:0:0:
192,192,186064,128,0,186114:0:0:0:0:
448,192,186114,128,0,186164:0:0:0:0:
64,192,186114,128,0,186164:0:0:0:0:
192,192,186214,128,0,186264:0:0:0:0:
320,192,186214,128,0,186264:0:0:0:0:
192,192,186314,128,0,186364:0:0:0:0:
320,192,186364,128,0,186414:0:0:0:0:
192,192,186414,128,0,186464:0:0:0:0:
320,192,186464,128,0,186514:0:0:0:0:
448,192,186514,1,0,0:0:0:0:
192,192,186514,1,0,0:0:0:0:
64,192,186514,1,0,0:0:0:0:
448,192,186914,128,0,186980:0:0:0:0:
320,192,186964,128,0,187030:0:0:0:0:
192,192,187014,128,0,187080:0:0:0:0:
448,192,187064,128,0,187130:0:0:0:0:
64,192,187114,128,0,187180:0:0:0:0:
320,192,187164,128,0,187230:0:0:0:0:
192,192,187214,128,0,187280:0:0:0:0:
64,192,187264,128,0,187314:0:0:0:0:
320,192,187314,1,0,0:0:0:0:
448,192,187314,1,0,0:0:0:0:
64,192,187714,128,0,187780:0:0:0:0:
320,192,187764,128,0,187830:0:0:0:0:
448,192,187814,128,0,187880:0:0:0:0:
192,192,187864,128,0,187930:0:0:0:0:
64,192,187914,128,0,187980:0:0:0:0:
320,192,187964,128,0,188030:0:0:0:0:
448,192,188014,128,0,188080:0:0:0:0:
192,192,188064,128,0,188114:0:0:0:0:
64,192,188114,1,0,0:0:0:0:
320,192,188114,1,0,0:0:0:0:
448,192,188114,1,0,0:0:0:0:
192,192,188314,1,0,0:0:0:0:
320,192,188314,1,0,0:0:0:0:
448,192,188314,1,0,0:0:0:0:
64,192,188514,1,0,0:0:0:0:
320,192,188514,1,0,0:0:0:0:
448,192,188514,1,0,0:0:0:0:
192,192,188714,1,0,0:0:0:0:
64,192,188714,1,0,0:0:0:0:
448,192,188714,1,0,0:0:0:0:
64,192,188914,1,0,0:0:0:0:
320,192,188914,1,0,0:0:0:0:
448,192,188914,1,0,0:0:0:0:
320,192,189014,1,0,0:0:0:0:
448,192,189014,1,0,0:0:0:0:
192,192,189114,1,0,0:0:0:0:
448,192,189114,1,0,0:0:0:0:
64,192,189114,1,0,0:0:0:0:
192,192,189214,1,0,0:0:0:0:
64,192,189214,1,0,0:0:0:0:
320,192,189314,1,0,0:0:0:0:
448,192,189314,1,0,0:0:0:0:
192,192,189364,1,0,0:0:0:0:
64,192,189364,1,0,0:0:0:0:
320,192,189414,1,0,0:0:0:0:
448,192,189414,1,0,0:0:0:0:
192,192,189464,1,0,0:0:0:0:
64,192,189464,1,0,0:0:0:0:
448,192,189514,1,0,0:0:0:0:
320,192,189564,1,0,0:0:0:0:
192,192,189614,1,0,0:0:0:0:
64,192,189664,1,0,0:0:0:0:
320,192,189714,1,0,0:0:0:0:
448,192,189714,1,0,0:0:0:0:
320,192,189928,1,0,0:0:0:0:
192,192,189928,1,0,0:0:0:0:
448,192,189928,1,0,0:0:0:0:
192,192,190142,1,0,0:0:0:0:
320,192,190142,1,0,0:0:0:0:
64,192,190142,1,0,0:0:0:0:
192,192,190372,1,0,0:0:0:0:
64,192,190372,1,0,0:0:0:0:
448,192,190372,1,0,0:0:0:0:
64,192,190603,1,0,0:0:0:0:
448,192,190603,1,0,0:0:0:0:
320,192,190603,1,0,0:0:0:0:
192,192,190728,1,0,0:0:0:0:
320,192,190728,1,0,0:0:0:0:
64,192,190728,1,0,0:0:0:0:
64,192,190853,1,0,0:0:0:0:
192,192,190853,1,0,0:0:0:0:
448,192,190853,1,0,0:0:0:0:
192,192,190978,1,0,0:0:0:0:
320,192,190978,1,0,0:0:0:0:
448,192,190978,1,0,0:0:0:0:
320,192,191103,1,0,0:0:0:0:
448,192,191103,1,0,0:0:0:0:
64,192,191103,1,0,0:0:0:0:
64,192,191228,1,0,0:0:0:0:
192,192,191228,1,0,0:0:0:0:
320,192,191228,1,0,0:0:0:0:
320,192,191353,1,0,0:0:0:0:
448,192,191353,1,0,0:0:0:0:
192,192,191415,1,0,0:0:0:0:
64,192,191415,1,0,0:0:0:0:
320,192,191478,1,0,0:0:0:0:
448,192,191478,1,0,0:0:0:0:
192,192,191540,1,0,0:0:0:0:
64,192,191540,1,0,0:0:0:0:
192,192,191603,128,0,192186:0:0:0:0:
64,192,191603,128,0,193019:0:0:0:0:
320,192,191603,128,0,192519:0:0:0:0:
448,192,191603,128,0,192019:0:0:0:0:
448,192,192103,128,0,192353:0:0:0:0:
192,192,192269,128,0,193186:0:0:0:0:
448,192,192436,128,0,192686:0:0:0:0:
320,192,192603,128,0,192853:0:0:0:0:
448,192,192769,128,0,193519:0:0:0:0:
320,192,192936,128,0,193519:0:0:0:0:
64,192,193103,128,0,193519:0:0:0:0:
192,192,193269,128,0,193519:0:0:0:0:
320,192,193603,1,0,0:0:0:0:
448,192,193603,1,0,0:0:0:0:
192,192,193603,1,0,0:0:0:0:
64,192,193978,1,0,0:0:0:0:
448,192,194353,1,0,0:0:0:0:
320,192,194603,1,0,0:0:0:0:
192,192,195103,1,0,0:0:0:0:
320,192,195353,1,0,0:0:0:0:
64,192,195603,1,0,0:0:0:0:
192,192,195853,1,0,0:0:0:0:
64,192,195978,1,0,0:0:0:0:
192,192,196228,1,0,0:0:0:0:
320,192,196353,1,0,0:0:0:0:
448,192,196478,1,0,0:0:0:0:
320,192,196603,1,0,0:0:0:0:
192,192,196728,1,0,0:0:0:0:
64,192,196978,1,0,0:0:0:0:
192,192,197228,1,0,0:0:0:0:
320,192,197353,1,0,0:0:0:0:
448,192,197478,1,0,0:0:0:0:
64,192,197603,1,0,0:0:0:0:
192,192,198603,1,0,0:0:0:0:
320,192,198978,1,0,0:0:0:0:
448,192,199353,1,0,0:0:0:0:
192,192,199478,1,0,0:0:0:0:
320,192,199603,1,0,0:0:0:0:
64,192,199728,1,0,0:0:0:0:
64,192,199978,1,0,0:0:0:0:
192,192,200228,1,0,0:0:0:0:
320,192,200353,1,0,0:0:0:0:
64,192,200478,1,0,0:0:0:0:
192,192,200603,1,0,0:0:0:0:
64,192,200728,1,0,0:0:0:0:
192,192,200978,1,0,0:0:0:0:
320,192,201228,1,0,0:0:0:0:
448,192,201353,1,0,0:0:0:0:
64,192,201478,1,0,0:0:0:0:
320,192,201603,1,0,0:0:0:0:
192,192,201978,1,0,0:0:0:0:
448,192,202353,1,0,0:0:0:0:
64,192,202603,1,0,0:0:0:0:
192,192,202978,1,0,0:0:0:0:
320,192,203228,1,0,0:0:0:0:
64,192,203603,1,0,0:0:0:0:
192,192,203978,1,0,0:0:0:0:
64,192,204353,1,0,0:0:0:0:
192,192,204478,1,0,0:0:0:0:
448,192,204603,1,0,0:0:0:0:
320,192,204728,1,0,0:0:0:0:
192,192,204978,1,0,0:0:0:0:
64,192,205228,1,0,0:0:0:0:
192,192,205353,1,0,0:0:0:0:
320,192,205478,1,0,0:0:0:0:
448,192,205603,1,0,0:0:0:0:
448,192,206603,1,0,0:0:0:0:
320,192,206978,1,0,0:0:0:0:
448,192,207353,1,0,0:0:0:0:
320,192,207603,1,0,0:0:0:0:
192,192,207728,1,0,0:0:0:0:
64,192,207978,1,0,0:0:0:0:
192,192,208353,1,0,0:0:0:0:
448,192,208603,1,0,0:0:0:0:
320,192,208728,1,0,0:0:0:0:
192,192,208853,1,0,0:0:0:0:
64,192,208978,1,0,0:0:0:0:
192,192,209228,1,0,0:0:0:0:
320,192,209353,1,0,0:0:0:0:
64,192,209603,1,0,0:0:0:0:
448,192,209603,128,0,211353:0:0:0:0:
192,192,209603,1,0,0:0:0:0:
320,192,209978,1,0,0:0:0:0:
192,192,209978,1,0,0:0:0:0:
64,192,210103,1,0,0:0:0:0:
192,192,210353,1,0,0:0:0:0:
320,192,210353,1,0,0:0:0:0:
64,192,210478,1,0,0:0:0:0:
64,192,210603,1,0,0:0:0:0:
192,192,210603,1,0,0:0:0:0:
320,192,210603,1,0,0:0:0:0:
64,192,210978,1,0,0:0:0:0:
192,192,210978,1,0,0:0:0:0:
192,192,211228,1,0,0:0:0:0:
320,192,211228,1,0,0:0:0:0:
64,192,211353,1,0,0:0:0:0:
192,192,211353,1,0,0:0:0:0:
320,192,211353,1,0,0:0:0:0:
64,192,211603,128,0,213353:0:0:0:0:
320,192,211603,1,0,0:0:0:0:
448,192,211603,1,0,0:0:0:0:
192,192,211853,1,0,0:0:0:0:
448,192,211978,1,0,0:0:0:0:
192,192,212228,1,0,0:0:0:0:
320,192,212353,1,0,0:0:0:0:
448,192,212478,1,0,0:0:0:0:
448,192,212603,1,0,0:0:0:0:
320,192,212603,1,0,0:0:0:0:
320,192,212728,1,0,0:0:0:0:
192,192,212728,1,0,0:0:0:0:
192,192,212853,1,0,0:0:0:0:
448,192,212978,1,0,0:0:0:0:
192,192,213228,1,0,0:0:0:0:
320,192,213353,1,0,0:0:0:0:
448,192,213478,1,0,0:0:0:0:
320,192,213519,1,0,0:0:0:0:
192,192,213561,1,0,0:0:0:0:
64,192,213603,128,0,215353:0:0:0:0:
192,192,213978,1,0,0:0:0:0:
320,192,213978,1,0,0:0:0:0:
192,192,214353,1,0,0:0:0:0:
448,192,214353,1,0,0:0:0:0:
448,192,214478,1,0,0:0:0:0:
320,192,214478,1,0,0:0:0:0:
192,192,214603,1,0,0:0:0:0:
320,192,214603,1,0,0:0:0:0:
192,192,214978,1,0,0:0:0:0:
320,192,215228,1,0,0:0:0:0:
192,192,215353,1,0,0:0:0:0:
320,192,215353,1,0,0:0:0:0:
448,192,215353,1,0,0:0:0:0:
64,192,215478,1,0,0:0:0:0:
192,192,215603,1,0,0:0:0:0:
448,192,215603,1,0,0:0:0:0:
320,192,215603,128,0,216353:0:0:0:0:
64,192,215728,1,0,0:0:0:0:
192,192,215978,1,0,0:0:0:0:
64,192,216228,1,0,0:0:0:0:
192,192,216353,1,0,0:0:0:0:
64,192,216478,1,0,0:0:0:0:
320,192,216603,1,0,0:0:0:0:
448,192,216603,1,0,0:0:0:0:
192,192,216603,128,0,217353:0:0:0:0:
64,192,216728,1,0,0:0:0:0:
320,192,216978,1,0,0:0:0:0:
448,192,216978,1,0,0:0:0:0:
64,192,216978,1,0,0:0:0:0:
64,192,217228,1,0,0:0:0:0:
320,192,217353,1,0,0:0:0:0:
448,192,217353,1,0,0:0:0:0:
192,192,217478,1,0,0:0:0:0:
64,192,217540,1,0,0:0:0:0:
320,192,217603,1,0,0:0:0:0:
192,192,217603,1,0,0:0:0:0:
448,192,217603,128,0,219353:0:0:0:0:
64,192,217978,1,0,0:0:0:0:
192,192,217978,1,0,0:0:0:0:
64,192,218353,1,0,0:0:0:0:
320,192,218353,1,0,0:0:0:0:
192,192,218478,1,0,0:0:0:0:
320,192,218478,1,0,0:0:0:0:
192,192,218603,1,0,0:0:0:0:
64,192,218603,1,0,0:0:0:0:
64,192,218978,1,0,0:0:0:0:
192,192,218978,1,0,0:0:0:0:
320,192,219228,1,0,0:0:0:0:
192,192,219228,1,0,0:0:0:0:
64,192,219353,1,0,0:0:0:0:
192,192,219353,1,0,0:0:0:0:
320,192,219353,1,0,0:0:0:0:
320,192,219603,1,0,0:0:0:0:
448,192,219603,1,0,0:0:0:0:
64,192,219603,128,0,221353:0:0:0:0:
192,192,219978,1,0,0:0:0:0:
320,192,220353,1,0,0:0:0:0:
448,192,220478,1,0,0:0:0:0:
320,192,220603,1,0,0:0:0:0:
448,192,220603,1,0,0:0:0:0:
320,192,220728,1,0,0:0:0:0:
192,192,220728,1,0,0:0:0:0:
192,192,220853,1,0,0:0:0:0:
448,192,220978,1,0,0:0:0:0:
192,192,221228,1,0,0:0:0:0:
320,192,221353,1,0,0:0:0:0:
192,192,221353,1,0,0:0:0:0:
448,192,221353,1,0,0:0:0:0:
448,192,221478,1,0,0:0:0:0:
320,192,221540,1,0,0:0:0:0:
192,192,221603,1,0,0:0:0:0:
64,192,221603,128,0,223353:0:0:0:0:
448,192,221603,1,0,0:0:0:0:
192,192,221978,1,0,0:0:0:0:
320,192,222353,1,0,0:0:0:0:
448,192,222478,1,0,0:0:0:0:
192,192,222603,1,0,0:0:0:0:
320,192,222978,1,0,0:0:0:0:
448,192,223353,1,0,0:0:0:0:
320,192,223353,1,0,0:0:0:0:
192,192,223353,1,0,0:0:0:0:
64,192,223603,1,0,0:0:0:0:
448,192,223603,128,0,224540:0:0:0:0:
320,192,223728,128,0,224540:0:0:0:0:
192,192,223978,128,0,224540:0:0:0:0:
64,192,224353,128,0,224540:0:0:0:0:
320,192,224603,128,0,225353:0:0:0:0:
64,192,224728,128,0,225353:0:0:0:0:
448,192,224853,128,0,225353:0:0:0:0:
192,192,224978,128,0,225353:0:0:0:0:
320,192,225603,5,0,0:0:0:0:
448,192,225603,128,0,227478:0:0:0:0:
64,192,225603,128,0,225728:0:0:0:0:
192,192,225728,128,0,225853:0:0:0:0:
320,192,225853,128,0,225978:0:0:0:0:
64,192,225978,128,0,226103:0:0:0:0:
320,192,226103,128,0,226228:0:0:0:0:
64,192,226228,128,0,226353:0:0:0:0:
192,192,226290,128,0,226415:0:0:0:0:
320,192,226353,128,0,226478:0:0:0:0:
192,192,226478,128,0,226603:0:0:0:0:
64,192,226603,128,0,226728:0:0:0:0:
320,192,226603,128,0,226853:0:0:0:0:
192,192,226728,128,0,226853:0:0:0:0:
320,192,226978,128,0,227228:0:0:0:0:
64,192,226978,128,0,227103:0:0:0:0:
192,192,227103,128,0,227228:0:0:0:0:
64,192,227228,128,0,227353:0:0:0:0:
320,192,227353,128,0,227478:0:0:0:0:
192,192,227478,128,0,227603:0:0:0:0:
64,192,227603,128,0,229478:0:0:0:0:
320,192,227603,128,0,227853:0:0:0:0:
192,192,227728,128,0,227853:0:0:0:0:
448,192,227978,128,0,228103:0:0:0:0:
320,192,227978,128,0,228228:0:0:0:0:
192,192,228103,128,0,228228:0:0:0:0:
448,192,228228,128,0,228353:0:0:0:0:
192,192,228353,128,0,228478:0:0:0:0:
320,192,228478,128,0,228603:0:0:0:0:
448,192,228603,128,0,228728:0:0:0:0:
320,192,228665,128,0,228790:0:0:0:0:
192,192,228728,128,0,228853:0:0:0:0:
448,192,228853,128,0,228978:0:0:0:0:
192,192,228978,128,0,229228:0:0:0:0:
320,192,229228,128,0,229353:0:0:0:0:
192,192,229353,128,0,229478:0:0:0:0:
448,192,229478,128,0,229603:0:0:0:0:
320,192,229603,128,0,233478:0:0:0:0:
192,192,229603,128,0,229853:0:0:0:0:
64,192,229728,128,0,229853:0:0:0:0:
192,192,229978,128,0,230228:0:0:0:0:
448,192,229978,128,0,230103:0:0:0:0:
64,192,230103,128,0,230228:0:0:0:0:
192,192,230353,128,0,230540:0:0:0:0:
64,192,230353,128,0,230415:0:0:0:0:
448,192,230478,128,0,230540:0:0:0:0:
448,192,230603,128,0,230728:0:0:0:0:
192,192,230603,128,0,230853:0:0:0:0:
64,192,230728,128,0,230853:0:0:0:0:
448,192,230978,128,0,231103:0:0:0:0:
192,192,230978,128,0,231228:0:0:0:0:
64,192,231103,128,0,231228:0:0:0:0:
448,192,231228,128,0,231353:0:0:0:0:
64,192,231353,128,0,231478:0:0:0:0:
192,192,231478,128,0,231603:0:0:0:0:
448,192,231603,128,0,231728:0:0:0:0:
192,192,231728,128,0,231853:0:0:0:0:
64,192,231853,128,0,231978:0:0:0:0:
192,192,231978,128,0,232228:0:0:0:0:
64,192,232228,128,0,232353:0:0:0:0:
192,192,232353,128,0,232478:0:0:0:0:
64,192,232478,128,0,232603:0:0:0:0:
448,192,232603,128,0,232728:0:0:0:0:
192,192,232728,128,0,232853:0:0:0:0:
64,192,232853,128,0,232978:0:0:0:0:
192,192,232978,128,0,233228:0:0:0:0:
64,192,233228,128,0,233353:0:0:0:0:
448,192,233353,128,0,233478:0:0:0:0:
192,192,233478,128,0,233603:0:0:0:0:
64,192,233603,128,0,235478:0:0:0:0:
320,192,233603,128,0,233728:0:0:0:0:
448,192,233728,128,0,233853:0:0:0:0:
320,192,233853,1,0,0:0:0:0:
192,192,233853,128,0,233978:0:0:0:0:
448,192,233978,128,0,234103:0:0:0:0:
320,192,234103,128,0,234228:0:0:0:0:
192,192,234228,128,0,234290:0:0:0:0:
320,192,234290,128,0,234415:0:0:0:0:
192,192,234353,128,0,234478:0:0:0:0:
448,192,234353,1,0,0:0:0:0:
320,192,234478,128,0,234603:0:0:0:0:
192,192,234603,128,0,234790:0:0:0:0:
448,192,234603,128,0,234665:0:0:0:0:
320,192,234728,128,0,234790:0:0:0:0:
320,192,234853,1,0,0:0:0:0:
448,192,234853,1,0,0:0:0:0:
448,192,234978,128,0,235040:0:0:0:0:
192,192,234978,128,0,235165:0:0:0:0:
320,192,235103,128,0,235165:0:0:0:0:
192,192,235228,128,0,235353:0:0:0:0:
320,192,235353,1,0,0:0:0:0:
448,192,235353,128,0,235478:0:0:0:0:
320,192,235478,128,0,235603:0:0:0:0:
192,192,235603,128,0,237478:0:0:0:0:
448,192,235603,128,0,235665:0:0:0:0:
64,192,235603,128,0,235790:0:0:0:0:
320,192,235728,128,0,235790:0:0:0:0:
64,192,235853,1,0,0:0:0:0:
320,192,235853,1,0,0:0:0:0:
448,192,235978,128,0,236040:0:0:0:0:
64,192,235978,128,0,236165:0:0:0:0:
320,192,236103,128,0,236165:0:0:0:0:
64,192,236228,128,0,236353:0:0:0:0:
320,192,236353,1,0,0:0:0:0:
448,192,236353,128,0,236478:0:0:0:0:
64,192,236478,128,0,236603:0:0:0:0:
448,192,236603,128,0,236728:0:0:0:0:
320,192,236665,128,0,236790:0:0:0:0:
64,192,236728,128,0,236853:0:0:0:0:
320,192,236853,1,0,0:0:0:0:
448,192,236853,128,0,236978:0:0:0:0:
64,192,236978,128,0,237228:0:0:0:0:
448,192,237228,128,0,237353:0:0:0:0:
64,192,237353,128,0,237478:0:0:0:0:
320,192,237478,128,0,237603:0:0:0:0:
448,192,237603,128,0,239603:0:0:0:0:
192,192,237603,128,0,237665:0:0:0:0:
64,192,237728,128,0,237790:0:0:0:0:
192,192,237853,1,0,0:0:0:0:
64,192,237853,1,0,0:0:0:0:
320,192,237978,128,0,238040:0:0:0:0:
192,192,238103,128,0,238290:0:0:0:0:
192,192,238353,1,0,0:0:0:0:
64,192,238353,128,0,238415:0:0:0:0:
192,192,238478,128,0,238540:0:0:0:0:
320,192,238603,128,0,238665:0:0:0:0:
192,192,238728,128,0,238790:0:0:0:0:
192,192,238853,1,0,0:0:0:0:
64,192,238853,1,0,0:0:0:0:
320,192,238978,128,0,239040:0:0:0:0:
192,192,239103,128,0,239165:0:0:0:0:
64,192,239228,128,0,239290:0:0:0:0:
64,192,239353,1,0,0:0:0:0:
192,192,239353,128,0,239415:0:0:0:0:
320,192,239478,128,0,239540:0:0:0:0:
320,192,239603,128,0,239665:0:0:0:0:
192,192,239728,128,0,239790:0:0:0:0:
64,192,239853,128,0,239915:0:0:0:0:
448,192,239853,1,0,0:0:0:0:
320,192,239978,128,0,240165:0:0:0:0:
64,192,239978,128,0,240040:0:0:0:0:
64,192,240228,128,0,240290:0:0:0:0:
192,192,240353,128,0,240415:0:0:0:0:
448,192,240353,1,0,0:0:0:0:
320,192,240478,128,0,240540:0:0:0:0:
448,192,240603,128,0,240665:0:0:0:0:
320,192,240728,128,0,240790:0:0:0:0:
192,192,240853,128,0,240915:0:0:0:0:
448,192,240853,1,0,0:0:0:0:
64,192,240978,128,0,241040:0:0:0:0:
320,192,240978,128,0,241165:0:0:0:0:
64,192,241228,128,0,241290:0:0:0:0:
192,192,241353,128,0,241415:0:0:0:0:
448,192,241353,1,0,0:0:0:0:
64,192,241478,128,0,241540:0:0:0:0:
320,192,241603,128,0,242540:0:0:0:0:
448,192,241603,1,0,0:0:0:0:
192,192,241603,128,0,241665:0:0:0:0:
64,192,241728,128,0,241790:0:0:0:0:
448,192,241853,128,0,241915:0:0:0:0:
64,192,241853,1,0,0:0:0:0:
192,192,241978,128,0,242040:0:0:0:0:
64,192,242103,128,0,242290:0:0:0:0:
448,192,242353,1,0,0:0:0:0:
64,192,242353,128,0,242478:0:0:0:0:
192,192,242478,128,0,242540:0:0:0:0:
320,192,242603,128,0,242665:0:0:0:0:
192,192,242728,128,0,242790:0:0:0:0:
64,192,242853,128,0,242915:0:0:0:0:
448,192,242853,1,0,0:0:0:0:
192,192,242978,128,0,243040:0:0:0:0:
320,192,243103,128,0,243353:0:0:0:0:
64,192,243228,128,0,243415:0:0:0:0:
448,192,243353,128,0,243603:0:0:0:0:
192,192,243353,128,0,243540:0:0:0:0:
320,192,243478,128,0,243540:0:0:0:0:
320,192,243603,128,0,244540:0:0:0:0:
192,192,243603,128,0,243665:0:0:0:0:
64,192,243603,1,0,0:0:0:0:
448,192,243728,128,0,243790:0:0:0:0:
448,192,243853,1,0,0:0:0:0:
192,192,243853,128,0,243915:0:0:0:0:
64,192,243978,128,0,244040:0:0:0:0:
64,192,244103,128,0,244165:0:0:0:0:
192,192,244228,128,0,244290:0:0:0:0:
448,192,244353,128,0,244415:0:0:0:0:
64,192,244353,1,0,0:0:0:0:
192,192,244478,128,0,244540:0:0:0:0:
64,192,244603,128,0,244665:0:0:0:0:
192,192,244728,128,0,244790:0:0:0:0:
320,192,244853,128,0,244915:0:0:0:0:
448,192,244853,1,0,0:0:0:0:
192,192,244978,128,0,245228:0:0:0:0:
64,192,245103,128,0,245353:0:0:0:0:
320,192,245228,128,0,245353:0:0:0:0:
448,192,245353,128,0,245478:0:0:0:0:
192,192,245353,128,0,245478:0:0:0:0:
64,192,245478,128,0,245603:0:0:0:0:
448,192,245603,128,0,246603:0:0:0:0:
320,192,245603,128,0,245665:0:0:0:0:
192,192,245603,1,0,0:0:0:0:
64,192,245728,128,0,245790:0:0:0:0:
192,192,245790,128,0,245853:0:0:0:0:
64,192,245853,1,0,0:0:0:0:
320,192,245853,128,0,245915:0:0:0:0:
192,192,245978,128,0,246228:0:0:0:0:
64,192,246228,128,0,246290:0:0:0:0:
192,192,246290,128,0,246353:0:0:0:0:
320,192,246353,1,0,0:0:0:0:
64,192,246353,128,0,246415:0:0:0:0:
192,192,246478,128,0,246540:0:0:0:0:
320,192,246603,128,0,246728:0:0:0:0:
192,192,246728,128,0,246853:0:0:0:0:
448,192,246853,1,0,0:0:0:0:
64,192,246853,128,0,246978:0:0:0:0:
192,192,246978,128,0,247290:0:0:0:0:
64,192,247103,128,0,247165:0:0:0:0:
320,192,247228,128,0,247415:0:0:0:0:
448,192,247353,1,0,0:0:0:0:
192,192,247353,128,0,247540:0:0:0:0:
64,192,247478,128,0,247665:0:0:0:0:
448,192,247603,128,0,248603:0:0:0:0:
192,192,247603,128,0,247665:0:0:0:0:
320,192,247603,1,0,0:0:0:0:
192,192,247728,128,0,247790:0:0:0:0:
320,192,247790,128,0,247853:0:0:0:0:
64,192,247853,128,0,247915:0:0:0:0:
192,192,247853,1,0,0:0:0:0:
320,192,247978,128,0,248228:0:0:0:0:
64,192,248228,128,0,248290:0:0:0:0:
192,192,248290,128,0,248353:0:0:0:0:
320,192,248353,128,0,248415:0:0:0:0:
64,192,248353,1,0,0:0:0:0:
192,192,248478,128,0,248540:0:0:0:0:
192,192,248603,128,0,248728:0:0:0:0:
64,192,248728,128,0,248853:0:0:0:0:
448,192,248853,1,0,0:0:0:0:
320,192,248853,128,0,248978:0:0:0:0:
192,192,248978,128,0,249290:0:0:0:0:
64,192,249103,128,0,249165:0:0:0:0:
320,192,249228,128,0,249415:0:0:0:0:
192,192,249353,1,0,0:0:0:0:
448,192,249353,128,0,249540:0:0:0:0:
64,192,249478,128,0,249540:0:0:0:0:
192,192,249603,128,0,249665:0:0:0:0:
448,192,249603,128,0,249790:0:0:0:0:
320,192,249603,128,0,249728:0:0:0:0:
64,192,249728,128,0,249811:0:0:0:0:
192,192,249790,128,0,249873:0:0:0:0:
320,192,249853,128,0,249936:0:0:0:0:
448,192,249853,1,0,0:0:0:0:
448,192,249978,128,0,250061:0:0:0:0:
448,192,250103,128,0,250290:0:0:0:0:
320,192,250103,128,0,250228:0:0:0:0:
192,192,250103,128,0,250165:0:0:0:0:
64,192,250228,128,0,250311:0:0:0:0:
192,192,250290,128,0,250373:0:0:0:0:
320,192,250353,128,0,250436:0:0:0:0:
448,192,250353,1,0,0:0:0:0:
320,192,250478,128,0,250561:0:0:0:0:
192,192,250603,128,0,250665:0:0:0:0:
320,192,250603,128,0,250728:0:0:0:0:
448,192,250603,128,0,250790:0:0:0:0:
64,192,250728,128,0,250811:0:0:0:0:
192,192,250790,128,0,250873:0:0:0:0:
448,192,250853,1,0,0:0:0:0:
320,192,250853,128,0,250936:0:0:0:0:
192,192,250978,128,0,251061:0:0:0:0:
448,192,251103,128,0,251290:0:0:0:0:
320,192,251103,128,0,251228:0:0:0:0:
192,192,251103,128,0,251165:0:0:0:0:
64,192,251228,128,0,251311:0:0:0:0:
192,192,251290,128,0,251373:0:0:0:0:
320,192,251353,128,0,251436:0:0:0:0:
448,192,251353,1,0,0:0:0:0:
64,192,251478,128,0,251561:0:0:0:0:
192,192,251603,128,0,251665:0:0:0:0:
320,192,251603,128,0,251728:0:0:0:0:
448,192,251603,128,0,251790:0:0:0:0:
64,192,251728,128,0,251811:0:0:0:0:
192,192,251790,128,0,251873:0:0:0:0:
448,192,251853,1,0,0:0:0:0:
320,192,251853,128,0,251936:0:0:0:0:
448,192,251978,128,0,252061:0:0:0:0:
448,192,252103,128,0,252290:0:0:0:0:
320,192,252103,128,0,252228:0:0:0:0:
192,192,252103,128,0,252165:0:0:0:0:
64,192,252228,128,0,252311:0:0:0:0:
192,192,252290,128,0,252373:0:0:0:0:
320,192,252353,128,0,252436:0:0:0:0:
448,192,252353,1,0,0:0:0:0:
320,192,252478,128,0,252561:0:0:0:0:
192,192,252603,128,0,252665:0:0:0:0:
320,192,252603,128,0,252728:0:0:0:0:
448,192,252603,128,0,252790:0:0:0:0:
64,192,252728,128,0,252811:0:0:0:0:
192,192,252790,128,0,252873:0:0:0:0:
448,192,252853,1,0,0:0:0:0:
320,192,252853,128,0,252936:0:0:0:0:
192,192,252978,128,0,253061:0:0:0:0:
448,192,253103,128,0,253290:0:0:0:0:
320,192,253103,128,0,253228:0:0:0:0:
192,192,253103,128,0,253165:0:0:0:0:
64,192,253228,128,0,253311:0:0:0:0:
192,192,253290,128,0,253373:0:0:0:0:
320,192,253353,128,0,253436:0:0:0:0:
448,192,253353,1,0,0:0:0:0:
64,192,253478,128,0,253561:0:0:0:0:
192,192,253603,128,0,253665:0:0:0:0:
320,192,253603,128,0,253728:0:0:0:0:
448,192,253603,128,0,253790:0:0:0:0:
64,192,253728,128,0,253790:0:0:0:0:
192,192,253790,1,0,0:0:0:0:
320,192,253853,128,0,253915:0:0:0:0:
448,192,253853,128,0,253978:0:0:0:0:
64,192,253853,128,0,254040:0:0:0:0:
192,192,253978,128,0,254040:0:0:0:0:
320,192,254040,1,0,0:0:0:0:
192,192,254103,128,0,254228:0:0:0:0:
64,192,254103,128,0,254290:0:0:0:0:
448,192,254103,128,0,254165:0:0:0:0:
320,192,254228,128,0,254290:0:0:0:0:
192,192,254290,1,0,0:0:0:0:
320,192,254353,128,0,254415:0:0:0:0:
64,192,254353,128,0,254478:0:0:0:0:
448,192,254353,128,0,254540:0:0:0:0:
192,192,254478,128,0,254540:0:0:0:0:
64,192,254540,1,0,0:0:0:0:
192,192,254603,128,0,254665:0:0:0:0:
320,192,254603,128,0,254728:0:0:0:0:
448,192,254603,128,0,254790:0:0:0:0:
64,192,254728,128,0,254790:0:0:0:0:
192,192,254790,1,0,0:0:0:0:
320,192,254853,128,0,254915:0:0:0:0:
448,192,254853,128,0,254978:0:0:0:0:
64,192,254853,128,0,255040:0:0:0:0:
192,192,254978,128,0,255040:0:0:0:0:
320,192,255040,1,0,0:0:0:0:
192,192,255103,128,0,255228:0:0:0:0:
64,192,255103,128,0,255290:0:0:0:0:
448,192,255103,128,0,255165:0:0:0:0:
320,192,255228,128,0,255290:0:0:0:0:
192,192,255290,1,0,0:0:0:0:
320,192,255353,128,0,255415:0:0:0:0:
64,192,255353,128,0,255478:0:0:0:0:
448,192,255353,128,0,255540:0:0:0:0:
192,192,255478,128,0,255540:0:0:0:0:
64,192,255540,1,0,0:0:0:0:
320,192,255603,128,0,255665:0:0:0:0:
448,192,255603,128,0,255665:0:0:0:0:
64,192,255665,128,0,255728:0:0:0:0:
192,192,255728,128,0,255790:0:0:0:0:
320,192,255728,128,0,255790:0:0:0:0:
448,192,255790,128,0,255853:0:0:0:0:
64,192,255853,128,0,255915:0:0:0:0:
192,192,255853,128,0,255915:0:0:0:0:
448,192,255915,128,0,255978:0:0:0:0:
320,192,255978,128,0,256040:0:0:0:0:
192,192,255978,128,0,256040:0:0:0:0:
64,192,256040,128,0,256103:0:0:0:0:
448,192,256103,128,0,256165:0:0:0:0:
320,192,256103,128,0,256165:0:0:0:0:
64,192,256165,128,0,256228:0:0:0:0:
192,192,256228,128,0,256290:0:0:0:0:
320,192,256228,128,0,256290:0:0:0:0:
448,192,256290,128,0,256353:0:0:0:0:
192,192,256353,128,0,256415:0:0:0:0:
64,192,256353,128,0,256415:0:0:0:0:
320,192,256415,128,0,256478:0:0:0:0:
448,192,256415,128,0,256478:0:0:0:0:
192,192,256478,128,0,256540:0:0:0:0:
64,192,256478,128,0,256540:0:0:0:0:
320,192,256540,1,0,0:0:0:0:
448,192,256540,1,0,0:0:0:0:
192,192,256603,5,0,0:0:0:0:
64,192,256603,1,0,0:0:0:0:
192,192,256728,1,0,0:0:0:0:
320,192,256728,1,0,0:0:0:0:
448,192,256853,1,0,0:0:0:0:
320,192,256853,1,0,0:0:0:0:
64,192,256978,1,0,0:0:0:0:
192,192,256978,1,0,0:0:0:0:
64,192,257103,1,0,0:0:0:0:
320,192,257103,1,0,0:0:0:0:
448,192,257228,1,0,0:0:0:0:
192,192,257228,1,0,0:0:0:0:
320,192,257353,1,0,0:0:0:0:
64,192,257353,1,0,0:0:0:0:
192,192,257478,1,0,0:0:0:0:
64,192,257478,1,0,0:0:0:0:
192,192,257603,128,0,257665:0:0:0:0:
320,192,257603,128,0,257728:0:0:0:0:
448,192,257603,128,0,257790:0:0:0:0:
64,192,257603,1,0,0:0:0:0:
192,192,257728,128,0,257790:0:0:0:0:
64,192,257728,128,0,257790:0:0:0:0:
320,192,257790,128,0,257915:0:0:0:0:
448,192,257853,128,0,257915:0:0:0:0:
192,192,257853,128,0,257915:0:0:0:0:
64,192,257853,128,0,257915:0:0:0:0:
320,192,257978,128,0,258165:0:0:0:0:
448,192,257978,128,0,258290:0:0:0:0:
192,192,258103,128,0,258165:0:0:0:0:
64,192,258103,128,0,258165:0:0:0:0:
192,192,258228,128,0,258290:0:0:0:0:
320,192,258228,128,0,258290:0:0:0:0:
64,192,258290,128,0,258353:0:0:0:0:
320,192,258353,128,0,258415:0:0:0:0:
192,192,258353,128,0,258540:0:0:0:0:
448,192,258353,128,0,258540:0:0:0:0:
64,192,258478,128,0,258540:0:0:0:0:
320,192,258478,128,0,258540:0:0:0:0:
448,192,258603,128,0,258790:0:0:0:0:
64,192,258603,128,0,258790:0:0:0:0:
192,192,258728,128,0,258790:0:0:0:0:
320,192,258728,128,0,258790:0:0:0:0:
192,192,258853,1,0,0:0:0:0:
64,192,258853,1,0,0:0:0:0:
320,192,258853,1,0,0:0:0:0:
320,192,258978,128,0,259103:0:0:0:0:
448,192,258978,128,0,259290:0:0:0:0:
192,192,259103,128,0,259165:0:0:0:0:
64,192,259103,128,0,259165:0:0:0:0:
320,192,259228,128,0,259290:0:0:0:0:
192,192,259228,128,0,259290:0:0:0:0:
448,192,259353,128,0,259415:0:0:0:0:
64,192,259353,128,0,259478:0:0:0:0:
320,192,259353,128,0,259415:0:0:0:0:
192,192,259478,128,0,259603:0:0:0:0:
448,192,259478,128,0,259540:0:0:0:0:
320,192,259603,128,0,259728:0:0:0:0:
64,192,259603,128,0,259665:0:0:0:0:
192,192,259728,128,0,259790:0:0:0:0:
448,192,259728,128,0,259853:0:0:0:0:
320,192,259853,128,0,259915:0:0:0:0:
64,192,259853,128,0,259915:0:0:0:0:
192,192,259853,128,0,259915:0:0:0:0:
448,192,259915,128,0,259978:0:0:0:0:
64,192,259978,128,0,260103:0:0:0:0:
320,192,259978,128,0,260103:0:0:0:0:
192,192,260103,128,0,260228:0:0:0:0:
448,192,260103,128,0,260228:0:0:0:0:
320,192,260228,128,0,260353:0:0:0:0:
64,192,260228,128,0,260290:0:0:0:0:
192,192,260353,128,0,260415:0:0:0:0:
448,192,260353,128,0,260415:0:0:0:0:
64,192,260353,128,0,260540:0:0:0:0:
320,192,260478,128,0,260540:0:0:0:0:
448,192,260478,128,0,260540:0:0:0:0:
192,192,260540,128,0,260603:0:0:0:0:
64,192,260603,128,0,260790:0:0:0:0:
320,192,260603,128,0,260790:0:0:0:0:
448,192,260728,128,0,260790:0:0:0:0:
192,192,260728,128,0,260790:0:0:0:0:
320,192,260853,1,0,0:0:0:0:
448,192,260853,1,0,0:0:0:0:
64,192,260853,1,0,0:0:0:0:
64,192,260978,128,0,261103:0:0:0:0:
192,192,260978,128,0,261103:0:0:0:0:
448,192,261103,128,0,261165:0:0:0:0:
320,192,261103,128,0,261290:0:0:0:0:
192,192,261165,128,0,261290:0:0:0:0:
64,192,261228,128,0,261290:0:0:0:0:
448,192,261228,128,0,261290:0:0:0:0:
320,192,261353,128,0,261415:0:0:0:0:
448,192,261353,128,0,261415:0:0:0:0:
64,192,261353,128,0,261540:0:0:0:0:
320,192,261478,128,0,261540:0:0:0:0:
192,192,261478,128,0,261540:0:0:0:0:
64,192,261603,128,0,261790:0:0:0:0:
192,192,261603,128,0,261790:0:0:0:0:
320,192,261728,128,0,261790:0:0:0:0:
448,192,261728,128,0,261790:0:0:0:0:
64,192,261853,1,0,0:0:0:0:
320,192,261853,1,0,0:0:0:0:
448,192,261853,1,0,0:0:0:0:
192,192,261978,128,0,262165:0:0:0:0:
64,192,261978,128,0,262165:0:0:0:0:
320,192,262103,128,0,262165:0:0:0:0:
448,192,262103,128,0,262165:0:0:0:0:
192,192,262228,128,0,262290:0:0:0:0:
64,192,262228,128,0,262290:0:0:0:0:
320,192,262290,128,0,262415:0:0:0:0:
448,192,262353,128,0,262415:0:0:0:0:
64,192,262353,128,0,262415:0:0:0:0:
192,192,262353,128,0,262478:0:0:0:0:
320,192,262478,128,0,262540:0:0:0:0:
448,192,262478,128,0,262540:0:0:0:0:
192,192,262603,128,0,262790:0:0:0:0:
64,192,262603,128,0,262790:0:0:0:0:
320,192,262728,128,0,262790:0:0:0:0:
448,192,262728,128,0,262790:0:0:0:0:
448,192,262853,1,0,0:0:0:0:
64,192,262853,1,0,0:0:0:0:
320,192,262853,1,0,0:0:0:0:
192,192,262978,128,0,263165:0:0:0:0:
64,192,262978,128,0,263165:0:0:0:0:
320,192,263103,128,0,263165:0:0:0:0:
448,192,263103,128,0,263165:0:0:0:0:
192,192,263228,128,0,263290:0:0:0:0:
64,192,263228,128,0,263290:0:0:0:0:
320,192,263290,128,0,263415:0:0:0:0:
448,192,263353,128,0,263415:0:0:0:0:
192,192,263353,128,0,263415:0:0:0:0:
64,192,263353,128,0,263478:0:0:0:0:
192,192,263478,128,0,263540:0:0:0:0:
320,192,263478,128,0,263603:0:0:0:0:
64,192,263603,128,0,263665:0:0:0:0:
448,192,263603,128,0,263728:0:0:0:0:
320,192,263728,128,0,263790:0:0:0:0:
64,192,263728,128,0,263790:0:0:0:0:
192,192,263790,128,0,263853:0:0:0:0:
320,192,263853,128,0,263915:0:0:0:0:
64,192,263853,128,0,263978:0:0:0:0:
448,192,263853,128,0,263915:0:0:0:0:
448,192,263978,128,0,264040:0:0:0:0:
192,192,263978,128,0,264040:0:0:0:0:
320,192,264040,128,0,264103:0:0:0:0:
448,192,264103,128,0,264228:0:0:0:0:
64,192,264103,128,0,264165:0:0:0:0:
320,192,264228,128,0,264290:0:0:0:0:
192,192,264228,128,0,264290:0:0:0:0:
64,192,264290,128,0,264353:0:0:0:0:
448,192,264353,128,0,264415:0:0:0:0:
192,192,264353,128,0,264415:0:0:0:0:
320,192,264353,128,0,264540:0:0:0:0:
64,192,264478,128,0,264603:0:0:0:0:
192,192,264478,128,0,264540:0:0:0:0:
320,192,264603,128,0,264665:0:0:0:0:
448,192,264603,128,0,264790:0:0:0:0:
192,192,264728,128,0,264790:0:0:0:0:
320,192,264728,128,0,264915:0:0:0:0:
64,192,264853,128,0,264915:0:0:0:0:
448,192,264853,128,0,264915:0:0:0:0:
192,192,264853,128,0,265040:0:0:0:0:
64,192,264978,128,0,265165:0:0:0:0:
448,192,265103,128,0,265228:0:0:0:0:
320,192,265103,128,0,265165:0:0:0:0:
192,192,265103,128,0,265165:0:0:0:0:
320,192,265228,128,0,265353:0:0:0:0:
192,192,265228,128,0,265290:0:0:0:0:
64,192,265228,128,0,265290:0:0:0:0:
448,192,265290,128,0,265353:0:0:0:0:
192,192,265353,1,0,0:0:0:0:
64,192,265353,1,0,0:0:0:0:
320,192,265415,1,0,0:0:0:0:
448,192,265415,1,0,0:0:0:0:
192,192,265478,1,0,0:0:0:0:
64,192,265478,1,0,0:0:0:0:
320,192,265540,1,0,0:0:0:0:
448,192,265540,1,0,0:0:0:0:
192,192,265603,128,0,265728:0:0:0:0:
64,192,265603,128,0,265790:0:0:0:0:
320,192,265728,128,0,265790:0:0:0:0:
448,192,265728,128,0,265790:0:0:0:0:
192,192,265790,128,0,265915:0:0:0:0:
64,192,265853,128,0,265915:0:0:0:0:
320,192,265853,128,0,266040:0:0:0:0:
448,192,265853,128,0,265978:0:0:0:0:
192,192,265978,128,0,266103:0:0:0:0:
64,192,265978,128,0,266165:0:0:0:0:
448,192,266103,128,0,266228:0:0:0:0:
320,192,266103,128,0,266228:0:0:0:0:
192,192,266228,128,0,266290:0:0:0:0:
64,192,266228,128,0,266290:0:0:0:0:
320,192,266290,128,0,266415:0:0:0:0:
448,192,266353,128,0,266415:0:0:0:0:
64,192,266353,128,0,266540:0:0:0:0:
192,192,266353,128,0,266540:0:0:0:0:
320,192,266478,128,0,266540:0:0:0:0:
448,192,266478,128,0,266540:0:0:0:0:
64,192,266603,128,0,266790:0:0:0:0:
320,192,266603,128,0,266790:0:0:0:0:
448,192,266728,128,0,266790:0:0:0:0:
192,192,266728,128,0,266790:0:0:0:0:
192,192,266853,1,0,0:0:0:0:
448,192,266853,1,0,0:0:0:0:
64,192,266853,1,0,0:0:0:0:
320,192,266978,128,0,267228:0:0:0:0:
64,192,266978,128,0,267165:0:0:0:0:
192,192,267103,128,0,267165:0:0:0:0:
448,192,267103,128,0,267165:0:0:0:0:
64,192,267228,128,0,267290:0:0:0:0:
192,192,267228,128,0,267415:0:0:0:0:
448,192,267353,128,0,267415:0:0:0:0:
64,192,267353,128,0,267415:0:0:0:0:
320,192,267353,128,0,267540:0:0:0:0:
192,192,267478,128,0,267540:0:0:0:0:
448,192,267478,128,0,267665:0:0:0:0:
64,192,267603,128,0,267728:0:0:0:0:
192,192,267603,128,0,267665:0:0:0:0:
320,192,267728,128,0,267853:0:0:0:0:
448,192,267728,128,0,267790:0:0:0:0:
192,192,267853,128,0,267915:0:0:0:0:
64,192,267853,128,0,267915:0:0:0:0:
448,192,267853,128,0,267978:0:0:0:0:
320,192,267915,128,0,268040:0:0:0:0:
64,192,267978,128,0,268103:0:0:0:0:
192,192,267978,128,0,268103:0:0:0:0:
320,192,268103,128,0,268228:0:0:0:0:
448,192,268103,128,0,268228:0:0:0:0:
192,192,268228,128,0,268290:0:0:0:0:
64,192,268228,128,0,268353:0:0:0:0:
192,192,268353,128,0,268478:0:0:0:0:
320,192,268353,128,0,268415:0:0:0:0:
448,192,268353,128,0,268415:0:0:0:0:
320,192,268478,128,0,268540:0:0:0:0:
448,192,268478,128,0,268603:0:0:0:0:
192,192,268540,128,0,268665:0:0:0:0:
320,192,268603,128,0,268790:0:0:0:0:
64,192,268603,128,0,268790:0:0:0:0:
448,192,268728,128,0,268790:0:0:0:0:
192,192,268728,128,0,268790:0:0:0:0:
64,192,268853,1,0,0:0:0:0:
320,192,268853,1,0,0:0:0:0:
448,192,268853,1,0,0:0:0:0:
192,192,268978,128,0,269103:0:0:0:0:
64,192,268978,128,0,269103:0:0:0:0:
320,192,269103,128,0,269165:0:0:0:0:
448,192,269103,128,0,269228:0:0:0:0:
320,192,269228,128,0,269290:0:0:0:0:
64,192,269228,128,0,269290:0:0:0:0:
192,192,269290,128,0,269415:0:0:0:0:
64,192,269353,128,0,269415:0:0:0:0:
448,192,269353,128,0,269415:0:0:0:0:
320,192,269353,128,0,269540:0:0:0:0:
448,192,269478,128,0,269540:0:0:0:0:
192,192,269478,128,0,269540:0:0:0:0:
64,192,269478,128,0,269665:0:0:0:0:
320,192,269603,128,0,269665:0:0:0:0:
192,192,269603,128,0,269665:0:0:0:0:
448,192,269603,128,0,269790:0:0:0:0:
320,192,269728,128,0,269790:0:0:0:0:
64,192,269728,128,0,269790:0:0:0:0:
64,192,269853,128,0,270040:0:0:0:0:
192,192,269853,128,0,269915:0:0:0:0:
448,192,269853,128,0,269915:0:0:0:0:
320,192,269915,128,0,270040:0:0:0:0:
192,192,269978,128,0,270040:0:0:0:0:
448,192,269978,128,0,270040:0:0:0:0:
448,192,270103,128,0,270290:0:0:0:0:
192,192,270103,128,0,270165:0:0:0:0:
320,192,270103,128,0,270165:0:0:0:0:
320,192,270228,128,0,270290:0:0:0:0:
64,192,270228,128,0,270290:0:0:0:0:
192,192,270353,128,0,270415:0:0:0:0:
64,192,270353,128,0,270540:0:0:0:0:
448,192,270353,128,0,270415:0:0:0:0:
320,192,270415,128,0,270540:0:0:0:0:
192,192,270478,128,0,270540:0:0:0:0:
448,192,270478,128,0,270540:0:0:0:0:
320,192,270603,128,0,270665:0:0:0:0:
64,192,270603,128,0,270790:0:0:0:0:
192,192,270728,128,0,270790:0:0:0:0:
448,192,270728,128,0,270915:0:0:0:0:
320,192,270853,128,0,270915:0:0:0:0:
64,192,270853,128,0,271040:0:0:0:0:
192,192,270853,128,0,270915:0:0:0:0:
320,192,270978,128,0,271040:0:0:0:0:
448,192,270978,128,0,271165:0:0:0:0:
192,192,271103,128,0,271290:0:0:0:0:
320,192,271103,128,0,271165:0:0:0:0:
64,192,271228,128,0,271290:0:0:0:0:
320,192,271228,128,0,271415:0:0:0:0:
64,192,271353,128,0,271540:0:0:0:0:
448,192,271353,128,0,271415:0:0:0:0:
192,192,271478,128,0,271540:0:0:0:0:
448,192,271478,128,0,271665:0:0:0:0:
192,192,271603,128,0,271665:0:0:0:0:
320,192,271603,128,0,271728:0:0:0:0:
64,192,271665,128,0,271728:0:0:0:0:
192,192,271728,128,0,271790:0:0:0:0:
320,192,271790,128,0,271853:0:0:0:0:
448,192,271853,128,0,271915:0:0:0:0:
64,192,271853,128,0,271978:0:0:0:0:
192,192,271853,128,0,271915:0:0:0:0:
320,192,271915,128,0,271978:0:0:0:0:
192,192,271978,128,0,272040:0:0:0:0:
64,192,272040,128,0,272103:0:0:0:0:
448,192,272103,128,0,272165:0:0:0:0:
192,192,272103,128,0,272228:0:0:0:0:
320,192,272165,128,0,272228:0:0:0:0:
448,192,272228,128,0,272290:0:0:0:0:
320,192,272290,128,0,272353:0:0:0:0:
192,192,272353,128,0,272415:0:0:0:0:
64,192,272353,128,0,272478:0:0:0:0:
448,192,272353,128,0,272415:0:0:0:0:
320,192,272415,128,0,272478:0:0:0:0:
192,192,272478,128,0,272540:0:0:0:0:
64,192,272540,128,0,272603:0:0:0:0:
192,192,272603,128,0,272790:0:0:0:0:
448,192,272603,128,0,272790:0:0:0:0:
64,192,272790,128,0,272915:0:0:0:0:
192,192,272853,128,0,272915:0:0:0:0:
320,192,272853,128,0,272915:0:0:0:0:
448,192,272853,128,0,272915:0:0:0:0:
192,192,272978,128,0,273040:0:0:0:0:
64,192,272978,128,0,273040:0:0:0:0:
320,192,273103,128,0,273165:0:0:0:0:
448,192,273103,128,0,273165:0:0:0:0:
64,192,273103,128,0,273165:0:0:0:0:
64,192,273228,128,0,273290:0:0:0:0:
192,192,273228,128,0,273290:0:0:0:0:
448,192,273228,128,0,273290:0:0:0:0:
448,192,273353,1,0,0:0:0:0:
320,192,273353,1,0,0:0:0:0:
64,192,273415,1,0,0:0:0:0:
192,192,273415,1,0,0:0:0:0:
448,192,273478,1,0,0:0:0:0:
320,192,273478,1,0,0:0:0:0:
64,192,273540,1,0,0:0:0:0:
192,192,273540,1,0,0:0:0:0:
320,192,273603,128,0,273728:0:0:0:0:
448,192,273603,128,0,273790:0:0:0:0:
192,192,273728,128,0,273790:0:0:0:0:
64,192,273728,128,0,273790:0:0:0:0:
320,192,273790,128,0,273915:0:0:0:0:
448,192,273853,128,0,273915:0:0:0:0:
192,192,273853,128,0,273915:0:0:0:0:
64,192,273853,128,0,273915:0:0:0:0:
64,192,273978,128,0,274165:0:0:0:0:
448,192,273978,128,0,274228:0:0:0:0:
192,192,274103,128,0,274165:0:0:0:0:
320,192,274103,128,0,274228:0:0:0:0:
192,192,274228,128,0,274290:0:0:0:0:
64,192,274228,128,0,274290:0:0:0:0:
320,192,274290,128,0,274353:0:0:0:0:
192,192,274353,128,0,274540:0:0:0:0:
64,192,274353,128,0,274540:0:0:0:0:
448,192,274353,128,0,274415:0:0:0:0:
320,192,274478,128,0,274540:0:0:0:0:
448,192,274478,128,0,274540:0:0:0:0:
320,192,274603,128,0,274790:0:0:0:0:
64,192,274603,128,0,274790:0:0:0:0:
192,192,274728,128,0,274790:0:0:0:0:
448,192,274728,128,0,274790:0:0:0:0:
64,192,274853,1,0,0:0:0:0:
320,192,274853,1,0,0:0:0:0:
192,192,274853,1,0,0:0:0:0:
448,192,274978,128,0,275040:0:0:0:0:
64,192,274978,128,0,275290:0:0:0:0:
320,192,275103,128,0,275165:0:0:0:0:
448,192,275103,128,0,275165:0:0:0:0:
192,192,275228,128,0,275290:0:0:0:0:
320,192,275228,128,0,275290:0:0:0:0:
320,192,275353,128,0,275415:0:0:0:0:
64,192,275353,128,0,275540:0:0:0:0:
448,192,275353,128,0,275540:0:0:0:0:
192,192,275478,128,0,275540:0:0:0:0:
320,192,275478,128,0,275540:0:0:0:0:
64,192,275603,128,0,275790:0:0:0:0:
448,192,275603,128,0,275665:0:0:0:0:
320,192,275728,128,0,275790:0:0:0:0:
448,192,275728,128,0,275790:0:0:0:0:
192,192,275853,128,0,275915:0:0:0:0:
64,192,275853,128,0,275915:0:0:0:0:
448,192,275853,128,0,275978:0:0:0:0:
320,192,275915,128,0,276040:0:0:0:0:
192,192,275978,128,0,276103:0:0:0:0:
64,192,275978,128,0,276103:0:0:0:0:
320,192,276103,128,0,276165:0:0:0:0:
448,192,276103,128,0,276228:0:0:0:0:
320,192,276228,128,0,276353:0:0:0:0:
192,192,276228,128,0,276290:0:0:0:0:
192,192,276353,128,0,276478:0:0:0:0:
64,192,276353,128,0,276415:0:0:0:0:
448,192,276353,128,0,276478:0:0:0:0:
64,192,276478,128,0,276540:0:0:0:0:
320,192,276478,128,0,276540:0:0:0:0:
192,192,276540,128,0,276603:0:0:0:0:
320,192,276603,128,0,276790:0:0:0:0:
448,192,276603,128,0,276790:0:0:0:0:
192,192,276728,128,0,276790:0:0:0:0:
64,192,276728,128,0,276790:0:0:0:0:
64,192,276853,1,0,0:0:0:0:
192,192,276853,1,0,0:0:0:0:
320,192,276853,1,0,0:0:0:0:
320,192,276978,128,0,277103:0:0:0:0:
64,192,276978,128,0,277103:0:0:0:0:
192,192,277103,128,0,277165:0:0:0:0:
448,192,277103,128,0,277165:0:0:0:0:
320,192,277165,128,0,277228:0:0:0:0:
64,192,277228,128,0,277290:0:0:0:0:
192,192,277228,128,0,277415:0:0:0:0:
64,192,277353,128,0,277415:0:0:0:0:
320,192,277353,128,0,277415:0:0:0:0:
448,192,277353,128,0,277415:0:0:0:0:
320,192,277478,128,0,277540:0:0:0:0:
192,192,277478,128,0,277540:0:0:0:0:
64,192,277478,128,0,277540:0:0:0:0:
320,192,277603,128,0,277790:0:0:0:0:
448,192,277603,128,0,277790:0:0:0:0:
192,192,277728,128,0,277790:0:0:0:0:
64,192,277728,128,0,277790:0:0:0:0:
192,192,277853,1,0,0:0:0:0:
320,192,277853,1,0,0:0:0:0:
64,192,277853,1,0,0:0:0:0:
320,192,277978,128,0,278165:0:0:0:0:
448,192,277978,128,0,278165:0:0:0:0:
192,192,278103,128,0,278165:0:0:0:0:
64,192,278103,128,0,278165:0:0:0:0:
192,192,278228,128,0,278290:0:0:0:0:
64,192,278228,128,0,278290:0:0:0:0:
320,192,278290,128,0,278353:0:0:0:0:
448,192,278353,128,0,278415:0:0:0:0:
64,192,278353,128,0,278478:0:0:0:0:
192,192,278353,128,0,278415:0:0:0:0:
192,192,278478,128,0,278603:0:0:0:0:
320,192,278478,128,0,278540:0:0:0:0:
320,192,278603,128,0,278790:0:0:0:0:
448,192,278603,128,0,278790:0:0:0:0:
192,192,278728,128,0,278790:0:0:0:0:
64,192,278728,128,0,278790:0:0:0:0:
192,192,278853,1,0,0:0:0:0:
64,192,278853,1,0,0:0:0:0:
320,192,278853,1,0,0:0:0:0:
320,192,278978,128,0,279165:0:0:0:0:
448,192,278978,128,0,279165:0:0:0:0:
192,192,279103,128,0,279165:0:0:0:0:
64,192,279103,128,0,279165:0:0:0:0:
320,192,279228,128,0,279290:0:0:0:0:
448,192,279228,128,0,279290:0:0:0:0:
192,192,279290,128,0,279353:0:0:0:0:
64,192,279353,128,0,279415:0:0:0:0:
320,192,279353,128,0,279415:0:0:0:0:
448,192,279353,128,0,279478:0:0:0:0:
192,192,279478,128,0,279540:0:0:0:0:
64,192,279478,128,0,279603:0:0:0:0:
320,192,279603,128,0,279665:0:0:0:0:
448,192,279603,128,0,279790:0:0:0:0:
320,192,279728,128,0,279790:0:0:0:0:
192,192,279728,128,0,279790:0:0:0:0:
64,192,279790,128,0,279853:0:0:0:0:
192,192,279853,128,0,279915:0:0:0:0:
320,192,279853,128,0,279978:0:0:0:0:
448,192,279853,128,0,279915:0:0:0:0:
192,192,279978,128,0,280165:0:0:0:0:
64,192,279978,128,0,280040:0:0:0:0:
320,192,280040,128,0,280165:0:0:0:0:
448,192,280103,128,0,280165:0:0:0:0:
64,192,280103,128,0,280165:0:0:0:0:
320,192,280228,128,0,280290:0:0:0:0:
448,192,280228,128,0,280290:0:0:0:0:
192,192,280290,128,0,280415:0:0:0:0:
64,192,280353,128,0,280415:0:0:0:0:
320,192,280353,128,0,280478:0:0:0:0:
448,192,280353,128,0,280415:0:0:0:0:
192,192,280478,128,0,280603:0:0:0:0:
64,192,280478,128,0,280603:0:0:0:0:
320,192,280603,128,0,280728:0:0:0:0:
448,192,280603,128,0,280728:0:0:0:0:
64,192,280728,128,0,280790:0:0:0:0:
192,192,280728,128,0,280915:0:0:0:0:
64,192,280853,128,0,280978:0:0:0:0:
320,192,280853,128,0,280915:0:0:0:0:
448,192,280853,128,0,280915:0:0:0:0:
192,192,280978,128,0,281103:0:0:0:0:
448,192,280978,128,0,281040:0:0:0:0:
320,192,281103,128,0,281165:0:0:0:0:
448,192,281103,128,0,281228:0:0:0:0:
64,192,281103,128,0,281165:0:0:0:0:
64,192,281228,128,0,281290:0:0:0:0:
192,192,281228,128,0,281290:0:0:0:0:
320,192,281228,128,0,281353:0:0:0:0:
448,192,281290,128,0,281353:0:0:0:0:
192,192,281353,1,0,0:0:0:0:
64,192,281353,1,0,0:0:0:0:
320,192,281415,1,0,0:0:0:0:
448,192,281415,1,0,0:0:0:0:
192,192,281478,1,0,0:0:0:0:
64,192,281478,1,0,0:0:0:0:
320,192,281540,1,0,0:0:0:0:
448,192,281540,1,0,0:0:0:0:
192,192,281603,128,0,281665:0:0:0:0:
64,192,281603,128,0,281790:0:0:0:0:
192,192,281728,128,0,281790:0:0:0:0:
320,192,281728,128,0,281790:0:0:0:0:
448,192,281790,1,0,0:0:0:0:
64,192,281853,128,0,281915:0:0:0:0:
192,192,281853,128,0,281915:0:0:0:0:
320,192,281853,128,0,281915:0:0:0:0:
448,192,281853,128,0,281915:0:0:0:0:
448,192,281978,128,0,282290:0:0:0:0:
320,192,281978,128,0,282040:0:0:0:0:
64,192,282103,128,0,282165:0:0:0:0:
192,192,282103,128,0,282165:0:0:0:0:
192,192,282228,128,0,282290:0:0:0:0:
320,192,282228,128,0,282290:0:0:0:0:
64,192,282290,1,0,0:0:0:0:
320,192,282353,128,0,282415:0:0:0:0:
448,192,282353,128,0,282415:0:0:0:0:
192,192,282353,128,0,282415:0:0:0:0:
64,192,282353,128,0,282415:0:0:0:0:
320,192,282478,128,0,282540:0:0:0:0:
448,192,282478,128,0,282665:0:0:0:0:
320,192,282603,128,0,282665:0:0:0:0:
192,192,282603,128,0,282665:0:0:0:0:
64,192,282603,128,0,282790:0:0:0:0:
192,192,282728,128,0,282790:0:0:0:0:
448,192,282728,128,0,282790:0:0:0:0:
192,192,282853,128,0,282915:0:0:0:0:
64,192,282853,128,0,282915:0:0:0:0:
320,192,282853,128,0,282915:0:0:0:0:
448,192,282853,128,0,282915:0:0:0:0:
320,192,282978,128,0,283040:0:0:0:0:
64,192,282978,128,0,283290:0:0:0:0:
192,192,283103,128,0,283165:0:0:0:0:
320,192,283103,128,0,283165:0:0:0:0:
448,192,283103,128,0,283165:0:0:0:0:
192,192,283228,128,0,283290:0:0:0:0:
448,192,283228,128,0,283290:0:0:0:0:
448,192,283353,128,0,283415:0:0:0:0:
320,192,283353,128,0,283415:0:0:0:0:
192,192,283353,128,0,283415:0:0:0:0:
64,192,283353,128,0,283415:0:0:0:0:
320,192,283478,128,0,283540:0:0:0:0:
448,192,283478,128,0,283665:0:0:0:0:
192,192,283603,128,0,283665:0:0:0:0:
64,192,283603,128,0,283665:0:0:0:0:
320,192,283603,128,0,283790:0:0:0:0:
192,192,283728,128,0,283790:0:0:0:0:
64,192,283728,128,0,283790:0:0:0:0:
448,192,283853,1,0,0:0:0:0:
192,192,283853,128,0,283915:0:0:0:0:
320,192,283853,128,0,283915:0:0:0:0:
64,192,283853,128,0,283915:0:0:0:0:
448,192,283915,128,0,283978:0:0:0:0:
320,192,283978,128,0,284040:0:0:0:0:
64,192,283978,128,0,284040:0:0:0:0:
192,192,284103,128,0,284165:0:0:0:0:
320,192,284103,128,0,284290:0:0:0:0:
448,192,284103,128,0,284165:0:0:0:0:
192,192,284228,128,0,284290:0:0:0:0:
64,192,284228,128,0,284290:0:0:0:0:
192,192,284353,128,0,284415:0:0:0:0:
64,192,284353,128,0,284415:0:0:0:0:
320,192,284353,128,0,284415:0:0:0:0:
448,192,284353,128,0,284415:0:0:0:0:
320,192,284478,128,0,284540:0:0:0:0:
448,192,284478,128,0,284540:0:0:0:0:
192,192,284540,128,0,284603:0:0:0:0:
64,192,284603,128,0,284665:0:0:0:0:
320,192,284603,128,0,284790:0:0:0:0:
448,192,284603,128,0,284790:0:0:0:0:
192,192,284728,128,0,284790:0:0:0:0:
64,192,284728,128,0,284790:0:0:0:0:
192,192,284853,128,0,284915:0:0:0:0:
320,192,284853,128,0,284915:0:0:0:0:
64,192,284853,128,0,284915:0:0:0:0:
448,192,284853,128,0,284915:0:0:0:0:
192,192,284978,128,0,285165:0:0:0:0:
320,192,284978,128,0,285040:0:0:0:0:
320,192,285103,128,0,285165:0:0:0:0:
448,192,285103,128,0,285165:0:0:0:0:
64,192,285103,128,0,285165:0:0:0:0:
192,192,285228,128,0,285290:0:0:0:0:
448,192,285228,128,0,285290:0:0:0:0:
320,192,285290,128,0,285415:0:0:0:0:
192,192,285353,128,0,285415:0:0:0:0:
64,192,285353,128,0,285415:0:0:0:0:
448,192,285353,128,0,285415:0:0:0:0:
320,192,285478,128,0,285540:0:0:0:0:
448,192,285478,128,0,285540:0:0:0:0:
64,192,285478,128,0,285540:0:0:0:0:
64,192,285603,128,0,285665:0:0:0:0:
192,192,285603,128,0,285790:0:0:0:0:
320,192,285603,128,0,285790:0:0:0:0:
64,192,285728,128,0,285790:0:0:0:0:
448,192,285728,128,0,285790:0:0:0:0:
320,192,285853,128,0,285915:0:0:0:0:
448,192,285853,128,0,286040:0:0:0:0:
64,192,285853,128,0,286040:0:0:0:0:
192,192,285915,128,0,286040:0:0:0:0:
320,192,285978,128,0,286040:0:0:0:0:
64,192,286103,128,0,286165:0:0:0:0:
192,192,286103,128,0,286290:0:0:0:0:
320,192,286103,128,0,286290:0:0:0:0:
64,192,286228,128,0,286290:0:0:0:0:
448,192,286228,128,0,286290:0:0:0:0:
320,192,286353,128,0,286415:0:0:0:0:
448,192,286353,128,0,286540:0:0:0:0:
64,192,286353,128,0,286540:0:0:0:0:
192,192,286415,128,0,286540:0:0:0:0:
320,192,286478,128,0,286540:0:0:0:0:
448,192,286603,128,0,286665:0:0:0:0:
192,192,286603,128,0,286790:0:0:0:0:
320,192,286603,128,0,286790:0:0:0:0:
64,192,286728,128,0,286790:0:0:0:0:
448,192,286728,128,0,286790:0:0:0:0:
64,192,286853,128,0,286915:0:0:0:0:
192,192,286853,128,0,287040:0:0:0:0:
320,192,286853,128,0,286915:0:0:0:0:
448,192,286853,128,0,287040:0:0:0:0:
320,192,286978,128,0,287040:0:0:0:0:
64,192,286978,128,0,287040:0:0:0:0:
320,192,287103,128,0,287290:0:0:0:0:
448,192,287103,128,0,287165:0:0:0:0:
64,192,287103,128,0,287290:0:0:0:0:
448,192,287228,128,0,287290:0:0:0:0:
192,192,287228,128,0,287290:0:0:0:0:
192,192,287353,128,0,287415:0:0:0:0:
64,192,287353,128,0,287540:0:0:0:0:
320,192,287353,128,0,287415:0:0:0:0:
448,192,287353,128,0,287540:0:0:0:0:
320,192,287478,128,0,287540:0:0:0:0:
192,192,287478,128,0,287540:0:0:0:0:
448,192,287603,128,0,287728:0:0:0:0:
192,192,287603,128,0,287665:0:0:0:0:
64,192,287665,128,0,287728:0:0:0:0:
320,192,287728,128,0,287790:0:0:0:0:
192,192,287790,128,0,287853:0:0:0:0:
64,192,287853,128,0,287915:0:0:0:0:
320,192,287853,128,0,287915:0:0:0:0:
448,192,287853,128,0,287978:0:0:0:0:
192,192,287915,128,0,287978:0:0:0:0:
64,192,287978,128,0,288040:0:0:0:0:
320,192,288040,128,0,288103:0:0:0:0:
192,192,288103,128,0,288228:0:0:0:0:
448,192,288103,128,0,288165:0:0:0:0:
64,192,288165,128,0,288228:0:0:0:0:
320,192,288228,128,0,288290:0:0:0:0:
192,192,288290,128,0,288353:0:0:0:0:
64,192,288353,128,0,288478:0:0:0:0:
320,192,288353,128,0,288415:0:0:0:0:
448,192,288353,128,0,288415:0:0:0:0:
192,192,288415,128,0,288478:0:0:0:0:
320,192,288478,128,0,288540:0:0:0:0:
448,192,288540,128,0,288603:0:0:0:0:
64,192,288603,128,0,288728:0:0:0:0:
192,192,288603,128,0,288728:0:0:0:0:
320,192,288603,128,0,288728:0:0:0:0:
192,192,288790,128,0,288915:0:0:0:0:
320,192,288790,128,0,288915:0:0:0:0:
448,192,288790,128,0,288915:0:0:0:0:
320,192,288978,128,0,289040:0:0:0:0:
192,192,288978,128,0,289040:0:0:0:0:
64,192,288978,128,0,289040:0:0:0:0:
192,192,289103,1,0,0:0:0:0:
64,192,289103,1,0,0:0:0:0:
320,192,289165,1,0,0:0:0:0:
448,192,289165,1,0,0:0:0:0:
64,192,289228,1,0,0:0:0:0:
192,192,289228,1,0,0:0:0:0:
320,192,289290,1,0,0:0:0:0:
448,192,289321,1,0,0:0:0:0:
64,192,289353,1,0,0:0:0:0:
192,192,289384,1,0,0:0:0:0:
320,192,289415,1,0,0:0:0:0:
448,192,289446,1,0,0:0:0:0:
64,192,289478,1,0,0:0:0:0:
192,192,289509,1,0,0:0:0:0:
320,192,289540,1,0,0:0:0:0:
448,192,289571,1,0,0:0:0:0:
192,192,289603,128,0,290603:0:0:0:0:
448,192,289728,128,0,289853:0:0:0:0:
320,192,289790,128,0,289915:0:0:0:0:
64,192,289853,128,0,289978:0:0:0:0:
448,192,289978,128,0,290228:0:0:0:0:
64,192,290228,128,0,290353:0:0:0:0:
320,192,290290,128,0,290415:0:0:0:0:
448,192,290353,128,0,290478:0:0:0:0:
64,192,290478,128,0,290603:0:0:0:0:
448,192,290603,128,0,291603:0:0:0:0:
320,192,290728,128,0,290853:0:0:0:0:
192,192,290978,128,0,291228:0:0:0:0:
64,192,291228,128,0,291353:0:0:0:0:
192,192,291353,128,0,291478:0:0:0:0:
320,192,291478,128,0,291603:0:0:0:0:
64,192,291603,128,0,292603:0:0:0:0:
192,192,291728,128,0,291853:0:0:0:0:
320,192,291790,128,0,291915:0:0:0:0:
448,192,291853,128,0,291978:0:0:0:0:
192,192,291978,128,0,292228:0:0:0:0:
448,192,292228,128,0,292353:0:0:0:0:
320,192,292290,128,0,292415:0:0:0:0:
192,192,292353,128,0,292478:0:0:0:0:
448,192,292478,128,0,292603:0:0:0:0:
320,192,292603,128,0,293603:0:0:0:0:
192,192,292728,128,0,292853:0:0:0:0:
64,192,292978,128,0,293228:0:0:0:0:
192,192,293228,128,0,293353:0:0:0:0:
448,192,293353,128,0,293478:0:0:0:0:
192,192,293478,128,0,293603:0:0:0:0:
64,192,293603,128,0,294603:0:0:0:0:
448,192,293728,128,0,293853:0:0:0:0:
320,192,293790,128,0,293915:0:0:0:0:
192,192,293853,128,0,293978:0:0:0:0:
448,192,293978,128,0,294228:0:0:0:0:
192,192,294228,128,0,294353:0:0:0:0:
320,192,294290,128,0,294415:0:0:0:0:
448,192,294353,128,0,294478:0:0:0:0:
192,192,294478,128,0,294603:0:0:0:0:
448,192,294603,128,0,295603:0:0:0:0:
320,192,294728,128,0,294853:0:0:0:0:
192,192,294978,128,0,295228:0:0:0:0:
64,192,295228,128,0,295353:0:0:0:0:
192,192,295353,128,0,295478:0:0:0:0:
320,192,295478,128,0,295603:0:0:0:0:
64,192,295603,1,0,0:0:0:0:
448,192,295728,1,0,0:0:0:0:
320,192,295790,1,0,0:0:0:0:
192,192,295853,1,0,0:0:0:0:
448,192,295978,1,0,0:0:0:0:
64,192,296228,1,0,0:0:0:0:
320,192,296353,1,0,0:0:0:0:
192,192,296478,1,0,0:0:0:0:
64,192,296603,1,0,0:0:0:0:
448,192,296728,1,0,0:0:0:0:
192,192,296978,1,0,0:0:0:0:
320,192,297228,1,0,0:0:0:0:
64,192,297353,1,0,0:0:0:0:
448,192,297478,1,0,0:0:0:0:
64,192,297603,128,0,298603:0:0:0:0:
192,192,297603,128,0,298603:0:0:0:0:
320,192,297603,1,0,0:0:0:0:
448,192,297978,1,0,0:0:0:0:
320,192,298353,1,0,0:0:0:0:
448,192,298603,1,0,0:0:0:0:
192,192,298978,1,0,0:0:0:0:
320,192,299228,1,0,0:0:0:0:
64,192,299603,1,0,0:0:0:0:
192,192,299978,1,0,0:0:0:0:
320,192,300353,1,0,0:0:0:0:
448,192,300478,1,0,0:0:0:0:
192,192,300603,1,0,0:0:0:0:
64,192,300728,1,0,0:0:0:0:
64,192,300978,1,0,0:0:0:0:
192,192,301228,1,0,0:0:0:0:
320,192,301353,1,0,0:0:0:0:
448,192,301478,1,0,0:0:0:0:
192,192,301603,1,0,0:0:0:0:
64,192,301603,1,0,0:0:0:0:
320,192,301603,1,0,0:0:0:0:
320,192,301728,1,0,0:0:0:0:
64,192,301853,1,0,0:0:0:0:
192,192,301853,1,0,0:0:0:0:
448,192,301853,1,0,0:0:0:0:
448,192,301978,1,0,0:0:0:0:
192,192,302103,1,0,0:0:0:0:
64,192,302103,1,0,0:0:0:0:
320,192,302103,1,0,0:0:0:0:
320,192,302228,1,0,0:0:0:0:
64,192,302353,1,0,0:0:0:0:
192,192,302353,1,0,0:0:0:0:
448,192,302353,1,0,0:0:0:0:
320,192,302478,1,0,0:0:0:0:
192,192,302540,1,0,0:0:0:0:
320,192,302603,1,0,0:0:0:0:
448,192,302603,1,0,0:0:0:0:
64,192,302603,1,0,0:0:0:0:
64,192,302728,1,0,0:0:0:0:
320,192,302853,1,0,0:0:0:0:
448,192,302853,1,0,0:0:0:0:
192,192,302853,1,0,0:0:0:0:
192,192,302978,1,0,0:0:0:0:
448,192,303103,1,0,0:0:0:0:
320,192,303103,1,0,0:0:0:0:
64,192,303103,1,0,0:0:0:0:
64,192,303228,1,0,0:0:0:0:
320,192,303353,1,0,0:0:0:0:
448,192,303353,1,0,0:0:0:0:
192,192,303353,1,0,0:0:0:0:
192,192,303478,1,0,0:0:0:0:
320,192,303540,1,0,0:0:0:0:
192,192,303603,1,0,0:0:0:0:
64,192,303603,1,0,0:0:0:0:
448,192,303603,1,0,0:0:0:0:
64,192,303728,1,0,0:0:0:0:
192,192,303728,1,0,0:0:0:0:
64,192,303853,1,0,0:0:0:0:
320,192,303853,1,0,0:0:0:0:
448,192,303853,1,0,0:0:0:0:
192,192,303978,1,0,0:0:0:0:
320,192,303978,1,0,0:0:0:0:
64,192,304103,1,0,0:0:0:0:
448,192,304103,1,0,0:0:0:0:
192,192,304103,1,0,0:0:0:0:
192,192,304228,1,0,0:0:0:0:
320,192,304228,1,0,0:0:0:0:
320,192,304353,1,0,0:0:0:0:
448,192,304353,1,0,0:0:0:0:
64,192,304353,1,0,0:0:0:0:
320,192,304478,1,0,0:0:0:0:
448,192,304478,1,0,0:0:0:0:
192,192,304540,1,0,0:0:0:0:
64,192,304603,1,0,0:0:0:0:
320,192,304603,1,0,0:0:0:0:
448,192,304603,1,0,0:0:0:0:
192,192,304728,128,0,304853:0:0:0:0:
448,192,304853,128,0,304978:0:0:0:0:
320,192,304894,128,0,305019:0:0:0:0:
192,192,304936,128,0,305061:0:0:0:0:
64,192,304978,128,0,305061:0:0:0:0:
320,192,305103,128,0,305478:0:0:0:0:
192,192,305353,128,0,305478:0:0:0:0:
448,192,305353,128,0,305478:0:0:0:0:
192,192,305603,1,0,0:0:0:0:
64,192,305603,1,0,0:0:0:0:
64,192,305728,1,0,0:0:0:0:
320,192,305853,1,0,0:0:0:0:
448,192,305853,1,0,0:0:0:0:
192,192,305894,1,0,0:0:0:0:
64,192,305936,1,0,0:0:0:0:
192,192,305978,1,0,0:0:0:0:
320,192,306019,1,0,0:0:0:0:
448,192,306061,1,0,0:0:0:0:
64,192,306103,1,0,0:0:0:0:
192,192,306103,1,0,0:0:0:0:
320,192,306165,1,0,0:0:0:0:
192,192,306228,1,0,0:0:0:0:
448,192,306228,1,0,0:0:0:0:
64,192,306290,1,0,0:0:0:0:
320,192,306353,1,0,0:0:0:0:
448,192,306353,1,0,0:0:0:0:
64,192,306415,1,0,0:0:0:0:
192,192,306478,1,0,0:0:0:0:
448,192,306478,1,0,0:0:0:0:
320,192,306540,1,0,0:0:0:0:
192,192,306603,1,0,0:0:0:0:
64,192,306603,1,0,0:0:0:0:
448,192,306665,1,0,0:0:0:0:
320,192,306728,1,0,0:0:0:0:
192,192,306728,1,0,0:0:0:0:
64,192,306790,1,0,0:0:0:0:
320,192,306853,1,0,0:0:0:0:
448,192,306853,1,0,0:0:0:0:
64,192,306915,1,0,0:0:0:0:
192,192,306978,1,0,0:0:0:0:
320,192,306978,1,0,0:0:0:0:
448,192,307040,1,0,0:0:0:0:
192,192,307103,1,0,0:0:0:0:
64,192,307103,1,0,0:0:0:0:
448,192,307165,1,0,0:0:0:0:
320,192,307228,1,0,0:0:0:0:
192,192,307228,1,0,0:0:0:0:
64,192,307290,1,0,0:0:0:0:
320,192,307353,1,0,0:0:0:0:
448,192,307353,1,0,0:0:0:0:
64,192,307415,1,0,0:0:0:0:
192,192,307478,1,0,0:0:0:0:
320,192,307478,1,0,0:0:0:0:
448,192,307540,1,0,0:0:0:0:
64,192,307603,1,0,0:0:0:0:
192,192,307603,1,0,0:0:0:0:
320,192,307603,1,0,0:0:0:0:
192,192,307728,1,0,0:0:0:0:
64,192,307728,1,0,0:0:0:0:
64,192,307853,1,0,0:0:0:0:
320,192,307853,1,0,0:0:0:0:
448,192,307853,1,0,0:0:0:0:
192,192,307978,1,0,0:0:0:0:
320,192,307978,1,0,0:0:0:0:
192,192,308103,1,0,0:0:0:0:
64,192,308103,1,0,0:0:0:0:
448,192,308165,1,0,0:0:0:0:
192,192,308228,1,0,0:0:0:0:
64,192,308228,1,0,0:0:0:0:
448,192,308290,1,0,0:0:0:0:
192,192,308353,1,0,0:0:0:0:
320,192,308353,1,0,0:0:0:0:
64,192,308415,1,0,0:0:0:0:
320,192,308478,1,0,0:0:0:0:
448,192,308478,1,0,0:0:0:0:
64,192,308540,1,0,0:0:0:0:
192,192,308603,1,0,0:0:0:0:
320,192,308603,1,0,0:0:0:0:
448,192,308665,1,0,0:0:0:0:
192,192,308728,1,0,0:0:0:0:
64,192,308728,1,0,0:0:0:0:
448,192,308790,1,0,0:0:0:0:
192,192,308853,1,0,0:0:0:0:
64,192,308853,1,0,0:0:0:0:
448,192,308915,1,0,0:0:0:0:
192,192,308978,1,0,0:0:0:0:
320,192,308978,1,0,0:0:0:0:
64,192,309040,1,0,0:0:0:0:
320,192,309103,1,0,0:0:0:0:
448,192,309103,1,0,0:0:0:0:
64,192,309165,1,0,0:0:0:0:
192,192,309228,1,0,0:0:0:0:
448,192,309228,1,0,0:0:0:0:
320,192,309290,1,0,0:0:0:0:
192,192,309353,1,0,0:0:0:0:
64,192,309353,1,0,0:0:0:0:
320,192,309415,1,0,0:0:0:0:
192,192,309478,1,0,0:0:0:0:
64,192,309478,1,0,0:0:0:0:
320,192,309540,1,0,0:0:0:0:
448,192,309603,1,0,0:0:0:0:
320,192,309644,1,0,0:0:0:0:
192,192,309686,1,0,0:0:0:0:
64,192,309728,1,0,0:0:0:0:
192,192,309790,1,0,0:0:0:0:
64,192,309853,1,0,0:0:0:0:
448,192,309853,1,0,0:0:0:0:
320,192,309853,1,0,0:0:0:0:
192,192,309978,1,0,0:0:0:0:
320,192,309978,1,0,0:0:0:0:
64,192,310103,1,0,0:0:0:0:
448,192,310103,1,0,0:0:0:0:
320,192,310165,1,0,0:0:0:0:
192,192,310228,1,0,0:0:0:0:
64,192,310290,1,0,0:0:0:0:
448,192,310353,1,0,0:0:0:0:
192,192,310353,1,0,0:0:0:0:
320,192,310415,1,0,0:0:0:0:
192,192,310478,1,0,0:0:0:0:
64,192,310540,1,0,0:0:0:0:
320,192,310603,1,0,0:0:0:0:
192,192,310603,1,0,0:0:0:0:
64,192,310665,1,0,0:0:0:0:
448,192,310728,1,0,0:0:0:0:
320,192,310790,1,0,0:0:0:0:
192,192,310853,1,0,0:0:0:0:
64,192,310853,1,0,0:0:0:0:
320,192,310915,1,0,0:0:0:0:
192,192,310978,1,0,0:0:0:0:
64,192,311040,1,0,0:0:0:0:
448,192,311103,1,0,0:0:0:0:
192,192,311103,1,0,0:0:0:0:
64,192,311290,1,0,0:0:0:0:
320,192,311290,1,0,0:0:0:0:
192,192,311478,1,0,0:0:0:0:
448,192,311478,1,0,0:0:0:0:
64,192,311603,1,0,0:0:0:0:
448,192,311603,1,0,0:0:0:0:
320,192,311665,1,0,0:0:0:0:
192,192,311728,1,0,0:0:0:0:
64,192,311790,1,0,0:0:0:0:
320,192,311853,1,0,0:0:0:0:
448,192,311853,1,0,0:0:0:0:
64,192,311915,1,0,0:0:0:0:
320,192,311978,1,0,0:0:0:0:
192,192,312040,1,0,0:0:0:0:
64,192,312103,1,0,0:0:0:0:
448,192,312103,1,0,0:0:0:0:
192,192,312228,1,0,0:0:0:0:
320,192,312228,1,0,0:0:0:0:
64,192,312353,1,0,0:0:0:0:
448,192,312353,1,0,0:0:0:0:
320,192,312415,1,0,0:0:0:0:
192,192,312478,1,0,0:0:0:0:
64,192,312540,1,0,0:0:0:0:
448,192,312603,1,0,0:0:0:0:
320,192,312603,1,0,0:0:0:0:
448,192,312728,1,0,0:0:0:0:
64,192,312728,1,0,0:0:0:0:
192,192,312853,1,0,0:0:0:0:
64,192,312853,1,0,0:0:0:0:
192,192,312978,1,0,0:0:0:0:
320,192,312978,1,0,0:0:0:0:
448,192,313103,1,0,0:0:0:0:
320,192,313144,1,0,0:0:0:0:
192,192,313186,1,0,0:0:0:0:
64,192,313228,1,0,0:0:0:0:
320,192,313290,1,0,0:0:0:0:
192,192,313353,1,0,0:0:0:0:
448,192,313353,1,0,0:0:0:0:
320,192,313478,1,0,0:0:0:0:
64,192,313478,1,0,0:0:0:0:
192,192,313603,1,0,0:0:0:0:
64,192,313603,1,0,0:0:0:0:
448,192,313769,1,0,0:0:0:0:
192,192,313769,1,0,0:0:0:0:
64,192,313853,1,0,0:0:0:0:
320,192,313853,1,0,0:0:0:0:
192,192,313936,1,0,0:0:0:0:
64,192,314019,1,0,0:0:0:0:
320,192,314019,1,0,0:0:0:0:
448,192,314103,1,0,0:0:0:0:
192,192,314103,1,0,0:0:0:0:
448,192,314269,1,0,0:0:0:0:
192,192,314269,1,0,0:0:0:0:
320,192,314353,1,0,0:0:0:0:
64,192,314353,1,0,0:0:0:0:
448,192,314436,1,0,0:0:0:0:
320,192,314519,1,0,0:0:0:0:
64,192,314519,1,0,0:0:0:0:
192,192,314603,1,0,0:0:0:0:
448,192,314603,1,0,0:0:0:0:
192,192,314769,1,0,0:0:0:0:
448,192,314769,1,0,0:0:0:0:
320,192,314853,1,0,0:0:0:0:
64,192,314853,1,0,0:0:0:0:
192,192,314936,1,0,0:0:0:0:
64,192,315019,1,0,0:0:0:0:
320,192,315019,1,0,0:0:0:0:
192,192,315103,1,0,0:0:0:0:
448,192,315103,1,0,0:0:0:0:
448,192,315269,1,0,0:0:0:0:
192,192,315269,1,0,0:0:0:0:
64,192,315353,1,0,0:0:0:0:
320,192,315353,1,0,0:0:0:0:
448,192,315436,1,0,0:0:0:0:
320,192,315519,1,0,0:0:0:0:
64,192,315519,1,0,0:0:0:0:
192,192,315603,1,0,0:0:0:0:
448,192,315603,1,0,0:0:0:0:
192,192,315769,1,0,0:0:0:0:
448,192,315769,1,0,0:0:0:0:
320,192,315853,1,0,0:0:0:0:
64,192,315853,1,0,0:0:0:0:
192,192,315936,1,0,0:0:0:0:
64,192,316019,1,0,0:0:0:0:
320,192,316019,1,0,0:0:0:0:
448,192,316103,1,0,0:0:0:0:
192,192,316103,1,0,0:0:0:0:
192,192,316269,1,0,0:0:0:0:
448,192,316269,1,0,0:0:0:0:
64,192,316353,1,0,0:0:0:0:
320,192,316353,1,0,0:0:0:0:
448,192,316436,1,0,0:0:0:0:
320,192,316519,1,0,0:0:0:0:
64,192,316519,1,0,0:0:0:0:
448,192,316603,1,0,0:0:0:0:
192,192,316603,128,0,316728:0:0:0:0:
64,192,316728,1,0,0:0:0:0:
320,192,316853,1,0,0:0:0:0:
448,192,316853,1,0,0:0:0:0:
64,192,316978,1,0,0:0:0:0:
192,192,317040,1,0,0:0:0:0:
320,192,317103,1,0,0:0:0:0:
448,192,317103,1,0,0:0:0:0:
192,192,317165,1,0,0:0:0:0:
320,192,317228,1,0,0:0:0:0:
192,192,317290,1,0,0:0:0:0:
64,192,317353,1,0,0:0:0:0:
448,192,317353,1,0,0:0:0:0:
448,192,317478,1,0,0:0:0:0:
192,192,317478,1,0,0:0:0:0:
320,192,317603,1,0,0:0:0:0:
192,192,317644,1,0,0:0:0:0:
64,192,317686,1,0,0:0:0:0:
192,192,317728,1,0,0:0:0:0:
320,192,317790,1,0,0:0:0:0:
448,192,317853,1,0,0:0:0:0:
192,192,317853,1,0,0:0:0:0:
64,192,317853,1,0,0:0:0:0:
320,192,317978,1,0,0:0:0:0:
448,192,318103,128,0,318353:0:0:0:0:
192,192,318103,128,0,318228:0:0:0:0:
320,192,318353,1,0,0:0:0:0:
64,192,318353,1,0,0:0:0:0:
192,192,318353,1,0,0:0:0:0:
448,192,318415,1,0,0:0:0:0:
192,192,318478,128,0,318603:0:0:0:0:
320,192,318603,1,0,0:0:0:0:
192,192,318644,1,0,0:0:0:0:
64,192,318686,1,0,0:0:0:0:
192,192,318728,1,0,0:0:0:0:
320,192,318790,1,0,0:0:0:0:
448,192,318853,1,0,0:0:0:0:
192,192,318853,1,0,0:0:0:0:
64,192,318853,1,0,0:0:0:0:
320,192,318978,1,0,0:0:0:0:
64,192,318978,1,0,0:0:0:0:
448,192,319103,128,0,319353:0:0:0:0:
192,192,319103,128,0,319228:0:0:0:0:
320,192,319353,1,0,0:0:0:0:
64,192,319353,1,0,0:0:0:0:
192,192,319353,1,0,0:0:0:0:
448,192,319415,1,0,0:0:0:0:
192,192,319478,128,0,319540:0:0:0:0:
320,192,319540,128,0,319603:0:0:0:0:
64,192,319603,1,0,0:0:0:0:
192,192,319603,1,0,0:0:0:0:
448,192,319603,1,0,0:0:0:0:
448,192,319853,128,0,319915:0:0:0:0:
448,192,319978,128,0,321040:0:0:0:0:
64,192,320228,128,0,320290:0:0:0:0:
64,192,320353,128,0,320665:0:0:0:0:
320,192,320478,128,0,320915:0:0:0:0:
192,192,320603,128,0,320790:0:0:0:0:
64,192,320728,128,0,321415:0:0:0:0:
192,192,320853,128,0,321290:0:0:0:0:
320,192,320978,128,0,321165:0:0:0:0:
448,192,321103,128,0,321540:0:0:0:0:
320,192,321228,128,0,321540:0:0:0:0:
192,192,321353,128,0,321540:0:0:0:0:
64,192,321478,128,0,321540:0:0:0:0:
448,192,321603,128,0,322103:0:0:0:0:
192,192,321603,128,0,322103:0:0:0:0:
320,192,321603,128,0,322103:0:0:0:0:
64,192,321603,128,0,322103:0:0:0:0:
448,192,325603,5,0,0:0:0:0:
320,192,325644,1,0,0:0:0:0:
192,192,325686,1,0,0:0:0:0:
64,192,325728,128,0,326103:0:0:0:0:
320,192,326103,1,0,0:0:0:0:
448,192,326103,1,0,0:0:0:0:
64,192,326165,1,0,0:0:0:0:
192,192,326228,1,0,0:0:0:0:
320,192,326228,1,0,0:0:0:0:
448,192,326290,1,0,0:0:0:0:
192,192,326353,1,0,0:0:0:0:
64,192,326415,1,0,0:0:0:0:
320,192,326415,1,0,0:0:0:0:
448,192,326478,1,0,0:0:0:0:
64,192,326540,1,0,0:0:0:0:
320,192,326603,1,0,0:0:0:0:
192,192,326603,1,0,0:0:0:0:
448,192,326665,1,0,0:0:0:0:
192,192,326728,1,0,0:0:0:0:
320,192,326790,1,0,0:0:0:0:
64,192,326790,1,0,0:0:0:0:
448,192,326853,1,0,0:0:0:0:
64,192,326915,1,0,0:0:0:0:
192,192,326978,1,0,0:0:0:0:
320,192,326978,1,0,0:0:0:0:
448,192,327040,1,0,0:0:0:0:
192,192,327103,1,0,0:0:0:0:
320,192,327165,1,0,0:0:0:0:
64,192,327165,1,0,0:0:0:0:
448,192,327228,1,0,0:0:0:0:
64,192,327290,1,0,0:0:0:0:
320,192,327353,1,0,0:0:0:0:
192,192,327353,1,0,0:0:0:0:
448,192,327415,1,0,0:0:0:0:
192,192,327478,1,0,0:0:0:0:
64,192,327540,1,0,0:0:0:0:
320,192,327540,1,0,0:0:0:0:
448,192,327603,1,0,0:0:0:0:
64,192,327665,1,0,0:0:0:0:
192,192,327728,1,0,0:0:0:0:
320,192,327728,1,0,0:0:0:0:
448,192,327790,1,0,0:0:0:0:
192,192,327853,1,0,0:0:0:0:
320,192,327915,1,0,0:0:0:0:
64,192,327915,1,0,0:0:0:0:
448,192,327978,1,0,0:0:0:0:
192,192,328040,1,0,0:0:0:0:
320,192,328103,1,0,0:0:0:0:
448,192,328134,1,0,0:0:0:0:
192,192,328165,1,0,0:0:0:0:
64,192,328196,1,0,0:0:0:0:
320,192,328228,1,0,0:0:0:0:
448,192,328259,1,0,0:0:0:0:
192,192,328290,1,0,0:0:0:0:
64,192,328321,1,0,0:0:0:0:
448,192,328353,1,0,0:0:0:0:
320,192,328384,1,0,0:0:0:0:
64,192,328415,1,0,0:0:0:0:
192,192,328446,1,0,0:0:0:0:
448,192,328478,1,0,0:0:0:0:
320,192,328509,1,0,0:0:0:0:
64,192,328540,1,0,0:0:0:0:
192,192,328571,1,0,0:0:0:0:
320,192,328603,1,0,0:0:0:0:
448,192,328634,1,0,0:0:0:0:
192,192,328665,1,0,0:0:0:0:
64,192,328696,1,0,0:0:0:0:
320,192,328728,1,0,0:0:0:0:
448,192,328759,1,0,0:0:0:0:
192,192,328790,1,0,0:0:0:0:
64,192,328821,1,0,0:0:0:0:
448,192,328853,1,0,0:0:0:0:
320,192,328884,1,0,0:0:0:0:
64,192,328915,1,0,0:0:0:0:
192,192,328946,1,0,0:0:0:0:
448,192,328978,1,0,0:0:0:0:
320,192,329009,1,0,0:0:0:0:
64,192,329040,1,0,0:0:0:0:
192,192,329071,1,0,0:0:0:0:
320,192,329103,1,0,0:0:0:0:
448,192,329134,1,0,0:0:0:0:
192,192,329165,1,0,0:0:0:0:
64,192,329196,1,0,0:0:0:0:
320,192,329228,1,0,0:0:0:0:
448,192,329259,1,0,0:0:0:0:
192,192,329290,1,0,0:0:0:0:
64,192,329321,1,0,0:0:0:0:
448,192,329353,1,0,0:0:0:0:
320,192,329384,1,0,0:0:0:0:
64,192,329415,1,0,0:0:0:0:
192,192,329446,1,0,0:0:0:0:
448,192,329478,1,0,0:0:0:0:
320,192,329509,1,0,0:0:0:0:
64,192,329540,1,0,0:0:0:0:
192,192,329571,1,0,0:0:0:0:
320,192,329603,1,0,0:0:0:0:
448,192,329634,1,0,0:0:0:0:
192,192,329665,1,0,0:0:0:0:
64,192,329696,1,0,0:0:0:0:
320,192,329728,1,0,0:0:0:0:
448,192,329759,1,0,0:0:0:0:
192,192,329790,1,0,0:0:0:0:
64,192,329821,1,0,0:0:0:0:
448,192,329853,1,0,0:0:0:0:
320,192,329884,1,0,0:0:0:0:
64,192,329915,1,0,0:0:0:0:
192,192,329946,1,0,0:0:0:0:
448,192,329978,1,0,0:0:0:0:
320,192,330009,1,0,0:0:0:0:
64,192,330040,1,0,0:0:0:0:
192,192,330071,1,0,0:0:0:0:
448,192,330103,1,0,0:0:0:0:
320,192,330103,128,0,330853:0:0:0:0:
