osu file format v14

[General]
AudioFilename: audio.mp3
AudioLeadIn: 0
PreviewTime: 256603
Countdown: 0
SampleSet: Soft
StackLeniency: 0.7
Mode: 3
LetterboxInBreaks: 0
SpecialStyle: 0
WidescreenStoryboard: 1

[Editor]
Bookmarks: 42552,56552,58552,61552,105608,117608,119322,133037,139894,146514,165714,171314,172114,176914,178514,186514,191603,225603,289603
DistanceSpacing: 1.7
BeatDivisor: 4
GridSize: 32
TimelineZoom: 2.799999

[Metadata]
Title:Last Wish (feat. Ice)
TitleUnicode:Last Wish (feat. Ice)
Artist:Kry.exe
ArtistUnicode:Kry.exe
Creator:hemoo
Version:Glory
Source:Beat Saber World Cup 2022
Tags:BSWC 2022 Grand Finals tiebreaker Artcore Gabber Breakcore 200step Speedcore Psytrance Hardcore Gothic Instrumental Electronic
BeatmapID:3896727
BeatmapSetID:1891274

[Difficulty]
HPDrainRate:7.5
CircleSize:4
OverallDifficulty:7.5
ApproachRate:5
SliderMultiplier:1.4
SliderTickRate:1

[Events]
//Background and Video events
0,0,"bg.jpg",0,0
//Break Periods
//Storyboard Layer 0 (Background)
//Storyboard Layer 1 (Fail)
//Storyboard Layer 2 (Pass)
//Storyboard Layer 3 (Foreground)
//Storyboard Layer 4 (Overlay)
//Storyboard Sound Samples

[TimingPoints]
0,285.714285714286,4,2,1,30,1,0
0,-87.719298245614,4,2,1,30,0,0
34285,272.727272727273,4,2,1,30,1,0
34285,-91.743119266055,4,2,1,30,0,0
36466,260.869565217391,4,2,1,30,1,0
36466,-96.1538461538461,4,2,1,30,0,0
38552,250,4,2,1,30,1,0
38552,-100,4,2,1,30,0,0
42552,-100,4,2,1,30,0,1
56552,-100,4,2,1,30,0,0
58552,-100,4,2,1,30,0,1
61552,-100,4,2,1,30,0,0
98552,240,4,2,1,30,1,0
98552,-104.166666666667,4,2,1,30,0,0
99512,230.769230769231,4,2,1,30,1,0
99512,-108.695652173913,4,2,1,30,0,0
100435,222.222222222222,4,2,1,30,1,0
100435,-112.359550561798,4,2,1,30,0,0
101323,214.285714285714,4,2,1,30,1,0
101323,-116.279069767442,4,2,1,30,0,0
105608,-116.279069767442,4,2,1,30,0,1
117608,-116.279069767442,4,2,1,30,0,0
119322,-116.279069767442,4,2,1,30,0,1
133037,-116.279069767442,4,2,1,30,0,0
139894,206.896551724138,4,2,1,30,1,0
139894,-120.481927710843,4,2,1,30,0,1
146514,200,4,2,1,30,1,0
146514,-125,4,2,1,30,0,0
165714,-125,4,2,1,30,0,1
171314,-125,4,2,1,30,0,0
172114,-125,4,2,1,30,0,1
176914,-125,4,2,1,30,0,0
178514,-125,4,2,1,30,0,1
186514,-125,4,2,1,30,0,0
188114,-125,4,2,1,30,0,1
189714,214.285714285714,4,2,1,30,1,0
189714,-116.279069767442,4,2,1,30,0,1
190142,230.769230769231,4,2,1,30,1,0
190142,-108.695652173913,4,2,1,30,0,1
190603,250,4,2,1,30,1,0
190603,-100,4,2,1,30,0,1
191603,-100,4,2,1,30,0,0
225603,-100,4,2,1,30,0,0
257603,-100,4,2,1,30,0,1
289603,-100,4,2,1,30,0,0
326103,125,4,2,1,30,1,0
326103,-200,4,2,1,30,0,0
328103,62.5,4,2,1,30,1,0
328103,-400,4,2,1,30,0,0

[HitObjects]
64,192,2285,5,0,0:0:0:0:
448,192,2285,1,0,0:0:0:0:
320,192,2285,1,0,0:0:0:0:
64,192,2714,1,0,0:0:0:0:
320,192,2714,1,0,0:0:0:0:
192,192,3428,1,0,0:0:0:0:
448,192,3428,1,0,0:0:0:0:
192,192,3857,1,0,0:0:0:0:
448,192,3857,1,0,0:0:0:0:
320,192,4571,1,0,0:0:0:0:
64,192,4571,1,0,0:0:0:0:
64,192,5000,1,0,0:0:0:0:
320,192,5000,1,0,0:0:0:0:
448,192,5714,1,0,0:0:0:0:
192,192,5714,1,0,0:0:0:0:
64,192,5785,1,0,0:0:0:0:
320,192,5857,1,0,0:0:0:0:
448,192,5928,1,0,0:0:0:0:
64,192,6000,1,0,0:0:0:0:
192,192,6142,1,0,0:0:0:0:
448,192,6142,1,0,0:0:0:0:
320,192,6285,1,0,0:0:0:0:
448,192,6285,1,0,0:0:0:0:
192,192,6357,1,0,0:0:0:0:
64,192,6357,1,0,0:0:0:0:
320,192,6428,1,0,0:0:0:0:
448,192,6428,1,0,0:0:0:0:
192,192,6571,1,0,0:0:0:0:
64,192,6571,1,0,0:0:0:0:
64,192,6857,1,0,0:0:0:0:
320,192,6857,1,0,0:0:0:0:
448,192,6857,1,0,0:0:0:0:
192,192,6928,1,0,0:0:0:0:
320,192,7000,1,0,0:0:0:0:
448,192,7071,1,0,0:0:0:0:
192,192,7142,1,0,0:0:0:0:
64,192,7285,1,0,0:0:0:0:
448,192,7428,1,0,0:0:0:0:
320,192,7500,1,0,0:0:0:0:
192,192,7571,1,0,0:0:0:0:
64,192,7642,1,0,0:0:0:0:
448,192,7714,1,0,0:0:0:0:
320,192,7785,1,0,0:0:0:0:
192,192,7857,1,0,0:0:0:0:
64,192,7928,1,0,0:0:0:0:
448,192,8000,1,0,0:0:0:0:
320,192,8071,1,0,0:0:0:0:
64,192,8142,1,0,0:0:0:0:
192,192,8214,1,0,0:0:0:0:
320,192,8285,1,0,0:0:0:0:
192,192,8428,1,0,0:0:0:0:
64,192,8571,1,0,0:0:0:0:
192,192,8642,1,0,0:0:0:0:
320,192,8714,1,0,0:0:0:0:
448,192,8785,1,0,0:0:0:0:
64,192,8857,1,0,0:0:0:0:
192,192,8928,1,0,0:0:0:0:
320,192,9000,1,0,0:0:0:0:
448,192,9071,1,0,0:0:0:0:
192,192,9142,1,0,0:0:0:0:
64,192,9214,1,0,0:0:0:0:
448,192,9285,1,0,0:0:0:0:
192,192,9357,1,0,0:0:0:0:
320,192,9428,1,0,0:0:0:0:
192,192,9571,1,0,0:0:0:0:
64,192,9714,1,0,0:0:0:0:
192,192,9785,1,0,0:0:0:0:
448,192,9857,1,0,0:0:0:0:
320,192,9928,1,0,0:0:0:0:
192,192,10000,1,0,0:0:0:0:
64,192,10071,1,0,0:0:0:0:
320,192,10142,1,0,0:0:0:0:
448,192,10214,1,0,0:0:0:0:
192,192,10285,1,0,0:0:0:0:
64,192,10357,1,0,0:0:0:0:
448,192,10428,1,0,0:0:0:0:
320,192,10500,1,0,0:0:0:0:
64,192,10571,1,0,0:0:0:0:
448,192,10714,1,0,0:0:0:0:
192,192,10714,1,0,0:0:0:0:
64,192,10857,1,0,0:0:0:0:
192,192,10928,1,0,0:0:0:0:
448,192,11000,1,0,0:0:0:0:
320,192,11071,1,0,0:0:0:0:
192,192,11142,1,0,0:0:0:0:
64,192,11214,1,0,0:0:0:0:
320,192,11285,1,0,0:0:0:0:
448,192,11357,1,0,0:0:0:0:
192,192,11428,1,0,0:0:0:0:
64,192,11428,1,0,0:0:0:0:
448,192,11714,1,0,0:0:0:0:
320,192,11785,1,0,0:0:0:0:
192,192,11857,1,0,0:0:0:0:
64,192,11928,1,0,0:0:0:0:
320,192,12000,1,0,0:0:0:0:
448,192,12071,1,0,0:0:0:0:
192,192,12142,1,0,0:0:0:0:
64,192,12214,1,0,0:0:0:0:
320,192,12285,1,0,0:0:0:0:
192,192,12357,1,0,0:0:0:0:
448,192,12428,1,0,0:0:0:0:
64,192,12500,1,0,0:0:0:0:
320,192,12571,1,0,0:0:0:0:
448,192,12571,1,0,0:0:0:0:
192,192,12642,1,0,0:0:0:0:
64,192,12642,1,0,0:0:0:0:
448,192,12785,1,0,0:0:0:0:
320,192,12785,1,0,0:0:0:0:
192,192,12928,1,0,0:0:0:0:
64,192,12928,1,0,0:0:0:0:
192,192,13071,1,0,0:0:0:0:
320,192,13071,1,0,0:0:0:0:
448,192,13214,1,0,0:0:0:0:
320,192,13214,1,0,0:0:0:0:
192,192,13357,1,0,0:0:0:0:
64,192,13357,1,0,0:0:0:0:
320,192,13428,1,0,0:0:0:0:
448,192,13428,1,0,0:0:0:0:
320,192,13571,1,0,0:0:0:0:
192,192,13571,1,0,0:0:0:0:
192,192,13714,1,0,0:0:0:0:
64,192,13714,1,0,0:0:0:0:
448,192,13714,1,0,0:0:0:0:
64,192,13857,1,0,0:0:0:0:
320,192,14000,1,0,0:0:0:0:
448,192,14000,1,0,0:0:0:0:
320,192,14142,1,0,0:0:0:0:
192,192,14285,1,0,0:0:0:0:
64,192,14285,1,0,0:0:0:0:
192,192,14428,1,0,0:0:0:0:
320,192,14571,1,0,0:0:0:0:
448,192,14571,1,0,0:0:0:0:
448,192,14714,1,0,0:0:0:0:
192,192,14857,1,0,0:0:0:0:
64,192,14857,1,0,0:0:0:0:
64,192,15000,1,0,0:0:0:0:
320,192,15142,1,0,0:0:0:0:
448,192,15142,1,0,0:0:0:0:
320,192,15285,1,0,0:0:0:0:
192,192,15428,1,0,0:0:0:0:
64,192,15428,1,0,0:0:0:0:
192,192,15571,1,0,0:0:0:0:
320,192,15714,1,0,0:0:0:0:
448,192,15714,1,0,0:0:0:0:
448,192,15857,1,0,0:0:0:0:
320,192,15928,1,0,0:0:0:0:
192,192,16000,1,0,0:0:0:0:
448,192,16071,1,0,0:0:0:0:
64,192,16142,1,0,0:0:0:0:
320,192,16285,1,0,0:0:0:0:
64,192,16357,1,0,0:0:0:0:
192,192,16428,1,0,0:0:0:0:
448,192,16571,1,0,0:0:0:0:
192,192,16642,1,0,0:0:0:0:
320,192,16714,1,0,0:0:0:0:
64,192,16857,1,0,0:0:0:0:
320,192,16928,1,0,0:0:0:0:
448,192,17000,1,0,0:0:0:0:
192,192,17142,1,0,0:0:0:0:
64,192,17285,1,0,0:0:0:0:
448,192,17285,1,0,0:0:0:0:
448,192,17428,1,0,0:0:0:0:
192,192,17428,1,0,0:0:0:0:
320,192,17571,1,0,0:0:0:0:
64,192,17571,1,0,0:0:0:0:
192,192,17714,1,0,0:0:0:0:
448,192,17714,1,0,0:0:0:0:
320,192,17857,1,0,0:0:0:0:
64,192,17857,1,0,0:0:0:0:
192,192,18000,1,0,0:0:0:0:
64,192,18000,1,0,0:0:0:0:
192,192,18142,1,0,0:0:0:0:
320,192,18142,1,0,0:0:0:0:
320,192,18285,1,0,0:0:0:0:
448,192,18285,1,0,0:0:0:0:
448,192,18428,1,0,0:0:0:0:
192,192,18571,1,0,0:0:0:0:
64,192,18571,1,0,0:0:0:0:
64,192,18714,1,0,0:0:0:0:
320,192,18857,1,0,0:0:0:0:
448,192,18857,1,0,0:0:0:0:
320,192,19000,1,0,0:0:0:0:
64,192,19142,1,0,0:0:0:0:
192,192,19142,1,0,0:0:0:0:
192,192,19285,1,0,0:0:0:0:
64,192,19428,1,0,0:0:0:0:
448,192,19428,1,0,0:0:0:0:
448,192,19571,1,0,0:0:0:0:
320,192,19714,1,0,0:0:0:0:
64,192,19714,1,0,0:0:0:0:
64,192,19857,1,0,0:0:0:0:
192,192,20000,1,0,0:0:0:0:
448,192,20000,1,0,0:0:0:0:
192,192,20142,1,0,0:0:0:0:
64,192,20285,1,0,0:0:0:0:
320,192,20285,1,0,0:0:0:0:
320,192,20428,1,0,0:0:0:0:
192,192,20500,1,0,0:0:0:0:
64,192,20571,1,0,0:0:0:0:
448,192,20571,1,0,0:0:0:0:
320,192,20642,1,0,0:0:0:0:
448,192,20714,1,0,0:0:0:0:
64,192,20857,1,0,0:0:0:0:
320,192,20857,1,0,0:0:0:0:
192,192,20928,1,0,0:0:0:0:
320,192,21000,1,0,0:0:0:0:
192,192,21142,1,0,0:0:0:0:
448,192,21142,1,0,0:0:0:0:
64,192,21214,1,0,0:0:0:0:
192,192,21285,1,0,0:0:0:0:
64,192,21428,1,0,0:0:0:0:
320,192,21428,1,0,0:0:0:0:
448,192,21500,1,0,0:0:0:0:
64,192,21571,1,0,0:0:0:0:
192,192,21642,1,0,0:0:0:0:
320,192,21714,1,0,0:0:0:0:
448,192,21785,1,0,0:0:0:0:
192,192,21857,1,0,0:0:0:0:
64,192,21857,1,0,0:0:0:0:
320,192,21928,1,0,0:0:0:0:
448,192,21928,1,0,0:0:0:0:
64,192,22000,1,0,0:0:0:0:
192,192,22000,1,0,0:0:0:0:
448,192,22142,1,0,0:0:0:0:
192,192,22285,1,0,0:0:0:0:
64,192,22285,1,0,0:0:0:0:
320,192,22357,1,0,0:0:0:0:
448,192,22357,1,0,0:0:0:0:
192,192,22428,1,0,0:0:0:0:
64,192,22428,1,0,0:0:0:0:
320,192,22571,1,0,0:0:0:0:
448,192,22571,1,0,0:0:0:0:
192,192,22642,1,0,0:0:0:0:
64,192,22642,1,0,0:0:0:0:
320,192,22714,1,0,0:0:0:0:
448,192,22714,1,0,0:0:0:0:
192,192,22785,1,0,0:0:0:0:
64,192,22785,1,0,0:0:0:0:
448,192,22857,1,0,0:0:0:0:
192,192,22928,1,0,0:0:0:0:
320,192,23000,1,0,0:0:0:0:
448,192,23071,1,0,0:0:0:0:
64,192,23142,1,0,0:0:0:0:
192,192,23142,1,0,0:0:0:0:
320,192,23285,1,0,0:0:0:0:
448,192,23428,1,0,0:0:0:0:
320,192,23500,1,0,0:0:0:0:
192,192,23571,1,0,0:0:0:0:
64,192,23642,1,0,0:0:0:0:
448,192,23714,1,0,0:0:0:0:
320,192,23785,1,0,0:0:0:0:
192,192,23857,1,0,0:0:0:0:
64,192,23928,1,0,0:0:0:0:
448,192,24000,1,0,0:0:0:0:
192,192,24071,1,0,0:0:0:0:
320,192,24142,1,0,0:0:0:0:
448,192,24214,1,0,0:0:0:0:
64,192,24285,1,0,0:0:0:0:
192,192,24285,1,0,0:0:0:0:
320,192,24428,1,0,0:0:0:0:
64,192,24571,1,0,0:0:0:0:
192,192,24642,1,0,0:0:0:0:
320,192,24714,1,0,0:0:0:0:
448,192,24785,1,0,0:0:0:0:
64,192,24857,1,0,0:0:0:0:
192,192,24928,1,0,0:0:0:0:
320,192,25000,1,0,0:0:0:0:
448,192,25071,1,0,0:0:0:0:
64,192,25142,1,0,0:0:0:0:
320,192,25214,1,0,0:0:0:0:
192,192,25285,1,0,0:0:0:0:
64,192,25357,1,0,0:0:0:0:
448,192,25428,1,0,0:0:0:0:
320,192,25428,1,0,0:0:0:0:
192,192,25571,1,0,0:0:0:0:
64,192,25714,1,0,0:0:0:0:
320,192,25785,1,0,0:0:0:0:
192,192,25857,1,0,0:0:0:0:
64,192,25928,1,0,0:0:0:0:
448,192,26000,1,0,0:0:0:0:
192,192,26071,1,0,0:0:0:0:
320,192,26142,1,0,0:0:0:0:
448,192,26214,1,0,0:0:0:0:
64,192,26285,1,0,0:0:0:0:
192,192,26357,1,0,0:0:0:0:
320,192,26428,1,0,0:0:0:0:
64,192,26500,1,0,0:0:0:0:
448,192,26571,1,0,0:0:0:0:
192,192,26571,1,0,0:0:0:0:
320,192,26714,1,0,0:0:0:0:
64,192,26857,1,0,0:0:0:0:
192,192,26928,1,0,0:0:0:0:
320,192,27000,1,0,0:0:0:0:
64,192,27071,1,0,0:0:0:0:
448,192,27142,1,0,0:0:0:0:
192,192,27142,1,0,0:0:0:0:
64,192,27285,1,0,0:0:0:0:
320,192,27285,1,0,0:0:0:0:
448,192,27428,1,0,0:0:0:0:
192,192,27500,1,0,0:0:0:0:
320,192,27571,1,0,0:0:0:0:
448,192,27642,1,0,0:0:0:0:
64,192,27714,1,0,0:0:0:0:
192,192,27785,1,0,0:0:0:0:
320,192,27857,1,0,0:0:0:0:
448,192,27928,1,0,0:0:0:0:
64,192,28000,1,0,0:0:0:0:
192,192,28071,1,0,0:0:0:0:
448,192,28142,1,0,0:0:0:0:
320,192,28214,1,0,0:0:0:0:
192,192,28285,1,0,0:0:0:0:
64,192,28357,1,0,0:0:0:0:
320,192,28428,1,0,0:0:0:0:
192,192,28500,1,0,0:0:0:0:
448,192,28571,1,0,0:0:0:0:
64,192,28642,1,0,0:0:0:0:
192,192,28714,1,0,0:0:0:0:
320,192,28785,1,0,0:0:0:0:
448,192,28857,1,0,0:0:0:0:
64,192,28928,1,0,0:0:0:0:
192,192,29000,1,0,0:0:0:0:
320,192,29071,1,0,0:0:0:0:
448,192,29142,1,0,0:0:0:0:
192,192,29214,1,0,0:0:0:0:
64,192,29285,1,0,0:0:0:0:
320,192,29357,1,0,0:0:0:0:
192,192,29428,1,0,0:0:0:0:
448,192,29500,1,0,0:0:0:0:
64,192,29571,1,0,0:0:0:0:
192,192,29642,1,0,0:0:0:0:
448,192,29714,1,0,0:0:0:0:
320,192,29714,1,0,0:0:0:0:
192,192,29857,1,0,0:0:0:0:
64,192,29857,1,0,0:0:0:0:
320,192,30000,1,0,0:0:0:0:
448,192,30000,1,0,0:0:0:0:
192,192,30142,1,0,0:0:0:0:
64,192,30142,1,0,0:0:0:0:
64,192,30285,1,0,0:0:0:0:
448,192,30285,1,0,0:0:0:0:
320,192,30428,1,0,0:0:0:0:
448,192,30428,1,0,0:0:0:0:
192,192,30571,1,0,0:0:0:0:
64,192,30571,1,0,0:0:0:0:
320,192,30714,1,0,0:0:0:0:
448,192,30714,1,0,0:0:0:0:
64,192,30857,1,0,0:0:0:0:
192,192,30928,1,0,0:0:0:0:
320,192,31000,1,0,0:0:0:0:
192,192,31071,1,0,0:0:0:0:
64,192,31142,1,0,0:0:0:0:
448,192,31142,1,0,0:0:0:0:
320,192,31214,1,0,0:0:0:0:
192,192,31285,1,0,0:0:0:0:
320,192,31357,1,0,0:0:0:0:
448,192,31428,1,0,0:0:0:0:
64,192,31500,1,0,0:0:0:0:
192,192,31571,1,0,0:0:0:0:
320,192,31642,1,0,0:0:0:0:
64,192,31714,1,0,0:0:0:0:
448,192,31714,1,0,0:0:0:0:
320,192,32000,1,0,0:0:0:0:
448,192,32000,128,0,34142:0:0:0:0:
64,192,32000,1,0,0:0:0:0:
192,192,32285,1,0,0:0:0:0:
320,192,32428,1,0,0:0:0:0:
320,192,32714,1,0,0:0:0:0:
64,192,32857,1,0,0:0:0:0:
320,192,33000,1,0,0:0:0:0:
192,192,33142,1,0,0:0:0:0:
64,192,33357,1,0,0:0:0:0:
64,192,33571,1,0,0:0:0:0:
320,192,33714,1,0,0:0:0:0:
192,192,33857,1,0,0:0:0:0:
64,192,34142,1,0,0:0:0:0:
192,192,34142,1,0,0:0:0:0:
320,192,34285,1,0,0:0:0:0:
448,192,34285,1,0,0:0:0:0:
64,192,34285,128,0,35239:0:0:0:0:
448,192,34557,1,0,0:0:0:0:
320,192,34694,1,0,0:0:0:0:
320,192,34966,1,0,0:0:0:0:
448,192,35103,1,0,0:0:0:0:
192,192,35239,1,0,0:0:0:0:
320,192,35307,1,0,0:0:0:0:
64,192,35375,1,0,0:0:0:0:
448,192,35375,128,0,35785:0:0:0:0:
320,192,35785,1,0,0:0:0:0:
192,192,35785,128,0,36194:0:0:0:0:
448,192,36194,1,0,0:0:0:0:
64,192,36194,1,0,0:0:0:0:
64,192,36466,1,0,0:0:0:0:
192,192,36466,1,0,0:0:0:0:
64,192,36596,1,0,0:0:0:0:
320,192,36726,1,0,0:0:0:0:
320,192,36857,1,0,0:0:0:0:
192,192,36987,1,0,0:0:0:0:
192,192,37118,1,0,0:0:0:0:
448,192,37248,1,0,0:0:0:0:
448,192,37379,1,0,0:0:0:0:
64,192,37509,1,0,0:0:0:0:
64,192,37639,1,0,0:0:0:0:
320,192,37770,1,0,0:0:0:0:
320,192,37900,1,0,0:0:0:0:
192,192,38031,1,0,0:0:0:0:
192,192,38161,1,0,0:0:0:0:
448,192,38292,1,0,0:0:0:0:
448,192,38422,1,0,0:0:0:0:
320,192,38487,1,0,0:0:0:0:
192,192,38552,1,0,0:0:0:0:
192,192,38677,1,0,0:0:0:0:
320,192,38802,1,0,0:0:0:0:
320,192,38927,1,0,0:0:0:0:
64,192,39052,1,0,0:0:0:0:
64,192,39177,1,0,0:0:0:0:
448,192,39302,1,0,0:0:0:0:
448,192,39427,1,0,0:0:0:0:
64,192,39552,1,0,0:0:0:0:
192,192,39614,1,0,0:0:0:0:
320,192,39677,1,0,0:0:0:0:
448,192,39802,1,0,0:0:0:0:
320,192,39864,1,0,0:0:0:0:
192,192,39927,1,0,0:0:0:0:
320,192,40052,1,0,0:0:0:0:
192,192,40114,1,0,0:0:0:0:
64,192,40177,1,0,0:0:0:0:
192,192,40302,1,0,0:0:0:0:
320,192,40364,1,0,0:0:0:0:
448,192,40427,1,0,0:0:0:0:
192,192,40552,1,0,0:0:0:0:
320,192,40552,1,0,0:0:0:0:
64,192,40552,128,0,41552:0:0:0:0:
448,192,41552,1,0,0:0:0:0:
320,192,41677,1,0,0:0:0:0:
192,192,41802,1,0,0:0:0:0:
64,192,41989,1,0,0:0:0:0:
192,192,42239,1,0,0:0:0:0:
320,192,42552,1,0,0:0:0:0:
448,192,42552,1,0,0:0:0:0:
64,192,42677,1,0,0:0:0:0:
192,192,42802,1,0,0:0:0:0:
320,192,42802,1,0,0:0:0:0:
448,192,42927,1,0,0:0:0:0:
192,192,43052,1,0,0:0:0:0:
64,192,43052,1,0,0:0:0:0:
448,192,43177,1,0,0:0:0:0:
320,192,43302,1,0,0:0:0:0:
192,192,43302,1,0,0:0:0:0:
64,192,43427,1,0,0:0:0:0:
320,192,43552,1,0,0:0:0:0:
448,192,43552,1,0,0:0:0:0:
448,192,43677,1,0,0:0:0:0:
192,192,43802,1,0,0:0:0:0:
64,192,43802,1,0,0:0:0:0:
64,192,43927,1,0,0:0:0:0:
320,192,44052,1,0,0:0:0:0:
448,192,44052,1,0,0:0:0:0:
320,192,44177,1,0,0:0:0:0:
192,192,44239,1,0,0:0:0:0:
64,192,44302,1,0,0:0:0:0:
448,192,44302,1,0,0:0:0:0:
320,192,44427,1,0,0:0:0:0:
448,192,44427,1,0,0:0:0:0:
192,192,44552,1,0,0:0:0:0:
64,192,44552,1,0,0:0:0:0:
448,192,44677,1,0,0:0:0:0:
320,192,44802,1,0,0:0:0:0:
192,192,44802,1,0,0:0:0:0:
64,192,44927,1,0,0:0:0:0:
320,192,45052,1,0,0:0:0:0:
448,192,45052,1,0,0:0:0:0:
64,192,45177,1,0,0:0:0:0:
192,192,45302,1,0,0:0:0:0:
320,192,45302,1,0,0:0:0:0:
448,192,45427,1,0,0:0:0:0:
192,192,45552,1,0,0:0:0:0:
64,192,45552,1,0,0:0:0:0:
64,192,45677,1,0,0:0:0:0:
320,192,45802,1,0,0:0:0:0:
448,192,45802,1,0,0:0:0:0:
448,192,45927,1,0,0:0:0:0:
192,192,46052,1,0,0:0:0:0:
64,192,46052,1,0,0:0:0:0:
192,192,46177,1,0,0:0:0:0:
320,192,46177,1,0,0:0:0:0:
320,192,46302,1,0,0:0:0:0:
448,192,46302,1,0,0:0:0:0:
192,192,46427,1,0,0:0:0:0:
320,192,46489,1,0,0:0:0:0:
64,192,46552,1,0,0:0:0:0:
448,192,46552,1,0,0:0:0:0:
64,192,46677,1,0,0:0:0:0:
192,192,46802,1,0,0:0:0:0:
448,192,46802,1,0,0:0:0:0:
320,192,46927,1,0,0:0:0:0:
192,192,46989,1,0,0:0:0:0:
64,192,47052,1,0,0:0:0:0:
448,192,47052,1,0,0:0:0:0:
320,192,47239,1,0,0:0:0:0:
64,192,47239,1,0,0:0:0:0:
192,192,47427,1,0,0:0:0:0:
448,192,47427,1,0,0:0:0:0:
320,192,47552,1,0,0:0:0:0:
448,192,47552,1,0,0:0:0:0:
192,192,47677,1,0,0:0:0:0:
64,192,47802,1,0,0:0:0:0:
320,192,47802,1,0,0:0:0:0:
448,192,47927,1,0,0:0:0:0:
320,192,47989,1,0,0:0:0:0:
192,192,48052,1,0,0:0:0:0:
64,192,48052,1,0,0:0:0:0:
192,192,48239,1,0,0:0:0:0:
320,192,48239,1,0,0:0:0:0:
320,192,48427,1,0,0:0:0:0:
448,192,48427,1,0,0:0:0:0:
192,192,48552,1,0,0:0:0:0:
64,192,48552,1,0,0:0:0:0:
448,192,48677,1,0,0:0:0:0:
320,192,48802,1,0,0:0:0:0:
192,192,48802,1,0,0:0:0:0:
64,192,48927,1,0,0:0:0:0:
320,192,49052,1,0,0:0:0:0:
448,192,49052,1,0,0:0:0:0:
64,192,49177,1,0,0:0:0:0:
192,192,49302,1,0,0:0:0:0:
320,192,49302,1,0,0:0:0:0:
448,192,49427,1,0,0:0:0:0:
192,192,49552,1,0,0:0:0:0:
320,192,49614,1,0,0:0:0:0:
448,192,49677,1,0,0:0:0:0:
64,192,49739,1,0,0:0:0:0:
320,192,49802,1,0,0:0:0:0:
192,192,49864,1,0,0:0:0:0:
64,192,49927,1,0,0:0:0:0:
448,192,49989,1,0,0:0:0:0:
192,192,50052,1,0,0:0:0:0:
192,192,50177,1,0,0:0:0:0:
320,192,50302,1,0,0:0:0:0:
192,192,50364,1,0,0:0:0:0:
320,192,50427,1,0,0:0:0:0:
192,192,50489,1,0,0:0:0:0:
64,192,50552,1,0,0:0:0:0:
448,192,50552,1,0,0:0:0:0:
192,192,50677,1,0,0:0:0:0:
320,192,50802,1,0,0:0:0:0:
448,192,50802,1,0,0:0:0:0:
192,192,50927,1,0,0:0:0:0:
64,192,51052,1,0,0:0:0:0:
448,192,51052,1,0,0:0:0:0:
320,192,51177,1,0,0:0:0:0:
192,192,51302,1,0,0:0:0:0:
64,192,51302,1,0,0:0:0:0:
320,192,51427,1,0,0:0:0:0:
448,192,51552,1,0,0:0:0:0:
64,192,51552,1,0,0:0:0:0:
64,192,51677,1,0,0:0:0:0:
320,192,51802,1,0,0:0:0:0:
448,192,51802,1,0,0:0:0:0:
320,192,51927,1,0,0:0:0:0:
64,192,52052,1,0,0:0:0:0:
192,192,52052,1,0,0:0:0:0:
192,192,52177,1,0,0:0:0:0:
320,192,52239,1,0,0:0:0:0:
64,192,52302,1,0,0:0:0:0:
448,192,52302,1,0,0:0:0:0:
448,192,52427,1,0,0:0:0:0:
192,192,52427,1,0,0:0:0:0:
320,192,52552,1,0,0:0:0:0:
64,192,52552,1,0,0:0:0:0:
448,192,52677,1,0,0:0:0:0:
192,192,52802,1,0,0:0:0:0:
64,192,52802,1,0,0:0:0:0:
448,192,52927,1,0,0:0:0:0:
320,192,53052,1,0,0:0:0:0:
192,192,53052,1,0,0:0:0:0:
64,192,53177,1,0,0:0:0:0:
320,192,53302,1,0,0:0:0:0:
448,192,53302,1,0,0:0:0:0:
64,192,53427,1,0,0:0:0:0:
192,192,53552,1,0,0:0:0:0:
448,192,53552,1,0,0:0:0:0:
192,192,53677,1,0,0:0:0:0:
64,192,53802,1,0,0:0:0:0:
320,192,53802,1,0,0:0:0:0:
320,192,53927,1,0,0:0:0:0:
192,192,54052,1,0,0:0:0:0:
64,192,54052,1,0,0:0:0:0:
64,192,54177,1,0,0:0:0:0:
320,192,54177,1,0,0:0:0:0:
192,192,54302,1,0,0:0:0:0:
448,192,54302,1,0,0:0:0:0:
320,192,54427,1,0,0:0:0:0:
448,192,54427,1,0,0:0:0:0:
192,192,54552,1,0,0:0:0:0:
64,192,54552,1,0,0:0:0:0:
320,192,54677,1,0,0:0:0:0:
448,192,54802,1,0,0:0:0:0:
192,192,54802,1,0,0:0:0:0:
64,192,54927,1,0,0:0:0:0:
192,192,54989,1,0,0:0:0:0:
320,192,55052,1,0,0:0:0:0:
448,192,55052,1,0,0:0:0:0:
192,192,55239,1,0,0:0:0:0:
320,192,55239,1,0,0:0:0:0:
192,192,55427,1,0,0:0:0:0:
64,192,55427,1,0,0:0:0:0:
320,192,55552,1,0,0:0:0:0:
448,192,55552,1,0,0:0:0:0:
192,192,55677,1,0,0:0:0:0:
64,192,55802,1,0,0:0:0:0:
320,192,55802,1,0,0:0:0:0:
448,192,55927,1,0,0:0:0:0:
320,192,55989,1,0,0:0:0:0:
192,192,56052,1,0,0:0:0:0:
64,192,56052,1,0,0:0:0:0:
192,192,56239,1,0,0:0:0:0:
320,192,56239,1,0,0:0:0:0:
320,192,56427,1,0,0:0:0:0:
448,192,56427,1,0,0:0:0:0:
64,192,56552,1,0,0:0:0:0:
192,192,56552,1,0,0:0:0:0:
320,192,56677,1,0,0:0:0:0:
192,192,56802,1,0,0:0:0:0:
320,192,56927,1,0,0:0:0:0:
192,192,57052,1,0,0:0:0:0:
448,192,57052,1,0,0:0:0:0:
64,192,57177,1,0,0:0:0:0:
192,192,57239,1,0,0:0:0:0:
192,192,57364,1,0,0:0:0:0:
64,192,57427,1,0,0:0:0:0:
320,192,57552,1,0,0:0:0:0:
448,192,57552,1,0,0:0:0:0:
64,192,57677,1,0,0:0:0:0:
192,192,57802,1,0,0:0:0:0:
448,192,57802,1,0,0:0:0:0:
320,192,57927,1,0,0:0:0:0:
448,192,58052,1,0,0:0:0:0:
192,192,58052,1,0,0:0:0:0:
448,192,58177,1,0,0:0:0:0:
64,192,58177,1,0,0:0:0:0:
320,192,58302,1,0,0:0:0:0:
64,192,58302,1,0,0:0:0:0:
192,192,58427,1,0,0:0:0:0:
448,192,58427,1,0,0:0:0:0:
320,192,58552,1,0,0:0:0:0:
448,192,58552,1,0,0:0:0:0:
64,192,58552,1,0,0:0:0:0:
64,192,58802,1,0,0:0:0:0:
192,192,58802,1,0,0:0:0:0:
448,192,58802,1,0,0:0:0:0:
192,192,59052,1,0,0:0:0:0:
320,192,59052,1,0,0:0:0:0:
448,192,59052,1,0,0:0:0:0:
320,192,59302,1,0,0:0:0:0:
192,192,59302,1,0,0:0:0:0:
64,192,59302,1,0,0:0:0:0:
64,192,59552,1,0,0:0:0:0:
192,192,59552,1,0,0:0:0:0:
448,192,59552,1,0,0:0:0:0:
64,192,59802,1,0,0:0:0:0:
320,192,59802,1,0,0:0:0:0:
448,192,59802,1,0,0:0:0:0:
192,192,60052,1,0,0:0:0:0:
320,192,60052,1,0,0:0:0:0:
448,192,60052,1,0,0:0:0:0:
64,192,60302,1,0,0:0:0:0:
192,192,60302,1,0,0:0:0:0:
448,192,60302,1,0,0:0:0:0:
320,192,60427,1,0,0:0:0:0:
192,192,60489,1,0,0:0:0:0:
64,192,60552,1,0,0:0:0:0:
320,192,60552,1,0,0:0:0:0:
448,192,60552,1,0,0:0:0:0:
192,192,60802,1,0,0:0:0:0:
320,192,60802,1,0,0:0:0:0:
64,192,60802,1,0,0:0:0:0:
192,192,61052,1,0,0:0:0:0:
320,192,61052,1,0,0:0:0:0:
448,192,61052,1,0,0:0:0:0:
320,192,61302,1,0,0:0:0:0:
448,192,61302,1,0,0:0:0:0:
64,192,61302,1,0,0:0:0:0:
192,192,61552,1,0,0:0:0:0:
64,192,61552,128,0,62427:0:0:0:0:
448,192,61552,128,0,62427:0:0:0:0:
192,192,62552,1,0,0:0:0:0:
64,192,62552,1,0,0:0:0:0:
320,192,62677,1,0,0:0:0:0:
192,192,62802,1,0,0:0:0:0:
448,192,62802,1,0,0:0:0:0:
64,192,62927,1,0,0:0:0:0:
192,192,62989,1,0,0:0:0:0:
320,192,63052,1,0,0:0:0:0:
448,192,63052,1,0,0:0:0:0:
192,192,63177,1,0,0:0:0:0:
448,192,63177,1,0,0:0:0:0:
64,192,63302,1,0,0:0:0:0:
320,192,63302,1,0,0:0:0:0:
448,192,63364,1,0,0:0:0:0:
192,192,63427,1,0,0:0:0:0:
320,192,63552,1,0,0:0:0:0:
448,192,63552,1,0,0:0:0:0:
64,192,63677,1,0,0:0:0:0:
192,192,63802,1,0,0:0:0:0:
448,192,63802,1,0,0:0:0:0:
320,192,63927,1,0,0:0:0:0:
192,192,64052,1,0,0:0:0:0:
64,192,64052,1,0,0:0:0:0:
320,192,64177,1,0,0:0:0:0:
448,192,64177,1,0,0:0:0:0:
192,192,64302,1,0,0:0:0:0:
64,192,64302,1,0,0:0:0:0:
320,192,64364,1,0,0:0:0:0:
448,192,64427,1,0,0:0:0:0:
64,192,64552,1,0,0:0:0:0:
320,192,64552,1,0,0:0:0:0:
192,192,64677,1,0,0:0:0:0:
448,192,64802,1,0,0:0:0:0:
320,192,64802,1,0,0:0:0:0:
192,192,64927,1,0,0:0:0:0:
64,192,65052,1,0,0:0:0:0:
448,192,65052,1,0,0:0:0:0:
320,192,65177,1,0,0:0:0:0:
64,192,65177,1,0,0:0:0:0:
192,192,65302,1,0,0:0:0:0:
320,192,65364,1,0,0:0:0:0:
448,192,65427,1,0,0:0:0:0:
64,192,65427,1,0,0:0:0:0:
192,192,65489,1,0,0:0:0:0:
320,192,65552,1,0,0:0:0:0:
448,192,65552,128,0,65989:0:0:0:0:
64,192,66052,1,0,0:0:0:0:
192,192,66177,1,0,0:0:0:0:
448,192,66302,1,0,0:0:0:0:
320,192,66364,1,0,0:0:0:0:
448,192,66552,1,0,0:0:0:0:
64,192,66552,128,0,66677:0:0:0:0:
192,192,66677,128,0,66802:0:0:0:0:
320,192,66802,128,0,66927:0:0:0:0:
448,192,66927,128,0,67552:0:0:0:0:
192,192,67302,128,0,67552:0:0:0:0:
64,192,67552,128,0,67802:0:0:0:0:
320,192,67552,128,0,67677:0:0:0:0:
448,192,67677,128,0,67802:0:0:0:0:
192,192,67802,128,0,67927:0:0:0:0:
320,192,67927,128,0,68302:0:0:0:0:
192,192,68052,1,0,0:0:0:0:
64,192,68114,128,0,68552:0:0:0:0:
448,192,68302,128,0,68427:0:0:0:0:
320,192,68427,128,0,68552:0:0:0:0:
192,192,68552,128,0,68677:0:0:0:0:
320,192,68677,128,0,68802:0:0:0:0:
448,192,68802,128,0,68927:0:0:0:0:
192,192,68927,128,0,69552:0:0:0:0:
448,192,69177,128,0,69552:0:0:0:0:
320,192,69552,128,0,69927:0:0:0:0:
64,192,69552,128,0,70302:0:0:0:0:
448,192,69927,128,0,70239:0:0:0:0:
192,192,70177,1,0,0:0:0:0:
320,192,70239,1,0,0:0:0:0:
448,192,70302,1,0,0:0:0:0:
320,192,70427,1,0,0:0:0:0:
64,192,70552,128,0,70677:0:0:0:0:
192,192,70677,128,0,70802:0:0:0:0:
320,192,70802,128,0,70927:0:0:0:0:
448,192,70927,128,0,71552:0:0:0:0:
192,192,71302,128,0,71552:0:0:0:0:
320,192,71552,128,0,71677:0:0:0:0:
64,192,71552,128,0,71802:0:0:0:0:
448,192,71677,128,0,71802:0:0:0:0:
192,192,71802,128,0,71927:0:0:0:0:
320,192,71927,128,0,72052:0:0:0:0:
64,192,72052,128,0,72114:0:0:0:0:
192,192,72114,128,0,72302:0:0:0:0:
448,192,72239,128,0,72302:0:0:0:0:
320,192,72302,128,0,72427:0:0:0:0:
192,192,72427,128,0,72552:0:0:0:0:
64,192,72552,128,0,72677:0:0:0:0:
448,192,72552,128,0,72677:0:0:0:0:
320,192,72677,128,0,72802:0:0:0:0:
192,192,72802,128,0,72927:0:0:0:0:
448,192,72864,128,0,72989:0:0:0:0:
64,192,72927,128,0,73052:0:0:0:0:
320,192,73052,128,0,73177:0:0:0:0:
192,192,73177,128,0,73302:0:0:0:0:
64,192,73302,128,0,73552:0:0:0:0:
448,192,73552,128,0,73802:0:0:0:0:
192,192,73552,128,0,73927:0:0:0:0:
320,192,73927,128,0,74302:0:0:0:0:
448,192,74302,128,0,74552:0:0:0:0:
320,192,74552,1,0,0:0:0:0:
64,192,74552,128,0,74677:0:0:0:0:
192,192,74677,128,0,74802:0:0:0:0:
320,192,74802,128,0,74927:0:0:0:0:
448,192,74927,128,0,75552:0:0:0:0:
192,192,75302,128,0,75552:0:0:0:0:
64,192,75552,128,0,75802:0:0:0:0:
320,192,75552,128,0,75677:0:0:0:0:
448,192,75677,128,0,75802:0:0:0:0:
192,192,75802,128,0,75927:0:0:0:0:
320,192,75927,128,0,76052:0:0:0:0:
192,192,76052,128,0,76114:0:0:0:0:
64,192,76114,128,0,76427:0:0:0:0:
448,192,76302,128,0,76427:0:0:0:0:
320,192,76427,128,0,76552:0:0:0:0:
192,192,76552,128,0,76677:0:0:0:0:
64,192,76677,128,0,76802:0:0:0:0:
192,192,76802,128,0,76927:0:0:0:0:
320,192,76927,128,0,77177:0:0:0:0:
448,192,77177,128,0,77364:0:0:0:0:
64,192,77552,128,0,78302:0:0:0:0:
448,192,77552,128,0,77927:0:0:0:0:
320,192,77927,128,0,78302:0:0:0:0:
448,192,78302,128,0,78427:0:0:0:0:
320,192,78427,128,0,78552:0:0:0:0:
64,192,78552,1,0,0:0:0:0:
448,192,78614,1,0,0:0:0:0:
192,192,78677,1,0,0:0:0:0:
448,192,78739,1,0,0:0:0:0:
64,192,78802,1,0,0:0:0:0:
320,192,78927,1,0,0:0:0:0:
64,192,79052,1,0,0:0:0:0:
448,192,79177,1,0,0:0:0:0:
192,192,79302,1,0,0:0:0:0:
320,192,79427,1,0,0:0:0:0:
448,192,79552,1,0,0:0:0:0:
64,192,79614,1,0,0:0:0:0:
320,192,79677,1,0,0:0:0:0:
64,192,79739,1,0,0:0:0:0:
448,192,79802,1,0,0:0:0:0:
192,192,79927,1,0,0:0:0:0:
320,192,80052,1,0,0:0:0:0:
64,192,80177,1,0,0:0:0:0:
448,192,80302,1,0,0:0:0:0:
192,192,80427,1,0,0:0:0:0:
320,192,80552,1,0,0:0:0:0:
448,192,80552,1,0,0:0:0:0:
192,192,80739,1,0,0:0:0:0:
448,192,80739,1,0,0:0:0:0:
320,192,80927,1,0,0:0:0:0:
64,192,80927,1,0,0:0:0:0:
448,192,81052,1,0,0:0:0:0:
192,192,81052,1,0,0:0:0:0:
320,192,81239,1,0,0:0:0:0:
64,192,81239,1,0,0:0:0:0:
192,192,81427,1,0,0:0:0:0:
64,192,81427,1,0,0:0:0:0:
192,192,81552,1,0,0:0:0:0:
320,192,81552,1,0,0:0:0:0:
448,192,81552,1,0,0:0:0:0:
192,192,81739,1,0,0:0:0:0:
64,192,81739,1,0,0:0:0:0:
320,192,81739,1,0,0:0:0:0:
64,192,81927,1,0,0:0:0:0:
448,192,81927,1,0,0:0:0:0:
192,192,81927,1,0,0:0:0:0:
64,192,82052,1,0,0:0:0:0:
448,192,82052,128,0,82552:0:0:0:0:
320,192,82052,128,0,82552:0:0:0:0:
64,192,82552,128,0,83177:0:0:0:0:
192,192,82552,1,0,0:0:0:0:
192,192,82802,1,0,0:0:0:0:
320,192,82927,1,0,0:0:0:0:
448,192,83052,1,0,0:0:0:0:
320,192,83239,1,0,0:0:0:0:
192,192,83427,1,0,0:0:0:0:
64,192,83552,1,0,0:0:0:0:
320,192,83677,1,0,0:0:0:0:
448,192,83802,1,0,0:0:0:0:
192,192,83927,1,0,0:0:0:0:
320,192,84052,1,0,0:0:0:0:
64,192,84177,1,0,0:0:0:0:
448,192,84302,1,0,0:0:0:0:
64,192,84552,1,0,0:0:0:0:
192,192,84677,1,0,0:0:0:0:
320,192,84802,1,0,0:0:0:0:
448,192,84927,1,0,0:0:0:0:
320,192,85052,1,0,0:0:0:0:
192,192,85239,1,0,0:0:0:0:
64,192,85427,1,0,0:0:0:0:
448,192,85552,1,0,0:0:0:0:
192,192,85677,1,0,0:0:0:0:
320,192,85802,1,0,0:0:0:0:
64,192,85927,1,0,0:0:0:0:
320,192,86052,1,0,0:0:0:0:
192,192,86177,1,0,0:0:0:0:
448,192,86302,1,0,0:0:0:0:
64,192,86552,1,0,0:0:0:0:
192,192,86677,1,0,0:0:0:0:
320,192,86802,1,0,0:0:0:0:
448,192,86927,1,0,0:0:0:0:
320,192,87052,1,0,0:0:0:0:
192,192,87239,1,0,0:0:0:0:
64,192,87427,1,0,0:0:0:0:
320,192,87552,1,0,0:0:0:0:
192,192,87677,1,0,0:0:0:0:
448,192,87802,1,0,0:0:0:0:
192,192,87927,1,0,0:0:0:0:
320,192,88052,1,0,0:0:0:0:
64,192,88177,1,0,0:0:0:0:
448,192,88302,1,0,0:0:0:0:
320,192,88552,1,0,0:0:0:0:
192,192,88677,1,0,0:0:0:0:
64,192,88802,1,0,0:0:0:0:
320,192,88927,1,0,0:0:0:0:
192,192,89052,1,0,0:0:0:0:
64,192,89177,1,0,0:0:0:0:
320,192,89302,1,0,0:0:0:0:
192,192,89364,1,0,0:0:0:0:
448,192,89427,1,0,0:0:0:0:
320,192,89489,1,0,0:0:0:0:
64,192,89552,1,0,0:0:0:0:
192,192,89552,1,0,0:0:0:0:
192,192,89739,1,0,0:0:0:0:
320,192,89739,1,0,0:0:0:0:
320,192,89927,1,0,0:0:0:0:
448,192,89927,1,0,0:0:0:0:
64,192,90052,1,0,0:0:0:0:
448,192,90052,1,0,0:0:0:0:
64,192,90177,1,0,0:0:0:0:
192,192,90177,1,0,0:0:0:0:
320,192,90302,1,0,0:0:0:0:
192,192,90302,1,0,0:0:0:0:
448,192,90427,1,0,0:0:0:0:
320,192,90427,1,0,0:0:0:0:
192,192,90552,1,0,0:0:0:0:
448,192,90552,1,0,0:0:0:0:
64,192,90552,128,0,91427:0:0:0:0:
192,192,90802,1,0,0:0:0:0:
320,192,90927,1,0,0:0:0:0:
448,192,91052,1,0,0:0:0:0:
320,192,91239,1,0,0:0:0:0:
192,192,91427,1,0,0:0:0:0:
448,192,91552,128,0,91677:0:0:0:0:
320,192,91552,128,0,91677:0:0:0:0:
64,192,91552,128,0,92052:0:0:0:0:
192,192,91927,128,0,92052:0:0:0:0:
320,192,91927,128,0,92052:0:0:0:0:
448,192,91927,128,0,92427:0:0:0:0:
320,192,92302,128,0,92427:0:0:0:0:
192,192,92302,128,0,92427:0:0:0:0:
64,192,92302,128,0,92552:0:0:0:0:
192,192,92552,1,0,0:0:0:0:
320,192,92552,1,0,0:0:0:0:
448,192,92552,128,0,93427:0:0:0:0:
64,192,92802,1,0,0:0:0:0:
192,192,92927,1,0,0:0:0:0:
320,192,93052,1,0,0:0:0:0:
192,192,93239,1,0,0:0:0:0:
64,192,93427,1,0,0:0:0:0:
192,192,93552,128,0,93677:0:0:0:0:
320,192,93552,128,0,93677:0:0:0:0:
448,192,93552,128,0,94052:0:0:0:0:
320,192,93927,128,0,94052:0:0:0:0:
192,192,93927,128,0,94052:0:0:0:0:
64,192,93927,128,0,94427:0:0:0:0:
192,192,94302,128,0,94427:0:0:0:0:
320,192,94302,128,0,94427:0:0:0:0:
448,192,94302,128,0,94552:0:0:0:0:
192,192,94552,1,0,0:0:0:0:
64,192,94552,1,0,0:0:0:0:
448,192,94614,1,0,0:0:0:0:
320,192,94677,1,0,0:0:0:0:
192,192,94739,1,0,0:0:0:0:
64,192,94802,1,0,0:0:0:0:
448,192,94864,1,0,0:0:0:0:
320,192,94927,1,0,0:0:0:0:
192,192,94989,1,0,0:0:0:0:
64,192,95052,1,0,0:0:0:0:
448,192,95114,1,0,0:0:0:0:
320,192,95177,1,0,0:0:0:0:
192,192,95239,1,0,0:0:0:0:
64,192,95302,1,0,0:0:0:0:
448,192,95364,1,0,0:0:0:0:
320,192,95427,1,0,0:0:0:0:
192,192,95489,1,0,0:0:0:0:
64,192,95552,1,0,0:0:0:0:
448,192,95552,1,0,0:0:0:0:
192,192,95677,1,0,0:0:0:0:
448,192,95677,1,0,0:0:0:0:
320,192,95802,1,0,0:0:0:0:
64,192,95802,1,0,0:0:0:0:
192,192,95927,1,0,0:0:0:0:
448,192,95927,1,0,0:0:0:0:
320,192,96052,1,0,0:0:0:0:
448,192,96052,1,0,0:0:0:0:
192,192,96177,1,0,0:0:0:0:
320,192,96177,1,0,0:0:0:0:
192,192,96302,1,0,0:0:0:0:
64,192,96302,1,0,0:0:0:0:
64,192,96427,1,0,0:0:0:0:
320,192,96427,1,0,0:0:0:0:
192,192,96552,1,0,0:0:0:0:
448,192,96552,1,0,0:0:0:0:
64,192,96614,1,0,0:0:0:0:
320,192,96677,1,0,0:0:0:0:
64,192,96739,1,0,0:0:0:0:
448,192,96802,1,0,0:0:0:0:
192,192,96864,1,0,0:0:0:0:
320,192,96927,1,0,0:0:0:0:
64,192,96989,1,0,0:0:0:0:
448,192,97052,1,0,0:0:0:0:
192,192,97114,1,0,0:0:0:0:
448,192,97177,1,0,0:0:0:0:
64,192,97239,1,0,0:0:0:0:
320,192,97302,1,0,0:0:0:0:
192,192,97364,1,0,0:0:0:0:
448,192,97427,1,0,0:0:0:0:
64,192,97489,1,0,0:0:0:0:
320,192,97552,128,0,98302:0:0:0:0:
192,192,97552,128,0,98302:0:0:0:0:
64,192,98302,1,0,0:0:0:0:
192,192,98364,1,0,0:0:0:0:
320,192,98427,1,0,0:0:0:0:
448,192,98489,1,0,0:0:0:0:
192,192,98552,128,0,99512:0:0:0:0:
64,192,98552,128,0,101965:0:0:0:0:
320,192,98552,1,0,0:0:0:0:
320,192,98792,1,0,0:0:0:0:
320,192,99032,1,0,0:0:0:0:
320,192,99272,1,0,0:0:0:0:
448,192,99512,1,0,0:0:0:0:
448,192,99742,1,0,0:0:0:0:
448,192,99973,1,0,0:0:0:0:
448,192,100204,1,0,0:0:0:0:
192,192,100435,1,0,0:0:0:0:
192,192,100657,1,0,0:0:0:0:
192,192,100879,1,0,0:0:0:0:
192,192,101101,1,0,0:0:0:0:
320,192,101323,1,0,0:0:0:0:
320,192,101537,1,0,0:0:0:0:
320,192,101751,1,0,0:0:0:0:
320,192,101965,1,0,0:0:0:0:
192,192,102019,1,0,0:0:0:0:
64,192,102073,1,0,0:0:0:0:
448,192,102180,128,0,104751:0:0:0:0:
64,192,102180,1,0,0:0:0:0:
64,192,102394,1,0,0:0:0:0:
64,192,102608,1,0,0:0:0:0:
64,192,102823,1,0,0:0:0:0:
192,192,103037,1,0,0:0:0:0:
192,192,103251,1,0,0:0:0:0:
192,192,103465,1,0,0:0:0:0:
192,192,103680,1,0,0:0:0:0:
320,192,103894,1,0,0:0:0:0:
64,192,104001,1,0,0:0:0:0:
320,192,104108,1,0,0:0:0:0:
64,192,104215,1,0,0:0:0:0:
320,192,104323,1,0,0:0:0:0:
64,192,104430,5,0,0:0:0:0:
320,192,104537,5,0,0:0:0:0:
192,192,104590,1,0,0:0:0:0:
64,192,104644,1,0,0:0:0:0:
192,192,104698,1,0,0:0:0:0:
320,192,104751,1,0,0:0:0:0:
448,192,104894,1,0,0:0:0:0:
320,192,104965,1,0,0:0:0:0:
192,192,105046,1,0,0:0:0:0:
64,192,105180,1,0,0:0:0:0:
192,192,105394,1,0,0:0:0:0:
64,192,105608,5,0,0:0:0:0:
320,192,105608,1,0,0:0:0:0:
448,192,105608,1,0,0:0:0:0:
320,192,105823,1,0,0:0:0:0:
192,192,105823,1,0,0:0:0:0:
192,192,106037,1,0,0:0:0:0:
64,192,106037,1,0,0:0:0:0:
448,192,106090,1,0,0:0:0:0:
320,192,106144,1,0,0:0:0:0:
192,192,106198,1,0,0:0:0:0:
64,192,106251,1,0,0:0:0:0:
320,192,106358,1,0,0:0:0:0:
448,192,106358,1,0,0:0:0:0:
64,192,106465,1,0,0:0:0:0:
192,192,106573,1,0,0:0:0:0:
320,192,106680,1,0,0:0:0:0:
448,192,106680,1,0,0:0:0:0:
192,192,106787,1,0,0:0:0:0:
448,192,106894,1,0,0:0:0:0:
320,192,106894,1,0,0:0:0:0:
192,192,107001,1,0,0:0:0:0:
64,192,107108,1,0,0:0:0:0:
192,192,107215,1,0,0:0:0:0:
320,192,107322,1,0,0:0:0:0:
448,192,107322,1,0,0:0:0:0:
64,192,107430,1,0,0:0:0:0:
192,192,107537,1,0,0:0:0:0:
320,192,107644,1,0,0:0:0:0:
448,192,107751,1,0,0:0:0:0:
64,192,107751,1,0,0:0:0:0:
64,192,107858,1,0,0:0:0:0:
192,192,107965,1,0,0:0:0:0:
320,192,108019,1,0,0:0:0:0:
64,192,108072,1,0,0:0:0:0:
448,192,108072,1,0,0:0:0:0:
192,192,108126,1,0,0:0:0:0:
320,192,108180,1,0,0:0:0:0:
192,192,108287,1,0,0:0:0:0:
64,192,108394,1,0,0:0:0:0:
448,192,108394,1,0,0:0:0:0:
320,192,108501,1,0,0:0:0:0:
192,192,108608,1,0,0:0:0:0:
64,192,108608,1,0,0:0:0:0:
320,192,108715,1,0,0:0:0:0:
448,192,108715,1,0,0:0:0:0:
192,192,108822,1,0,0:0:0:0:
64,192,108930,1,0,0:0:0:0:
320,192,109037,1,0,0:0:0:0:
448,192,109037,1,0,0:0:0:0:
192,192,109197,1,0,0:0:0:0:
64,192,109305,1,0,0:0:0:0:
192,192,109358,1,0,0:0:0:0:
320,192,109465,1,0,0:0:0:0:
448,192,109465,1,0,0:0:0:0:
64,192,109572,1,0,0:0:0:0:
192,192,109680,1,0,0:0:0:0:
320,192,109787,1,0,0:0:0:0:
448,192,109787,1,0,0:0:0:0:
192,192,109894,1,0,0:0:0:0:
64,192,110001,1,0,0:0:0:0:
320,192,110108,1,0,0:0:0:0:
448,192,110108,1,0,0:0:0:0:
64,192,110215,1,0,0:0:0:0:
192,192,110322,1,0,0:0:0:0:
448,192,110322,1,0,0:0:0:0:
192,192,110483,1,0,0:0:0:0:
448,192,110483,1,0,0:0:0:0:
192,192,110644,1,0,0:0:0:0:
448,192,110644,1,0,0:0:0:0:
64,192,110751,1,0,0:0:0:0:
192,192,110805,1,0,0:0:0:0:
320,192,110858,1,0,0:0:0:0:
448,192,110912,1,0,0:0:0:0:
64,192,110965,1,0,0:0:0:0:
192,192,111019,1,0,0:0:0:0:
448,192,111072,1,0,0:0:0:0:
320,192,111126,1,0,0:0:0:0:
192,192,111180,1,0,0:0:0:0:
64,192,111180,1,0,0:0:0:0:
448,192,111287,1,0,0:0:0:0:
320,192,111394,1,0,0:0:0:0:
192,192,111501,1,0,0:0:0:0:
64,192,111501,1,0,0:0:0:0:
448,192,111608,1,0,0:0:0:0:
448,192,111715,1,0,0:0:0:0:
64,192,111822,1,0,0:0:0:0:
320,192,111822,1,0,0:0:0:0:
64,192,111930,1,0,0:0:0:0:
192,192,112037,1,0,0:0:0:0:
448,192,112037,1,0,0:0:0:0:
64,192,112144,1,0,0:0:0:0:
320,192,112144,1,0,0:0:0:0:
192,192,112251,1,0,0:0:0:0:
64,192,112251,1,0,0:0:0:0:
320,192,112358,1,0,0:0:0:0:
192,192,112465,1,0,0:0:0:0:
448,192,112465,1,0,0:0:0:0:
64,192,112608,1,0,0:0:0:0:
192,192,112680,1,0,0:0:0:0:
320,192,112751,1,0,0:0:0:0:
448,192,112822,1,0,0:0:0:0:
192,192,112894,1,0,0:0:0:0:
64,192,112894,1,0,0:0:0:0:
448,192,113037,1,0,0:0:0:0:
320,192,113108,1,0,0:0:0:0:
192,192,113180,1,0,0:0:0:0:
64,192,113251,1,0,0:0:0:0:
448,192,113322,1,0,0:0:0:0:
64,192,113465,1,0,0:0:0:0:
192,192,113537,1,0,0:0:0:0:
320,192,113608,1,0,0:0:0:0:
448,192,113680,1,0,0:0:0:0:
192,192,113751,1,0,0:0:0:0:
64,192,113751,1,0,0:0:0:0:
448,192,113894,1,0,0:0:0:0:
192,192,113965,1,0,0:0:0:0:
320,192,114037,1,0,0:0:0:0:
64,192,114108,1,0,0:0:0:0:
320,192,114180,1,0,0:0:0:0:
448,192,114180,1,0,0:0:0:0:
448,192,114322,1,0,0:0:0:0:
320,192,114394,1,0,0:0:0:0:
192,192,114465,1,0,0:0:0:0:
64,192,114537,1,0,0:0:0:0:
320,192,114608,1,0,0:0:0:0:
448,192,114608,1,0,0:0:0:0:
64,192,114751,1,0,0:0:0:0:
192,192,114822,1,0,0:0:0:0:
320,192,114894,1,0,0:0:0:0:
448,192,114965,1,0,0:0:0:0:
64,192,115037,1,0,0:0:0:0:
192,192,115144,1,0,0:0:0:0:
320,192,115251,1,0,0:0:0:0:
448,192,115358,1,0,0:0:0:0:
320,192,115412,1,0,0:0:0:0:
192,192,115465,1,0,0:0:0:0:
64,192,115465,1,0,0:0:0:0:
320,192,115572,1,0,0:0:0:0:
448,192,115572,1,0,0:0:0:0:
192,192,115680,1,0,0:0:0:0:
64,192,115787,1,0,0:0:0:0:
320,192,115894,1,0,0:0:0:0:
448,192,115894,1,0,0:0:0:0:
192,192,116001,1,0,0:0:0:0:
64,192,116108,1,0,0:0:0:0:
448,192,116108,1,0,0:0:0:0:
64,192,116322,1,0,0:0:0:0:
192,192,116322,1,0,0:0:0:0:
320,192,116537,1,0,0:0:0:0:
192,192,116590,1,0,0:0:0:0:
64,192,116644,1,0,0:0:0:0:
320,192,116751,1,0,0:0:0:0:
448,192,116751,1,0,0:0:0:0:
192,192,116858,1,0,0:0:0:0:
64,192,116965,1,0,0:0:0:0:
448,192,116965,1,0,0:0:0:0:
320,192,117072,1,0,0:0:0:0:
192,192,117180,1,0,0:0:0:0:
64,192,117180,1,0,0:0:0:0:
320,192,117287,1,0,0:0:0:0:
448,192,117287,1,0,0:0:0:0:
64,192,117394,1,0,0:0:0:0:
192,192,117501,1,0,0:0:0:0:
320,192,117555,1,0,0:0:0:0:
448,192,117608,1,0,0:0:0:0:
64,192,117608,1,0,0:0:0:0:
448,192,117822,1,0,0:0:0:0:
448,192,117930,128,0,118465:0:0:0:0:
64,192,118144,1,0,0:0:0:0:
64,192,118251,128,0,118572:0:0:0:0:
192,192,118358,1,0,0:0:0:0:
320,192,118465,1,0,0:0:0:0:
448,192,118572,1,0,0:0:0:0:
64,192,118680,1,0,0:0:0:0:
192,192,118787,1,0,0:0:0:0:
320,192,118894,1,0,0:0:0:0:
448,192,119001,1,0,0:0:0:0:
320,192,119108,1,0,0:0:0:0:
192,192,119215,1,0,0:0:0:0:
320,192,119322,5,0,0:0:0:0:
448,192,119322,1,0,0:0:0:0:
64,192,119322,1,0,0:0:0:0:
192,192,119537,1,0,0:0:0:0:
320,192,119537,1,0,0:0:0:0:
448,192,119751,1,0,0:0:0:0:
320,192,119751,1,0,0:0:0:0:
64,192,119805,1,0,0:0:0:0:
192,192,119858,1,0,0:0:0:0:
320,192,119912,1,0,0:0:0:0:
448,192,119965,1,0,0:0:0:0:
64,192,120072,1,0,0:0:0:0:
192,192,120072,1,0,0:0:0:0:
320,192,120180,1,0,0:0:0:0:
448,192,120287,1,0,0:0:0:0:
64,192,120394,1,0,0:0:0:0:
192,192,120394,1,0,0:0:0:0:
448,192,120501,1,0,0:0:0:0:
64,192,120608,1,0,0:0:0:0:
192,192,120608,1,0,0:0:0:0:
320,192,120715,1,0,0:0:0:0:
192,192,120822,1,0,0:0:0:0:
64,192,120930,1,0,0:0:0:0:
320,192,121037,1,0,0:0:0:0:
448,192,121037,1,0,0:0:0:0:
192,192,121090,1,0,0:0:0:0:
64,192,121144,1,0,0:0:0:0:
192,192,121251,1,0,0:0:0:0:
64,192,121358,1,0,0:0:0:0:
320,192,121465,1,0,0:0:0:0:
448,192,121465,1,0,0:0:0:0:
64,192,121572,1,0,0:0:0:0:
192,192,121680,1,0,0:0:0:0:
320,192,121787,1,0,0:0:0:0:
448,192,121787,1,0,0:0:0:0:
192,192,121894,1,0,0:0:0:0:
64,192,122001,1,0,0:0:0:0:
320,192,122108,1,0,0:0:0:0:
448,192,122108,1,0,0:0:0:0:
64,192,122162,1,0,0:0:0:0:
192,192,122215,1,0,0:0:0:0:
320,192,122269,1,0,0:0:0:0:
448,192,122322,1,0,0:0:0:0:
64,192,122322,1,0,0:0:0:0:
320,192,122430,1,0,0:0:0:0:
192,192,122430,1,0,0:0:0:0:
448,192,122537,1,0,0:0:0:0:
320,192,122644,1,0,0:0:0:0:
64,192,122751,1,0,0:0:0:0:
192,192,122751,1,0,0:0:0:0:
192,192,122965,1,0,0:0:0:0:
320,192,122965,1,0,0:0:0:0:
64,192,123072,1,0,0:0:0:0:
192,192,123126,1,0,0:0:0:0:
320,192,123180,1,0,0:0:0:0:
448,192,123180,1,0,0:0:0:0:
64,192,123287,1,0,0:0:0:0:
192,192,123394,1,0,0:0:0:0:
64,192,123501,1,0,0:0:0:0:
448,192,123501,1,0,0:0:0:0:
320,192,123608,1,0,0:0:0:0:
448,192,123715,1,0,0:0:0:0:
64,192,123822,1,0,0:0:0:0:
192,192,123822,1,0,0:0:0:0:
320,192,123930,1,0,0:0:0:0:
64,192,124037,1,0,0:0:0:0:
448,192,124037,1,0,0:0:0:0:
192,192,124144,1,0,0:0:0:0:
64,192,124251,1,0,0:0:0:0:
192,192,124358,1,0,0:0:0:0:
320,192,124465,1,0,0:0:0:0:
448,192,124465,1,0,0:0:0:0:
64,192,124572,1,0,0:0:0:0:
192,192,124680,1,0,0:0:0:0:
448,192,124680,1,0,0:0:0:0:
320,192,124787,1,0,0:0:0:0:
192,192,124894,1,0,0:0:0:0:
448,192,124894,1,0,0:0:0:0:
64,192,125001,1,0,0:0:0:0:
320,192,125108,1,0,0:0:0:0:
192,192,125215,1,0,0:0:0:0:
64,192,125215,1,0,0:0:0:0:
320,192,125322,1,0,0:0:0:0:
448,192,125430,1,0,0:0:0:0:
192,192,125537,1,0,0:0:0:0:
64,192,125537,1,0,0:0:0:0:
448,192,125644,1,0,0:0:0:0:
320,192,125751,1,0,0:0:0:0:
64,192,125751,1,0,0:0:0:0:
192,192,125858,1,0,0:0:0:0:
448,192,125858,1,0,0:0:0:0:
64,192,125965,1,0,0:0:0:0:
320,192,125965,1,0,0:0:0:0:
192,192,126072,1,0,0:0:0:0:
64,192,126180,1,0,0:0:0:0:
448,192,126180,1,0,0:0:0:0:
448,192,126287,1,0,0:0:0:0:
192,192,126394,1,0,0:0:0:0:
192,192,126501,1,0,0:0:0:0:
448,192,126608,1,0,0:0:0:0:
320,192,126608,1,0,0:0:0:0:
64,192,126822,1,0,0:0:0:0:
64,192,126930,1,0,0:0:0:0:
448,192,126930,1,0,0:0:0:0:
320,192,127037,1,0,0:0:0:0:
320,192,127144,1,0,0:0:0:0:
448,192,127251,1,0,0:0:0:0:
64,192,127251,1,0,0:0:0:0:
64,192,127358,1,0,0:0:0:0:
320,192,127465,1,0,0:0:0:0:
448,192,127465,1,0,0:0:0:0:
192,192,127572,1,0,0:0:0:0:
64,192,127680,1,0,0:0:0:0:
320,192,127733,1,0,0:0:0:0:
448,192,127787,1,0,0:0:0:0:
64,192,127894,1,0,0:0:0:0:
192,192,127947,1,0,0:0:0:0:
320,192,128001,1,0,0:0:0:0:
64,192,128108,1,0,0:0:0:0:
192,192,128162,1,0,0:0:0:0:
320,192,128215,1,0,0:0:0:0:
448,192,128269,1,0,0:0:0:0:
192,192,128322,1,0,0:0:0:0:
64,192,128322,1,0,0:0:0:0:
320,192,128430,1,0,0:0:0:0:
192,192,128537,1,0,0:0:0:0:
64,192,128644,1,0,0:0:0:0:
448,192,128751,1,0,0:0:0:0:
320,192,128805,1,0,0:0:0:0:
192,192,128858,1,0,0:0:0:0:
64,192,128965,1,0,0:0:0:0:
320,192,128965,1,0,0:0:0:0:
448,192,129072,1,0,0:0:0:0:
320,192,129126,1,0,0:0:0:0:
192,192,129180,1,0,0:0:0:0:
64,192,129180,1,0,0:0:0:0:
320,192,129287,1,0,0:0:0:0:
448,192,129287,1,0,0:0:0:0:
192,192,129394,1,0,0:0:0:0:
64,192,129501,1,0,0:0:0:0:
320,192,129608,1,0,0:0:0:0:
448,192,129608,1,0,0:0:0:0:
64,192,129822,1,0,0:0:0:0:
320,192,129822,1,0,0:0:0:0:
192,192,130037,1,0,0:0:0:0:
64,192,130037,1,0,0:0:0:0:
448,192,130144,1,0,0:0:0:0:
448,192,130251,1,0,0:0:0:0:
192,192,130358,1,0,0:0:0:0:
320,192,130358,1,0,0:0:0:0:
64,192,130465,1,0,0:0:0:0:
64,192,130572,1,0,0:0:0:0:
320,192,130680,1,0,0:0:0:0:
448,192,130680,1,0,0:0:0:0:
64,192,130894,1,0,0:0:0:0:
448,192,130894,1,0,0:0:0:0:
192,192,131001,1,0,0:0:0:0:
320,192,131108,1,0,0:0:0:0:
320,192,131215,1,0,0:0:0:0:
192,192,131322,1,0,0:0:0:0:
448,192,131322,1,0,0:0:0:0:
64,192,131430,1,0,0:0:0:0:
192,192,131483,1,0,0:0:0:0:
320,192,131537,1,0,0:0:0:0:
192,192,131644,1,0,0:0:0:0:
64,192,131751,1,0,0:0:0:0:
448,192,131751,1,0,0:0:0:0:
320,192,131858,1,0,0:0:0:0:
192,192,131965,1,0,0:0:0:0:
64,192,132072,1,0,0:0:0:0:
448,192,132072,1,0,0:0:0:0:
320,192,132126,1,0,0:0:0:0:
192,192,132180,1,0,0:0:0:0:
320,192,132287,1,0,0:0:0:0:
448,192,132394,1,0,0:0:0:0:
64,192,132394,1,0,0:0:0:0:
192,192,132501,1,0,0:0:0:0:
320,192,132608,1,0,0:0:0:0:
448,192,132608,1,0,0:0:0:0:
64,192,132715,1,0,0:0:0:0:
192,192,132769,1,0,0:0:0:0:
320,192,132822,1,0,0:0:0:0:
192,192,132930,1,0,0:0:0:0:
64,192,133037,5,0,0:0:0:0:
448,192,133037,1,0,0:0:0:0:
320,192,133037,1,0,0:0:0:0:
64,192,133251,1,0,0:0:0:0:
64,192,133358,1,0,0:0:0:0:
192,192,133465,1,0,0:0:0:0:
448,192,133465,1,0,0:0:0:0:
320,192,133572,1,0,0:0:0:0:
320,192,133680,1,0,0:0:0:0:
192,192,133787,1,0,0:0:0:0:
64,192,133894,1,0,0:0:0:0:
320,192,133894,1,0,0:0:0:0:
448,192,134001,1,0,0:0:0:0:
320,192,134108,1,0,0:0:0:0:
192,192,134215,1,0,0:0:0:0:
64,192,134322,1,0,0:0:0:0:
320,192,134322,1,0,0:0:0:0:
448,192,134430,1,0,0:0:0:0:
320,192,134537,1,0,0:0:0:0:
448,192,134644,1,0,0:0:0:0:
64,192,134751,1,0,0:0:0:0:
320,192,134751,1,0,0:0:0:0:
192,192,134858,1,0,0:0:0:0:
192,192,134965,1,0,0:0:0:0:
64,192,135072,1,0,0:0:0:0:
320,192,135180,1,0,0:0:0:0:
448,192,135180,1,0,0:0:0:0:
64,192,135287,1,0,0:0:0:0:
192,192,135394,1,0,0:0:0:0:
64,192,135501,1,0,0:0:0:0:
320,192,135608,1,0,0:0:0:0:
448,192,135608,1,0,0:0:0:0:
192,192,135715,1,0,0:0:0:0:
320,192,135822,1,0,0:0:0:0:
448,192,135930,1,0,0:0:0:0:
192,192,136037,1,0,0:0:0:0:
64,192,136037,1,0,0:0:0:0:
448,192,136144,1,0,0:0:0:0:
320,192,136251,1,0,0:0:0:0:
192,192,136358,1,0,0:0:0:0:
448,192,136465,1,0,0:0:0:0:
64,192,136465,1,0,0:0:0:0:
64,192,136572,1,0,0:0:0:0:
192,192,136680,1,0,0:0:0:0:
320,192,136787,1,0,0:0:0:0:
448,192,136894,1,0,0:0:0:0:
64,192,136894,1,0,0:0:0:0:
448,192,137001,1,0,0:0:0:0:
320,192,137108,1,0,0:0:0:0:
192,192,137215,1,0,0:0:0:0:
64,192,137322,1,0,0:0:0:0:
448,192,137322,1,0,0:0:0:0:
192,192,137430,1,0,0:0:0:0:
192,192,137537,1,0,0:0:0:0:
64,192,137644,1,0,0:0:0:0:
448,192,137751,1,0,0:0:0:0:
192,192,137751,1,0,0:0:0:0:
320,192,137858,1,0,0:0:0:0:
320,192,137965,1,0,0:0:0:0:
192,192,138072,1,0,0:0:0:0:
64,192,138180,1,0,0:0:0:0:
320,192,138180,1,0,0:0:0:0:
448,192,138287,1,0,0:0:0:0:
320,192,138340,1,0,0:0:0:0:
192,192,138394,1,0,0:0:0:0:
192,192,138501,1,0,0:0:0:0:
320,192,138608,1,0,0:0:0:0:
448,192,138608,1,0,0:0:0:0:
192,192,138715,1,0,0:0:0:0:
64,192,138822,1,0,0:0:0:0:
320,192,138930,1,0,0:0:0:0:
448,192,138930,1,0,0:0:0:0:
64,192,139037,1,0,0:0:0:0:
448,192,139037,1,0,0:0:0:0:
192,192,139144,1,0,0:0:0:0:
64,192,139144,1,0,0:0:0:0:
448,192,139251,1,0,0:0:0:0:
320,192,139251,1,0,0:0:0:0:
192,192,139358,1,0,0:0:0:0:
320,192,139358,1,0,0:0:0:0:
64,192,139465,1,0,0:0:0:0:
192,192,139465,1,0,0:0:0:0:
192,192,139680,1,0,0:0:0:0:
320,192,139680,1,0,0:0:0:0:
448,192,139894,1,0,0:0:0:0:
64,192,139894,1,0,0:0:0:0:
64,192,140100,1,0,0:0:0:0:
192,192,140204,1,0,0:0:0:0:
320,192,140307,1,0,0:0:0:0:
448,192,140307,1,0,0:0:0:0:
64,192,140307,1,0,0:0:0:0:
320,192,140514,1,0,0:0:0:0:
64,192,140514,1,0,0:0:0:0:
192,192,140618,1,0,0:0:0:0:
448,192,140618,1,0,0:0:0:0:
192,192,140825,1,0,0:0:0:0:
448,192,140825,1,0,0:0:0:0:
320,192,140928,1,0,0:0:0:0:
64,192,140928,1,0,0:0:0:0:
192,192,141031,1,0,0:0:0:0:
64,192,141135,1,0,0:0:0:0:
448,192,141135,1,0,0:0:0:0:
320,192,141135,1,0,0:0:0:0:
192,192,141238,1,0,0:0:0:0:
320,192,141342,1,0,0:0:0:0:
448,192,141445,1,0,0:0:0:0:
192,192,141549,1,0,0:0:0:0:
64,192,141549,1,0,0:0:0:0:
320,192,141652,1,0,0:0:0:0:
192,192,141756,1,0,0:0:0:0:
320,192,141859,1,0,0:0:0:0:
448,192,141962,1,0,0:0:0:0:
64,192,141962,1,0,0:0:0:0:
192,192,141962,1,0,0:0:0:0:
64,192,142169,1,0,0:0:0:0:
320,192,142169,1,0,0:0:0:0:
192,192,142273,1,0,0:0:0:0:
448,192,142273,1,0,0:0:0:0:
192,192,142480,1,0,0:0:0:0:
448,192,142480,1,0,0:0:0:0:
320,192,142583,1,0,0:0:0:0:
64,192,142583,1,0,0:0:0:0:
192,192,142687,1,0,0:0:0:0:
64,192,142790,1,0,0:0:0:0:
448,192,142790,1,0,0:0:0:0:
320,192,142790,1,0,0:0:0:0:
192,192,142894,1,0,0:0:0:0:
320,192,142997,1,0,0:0:0:0:
448,192,143100,1,0,0:0:0:0:
64,192,143204,1,0,0:0:0:0:
192,192,143204,1,0,0:0:0:0:
448,192,143411,1,0,0:0:0:0:
320,192,143462,1,0,0:0:0:0:
192,192,143514,1,0,0:0:0:0:
64,192,143566,1,0,0:0:0:0:
448,192,143618,1,0,0:0:0:0:
320,192,143618,1,0,0:0:0:0:
64,192,143825,1,0,0:0:0:0:
320,192,143825,1,0,0:0:0:0:
192,192,143928,1,0,0:0:0:0:
448,192,143928,1,0,0:0:0:0:
192,192,144135,1,0,0:0:0:0:
448,192,144135,1,0,0:0:0:0:
320,192,144238,1,0,0:0:0:0:
64,192,144238,1,0,0:0:0:0:
192,192,144342,1,0,0:0:0:0:
64,192,144445,1,0,0:0:0:0:
320,192,144445,1,0,0:0:0:0:
448,192,144445,1,0,0:0:0:0:
192,192,144549,1,0,0:0:0:0:
320,192,144652,1,0,0:0:0:0:
192,192,144756,1,0,0:0:0:0:
64,192,144859,1,0,0:0:0:0:
448,192,144859,1,0,0:0:0:0:
320,192,145066,1,0,0:0:0:0:
448,192,145066,1,0,0:0:0:0:
320,192,145273,1,0,0:0:0:0:
192,192,145273,1,0,0:0:0:0:
64,192,145273,1,0,0:0:0:0:
64,192,145480,5,0,0:0:0:0:
320,192,145480,1,0,0:0:0:0:
192,192,145583,1,0,0:0:0:0:
448,192,145583,1,0,0:0:0:0:
448,192,145790,1,0,0:0:0:0:
192,192,145790,1,0,0:0:0:0:
64,192,145894,1,0,0:0:0:0:
320,192,145894,1,0,0:0:0:0:
448,192,145997,1,0,0:0:0:0:
64,192,146100,1,0,0:0:0:0:
192,192,146100,1,0,0:0:0:0:
320,192,146100,1,0,0:0:0:0:
448,192,146204,1,0,0:0:0:0:
320,192,146307,1,0,0:0:0:0:
192,192,146411,1,0,0:0:0:0:
64,192,146514,5,0,0:0:0:0:
448,192,146514,1,0,0:0:0:0:
320,192,146514,1,0,0:0:0:0:
192,192,146714,1,0,0:0:0:0:
64,192,146814,1,0,0:0:0:0:
320,192,146814,1,0,0:0:0:0:
192,192,146914,1,0,0:0:0:0:
64,192,147014,1,0,0:0:0:0:
320,192,147114,1,0,0:0:0:0:
448,192,147114,1,0,0:0:0:0:
192,192,147214,1,0,0:0:0:0:
64,192,147314,1,0,0:0:0:0:
448,192,147314,1,0,0:0:0:0:
320,192,147414,1,0,0:0:0:0:
64,192,147514,1,0,0:0:0:0:
448,192,147514,1,0,0:0:0:0:
192,192,147614,1,0,0:0:0:0:
64,192,147714,1,0,0:0:0:0:
320,192,147714,1,0,0:0:0:0:
192,192,147814,1,0,0:0:0:0:
64,192,147914,1,0,0:0:0:0:
448,192,147914,1,0,0:0:0:0:
448,192,148014,1,0,0:0:0:0:
192,192,148114,1,0,0:0:0:0:
64,192,148114,1,0,0:0:0:0:
320,192,148114,1,0,0:0:0:0:
192,192,148314,1,0,0:0:0:0:
64,192,148414,1,0,0:0:0:0:
448,192,148414,1,0,0:0:0:0:
320,192,148514,1,0,0:0:0:0:
192,192,148614,1,0,0:0:0:0:
64,192,148714,1,0,0:0:0:0:
320,192,148714,1,0,0:0:0:0:
192,192,148814,1,0,0:0:0:0:
64,192,148914,1,0,0:0:0:0:
448,192,148914,1,0,0:0:0:0:
320,192,149014,1,0,0:0:0:0:
448,192,149114,1,0,0:0:0:0:
64,192,149114,1,0,0:0:0:0:
192,192,149214,1,0,0:0:0:0:
64,192,149314,1,0,0:0:0:0:
320,192,149314,1,0,0:0:0:0:
192,192,149414,1,0,0:0:0:0:
64,192,149514,1,0,0:0:0:0:
448,192,149514,1,0,0:0:0:0:
64,192,149614,1,0,0:0:0:0:
448,192,149714,1,0,0:0:0:0:
320,192,149714,1,0,0:0:0:0:
64,192,149914,1,0,0:0:0:0:
320,192,150014,1,0,0:0:0:0:
192,192,150047,1,0,0:0:0:0:
64,192,150080,1,0,0:0:0:0:
448,192,150114,1,0,0:0:0:0:
192,192,150314,1,0,0:0:0:0:
320,192,150347,1,0,0:0:0:0:
448,192,150380,1,0,0:0:0:0:
64,192,150414,1,0,0:0:0:0:
192,192,150514,1,0,0:0:0:0:
320,192,150514,1,0,0:0:0:0:
320,192,150714,1,0,0:0:0:0:
192,192,150814,1,0,0:0:0:0:
320,192,150847,1,0,0:0:0:0:
448,192,150880,1,0,0:0:0:0:
64,192,150914,1,0,0:0:0:0:
320,192,151114,1,0,0:0:0:0:
192,192,151147,1,0,0:0:0:0:
64,192,151180,1,0,0:0:0:0:
448,192,151214,1,0,0:0:0:0:
192,192,151314,1,0,0:0:0:0:
320,192,151314,1,0,0:0:0:0:
448,192,151514,1,0,0:0:0:0:
192,192,151614,1,0,0:0:0:0:
320,192,151647,1,0,0:0:0:0:
448,192,151680,1,0,0:0:0:0:
64,192,151714,1,0,0:0:0:0:
320,192,151914,1,0,0:0:0:0:
192,192,151947,1,0,0:0:0:0:
64,192,151980,1,0,0:0:0:0:
448,192,152014,1,0,0:0:0:0:
320,192,152114,1,0,0:0:0:0:
192,192,152114,1,0,0:0:0:0:
64,192,152314,1,0,0:0:0:0:
192,192,152347,1,0,0:0:0:0:
320,192,152380,1,0,0:0:0:0:
448,192,152414,1,0,0:0:0:0:
64,192,152514,1,0,0:0:0:0:
320,192,152714,1,0,0:0:0:0:
192,192,152747,1,0,0:0:0:0:
64,192,152780,1,0,0:0:0:0:
448,192,152814,1,0,0:0:0:0:
64,192,152914,1,0,0:0:0:0:
192,192,153014,1,0,0:0:0:0:
448,192,153064,1,0,0:0:0:0:
64,192,153114,1,0,0:0:0:0:
320,192,153164,1,0,0:0:0:0:
448,192,153314,1,0,0:0:0:0:
192,192,153314,1,0,0:0:0:0:
320,192,153414,1,0,0:0:0:0:
64,192,153514,1,0,0:0:0:0:
64,192,153614,1,0,0:0:0:0:
320,192,153714,1,0,0:0:0:0:
448,192,153714,1,0,0:0:0:0:
64,192,153814,1,0,0:0:0:0:
192,192,153914,1,0,0:0:0:0:
64,192,154014,1,0,0:0:0:0:
320,192,154064,1,0,0:0:0:0:
448,192,154114,1,0,0:0:0:0:
192,192,154114,1,0,0:0:0:0:
320,192,154214,1,0,0:0:0:0:
192,192,154314,1,0,0:0:0:0:
192,192,154414,1,0,0:0:0:0:
64,192,154464,1,0,0:0:0:0:
448,192,154514,1,0,0:0:0:0:
320,192,154514,1,0,0:0:0:0:
192,192,154614,1,0,0:0:0:0:
320,192,154664,1,0,0:0:0:0:
64,192,154714,1,0,0:0:0:0:
448,192,154764,1,0,0:0:0:0:
192,192,154814,1,0,0:0:0:0:
448,192,154914,1,0,0:0:0:0:
64,192,154914,1,0,0:0:0:0:
192,192,155014,1,0,0:0:0:0:
320,192,155114,1,0,0:0:0:0:
320,192,155214,1,0,0:0:0:0:
448,192,155314,1,0,0:0:0:0:
192,192,155314,1,0,0:0:0:0:
64,192,155414,1,0,0:0:0:0:
192,192,155514,1,0,0:0:0:0:
320,192,155614,1,0,0:0:0:0:
448,192,155714,1,0,0:0:0:0:
64,192,155714,1,0,0:0:0:0:
192,192,155814,1,0,0:0:0:0:
448,192,155864,1,0,0:0:0:0:
320,192,155914,1,0,0:0:0:0:
64,192,156014,1,0,0:0:0:0:
192,192,156064,1,0,0:0:0:0:
320,192,156114,1,0,0:0:0:0:
448,192,156114,1,0,0:0:0:0:
192,192,156214,1,0,0:0:0:0:
64,192,156314,1,0,0:0:0:0:
320,192,156364,1,0,0:0:0:0:
448,192,156414,1,0,0:0:0:0:
192,192,156514,1,0,0:0:0:0:
64,192,156514,1,0,0:0:0:0:
448,192,156714,1,0,0:0:0:0:
320,192,156814,1,0,0:0:0:0:
192,192,156914,1,0,0:0:0:0:
448,192,156914,1,0,0:0:0:0:
64,192,157014,1,0,0:0:0:0:
64,192,157114,1,0,0:0:0:0:
192,192,157164,1,0,0:0:0:0:
320,192,157214,1,0,0:0:0:0:
448,192,157264,1,0,0:0:0:0:
64,192,157314,1,0,0:0:0:0:
192,192,157314,1,0,0:0:0:0:
320,192,157414,1,0,0:0:0:0:
448,192,157514,1,0,0:0:0:0:
192,192,157614,1,0,0:0:0:0:
448,192,157714,1,0,0:0:0:0:
64,192,157714,1,0,0:0:0:0:
192,192,157814,1,0,0:0:0:0:
448,192,157914,1,0,0:0:0:0:
192,192,158014,1,0,0:0:0:0:
64,192,158114,1,0,0:0:0:0:
320,192,158114,1,0,0:0:0:0:
448,192,158214,1,0,0:0:0:0:
320,192,158314,1,0,0:0:0:0:
192,192,158414,1,0,0:0:0:0:
64,192,158514,1,0,0:0:0:0:
192,192,158564,1,0,0:0:0:0:
320,192,158614,1,0,0:0:0:0:
448,192,158664,1,0,0:0:0:0:
64,192,158714,1,0,0:0:0:0:
192,192,158764,1,0,0:0:0:0:
320,192,158814,1,0,0:0:0:0:
448,192,158864,1,0,0:0:0:0:
64,192,158914,1,0,0:0:0:0:
320,192,158964,1,0,0:0:0:0:
192,192,159014,1,0,0:0:0:0:
448,192,159064,1,0,0:0:0:0:
320,192,159114,1,0,0:0:0:0:
192,192,159164,1,0,0:0:0:0:
64,192,159214,1,0,0:0:0:0:
192,192,159314,128,0,159714:0:0:0:0:
448,192,159314,128,0,160514:0:0:0:0:
320,192,159314,128,0,159714:0:0:0:0:
320,192,160114,128,0,160514:0:0:0:0:
64,192,160114,128,0,162514:0:0:0:0:
192,192,160914,128,0,162514:0:0:0:0:
320,192,162514,1,0,0:0:0:0:
448,192,162514,128,0,162714:0:0:0:0:
192,192,162714,1,0,0:0:0:0:
320,192,162714,128,0,162914:0:0:0:0:
64,192,162914,1,0,0:0:0:0:
192,192,162914,128,0,163114:0:0:0:0:
320,192,163114,1,0,0:0:0:0:
448,192,163114,128,0,163314:0:0:0:0:
192,192,163314,1,0,0:0:0:0:
64,192,163314,128,0,163414:0:0:0:0:
320,192,163414,128,0,163514:0:0:0:0:
448,192,163414,1,0,0:0:0:0:
64,192,163514,1,0,0:0:0:0:
192,192,163514,128,0,163614:0:0:0:0:
320,192,163614,1,0,0:0:0:0:
448,192,163614,128,0,163714:0:0:0:0:
64,192,163714,1,0,0:0:0:0:
192,192,163714,128,0,163814:0:0:0:0:
448,192,163814,1,0,0:0:0:0:
320,192,163814,128,0,163914:0:0:0:0:
192,192,163914,1,0,0:0:0:0:
64,192,163914,1,0,0:0:0:0:
320,192,163964,1,0,0:0:0:0:
448,192,164014,1,0,0:0:0:0:
192,192,164064,1,0,0:0:0:0:
64,192,164114,1,0,0:0:0:0:
320,192,164114,1,0,0:0:0:0:
448,192,164114,1,0,0:0:0:0:
192,192,164514,1,0,0:0:0:0:
320,192,164514,1,0,0:0:0:0:
64,192,164914,5,0,0:0:0:0:
192,192,165314,1,0,0:0:0:0:
320,192,165414,1,0,0:0:0:0:
448,192,165514,128,0,165714:0:0:0:0:
192,192,165714,5,0,0:0:0:0:
64,192,165714,1,0,0:0:0:0:
448,192,165814,1,0,0:0:0:0:
192,192,165914,1,0,0:0:0:0:
64,192,166014,1,0,0:0:0:0:
320,192,166114,1,0,0:0:0:0:
448,192,166114,1,0,0:0:0:0:
64,192,166214,1,0,0:0:0:0:
320,192,166314,1,0,0:0:0:0:
448,192,166414,1,0,0:0:0:0:
64,192,166514,1,0,0:0:0:0:
192,192,166514,1,0,0:0:0:0:
448,192,166614,1,0,0:0:0:0:
320,192,166714,1,0,0:0:0:0:
192,192,166814,1,0,0:0:0:0:
64,192,166914,1,0,0:0:0:0:
448,192,166914,1,0,0:0:0:0:
192,192,167014,1,0,0:0:0:0:
320,192,167114,1,0,0:0:0:0:
448,192,167214,1,0,0:0:0:0:
320,192,167264,1,0,0:0:0:0:
64,192,167314,1,0,0:0:0:0:
192,192,167314,1,0,0:0:0:0:
448,192,167414,1,0,0:0:0:0:
320,192,167514,1,0,0:0:0:0:
192,192,167614,1,0,0:0:0:0:
64,192,167714,1,0,0:0:0:0:
448,192,167714,1,0,0:0:0:0:
192,192,167814,1,0,0:0:0:0:
320,192,167914,1,0,0:0:0:0:
448,192,168014,1,0,0:0:0:0:
64,192,168114,1,0,0:0:0:0:
192,192,168114,1,0,0:0:0:0:
192,192,168214,1,0,0:0:0:0:
64,192,168214,1,0,0:0:0:0:
320,192,168314,1,0,0:0:0:0:
448,192,168314,1,0,0:0:0:0:
192,192,168414,1,0,0:0:0:0:
64,192,168514,1,0,0:0:0:0:
448,192,168514,1,0,0:0:0:0:
192,192,168614,1,0,0:0:0:0:
320,192,168714,1,0,0:0:0:0:
448,192,168764,1,0,0:0:0:0:
192,192,168814,1,0,0:0:0:0:
64,192,168864,1,0,0:0:0:0:
320,192,168914,1,0,0:0:0:0:
448,192,168914,1,0,0:0:0:0:
64,192,169014,1,0,0:0:0:0:
192,192,169114,1,0,0:0:0:0:
320,192,169214,1,0,0:0:0:0:
64,192,169314,1,0,0:0:0:0:
448,192,169314,1,0,0:0:0:0:
320,192,169414,1,0,0:0:0:0:
192,192,169514,1,0,0:0:0:0:
64,192,169514,1,0,0:0:0:0:
320,192,169614,1,0,0:0:0:0:
192,192,169714,1,0,0:0:0:0:
64,192,169714,1,0,0:0:0:0:
448,192,169814,1,0,0:0:0:0:
192,192,169914,1,0,0:0:0:0:
64,192,169914,1,0,0:0:0:0:
320,192,170014,1,0,0:0:0:0:
448,192,170114,1,0,0:0:0:0:
64,192,170114,1,0,0:0:0:0:
320,192,170214,1,0,0:0:0:0:
192,192,170314,1,0,0:0:0:0:
64,192,170364,1,0,0:0:0:0:
320,192,170414,1,0,0:0:0:0:
448,192,170464,1,0,0:0:0:0:
192,192,170514,1,0,0:0:0:0:
64,192,170614,1,0,0:0:0:0:
320,192,170714,1,0,0:0:0:0:
448,192,170714,1,0,0:0:0:0:
192,192,170814,1,0,0:0:0:0:
320,192,170914,1,0,0:0:0:0:
448,192,170914,1,0,0:0:0:0:
64,192,171014,1,0,0:0:0:0:
320,192,171114,1,0,0:0:0:0:
448,192,171114,1,0,0:0:0:0:
192,192,171214,1,0,0:0:0:0:
64,192,171314,128,0,171414:0:0:0:0:
448,192,171314,128,0,171414:0:0:0:0:
320,192,171514,128,0,171614:0:0:0:0:
192,192,171514,128,0,171614:0:0:0:0:
64,192,171714,128,0,171814:0:0:0:0:
448,192,171714,128,0,171814:0:0:0:0:
320,192,171814,128,0,171914:0:0:0:0:
192,192,171814,128,0,171914:0:0:0:0:
64,192,171914,128,0,171964:0:0:0:0:
192,192,171964,128,0,172014:0:0:0:0:
320,192,172014,128,0,172064:0:0:0:0:
448,192,172064,128,0,172114:0:0:0:0:
192,192,172114,1,0,0:0:0:0:
64,192,172114,1,0,0:0:0:0:
448,192,172214,1,0,0:0:0:0:
192,192,172314,1,0,0:0:0:0:
64,192,172414,1,0,0:0:0:0:
320,192,172514,1,0,0:0:0:0:
448,192,172514,1,0,0:0:0:0:
64,192,172614,1,0,0:0:0:0:
320,192,172714,1,0,0:0:0:0:
448,192,172814,1,0,0:0:0:0:
192,192,172914,1,0,0:0:0:0:
64,192,172914,1,0,0:0:0:0:
448,192,173014,1,0,0:0:0:0:
192,192,173114,1,0,0:0:0:0:
64,192,173214,1,0,0:0:0:0:
320,192,173314,1,0,0:0:0:0:
448,192,173314,1,0,0:0:0:0:
64,192,173414,1,0,0:0:0:0:
320,192,173514,1,0,0:0:0:0:
448,192,173514,1,0,0:0:0:0:
192,192,173614,1,0,0:0:0:0:
320,192,173714,1,0,0:0:0:0:
448,192,173714,1,0,0:0:0:0:
64,192,173814,1,0,0:0:0:0:
320,192,173914,1,0,0:0:0:0:
448,192,173914,1,0,0:0:0:0:
192,192,174014,1,0,0:0:0:0:
320,192,174114,1,0,0:0:0:0:
448,192,174114,1,0,0:0:0:0:
192,192,174214,1,0,0:0:0:0:
64,192,174214,1,0,0:0:0:0:
448,192,174314,1,0,0:0:0:0:
320,192,174364,1,0,0:0:0:0:
64,192,174414,1,0,0:0:0:0:
192,192,174464,1,0,0:0:0:0:
448,192,174514,1,0,0:0:0:0:
320,192,174514,1,0,0:0:0:0:
64,192,174614,1,0,0:0:0:0:
320,192,174714,1,0,0:0:0:0:
448,192,174714,1,0,0:0:0:0:
192,192,174814,1,0,0:0:0:0:
320,192,174914,1,0,0:0:0:0:
448,192,174914,1,0,0:0:0:0:
64,192,175014,1,0,0:0:0:0:
448,192,175114,1,0,0:0:0:0:
320,192,175164,1,0,0:0:0:0:
192,192,175214,1,0,0:0:0:0:
64,192,175264,1,0,0:0:0:0:
320,192,175314,128,0,175414:0:0:0:0:
448,192,175314,128,0,175414:0:0:0:0:
320,192,175514,128,0,175614:0:0:0:0:
64,192,175514,128,0,175614:0:0:0:0:
192,192,175714,128,0,175814:0:0:0:0:
64,192,175714,128,0,175814:0:0:0:0:
192,192,175914,128,0,176014:0:0:0:0:
448,192,175914,128,0,176014:0:0:0:0:
320,192,176114,128,0,176214:0:0:0:0:
448,192,176114,128,0,176214:0:0:0:0:
192,192,176214,128,0,176314:0:0:0:0:
64,192,176214,128,0,176314:0:0:0:0:
320,192,176314,128,0,176414:0:0:0:0:
448,192,176314,128,0,176414:0:0:0:0:
64,192,176514,128,0,176614:0:0:0:0:
320,192,176514,128,0,176614:0:0:0:0:
448,192,176614,128,0,176714:0:0:0:0:
192,192,176614,128,0,176714:0:0:0:0:
320,192,176714,128,0,176764:0:0:0:0:
448,192,176764,128,0,176814:0:0:0:0:
192,192,176814,128,0,176864:0:0:0:0:
64,192,176864,128,0,176914:0:0:0:0:
448,192,176914,1,0,0:0:0:0:
192,192,177014,1,0,0:0:0:0:
320,192,177114,1,0,0:0:0:0:
64,192,177214,1,0,0:0:0:0:
192,192,177314,1,0,0:0:0:0:
64,192,177414,1,0,0:0:0:0:
320,192,177464,1,0,0:0:0:0:
448,192,177514,1,0,0:0:0:0:
192,192,177564,1,0,0:0:0:0:
64,192,177614,1,0,0:0:0:0:
448,192,177714,1,0,0:0:0:0:
192,192,177814,1,0,0:0:0:0:
320,192,177914,1,0,0:0:0:0:
64,192,178014,1,0,0:0:0:0:
192,192,178114,1,0,0:0:0:0:
448,192,178214,1,0,0:0:0:0:
64,192,178314,1,0,0:0:0:0:
320,192,178364,1,0,0:0:0:0:
192,192,178414,1,0,0:0:0:0:
64,192,178464,1,0,0:0:0:0:
320,192,178514,1,0,0:0:0:0:
448,192,178514,1,0,0:0:0:0:
192,192,178614,1,0,0:0:0:0:
64,192,178714,1,0,0:0:0:0:
192,192,178814,1,0,0:0:0:0:
320,192,178914,1,0,0:0:0:0:
448,192,178914,1,0,0:0:0:0:
64,192,179014,1,0,0:0:0:0:
320,192,179114,1,0,0:0:0:0:
448,192,179114,1,0,0:0:0:0:
192,192,179214,1,0,0:0:0:0:
64,192,179264,1,0,0:0:0:0:
320,192,179314,1,0,0:0:0:0:
448,192,179314,1,0,0:0:0:0:
192,192,179414,1,0,0:0:0:0:
320,192,179514,1,0,0:0:0:0:
448,192,179514,1,0,0:0:0:0:
64,192,179614,1,0,0:0:0:0:
320,192,179714,1,0,0:0:0:0:
448,192,179714,1,0,0:0:0:0:
64,192,179814,1,0,0:0:0:0:
192,192,179864,1,0,0:0:0:0:
320,192,179914,1,0,0:0:0:0:
448,192,179914,1,0,0:0:0:0:
192,192,180014,1,0,0:0:0:0:
320,192,180064,1,0,0:0:0:0:
448,192,180114,1,0,0:0:0:0:
64,192,180114,1,0,0:0:0:0:
192,192,180214,1,0,0:0:0:0:
320,192,180314,1,0,0:0:0:0:
448,192,180314,1,0,0:0:0:0:
192,192,180414,1,0,0:0:0:0:
64,192,180514,1,0,0:0:0:0:
448,192,180514,1,0,0:0:0:0:
320,192,180564,1,0,0:0:0:0:
192,192,180614,1,0,0:0:0:0:
64,192,180714,1,0,0:0:0:0:
448,192,180714,1,0,0:0:0:0:
192,192,180764,1,0,0:0:0:0:
320,192,180814,1,0,0:0:0:0:
192,192,180914,1,0,0:0:0:0:
64,192,180914,1,0,0:0:0:0:
448,192,181014,1,0,0:0:0:0:
192,192,181114,1,0,0:0:0:0:
64,192,181114,1,0,0:0:0:0:
320,192,181214,1,0,0:0:0:0:
192,192,181314,1,0,0:0:0:0:
64,192,181314,1,0,0:0:0:0:
448,192,181380,1,0,0:0:0:0:
192,192,181447,1,0,0:0:0:0:
64,192,181514,1,0,0:0:0:0:
320,192,181514,1,0,0:0:0:0:
192,192,181580,1,0,0:0:0:0:
448,192,181647,1,0,0:0:0:0:
64,192,181714,128,0,181814:0:0:0:0:
320,192,181714,128,0,181814:0:0:0:0:
192,192,181914,128,0,182014:0:0:0:0:
448,192,181914,128,0,182014:0:0:0:0:
64,192,182114,128,0,182214:0:0:0:0:
320,192,182114,128,0,182214:0:0:0:0:
448,192,182314,128,0,182414:0:0:0:0:
192,192,182314,128,0,182414:0:0:0:0:
320,192,182514,128,0,182614:0:0:0:0:
448,192,182514,128,0,182614:0:0:0:0:
192,192,182714,128,0,182814:0:0:0:0:
64,192,182714,128,0,182814:0:0:0:0:
320,192,182914,128,0,183014:0:0:0:0:
448,192,182914,128,0,183014:0:0:0:0:
192,192,183114,128,0,183214:0:0:0:0:
64,192,183114,128,0,183214:0:0:0:0:
64,192,183314,1,0,0:0:0:0:
192,192,183314,1,0,0:0:0:0:
448,192,183414,1,0,0:0:0:0:
192,192,183514,1,0,0:0:0:0:
64,192,183614,1,0,0:0:0:0:
320,192,183714,1,0,0:0:0:0:
448,192,183714,1,0,0:0:0:0:
64,192,183814,1,0,0:0:0:0:
320,192,183914,1,0,0:0:0:0:
448,192,184014,1,0,0:0:0:0:
320,192,184064,1,0,0:0:0:0:
192,192,184114,1,0,0:0:0:0:
64,192,184114,1,0,0:0:0:0:
448,192,184214,1,0,0:0:0:0:
320,192,184314,1,0,0:0:0:0:
192,192,184314,1,0,0:0:0:0:
64,192,184414,1,0,0:0:0:0:
320,192,184514,1,0,0:0:0:0:
448,192,184514,1,0,0:0:0:0:
64,192,184614,1,0,0:0:0:0:
192,192,184714,1,0,0:0:0:0:
320,192,184714,1,0,0:0:0:0:
448,192,184764,1,0,0:0:0:0:
192,192,184814,1,0,0:0:0:0:
64,192,184864,1,0,0:0:0:0:
320,192,184914,128,0,185014:0:0:0:0:
448,192,184914,128,0,185014:0:0:0:0:
64,192,185114,128,0,185214:0:0:0:0:
192,192,185114,128,0,185214:0:0:0:0:
320,192,185314,128,0,185414:0:0:0:0:
448,192,185314,128,0,185414:0:0:0:0:
192,192,185514,128,0,185614:0:0:0:0:
64,192,185514,128,0,185614:0:0:0:0:
448,192,185614,128,0,185714:0:0:0:0:
64,192,185714,128,0,185814:0:0:0:0:
320,192,185714,128,0,185814:0:0:0:0:
192,192,185814,128,0,185914:0:0:0:0:
448,192,185914,128,0,186014:0:0:0:0:
320,192,185914,128,0,186014:0:0:0:0:
192,192,186014,128,0,186064:0:0:0:0:
64,192,186064,128,0,186114:0:0:0:0:
448,192,186114,128,0,186214:0:0:0:0:
320,192,186114,128,0,186214:0:0:0:0:
192,192,186214,128,0,186314:0:0:0:0:
64,192,186314,128,0,186364:0:0:0:0:
192,192,186364,128,0,186414:0:0:0:0:
320,192,186414,128,0,186464:0:0:0:0:
448,192,186464,128,0,186514:0:0:0:0:
192,192,186514,1,0,0:0:0:0:
64,192,186514,1,0,0:0:0:0:
448,192,186914,1,0,0:0:0:0:
320,192,186964,1,0,0:0:0:0:
192,192,187014,1,0,0:0:0:0:
64,192,187064,1,0,0:0:0:0:
320,192,187114,1,0,0:0:0:0:
192,192,187164,1,0,0:0:0:0:
448,192,187214,1,0,0:0:0:0:
320,192,187264,1,0,0:0:0:0:
192,192,187314,1,0,0:0:0:0:
64,192,187314,1,0,0:0:0:0:
320,192,187714,1,0,0:0:0:0:
192,192,187764,1,0,0:0:0:0:
64,192,187814,1,0,0:0:0:0:
320,192,187864,1,0,0:0:0:0:
192,192,187914,1,0,0:0:0:0:
448,192,187964,1,0,0:0:0:0:
320,192,188014,1,0,0:0:0:0:
192,192,188064,1,0,0:0:0:0:
64,192,188114,128,0,188214:0:0:0:0:
448,192,188114,128,0,188214:0:0:0:0:
192,192,188314,128,0,188414:0:0:0:0:
320,192,188314,128,0,188414:0:0:0:0:
320,192,188514,128,0,188614:0:0:0:0:
448,192,188514,128,0,188614:0:0:0:0:
192,192,188714,128,0,188814:0:0:0:0:
64,192,188714,128,0,188814:0:0:0:0:
320,192,188914,128,0,189014:0:0:0:0:
448,192,188914,128,0,189014:0:0:0:0:
192,192,189014,128,0,189114:0:0:0:0:
64,192,189014,128,0,189114:0:0:0:0:
320,192,189114,128,0,189214:0:0:0:0:
448,192,189114,128,0,189214:0:0:0:0:
192,192,189214,128,0,189314:0:0:0:0:
64,192,189214,128,0,189314:0:0:0:0:
448,192,189314,1,0,0:0:0:0:
192,192,189364,1,0,0:0:0:0:
320,192,189414,1,0,0:0:0:0:
64,192,189464,1,0,0:0:0:0:
192,192,189514,1,0,0:0:0:0:
320,192,189564,1,0,0:0:0:0:
448,192,189614,1,0,0:0:0:0:
192,192,189664,1,0,0:0:0:0:
64,192,189714,1,0,0:0:0:0:
320,192,189714,1,0,0:0:0:0:
448,192,189714,1,0,0:0:0:0:
192,192,189928,1,0,0:0:0:0:
64,192,189928,1,0,0:0:0:0:
320,192,189928,1,0,0:0:0:0:
192,192,190142,1,0,0:0:0:0:
320,192,190142,1,0,0:0:0:0:
448,192,190142,1,0,0:0:0:0:
64,192,190372,1,0,0:0:0:0:
448,192,190372,1,0,0:0:0:0:
320,192,190372,1,0,0:0:0:0:
192,192,190603,1,0,0:0:0:0:
64,192,190603,1,0,0:0:0:0:
448,192,190728,1,0,0:0:0:0:
192,192,190853,1,0,0:0:0:0:
320,192,190853,1,0,0:0:0:0:
64,192,190978,1,0,0:0:0:0:
320,192,191103,1,0,0:0:0:0:
448,192,191103,1,0,0:0:0:0:
192,192,191228,1,0,0:0:0:0:
64,192,191353,1,0,0:0:0:0:
320,192,191353,1,0,0:0:0:0:
448,192,191415,1,0,0:0:0:0:
320,192,191478,1,0,0:0:0:0:
192,192,191540,1,0,0:0:0:0:
64,192,191603,128,0,193540:0:0:0:0:
448,192,191603,128,0,193540:0:0:0:0:
320,192,191603,128,0,193540:0:0:0:0:
320,192,193603,5,0,0:0:0:0:
192,192,193603,1,0,0:0:0:0:
64,192,193978,1,0,0:0:0:0:
448,192,194353,1,0,0:0:0:0:
192,192,194603,1,0,0:0:0:0:
64,192,195103,1,0,0:0:0:0:
320,192,195353,1,0,0:0:0:0:
192,192,195603,1,0,0:0:0:0:
64,192,195853,1,0,0:0:0:0:
192,192,195978,1,0,0:0:0:0:
64,192,196228,1,0,0:0:0:0:
192,192,196353,1,0,0:0:0:0:
320,192,196478,1,0,0:0:0:0:
448,192,196603,1,0,0:0:0:0:
320,192,196728,1,0,0:0:0:0:
192,192,196978,1,0,0:0:0:0:
64,192,197228,1,0,0:0:0:0:
192,192,197353,1,0,0:0:0:0:
320,192,197478,1,0,0:0:0:0:
64,192,197603,1,0,0:0:0:0:
192,192,198603,1,0,0:0:0:0:
320,192,198978,1,0,0:0:0:0:
192,192,199353,1,0,0:0:0:0:
448,192,199478,1,0,0:0:0:0:
320,192,199603,1,0,0:0:0:0:
192,192,199728,1,0,0:0:0:0:
64,192,199978,1,0,0:0:0:0:
192,192,200228,1,0,0:0:0:0:
64,192,200353,1,0,0:0:0:0:
448,192,200478,1,0,0:0:0:0:
320,192,200603,1,0,0:0:0:0:
192,192,200728,1,0,0:0:0:0:
64,192,200978,1,0,0:0:0:0:
192,192,201228,1,0,0:0:0:0:
320,192,201353,1,0,0:0:0:0:
448,192,201478,1,0,0:0:0:0:
192,192,201603,1,0,0:0:0:0:
64,192,201978,1,0,0:0:0:0:
448,192,202353,1,0,0:0:0:0:
192,192,202603,1,0,0:0:0:0:
320,192,202978,1,0,0:0:0:0:
448,192,203228,1,0,0:0:0:0:
192,192,203603,1,0,0:0:0:0:
64,192,203978,1,0,0:0:0:0:
192,192,204353,1,0,0:0:0:0:
320,192,204478,1,0,0:0:0:0:
448,192,204603,1,0,0:0:0:0:
320,192,204728,1,0,0:0:0:0:
192,192,204978,1,0,0:0:0:0:
64,192,205228,1,0,0:0:0:0:
192,192,205353,1,0,0:0:0:0:
320,192,205478,1,0,0:0:0:0:
448,192,205603,1,0,0:0:0:0:
320,192,206603,1,0,0:0:0:0:
192,192,206978,1,0,0:0:0:0:
448,192,207353,1,0,0:0:0:0:
320,192,207603,1,0,0:0:0:0:
192,192,207728,1,0,0:0:0:0:
64,192,207978,1,0,0:0:0:0:
192,192,208353,1,0,0:0:0:0:
320,192,208603,1,0,0:0:0:0:
192,192,208728,1,0,0:0:0:0:
64,192,208853,1,0,0:0:0:0:
320,192,208978,1,0,0:0:0:0:
192,192,209228,1,0,0:0:0:0:
448,192,209353,1,0,0:0:0:0:
192,192,209603,1,0,0:0:0:0:
320,192,209603,128,0,211353:0:0:0:0:
64,192,209978,1,0,0:0:0:0:
192,192,210103,1,0,0:0:0:0:
448,192,210353,1,0,0:0:0:0:
192,192,210478,1,0,0:0:0:0:
448,192,210603,1,0,0:0:0:0:
64,192,210603,1,0,0:0:0:0:
64,192,210978,1,0,0:0:0:0:
192,192,211228,1,0,0:0:0:0:
448,192,211353,1,0,0:0:0:0:
64,192,211353,1,0,0:0:0:0:
64,192,211603,128,0,213353:0:0:0:0:
320,192,211603,1,0,0:0:0:0:
192,192,211853,1,0,0:0:0:0:
448,192,211978,1,0,0:0:0:0:
192,192,212228,1,0,0:0:0:0:
320,192,212353,1,0,0:0:0:0:
448,192,212478,1,0,0:0:0:0:
448,192,212603,1,0,0:0:0:0:
320,192,212603,1,0,0:0:0:0:
320,192,212728,1,0,0:0:0:0:
192,192,212728,1,0,0:0:0:0:
448,192,212853,1,0,0:0:0:0:
192,192,212978,1,0,0:0:0:0:
192,192,213228,1,0,0:0:0:0:
320,192,213353,1,0,0:0:0:0:
448,192,213478,1,0,0:0:0:0:
320,192,213540,1,0,0:0:0:0:
192,192,213603,128,0,215353:0:0:0:0:
64,192,213603,1,0,0:0:0:0:
320,192,213978,1,0,0:0:0:0:
448,192,214353,1,0,0:0:0:0:
320,192,214478,1,0,0:0:0:0:
64,192,214603,1,0,0:0:0:0:
448,192,214603,1,0,0:0:0:0:
320,192,214978,1,0,0:0:0:0:
448,192,215228,1,0,0:0:0:0:
320,192,215353,1,0,0:0:0:0:
64,192,215353,1,0,0:0:0:0:
448,192,215478,1,0,0:0:0:0:
64,192,215603,128,0,216353:0:0:0:0:
320,192,215603,1,0,0:0:0:0:
192,192,215728,1,0,0:0:0:0:
192,192,215978,1,0,0:0:0:0:
320,192,216228,1,0,0:0:0:0:
192,192,216353,1,0,0:0:0:0:
64,192,216478,1,0,0:0:0:0:
320,192,216603,128,0,217353:0:0:0:0:
448,192,216603,1,0,0:0:0:0:
192,192,216728,1,0,0:0:0:0:
64,192,216978,1,0,0:0:0:0:
192,192,216978,1,0,0:0:0:0:
64,192,217228,1,0,0:0:0:0:
192,192,217353,1,0,0:0:0:0:
448,192,217353,1,0,0:0:0:0:
320,192,217478,1,0,0:0:0:0:
192,192,217540,1,0,0:0:0:0:
448,192,217603,128,0,219353:0:0:0:0:
64,192,217603,1,0,0:0:0:0:
192,192,217978,1,0,0:0:0:0:
64,192,218353,1,0,0:0:0:0:
192,192,218478,1,0,0:0:0:0:
320,192,218603,1,0,0:0:0:0:
64,192,218603,1,0,0:0:0:0:
320,192,218978,1,0,0:0:0:0:
192,192,219228,1,0,0:0:0:0:
320,192,219353,1,0,0:0:0:0:
64,192,219353,1,0,0:0:0:0:
192,192,219603,128,0,221353:0:0:0:0:
64,192,219603,1,0,0:0:0:0:
320,192,219978,1,0,0:0:0:0:
64,192,220353,1,0,0:0:0:0:
448,192,220478,1,0,0:0:0:0:
448,192,220603,1,0,0:0:0:0:
320,192,220603,1,0,0:0:0:0:
64,192,220728,1,0,0:0:0:0:
320,192,220728,1,0,0:0:0:0:
64,192,220853,1,0,0:0:0:0:
320,192,220978,1,0,0:0:0:0:
448,192,221228,1,0,0:0:0:0:
64,192,221353,1,0,0:0:0:0:
320,192,221353,1,0,0:0:0:0:
192,192,221478,1,0,0:0:0:0:
320,192,221540,1,0,0:0:0:0:
448,192,221603,128,0,223353:0:0:0:0:
64,192,221603,1,0,0:0:0:0:
192,192,221978,1,0,0:0:0:0:
320,192,222353,1,0,0:0:0:0:
192,192,222478,1,0,0:0:0:0:
64,192,222603,1,0,0:0:0:0:
192,192,222978,1,0,0:0:0:0:
320,192,223353,1,0,0:0:0:0:
64,192,223353,1,0,0:0:0:0:
448,192,223603,128,0,224540:0:0:0:0:
64,192,223603,128,0,224290:0:0:0:0:
320,192,223728,128,0,224540:0:0:0:0:
192,192,223978,128,0,224540:0:0:0:0:
64,192,224353,128,0,224540:0:0:0:0:
448,192,224603,128,0,225353:0:0:0:0:
192,192,224728,128,0,225353:0:0:0:0:
320,192,224853,128,0,225353:0:0:0:0:
64,192,224978,128,0,225353:0:0:0:0:
64,192,225603,128,0,225728:0:0:0:0:
448,192,225603,1,0,0:0:0:0:
320,192,225603,1,0,0:0:0:0:
192,192,225728,128,0,225853:0:0:0:0:
320,192,225853,128,0,225978:0:0:0:0:
192,192,225978,128,0,226103:0:0:0:0:
64,192,226103,128,0,226228:0:0:0:0:
320,192,226228,128,0,226353:0:0:0:0:
192,192,226290,128,0,226415:0:0:0:0:
64,192,226353,128,0,226478:0:0:0:0:
192,192,226478,128,0,226603:0:0:0:0:
448,192,226603,128,0,226728:0:0:0:0:
320,192,226728,128,0,226853:0:0:0:0:
448,192,226978,128,0,227103:0:0:0:0:
320,192,227103,128,0,227228:0:0:0:0:
64,192,227228,128,0,227353:0:0:0:0:
192,192,227353,128,0,227478:0:0:0:0:
320,192,227478,128,0,227603:0:0:0:0:
192,192,227603,128,0,227728:0:0:0:0:
64,192,227728,128,0,227853:0:0:0:0:
192,192,227978,128,0,228103:0:0:0:0:
64,192,228103,128,0,228228:0:0:0:0:
192,192,228228,128,0,228353:0:0:0:0:
320,192,228353,128,0,228478:0:0:0:0:
448,192,228478,128,0,228603:0:0:0:0:
320,192,228603,128,0,228728:0:0:0:0:
192,192,228665,128,0,228790:0:0:0:0:
64,192,228728,128,0,228853:0:0:0:0:
320,192,228853,128,0,228978:0:0:0:0:
192,192,228978,128,0,229228:0:0:0:0:
64,192,229228,128,0,229353:0:0:0:0:
192,192,229353,128,0,229478:0:0:0:0:
320,192,229478,128,0,229603:0:0:0:0:
448,192,229603,128,0,229728:0:0:0:0:
192,192,229728,128,0,229853:0:0:0:0:
448,192,229978,128,0,230103:0:0:0:0:
192,192,230103,128,0,230228:0:0:0:0:
64,192,230353,128,0,230478:0:0:0:0:
320,192,230478,128,0,230603:0:0:0:0:
448,192,230603,128,0,230728:0:0:0:0:
192,192,230728,128,0,230853:0:0:0:0:
448,192,230978,128,0,231103:0:0:0:0:
192,192,231103,128,0,231228:0:0:0:0:
64,192,231228,128,0,231353:0:0:0:0:
192,192,231353,128,0,231478:0:0:0:0:
320,192,231478,128,0,231603:0:0:0:0:
448,192,231603,128,0,231728:0:0:0:0:
320,192,231728,128,0,231853:0:0:0:0:
192,192,231853,128,0,231978:0:0:0:0:
64,192,231978,128,0,232228:0:0:0:0:
192,192,232228,128,0,232353:0:0:0:0:
320,192,232353,128,0,232478:0:0:0:0:
448,192,232478,128,0,232603:0:0:0:0:
320,192,232603,128,0,232728:0:0:0:0:
192,192,232728,128,0,232853:0:0:0:0:
64,192,232853,128,0,232978:0:0:0:0:
448,192,232978,128,0,233228:0:0:0:0:
320,192,233228,128,0,233353:0:0:0:0:
192,192,233353,128,0,233478:0:0:0:0:
64,192,233478,128,0,233603:0:0:0:0:
192,192,233603,128,0,233728:0:0:0:0:
320,192,233728,128,0,233853:0:0:0:0:
64,192,233853,128,0,233978:0:0:0:0:
448,192,233853,1,0,0:0:0:0:
320,192,233978,128,0,234103:0:0:0:0:
192,192,234103,128,0,234228:0:0:0:0:
64,192,234228,128,0,234353:0:0:0:0:
192,192,234290,128,0,234415:0:0:0:0:
320,192,234353,128,0,234478:0:0:0:0:
448,192,234353,1,0,0:0:0:0:
192,192,234478,128,0,234603:0:0:0:0:
320,192,234603,128,0,234728:0:0:0:0:
64,192,234728,128,0,234853:0:0:0:0:
448,192,234853,1,0,0:0:0:0:
192,192,234853,1,0,0:0:0:0:
320,192,234978,128,0,235103:0:0:0:0:
64,192,235103,128,0,235228:0:0:0:0:
192,192,235228,128,0,235353:0:0:0:0:
320,192,235353,128,0,235478:0:0:0:0:
64,192,235353,1,0,0:0:0:0:
448,192,235478,128,0,235603:0:0:0:0:
320,192,235603,128,0,235728:0:0:0:0:
192,192,235728,128,0,235853:0:0:0:0:
64,192,235853,1,0,0:0:0:0:
448,192,235853,1,0,0:0:0:0:
320,192,235978,128,0,236103:0:0:0:0:
192,192,236103,128,0,236228:0:0:0:0:
64,192,236228,128,0,236353:0:0:0:0:
192,192,236353,128,0,236478:0:0:0:0:
448,192,236353,1,0,0:0:0:0:
320,192,236478,128,0,236603:0:0:0:0:
448,192,236603,128,0,236728:0:0:0:0:
320,192,236665,128,0,236790:0:0:0:0:
192,192,236728,128,0,236853:0:0:0:0:
448,192,236853,128,0,236978:0:0:0:0:
64,192,236853,1,0,0:0:0:0:
320,192,236978,128,0,237228:0:0:0:0:
192,192,237228,128,0,237353:0:0:0:0:
320,192,237353,128,0,237478:0:0:0:0:
64,192,237353,1,0,0:0:0:0:
448,192,237478,128,0,237603:0:0:0:0:
320,192,237603,128,0,237728:0:0:0:0:
192,192,237728,128,0,237853:0:0:0:0:
64,192,237853,1,0,0:0:0:0:
448,192,237853,1,0,0:0:0:0:
320,192,237978,128,0,238103:0:0:0:0:
192,192,238103,128,0,238290:0:0:0:0:
448,192,238353,1,0,0:0:0:0:
64,192,238353,128,0,238478:0:0:0:0:
192,192,238478,128,0,238603:0:0:0:0:
320,192,238603,128,0,238665:0:0:0:0:
192,192,238728,128,0,238790:0:0:0:0:
64,192,238853,1,0,0:0:0:0:
448,192,238853,1,0,0:0:0:0:
320,192,238978,128,0,239040:0:0:0:0:
192,192,239103,128,0,239165:0:0:0:0:
64,192,239228,128,0,239290:0:0:0:0:
448,192,239353,1,0,0:0:0:0:
192,192,239353,128,0,239415:0:0:0:0:
320,192,239478,128,0,239540:0:0:0:0:
448,192,239603,1,0,0:0:0:0:
320,192,239728,1,0,0:0:0:0:
448,192,239853,1,0,0:0:0:0:
192,192,239853,1,0,0:0:0:0:
64,192,239978,128,0,240165:0:0:0:0:
192,192,240228,1,0,0:0:0:0:
64,192,240353,1,0,0:0:0:0:
320,192,240353,1,0,0:0:0:0:
448,192,240478,1,0,0:0:0:0:
320,192,240603,1,0,0:0:0:0:
192,192,240728,1,0,0:0:0:0:
448,192,240853,1,0,0:0:0:0:
64,192,240853,1,0,0:0:0:0:
192,192,240978,128,0,241165:0:0:0:0:
320,192,241228,1,0,0:0:0:0:
448,192,241353,1,0,0:0:0:0:
192,192,241353,1,0,0:0:0:0:
64,192,241478,1,0,0:0:0:0:
448,192,241603,128,0,242603:0:0:0:0:
320,192,241603,128,0,241728:0:0:0:0:
64,192,241728,128,0,241853:0:0:0:0:
320,192,241853,128,0,241978:0:0:0:0:
192,192,241853,1,0,0:0:0:0:
64,192,241978,128,0,242103:0:0:0:0:
192,192,242103,128,0,242353:0:0:0:0:
64,192,242353,128,0,242603:0:0:0:0:
320,192,242353,1,0,0:0:0:0:
320,192,242603,128,0,242728:0:0:0:0:
192,192,242728,128,0,242853:0:0:0:0:
64,192,242853,128,0,242978:0:0:0:0:
448,192,242853,1,0,0:0:0:0:
320,192,242978,128,0,243103:0:0:0:0:
192,192,243103,128,0,243353:0:0:0:0:
448,192,243353,128,0,243603:0:0:0:0:
320,192,243353,1,0,0:0:0:0:
64,192,243603,128,0,244603:0:0:0:0:
192,192,243603,1,0,0:0:0:0:
320,192,243728,128,0,243853:0:0:0:0:
448,192,243853,128,0,243978:0:0:0:0:
192,192,243853,1,0,0:0:0:0:
320,192,243978,128,0,244103:0:0:0:0:
192,192,244103,128,0,244353:0:0:0:0:
448,192,244353,1,0,0:0:0:0:
192,192,244478,128,0,244603:0:0:0:0:
320,192,244603,128,0,244728:0:0:0:0:
448,192,244728,128,0,244853:0:0:0:0:
320,192,244853,128,0,244978:0:0:0:0:
64,192,244853,1,0,0:0:0:0:
192,192,244978,128,0,245103:0:0:0:0:
64,192,245103,128,0,245353:0:0:0:0:
320,192,245228,128,0,245415:0:0:0:0:
192,192,245353,128,0,245540:0:0:0:0:
448,192,245353,1,0,0:0:0:0:
64,192,245478,128,0,245665:0:0:0:0:
320,192,245603,128,0,246603:0:0:0:0:
448,192,245603,128,0,245665:0:0:0:0:
64,192,245728,128,0,245790:0:0:0:0:
192,192,245790,128,0,245853:0:0:0:0:
448,192,245853,128,0,245915:0:0:0:0:
192,192,245978,128,0,246228:0:0:0:0:
64,192,246228,128,0,246290:0:0:0:0:
192,192,246290,128,0,246353:0:0:0:0:
448,192,246353,128,0,246415:0:0:0:0:
64,192,246478,128,0,246540:0:0:0:0:
448,192,246603,128,0,246728:0:0:0:0:
320,192,246728,128,0,246853:0:0:0:0:
192,192,246853,1,0,0:0:0:0:
64,192,246853,128,0,246978:0:0:0:0:
320,192,246978,128,0,247290:0:0:0:0:
64,192,247103,128,0,247228:0:0:0:0:
192,192,247228,128,0,247415:0:0:0:0:
320,192,247353,128,0,247540:0:0:0:0:
448,192,247478,128,0,247665:0:0:0:0:
192,192,247603,128,0,248603:0:0:0:0:
64,192,247603,128,0,247665:0:0:0:0:
448,192,247728,128,0,247790:0:0:0:0:
320,192,247790,128,0,247853:0:0:0:0:
64,192,247853,128,0,247915:0:0:0:0:
448,192,247978,128,0,248228:0:0:0:0:
64,192,248228,128,0,248290:0:0:0:0:
320,192,248290,128,0,248353:0:0:0:0:
448,192,248353,128,0,248415:0:0:0:0:
64,192,248353,1,0,0:0:0:0:
320,192,248478,128,0,248540:0:0:0:0:
64,192,248603,128,0,248728:0:0:0:0:
320,192,248728,128,0,248853:0:0:0:0:
448,192,248853,1,0,0:0:0:0:
192,192,248853,128,0,248978:0:0:0:0:
64,192,248978,128,0,249290:0:0:0:0:
448,192,249103,128,0,249165:0:0:0:0:
192,192,249228,128,0,249415:0:0:0:0:
320,192,249353,128,0,249540:0:0:0:0:
64,192,249353,1,0,0:0:0:0:
448,192,249478,128,0,249665:0:0:0:0:
192,192,249603,128,0,249728:0:0:0:0:
64,192,249603,128,0,249728:0:0:0:0:
320,192,249603,1,0,0:0:0:0:
320,192,249853,128,0,249978:0:0:0:0:
448,192,249853,128,0,249978:0:0:0:0:
192,192,250103,128,0,250228:0:0:0:0:
64,192,250103,128,0,250228:0:0:0:0:
320,192,250103,1,0,0:0:0:0:
320,192,250353,128,0,250478:0:0:0:0:
448,192,250353,128,0,250478:0:0:0:0:
320,192,250603,128,0,250728:0:0:0:0:
192,192,250603,128,0,250728:0:0:0:0:
448,192,250603,1,0,0:0:0:0:
192,192,250853,128,0,250978:0:0:0:0:
320,192,250853,128,0,250978:0:0:0:0:
320,192,251103,128,0,251228:0:0:0:0:
192,192,251103,128,0,251228:0:0:0:0:
448,192,251103,1,0,0:0:0:0:
320,192,251353,128,0,251478:0:0:0:0:
192,192,251353,128,0,251478:0:0:0:0:
192,192,251603,128,0,251728:0:0:0:0:
64,192,251603,128,0,251728:0:0:0:0:
320,192,251603,1,0,0:0:0:0:
448,192,251853,128,0,251978:0:0:0:0:
320,192,251853,128,0,251978:0:0:0:0:
64,192,252103,128,0,252228:0:0:0:0:
192,192,252103,128,0,252228:0:0:0:0:
320,192,252103,1,0,0:0:0:0:
320,192,252353,128,0,252478:0:0:0:0:
448,192,252353,128,0,252478:0:0:0:0:
192,192,252603,128,0,252728:0:0:0:0:
320,192,252603,128,0,252728:0:0:0:0:
448,192,252603,1,0,0:0:0:0:
192,192,252853,128,0,252978:0:0:0:0:
320,192,252853,128,0,252978:0:0:0:0:
320,192,253103,128,0,253228:0:0:0:0:
192,192,253103,128,0,253228:0:0:0:0:
448,192,253103,1,0,0:0:0:0:
320,192,253353,128,0,253478:0:0:0:0:
192,192,253353,128,0,253478:0:0:0:0:
192,192,253603,128,0,253728:0:0:0:0:
64,192,253603,128,0,253728:0:0:0:0:
448,192,253728,1,0,0:0:0:0:
192,192,253853,128,0,253978:0:0:0:0:
320,192,253853,128,0,253978:0:0:0:0:
64,192,253978,1,0,0:0:0:0:
448,192,254103,128,0,254228:0:0:0:0:
320,192,254103,128,0,254228:0:0:0:0:
192,192,254228,1,0,0:0:0:0:
64,192,254353,128,0,254478:0:0:0:0:
448,192,254353,128,0,254478:0:0:0:0:
320,192,254478,1,0,0:0:0:0:
448,192,254540,1,0,0:0:0:0:
192,192,254603,128,0,254728:0:0:0:0:
64,192,254603,128,0,254728:0:0:0:0:
448,192,254728,1,0,0:0:0:0:
192,192,254853,128,0,254978:0:0:0:0:
320,192,254853,128,0,254978:0:0:0:0:
64,192,254978,1,0,0:0:0:0:
320,192,255103,128,0,255228:0:0:0:0:
448,192,255103,128,0,255228:0:0:0:0:
192,192,255228,1,0,0:0:0:0:
320,192,255353,128,0,255478:0:0:0:0:
64,192,255353,128,0,255478:0:0:0:0:
448,192,255478,1,0,0:0:0:0:
320,192,255540,1,0,0:0:0:0:
64,192,255603,1,0,0:0:0:0:
192,192,255603,1,0,0:0:0:0:
192,192,255728,1,0,0:0:0:0:
448,192,255728,1,0,0:0:0:0:
320,192,255853,1,0,0:0:0:0:
448,192,255853,1,0,0:0:0:0:
192,192,255978,1,0,0:0:0:0:
64,192,255978,1,0,0:0:0:0:
320,192,256103,1,0,0:0:0:0:
448,192,256103,1,0,0:0:0:0:
320,192,256228,1,0,0:0:0:0:
64,192,256228,1,0,0:0:0:0:
192,192,256353,1,0,0:0:0:0:
320,192,256415,1,0,0:0:0:0:
192,192,256478,1,0,0:0:0:0:
320,192,256540,1,0,0:0:0:0:
64,192,256603,1,0,0:0:0:0:
192,192,256603,1,0,0:0:0:0:
448,192,256728,1,0,0:0:0:0:
320,192,256853,1,0,0:0:0:0:
192,192,256978,1,0,0:0:0:0:
448,192,257103,1,0,0:0:0:0:
192,192,257228,1,0,0:0:0:0:
320,192,257353,1,0,0:0:0:0:
64,192,257478,1,0,0:0:0:0:
320,192,257603,1,0,0:0:0:0:
448,192,257603,1,0,0:0:0:0:
192,192,257728,1,0,0:0:0:0:
320,192,257790,1,0,0:0:0:0:
448,192,257853,1,0,0:0:0:0:
64,192,257853,1,0,0:0:0:0:
320,192,257978,1,0,0:0:0:0:
192,192,258103,1,0,0:0:0:0:
448,192,258103,1,0,0:0:0:0:
64,192,258228,1,0,0:0:0:0:
192,192,258290,1,0,0:0:0:0:
320,192,258353,1,0,0:0:0:0:
448,192,258353,1,0,0:0:0:0:
192,192,258478,1,0,0:0:0:0:
64,192,258603,1,0,0:0:0:0:
448,192,258603,1,0,0:0:0:0:
320,192,258728,1,0,0:0:0:0:
192,192,258853,1,0,0:0:0:0:
64,192,258853,1,0,0:0:0:0:
448,192,258978,1,0,0:0:0:0:
192,192,259103,1,0,0:0:0:0:
320,192,259103,1,0,0:0:0:0:
64,192,259228,1,0,0:0:0:0:
320,192,259353,1,0,0:0:0:0:
448,192,259353,1,0,0:0:0:0:
192,192,259478,1,0,0:0:0:0:
64,192,259603,1,0,0:0:0:0:
448,192,259603,1,0,0:0:0:0:
320,192,259728,1,0,0:0:0:0:
192,192,259853,1,0,0:0:0:0:
448,192,259853,1,0,0:0:0:0:
64,192,259915,1,0,0:0:0:0:
192,192,259978,1,0,0:0:0:0:
320,192,260103,1,0,0:0:0:0:
448,192,260103,1,0,0:0:0:0:
192,192,260228,1,0,0:0:0:0:
64,192,260353,1,0,0:0:0:0:
448,192,260353,1,0,0:0:0:0:
320,192,260478,1,0,0:0:0:0:
192,192,260540,1,0,0:0:0:0:
64,192,260603,1,0,0:0:0:0:
320,192,260603,1,0,0:0:0:0:
448,192,260728,1,0,0:0:0:0:
192,192,260853,1,0,0:0:0:0:
64,192,260853,1,0,0:0:0:0:
320,192,260978,1,0,0:0:0:0:
192,192,261103,1,0,0:0:0:0:
448,192,261103,1,0,0:0:0:0:
64,192,261165,1,0,0:0:0:0:
192,192,261228,1,0,0:0:0:0:
448,192,261353,1,0,0:0:0:0:
320,192,261353,1,0,0:0:0:0:
64,192,261478,1,0,0:0:0:0:
192,192,261478,1,0,0:0:0:0:
448,192,261603,1,0,0:0:0:0:
320,192,261665,1,0,0:0:0:0:
192,192,261728,1,0,0:0:0:0:
64,192,261790,1,0,0:0:0:0:
320,192,261853,1,0,0:0:0:0:
448,192,261853,1,0,0:0:0:0:
64,192,261978,1,0,0:0:0:0:
320,192,262040,1,0,0:0:0:0:
192,192,262103,1,0,0:0:0:0:
64,192,262165,1,0,0:0:0:0:
320,192,262228,1,0,0:0:0:0:
448,192,262290,1,0,0:0:0:0:
192,192,262353,1,0,0:0:0:0:
64,192,262353,1,0,0:0:0:0:
320,192,262478,1,0,0:0:0:0:
64,192,262603,1,0,0:0:0:0:
192,192,262665,1,0,0:0:0:0:
320,192,262728,1,0,0:0:0:0:
448,192,262790,1,0,0:0:0:0:
192,192,262853,1,0,0:0:0:0:
64,192,262853,1,0,0:0:0:0:
448,192,262978,1,0,0:0:0:0:
192,192,263040,1,0,0:0:0:0:
320,192,263103,1,0,0:0:0:0:
448,192,263165,1,0,0:0:0:0:
192,192,263228,1,0,0:0:0:0:
64,192,263290,1,0,0:0:0:0:
192,192,263353,1,0,0:0:0:0:
320,192,263353,1,0,0:0:0:0:
448,192,263478,1,0,0:0:0:0:
320,192,263603,1,0,0:0:0:0:
192,192,263603,1,0,0:0:0:0:
192,192,263728,1,0,0:0:0:0:
64,192,263790,1,0,0:0:0:0:
320,192,263853,1,0,0:0:0:0:
448,192,263853,1,0,0:0:0:0:
320,192,263978,1,0,0:0:0:0:
192,192,264040,1,0,0:0:0:0:
64,192,264103,1,0,0:0:0:0:
448,192,264103,1,0,0:0:0:0:
448,192,264228,1,0,0:0:0:0:
320,192,264290,1,0,0:0:0:0:
192,192,264353,1,0,0:0:0:0:
64,192,264353,1,0,0:0:0:0:
320,192,264478,1,0,0:0:0:0:
448,192,264603,1,0,0:0:0:0:
192,192,264603,1,0,0:0:0:0:
320,192,264728,1,0,0:0:0:0:
192,192,264853,1,0,0:0:0:0:
448,192,264853,1,0,0:0:0:0:
64,192,264978,1,0,0:0:0:0:
192,192,265103,1,0,0:0:0:0:
320,192,265103,1,0,0:0:0:0:
448,192,265228,1,0,0:0:0:0:
320,192,265228,1,0,0:0:0:0:
192,192,265290,1,0,0:0:0:0:
64,192,265353,1,0,0:0:0:0:
320,192,265415,1,0,0:0:0:0:
192,192,265478,1,0,0:0:0:0:
320,192,265540,1,0,0:0:0:0:
64,192,265603,1,0,0:0:0:0:
448,192,265603,1,0,0:0:0:0:
320,192,265728,1,0,0:0:0:0:
192,192,265790,1,0,0:0:0:0:
64,192,265853,1,0,0:0:0:0:
448,192,265853,1,0,0:0:0:0:
192,192,265978,1,0,0:0:0:0:
320,192,266103,1,0,0:0:0:0:
448,192,266103,1,0,0:0:0:0:
192,192,266228,1,0,0:0:0:0:
320,192,266290,1,0,0:0:0:0:
448,192,266353,1,0,0:0:0:0:
64,192,266353,1,0,0:0:0:0:
320,192,266478,1,0,0:0:0:0:
192,192,266603,1,0,0:0:0:0:
64,192,266603,1,0,0:0:0:0:
320,192,266728,1,0,0:0:0:0:
192,192,266853,1,0,0:0:0:0:
448,192,266853,1,0,0:0:0:0:
64,192,266978,1,0,0:0:0:0:
320,192,267103,1,0,0:0:0:0:
448,192,267103,1,0,0:0:0:0:
64,192,267228,1,0,0:0:0:0:
192,192,267353,1,0,0:0:0:0:
448,192,267353,1,0,0:0:0:0:
320,192,267478,1,0,0:0:0:0:
192,192,267603,1,0,0:0:0:0:
64,192,267603,1,0,0:0:0:0:
448,192,267728,1,0,0:0:0:0:
192,192,267853,1,0,0:0:0:0:
320,192,267853,1,0,0:0:0:0:
64,192,267915,1,0,0:0:0:0:
192,192,267978,1,0,0:0:0:0:
448,192,268103,1,0,0:0:0:0:
320,192,268103,1,0,0:0:0:0:
64,192,268228,1,0,0:0:0:0:
192,192,268353,1,0,0:0:0:0:
320,192,268353,1,0,0:0:0:0:
192,192,268478,1,0,0:0:0:0:
320,192,268540,1,0,0:0:0:0:
448,192,268603,1,0,0:0:0:0:
64,192,268603,1,0,0:0:0:0:
320,192,268728,1,0,0:0:0:0:
192,192,268853,1,0,0:0:0:0:
64,192,268853,1,0,0:0:0:0:
320,192,268978,1,0,0:0:0:0:
192,192,269103,1,0,0:0:0:0:
448,192,269103,1,0,0:0:0:0:
64,192,269228,1,0,0:0:0:0:
192,192,269290,1,0,0:0:0:0:
320,192,269353,1,0,0:0:0:0:
448,192,269353,1,0,0:0:0:0:
192,192,269478,1,0,0:0:0:0:
64,192,269478,1,0,0:0:0:0:
320,192,269603,1,0,0:0:0:0:
448,192,269603,1,0,0:0:0:0:
192,192,269728,1,0,0:0:0:0:
64,192,269853,1,0,0:0:0:0:
448,192,269853,1,0,0:0:0:0:
192,192,269915,1,0,0:0:0:0:
320,192,269978,1,0,0:0:0:0:
320,192,270103,1,0,0:0:0:0:
448,192,270103,1,0,0:0:0:0:
192,192,270228,1,0,0:0:0:0:
64,192,270353,1,0,0:0:0:0:
448,192,270353,1,0,0:0:0:0:
192,192,270415,1,0,0:0:0:0:
320,192,270478,1,0,0:0:0:0:
320,192,270603,1,0,0:0:0:0:
448,192,270603,1,0,0:0:0:0:
192,192,270728,1,0,0:0:0:0:
64,192,270853,1,0,0:0:0:0:
320,192,270853,1,0,0:0:0:0:
448,192,270978,1,0,0:0:0:0:
192,192,271103,1,0,0:0:0:0:
64,192,271103,1,0,0:0:0:0:
320,192,271228,1,0,0:0:0:0:
448,192,271353,1,0,0:0:0:0:
192,192,271353,1,0,0:0:0:0:
64,192,271478,1,0,0:0:0:0:
320,192,271603,1,0,0:0:0:0:
448,192,271603,1,0,0:0:0:0:
64,192,271665,1,0,0:0:0:0:
192,192,271728,1,0,0:0:0:0:
320,192,271790,1,0,0:0:0:0:
448,192,271853,1,0,0:0:0:0:
64,192,271853,1,0,0:0:0:0:
192,192,271915,1,0,0:0:0:0:
320,192,271978,1,0,0:0:0:0:
448,192,272040,1,0,0:0:0:0:
192,192,272103,1,0,0:0:0:0:
64,192,272103,1,0,0:0:0:0:
448,192,272165,1,0,0:0:0:0:
320,192,272228,1,0,0:0:0:0:
192,192,272290,1,0,0:0:0:0:
64,192,272353,1,0,0:0:0:0:
448,192,272353,1,0,0:0:0:0:
320,192,272415,1,0,0:0:0:0:
192,192,272478,1,0,0:0:0:0:
64,192,272540,1,0,0:0:0:0:
320,192,272603,1,0,0:0:0:0:
448,192,272603,1,0,0:0:0:0:
192,192,272728,1,0,0:0:0:0:
320,192,272790,1,0,0:0:0:0:
64,192,272853,1,0,0:0:0:0:
448,192,272853,1,0,0:0:0:0:
192,192,272978,1,0,0:0:0:0:
64,192,273103,1,0,0:0:0:0:
320,192,273103,1,0,0:0:0:0:
192,192,273228,1,0,0:0:0:0:
448,192,273228,1,0,0:0:0:0:
320,192,273353,1,0,0:0:0:0:
192,192,273415,1,0,0:0:0:0:
320,192,273478,1,0,0:0:0:0:
192,192,273540,1,0,0:0:0:0:
64,192,273603,1,0,0:0:0:0:
448,192,273603,1,0,0:0:0:0:
192,192,273728,1,0,0:0:0:0:
320,192,273790,1,0,0:0:0:0:
64,192,273853,1,0,0:0:0:0:
192,192,273853,1,0,0:0:0:0:
320,192,273978,1,0,0:0:0:0:
192,192,274103,1,0,0:0:0:0:
448,192,274103,1,0,0:0:0:0:
64,192,274228,1,0,0:0:0:0:
320,192,274290,1,0,0:0:0:0:
192,192,274353,1,0,0:0:0:0:
448,192,274353,1,0,0:0:0:0:
64,192,274478,1,0,0:0:0:0:
320,192,274603,1,0,0:0:0:0:
448,192,274603,1,0,0:0:0:0:
64,192,274728,1,0,0:0:0:0:
192,192,274853,1,0,0:0:0:0:
320,192,274853,1,0,0:0:0:0:
448,192,274978,1,0,0:0:0:0:
320,192,275103,1,0,0:0:0:0:
64,192,275103,1,0,0:0:0:0:
192,192,275228,1,0,0:0:0:0:
320,192,275353,1,0,0:0:0:0:
448,192,275353,1,0,0:0:0:0:
192,192,275478,1,0,0:0:0:0:
64,192,275603,1,0,0:0:0:0:
320,192,275603,1,0,0:0:0:0:
448,192,275728,1,0,0:0:0:0:
192,192,275853,1,0,0:0:0:0:
320,192,275853,1,0,0:0:0:0:
64,192,275915,1,0,0:0:0:0:
192,192,275978,1,0,0:0:0:0:
320,192,276103,1,0,0:0:0:0:
448,192,276103,1,0,0:0:0:0:
192,192,276228,1,0,0:0:0:0:
64,192,276353,1,0,0:0:0:0:
448,192,276353,1,0,0:0:0:0:
320,192,276478,1,0,0:0:0:0:
192,192,276540,1,0,0:0:0:0:
320,192,276603,1,0,0:0:0:0:
448,192,276603,1,0,0:0:0:0:
64,192,276728,1,0,0:0:0:0:
192,192,276853,1,0,0:0:0:0:
320,192,276853,1,0,0:0:0:0:
448,192,276978,1,0,0:0:0:0:
64,192,277103,1,0,0:0:0:0:
192,192,277103,1,0,0:0:0:0:
448,192,277165,1,0,0:0:0:0:
320,192,277228,1,0,0:0:0:0:
64,192,277353,1,0,0:0:0:0:
192,192,277353,1,0,0:0:0:0:
320,192,277478,1,0,0:0:0:0:
448,192,277478,1,0,0:0:0:0:
64,192,277603,1,0,0:0:0:0:
192,192,277603,1,0,0:0:0:0:
320,192,277728,1,0,0:0:0:0:
448,192,277853,1,0,0:0:0:0:
192,192,277853,1,0,0:0:0:0:
64,192,277978,1,0,0:0:0:0:
320,192,278103,1,0,0:0:0:0:
448,192,278103,1,0,0:0:0:0:
192,192,278228,1,0,0:0:0:0:
320,192,278290,1,0,0:0:0:0:
64,192,278353,1,0,0:0:0:0:
448,192,278353,1,0,0:0:0:0:
192,192,278478,1,0,0:0:0:0:
320,192,278603,1,0,0:0:0:0:
448,192,278603,1,0,0:0:0:0:
192,192,278728,1,0,0:0:0:0:
64,192,278853,1,0,0:0:0:0:
320,192,278853,1,0,0:0:0:0:
448,192,278978,1,0,0:0:0:0:
192,192,279103,1,0,0:0:0:0:
64,192,279103,1,0,0:0:0:0:
320,192,279228,1,0,0:0:0:0:
192,192,279290,1,0,0:0:0:0:
64,192,279353,1,0,0:0:0:0:
448,192,279353,1,0,0:0:0:0:
192,192,279478,1,0,0:0:0:0:
320,192,279603,1,0,0:0:0:0:
448,192,279603,1,0,0:0:0:0:
64,192,279728,1,0,0:0:0:0:
192,192,279790,1,0,0:0:0:0:
64,192,279853,1,0,0:0:0:0:
448,192,279853,1,0,0:0:0:0:
320,192,279978,1,0,0:0:0:0:
448,192,280040,1,0,0:0:0:0:
192,192,280103,1,0,0:0:0:0:
64,192,280103,1,0,0:0:0:0:
320,192,280228,1,0,0:0:0:0:
192,192,280290,1,0,0:0:0:0:
64,192,280353,1,0,0:0:0:0:
448,192,280353,1,0,0:0:0:0:
192,192,280478,1,0,0:0:0:0:
320,192,280603,1,0,0:0:0:0:
448,192,280603,1,0,0:0:0:0:
64,192,280728,1,0,0:0:0:0:
320,192,280853,1,0,0:0:0:0:
192,192,280853,1,0,0:0:0:0:
448,192,280978,1,0,0:0:0:0:
192,192,281103,1,0,0:0:0:0:
64,192,281103,1,0,0:0:0:0:
320,192,281228,1,0,0:0:0:0:
448,192,281228,1,0,0:0:0:0:
192,192,281353,1,0,0:0:0:0:
320,192,281415,1,0,0:0:0:0:
192,192,281478,1,0,0:0:0:0:
320,192,281540,1,0,0:0:0:0:
64,192,281603,1,0,0:0:0:0:
448,192,281603,1,0,0:0:0:0:
192,192,281728,1,0,0:0:0:0:
64,192,281790,1,0,0:0:0:0:
192,192,281853,1,0,0:0:0:0:
320,192,281853,1,0,0:0:0:0:
448,192,281853,1,0,0:0:0:0:
64,192,281978,1,0,0:0:0:0:
320,192,282103,1,0,0:0:0:0:
448,192,282103,1,0,0:0:0:0:
192,192,282228,1,0,0:0:0:0:
320,192,282290,1,0,0:0:0:0:
64,192,282353,1,0,0:0:0:0:
192,192,282353,1,0,0:0:0:0:
448,192,282353,1,0,0:0:0:0:
320,192,282478,1,0,0:0:0:0:
64,192,282603,1,0,0:0:0:0:
448,192,282603,1,0,0:0:0:0:
192,192,282728,1,0,0:0:0:0:
448,192,282853,1,0,0:0:0:0:
320,192,282853,1,0,0:0:0:0:
64,192,282853,1,0,0:0:0:0:
192,192,282978,1,0,0:0:0:0:
320,192,283103,1,0,0:0:0:0:
448,192,283103,1,0,0:0:0:0:
64,192,283228,1,0,0:0:0:0:
192,192,283353,1,0,0:0:0:0:
320,192,283353,1,0,0:0:0:0:
448,192,283353,1,0,0:0:0:0:
64,192,283478,1,0,0:0:0:0:
320,192,283603,1,0,0:0:0:0:
448,192,283603,1,0,0:0:0:0:
192,192,283728,1,0,0:0:0:0:
64,192,283853,1,0,0:0:0:0:
320,192,283853,1,0,0:0:0:0:
448,192,283853,1,0,0:0:0:0:
192,192,283915,1,0,0:0:0:0:
320,192,283978,1,0,0:0:0:0:
192,192,284103,1,0,0:0:0:0:
64,192,284103,1,0,0:0:0:0:
448,192,284228,1,0,0:0:0:0:
192,192,284353,1,0,0:0:0:0:
320,192,284353,1,0,0:0:0:0:
64,192,284353,1,0,0:0:0:0:
448,192,284478,1,0,0:0:0:0:
320,192,284540,1,0,0:0:0:0:
448,192,284603,1,0,0:0:0:0:
192,192,284603,1,0,0:0:0:0:
64,192,284728,1,0,0:0:0:0:
192,192,284853,1,0,0:0:0:0:
64,192,284853,1,0,0:0:0:0:
448,192,284853,1,0,0:0:0:0:
192,192,284978,1,0,0:0:0:0:
320,192,285103,1,0,0:0:0:0:
448,192,285103,1,0,0:0:0:0:
64,192,285228,1,0,0:0:0:0:
192,192,285290,1,0,0:0:0:0:
320,192,285353,1,0,0:0:0:0:
64,192,285353,1,0,0:0:0:0:
448,192,285353,1,0,0:0:0:0:
192,192,285478,1,0,0:0:0:0:
320,192,285478,1,0,0:0:0:0:
192,192,285603,1,0,0:0:0:0:
64,192,285603,1,0,0:0:0:0:
320,192,285728,1,0,0:0:0:0:
64,192,285853,1,0,0:0:0:0:
448,192,285853,1,0,0:0:0:0:
192,192,285853,1,0,0:0:0:0:
320,192,285915,1,0,0:0:0:0:
448,192,285978,1,0,0:0:0:0:
192,192,286103,1,0,0:0:0:0:
64,192,286103,1,0,0:0:0:0:
320,192,286228,1,0,0:0:0:0:
64,192,286353,1,0,0:0:0:0:
448,192,286353,1,0,0:0:0:0:
192,192,286353,1,0,0:0:0:0:
320,192,286415,1,0,0:0:0:0:
448,192,286478,1,0,0:0:0:0:
192,192,286603,1,0,0:0:0:0:
64,192,286603,1,0,0:0:0:0:
320,192,286728,1,0,0:0:0:0:
448,192,286853,1,0,0:0:0:0:
192,192,286853,1,0,0:0:0:0:
320,192,286853,1,0,0:0:0:0:
64,192,286978,1,0,0:0:0:0:
64,192,287103,1,0,0:0:0:0:
320,192,287103,1,0,0:0:0:0:
192,192,287228,1,0,0:0:0:0:
64,192,287353,1,0,0:0:0:0:
192,192,287353,1,0,0:0:0:0:
448,192,287353,1,0,0:0:0:0:
320,192,287478,1,0,0:0:0:0:
64,192,287603,1,0,0:0:0:0:
448,192,287603,1,0,0:0:0:0:
320,192,287665,1,0,0:0:0:0:
192,192,287728,1,0,0:0:0:0:
64,192,287790,1,0,0:0:0:0:
448,192,287853,1,0,0:0:0:0:
320,192,287915,1,0,0:0:0:0:
192,192,287978,1,0,0:0:0:0:
320,192,288040,1,0,0:0:0:0:
448,192,288103,1,0,0:0:0:0:
64,192,288103,1,0,0:0:0:0:
192,192,288165,1,0,0:0:0:0:
320,192,288228,1,0,0:0:0:0:
448,192,288290,1,0,0:0:0:0:
64,192,288353,1,0,0:0:0:0:
192,192,288415,1,0,0:0:0:0:
320,192,288478,1,0,0:0:0:0:
192,192,288540,1,0,0:0:0:0:
64,192,288603,1,0,0:0:0:0:
448,192,288603,1,0,0:0:0:0:
320,192,288790,1,0,0:0:0:0:
448,192,288790,1,0,0:0:0:0:
320,192,288978,1,0,0:0:0:0:
192,192,288978,1,0,0:0:0:0:
64,192,289103,1,0,0:0:0:0:
448,192,289103,1,0,0:0:0:0:
320,192,289165,1,0,0:0:0:0:
192,192,289228,1,0,0:0:0:0:
448,192,289290,1,0,0:0:0:0:
64,192,289353,1,0,0:0:0:0:
192,192,289415,1,0,0:0:0:0:
320,192,289478,1,0,0:0:0:0:
192,192,289540,1,0,0:0:0:0:
64,192,289603,128,0,290603:0:0:0:0:
448,192,289603,1,0,0:0:0:0:
192,192,289728,1,0,0:0:0:0:
320,192,289790,1,0,0:0:0:0:
448,192,289853,1,0,0:0:0:0:
192,192,289978,128,0,290228:0:0:0:0:
448,192,290228,1,0,0:0:0:0:
320,192,290290,1,0,0:0:0:0:
192,192,290353,1,0,0:0:0:0:
320,192,290478,1,0,0:0:0:0:
448,192,290603,128,0,291603:0:0:0:0:
192,192,290603,1,0,0:0:0:0:
64,192,290728,1,0,0:0:0:0:
64,192,290978,128,0,291228:0:0:0:0:
192,192,291228,1,0,0:0:0:0:
320,192,291353,1,0,0:0:0:0:
192,192,291478,1,0,0:0:0:0:
64,192,291603,128,0,292603:0:0:0:0:
320,192,291603,1,0,0:0:0:0:
192,192,291728,1,0,0:0:0:0:
320,192,291790,1,0,0:0:0:0:
448,192,291853,1,0,0:0:0:0:
192,192,291978,128,0,292228:0:0:0:0:
448,192,292228,1,0,0:0:0:0:
320,192,292290,1,0,0:0:0:0:
192,192,292353,1,0,0:0:0:0:
320,192,292478,1,0,0:0:0:0:
448,192,292603,128,0,293603:0:0:0:0:
192,192,292603,1,0,0:0:0:0:
64,192,292728,1,0,0:0:0:0:
64,192,292978,128,0,293228:0:0:0:0:
192,192,293228,1,0,0:0:0:0:
320,192,293353,1,0,0:0:0:0:
192,192,293478,1,0,0:0:0:0:
64,192,293603,128,0,294603:0:0:0:0:
320,192,293603,1,0,0:0:0:0:
192,192,293728,1,0,0:0:0:0:
320,192,293790,1,0,0:0:0:0:
448,192,293853,1,0,0:0:0:0:
192,192,293978,128,0,294228:0:0:0:0:
448,192,294228,1,0,0:0:0:0:
320,192,294290,1,0,0:0:0:0:
192,192,294353,1,0,0:0:0:0:
320,192,294478,1,0,0:0:0:0:
448,192,294603,128,0,295603:0:0:0:0:
192,192,294603,1,0,0:0:0:0:
64,192,294728,1,0,0:0:0:0:
64,192,294978,128,0,295228:0:0:0:0:
192,192,295228,1,0,0:0:0:0:
320,192,295353,1,0,0:0:0:0:
192,192,295478,1,0,0:0:0:0:
64,192,295603,128,0,296603:0:0:0:0:
320,192,295603,1,0,0:0:0:0:
192,192,295728,1,0,0:0:0:0:
320,192,295790,1,0,0:0:0:0:
448,192,295853,1,0,0:0:0:0:
192,192,295978,1,0,0:0:0:0:
448,192,296228,1,0,0:0:0:0:
320,192,296353,1,0,0:0:0:0:
192,192,296478,1,0,0:0:0:0:
448,192,296603,1,0,0:0:0:0:
192,192,296728,1,0,0:0:0:0:
64,192,296978,1,0,0:0:0:0:
192,192,297228,1,0,0:0:0:0:
320,192,297353,1,0,0:0:0:0:
448,192,297478,1,0,0:0:0:0:
64,192,297603,128,0,298603:0:0:0:0:
192,192,297603,1,0,0:0:0:0:
448,192,297978,1,0,0:0:0:0:
192,192,298353,1,0,0:0:0:0:
320,192,298603,1,0,0:0:0:0:
448,192,298978,1,0,0:0:0:0:
320,192,299228,1,0,0:0:0:0:
64,192,299603,1,0,0:0:0:0:
192,192,299978,1,0,0:0:0:0:
320,192,300353,1,0,0:0:0:0:
448,192,300478,1,0,0:0:0:0:
192,192,300603,1,0,0:0:0:0:
320,192,300728,1,0,0:0:0:0:
64,192,300978,1,0,0:0:0:0:
192,192,301228,1,0,0:0:0:0:
320,192,301353,1,0,0:0:0:0:
448,192,301478,1,0,0:0:0:0:
192,192,301603,1,0,0:0:0:0:
64,192,301603,1,0,0:0:0:0:
320,192,301728,1,0,0:0:0:0:
192,192,301853,1,0,0:0:0:0:
64,192,301853,1,0,0:0:0:0:
320,192,301978,1,0,0:0:0:0:
192,192,302103,1,0,0:0:0:0:
64,192,302103,1,0,0:0:0:0:
448,192,302228,1,0,0:0:0:0:
192,192,302353,1,0,0:0:0:0:
64,192,302353,1,0,0:0:0:0:
448,192,302478,1,0,0:0:0:0:
320,192,302540,1,0,0:0:0:0:
64,192,302603,1,0,0:0:0:0:
448,192,302603,1,0,0:0:0:0:
192,192,302728,1,0,0:0:0:0:
64,192,302853,1,0,0:0:0:0:
448,192,302853,1,0,0:0:0:0:
192,192,302978,1,0,0:0:0:0:
64,192,303103,1,0,0:0:0:0:
448,192,303103,1,0,0:0:0:0:
320,192,303228,1,0,0:0:0:0:
64,192,303353,1,0,0:0:0:0:
448,192,303353,1,0,0:0:0:0:
320,192,303478,1,0,0:0:0:0:
192,192,303540,1,0,0:0:0:0:
320,192,303603,1,0,0:0:0:0:
448,192,303603,1,0,0:0:0:0:
192,192,303728,1,0,0:0:0:0:
320,192,303728,1,0,0:0:0:0:
192,192,303853,1,0,0:0:0:0:
64,192,303853,1,0,0:0:0:0:
448,192,303978,1,0,0:0:0:0:
320,192,303978,1,0,0:0:0:0:
64,192,304103,1,0,0:0:0:0:
192,192,304103,1,0,0:0:0:0:
192,192,304228,1,0,0:0:0:0:
320,192,304228,1,0,0:0:0:0:
320,192,304353,1,0,0:0:0:0:
448,192,304353,1,0,0:0:0:0:
192,192,304478,1,0,0:0:0:0:
320,192,304540,1,0,0:0:0:0:
448,192,304603,1,0,0:0:0:0:
64,192,304603,1,0,0:0:0:0:
320,192,304728,1,0,0:0:0:0:
448,192,304853,128,0,304978:0:0:0:0:
192,192,304853,128,0,304978:0:0:0:0:
320,192,304978,128,0,305103:0:0:0:0:
64,192,305103,128,0,305540:0:0:0:0:
448,192,305353,128,0,305540:0:0:0:0:
448,192,305603,1,0,0:0:0:0:
192,192,305603,1,0,0:0:0:0:
64,192,305853,1,0,0:0:0:0:
320,192,305853,1,0,0:0:0:0:
448,192,306103,1,0,0:0:0:0:
320,192,306165,1,0,0:0:0:0:
192,192,306228,1,0,0:0:0:0:
64,192,306290,1,0,0:0:0:0:
320,192,306353,1,0,0:0:0:0:
192,192,306415,1,0,0:0:0:0:
448,192,306478,1,0,0:0:0:0:
320,192,306540,1,0,0:0:0:0:
64,192,306603,1,0,0:0:0:0:
192,192,306665,1,0,0:0:0:0:
448,192,306728,1,0,0:0:0:0:
320,192,306790,1,0,0:0:0:0:
64,192,306853,1,0,0:0:0:0:
192,192,306915,1,0,0:0:0:0:
448,192,306978,1,0,0:0:0:0:
320,192,307040,1,0,0:0:0:0:
64,192,307103,1,0,0:0:0:0:
192,192,307165,1,0,0:0:0:0:
448,192,307228,1,0,0:0:0:0:
320,192,307290,1,0,0:0:0:0:
64,192,307353,1,0,0:0:0:0:
192,192,307415,1,0,0:0:0:0:
448,192,307478,1,0,0:0:0:0:
320,192,307540,1,0,0:0:0:0:
192,192,307603,1,0,0:0:0:0:
64,192,307728,1,0,0:0:0:0:
320,192,307853,1,0,0:0:0:0:
448,192,307853,1,0,0:0:0:0:
64,192,307978,1,0,0:0:0:0:
192,192,308103,1,0,0:0:0:0:
448,192,308165,1,0,0:0:0:0:
64,192,308228,1,0,0:0:0:0:
320,192,308290,1,0,0:0:0:0:
448,192,308353,1,0,0:0:0:0:
64,192,308353,1,0,0:0:0:0:
192,192,308415,1,0,0:0:0:0:
320,192,308478,1,0,0:0:0:0:
448,192,308540,1,0,0:0:0:0:
64,192,308603,1,0,0:0:0:0:
448,192,308665,1,0,0:0:0:0:
320,192,308728,1,0,0:0:0:0:
192,192,308790,1,0,0:0:0:0:
64,192,308853,1,0,0:0:0:0:
448,192,308915,1,0,0:0:0:0:
64,192,308978,1,0,0:0:0:0:
192,192,309040,1,0,0:0:0:0:
320,192,309103,1,0,0:0:0:0:
64,192,309165,1,0,0:0:0:0:
448,192,309228,1,0,0:0:0:0:
320,192,309290,1,0,0:0:0:0:
192,192,309353,1,0,0:0:0:0:
64,192,309415,1,0,0:0:0:0:
320,192,309478,1,0,0:0:0:0:
448,192,309540,1,0,0:0:0:0:
64,192,309603,1,0,0:0:0:0:
192,192,309665,1,0,0:0:0:0:
320,192,309728,1,0,0:0:0:0:
448,192,309790,1,0,0:0:0:0:
64,192,309853,1,0,0:0:0:0:
192,192,309853,1,0,0:0:0:0:
320,192,309978,1,0,0:0:0:0:
448,192,310103,1,0,0:0:0:0:
320,192,310165,1,0,0:0:0:0:
448,192,310228,1,0,0:0:0:0:
192,192,310290,1,0,0:0:0:0:
64,192,310353,1,0,0:0:0:0:
320,192,310415,1,0,0:0:0:0:
448,192,310478,1,0,0:0:0:0:
192,192,310540,1,0,0:0:0:0:
320,192,310603,1,0,0:0:0:0:
192,192,310665,1,0,0:0:0:0:
448,192,310728,1,0,0:0:0:0:
320,192,310790,1,0,0:0:0:0:
64,192,310853,1,0,0:0:0:0:
192,192,310915,1,0,0:0:0:0:
320,192,310978,1,0,0:0:0:0:
192,192,311040,1,0,0:0:0:0:
64,192,311103,1,0,0:0:0:0:
448,192,311103,1,0,0:0:0:0:
320,192,311290,1,0,0:0:0:0:
192,192,311290,1,0,0:0:0:0:
64,192,311478,1,0,0:0:0:0:
192,192,311478,1,0,0:0:0:0:
320,192,311603,1,0,0:0:0:0:
448,192,311665,1,0,0:0:0:0:
320,192,311728,1,0,0:0:0:0:
192,192,311790,1,0,0:0:0:0:
64,192,311853,1,0,0:0:0:0:
320,192,311915,1,0,0:0:0:0:
448,192,311978,1,0,0:0:0:0:
192,192,312040,1,0,0:0:0:0:
64,192,312103,1,0,0:0:0:0:
192,192,312228,1,0,0:0:0:0:
320,192,312353,1,0,0:0:0:0:
448,192,312415,1,0,0:0:0:0:
192,192,312478,1,0,0:0:0:0:
320,192,312540,1,0,0:0:0:0:
64,192,312603,1,0,0:0:0:0:
320,192,312665,1,0,0:0:0:0:
192,192,312728,1,0,0:0:0:0:
448,192,312790,1,0,0:0:0:0:
320,192,312853,1,0,0:0:0:0:
64,192,312915,1,0,0:0:0:0:
448,192,312978,1,0,0:0:0:0:
192,192,313040,1,0,0:0:0:0:
320,192,313103,1,0,0:0:0:0:
448,192,313144,1,0,0:0:0:0:
192,192,313186,1,0,0:0:0:0:
64,192,313228,1,0,0:0:0:0:
448,192,313353,1,0,0:0:0:0:
192,192,313415,1,0,0:0:0:0:
320,192,313478,1,0,0:0:0:0:
64,192,313540,1,0,0:0:0:0:
192,192,313603,1,0,0:0:0:0:
448,192,313603,1,0,0:0:0:0:
64,192,313769,1,0,0:0:0:0:
192,192,313853,1,0,0:0:0:0:
320,192,313936,1,0,0:0:0:0:
448,192,314019,1,0,0:0:0:0:
64,192,314103,1,0,0:0:0:0:
320,192,314103,1,0,0:0:0:0:
192,192,314269,1,0,0:0:0:0:
320,192,314353,1,0,0:0:0:0:
448,192,314436,1,0,0:0:0:0:
64,192,314519,1,0,0:0:0:0:
192,192,314603,1,0,0:0:0:0:
448,192,314603,1,0,0:0:0:0:
64,192,314769,1,0,0:0:0:0:
192,192,314853,1,0,0:0:0:0:
320,192,314936,1,0,0:0:0:0:
448,192,315019,1,0,0:0:0:0:
64,192,315103,1,0,0:0:0:0:
320,192,315103,1,0,0:0:0:0:
192,192,315269,1,0,0:0:0:0:
320,192,315353,1,0,0:0:0:0:
448,192,315436,1,0,0:0:0:0:
64,192,315519,1,0,0:0:0:0:
192,192,315603,1,0,0:0:0:0:
448,192,315603,1,0,0:0:0:0:
320,192,315769,1,0,0:0:0:0:
192,192,315853,1,0,0:0:0:0:
64,192,315936,1,0,0:0:0:0:
448,192,316019,1,0,0:0:0:0:
320,192,316103,1,0,0:0:0:0:
64,192,316103,1,0,0:0:0:0:
448,192,316269,1,0,0:0:0:0:
320,192,316353,1,0,0:0:0:0:
192,192,316436,1,0,0:0:0:0:
64,192,316519,1,0,0:0:0:0:
448,192,316603,1,0,0:0:0:0:
320,192,316603,128,0,316728:0:0:0:0:
192,192,316728,1,0,0:0:0:0:
64,192,316853,1,0,0:0:0:0:
320,192,316853,1,0,0:0:0:0:
192,192,316978,1,0,0:0:0:0:
320,192,317040,1,0,0:0:0:0:
448,192,317103,1,0,0:0:0:0:
320,192,317165,1,0,0:0:0:0:
192,192,317228,1,0,0:0:0:0:
64,192,317290,1,0,0:0:0:0:
320,192,317353,1,0,0:0:0:0:
448,192,317353,1,0,0:0:0:0:
192,192,317478,1,0,0:0:0:0:
64,192,317603,1,0,0:0:0:0:
192,192,317665,1,0,0:0:0:0:
320,192,317728,1,0,0:0:0:0:
192,192,317790,1,0,0:0:0:0:
448,192,317853,1,0,0:0:0:0:
64,192,317853,1,0,0:0:0:0:
320,192,318103,128,0,318353:0:0:0:0:
192,192,318103,1,0,0:0:0:0:
192,192,318353,1,0,0:0:0:0:
64,192,318353,1,0,0:0:0:0:
448,192,318415,1,0,0:0:0:0:
320,192,318478,1,0,0:0:0:0:
64,192,318603,1,0,0:0:0:0:
192,192,318665,1,0,0:0:0:0:
320,192,318728,1,0,0:0:0:0:
192,192,318790,1,0,0:0:0:0:
448,192,318853,1,0,0:0:0:0:
64,192,318853,1,0,0:0:0:0:
192,192,318978,1,0,0:0:0:0:
448,192,319103,1,0,0:0:0:0:
320,192,319103,128,0,319228:0:0:0:0:
192,192,319353,1,0,0:0:0:0:
320,192,319353,1,0,0:0:0:0:
64,192,319478,1,0,0:0:0:0:
192,192,319540,1,0,0:0:0:0:
320,192,319603,1,0,0:0:0:0:
448,192,319603,1,0,0:0:0:0:
192,192,319853,1,0,0:0:0:0:
192,192,319978,128,0,320353:0:0:0:0:
320,192,320228,1,0,0:0:0:0:
320,192,320353,128,0,320603:0:0:0:0:
192,192,320478,128,0,320728:0:0:0:0:
64,192,320603,128,0,321353:0:0:0:0:
448,192,320603,128,0,320978:0:0:0:0:
320,192,320728,128,0,320853:0:0:0:0:
192,192,320853,128,0,321228:0:0:0:0:
320,192,320978,128,0,321103:0:0:0:0:
448,192,321103,128,0,321478:0:0:0:0:
320,192,321228,128,0,321478:0:0:0:0:
192,192,321353,128,0,321478:0:0:0:0:
64,192,321478,1,0,0:0:0:0:
64,192,321603,128,0,322103:0:0:0:0:
192,192,321603,128,0,322103:0:0:0:0:
320,192,321603,128,0,322103:0:0:0:0:
448,192,321603,128,0,322103:0:0:0:0:
64,192,325603,128,0,326103:0:0:0:0:
448,192,326103,1,0,0:0:0:0:
192,192,326165,1,0,0:0:0:0:
320,192,326228,1,0,0:0:0:0:
192,192,326290,1,0,0:0:0:0:
448,192,326353,1,0,0:0:0:0:
320,192,326415,1,0,0:0:0:0:
192,192,326478,1,0,0:0:0:0:
64,192,326540,1,0,0:0:0:0:
320,192,326603,1,0,0:0:0:0:
448,192,326665,1,0,0:0:0:0:
192,192,326728,1,0,0:0:0:0:
320,192,326790,1,0,0:0:0:0:
64,192,326853,1,0,0:0:0:0:
192,192,326915,1,0,0:0:0:0:
320,192,326978,1,0,0:0:0:0:
192,192,327040,1,0,0:0:0:0:
64,192,327103,1,0,0:0:0:0:
320,192,327165,1,0,0:0:0:0:
448,192,327228,1,0,0:0:0:0:
192,192,327290,1,0,0:0:0:0:
64,192,327353,1,0,0:0:0:0:
320,192,327415,1,0,0:0:0:0:
192,192,327478,1,0,0:0:0:0:
448,192,327540,1,0,0:0:0:0:
320,192,327603,1,0,0:0:0:0:
192,192,327665,1,0,0:0:0:0:
64,192,327728,1,0,0:0:0:0:
320,192,327790,1,0,0:0:0:0:
192,192,327853,1,0,0:0:0:0:
448,192,327915,1,0,0:0:0:0:
192,192,327978,1,0,0:0:0:0:
64,192,328040,1,0,0:0:0:0:
320,192,328103,1,0,0:0:0:0:
448,192,328165,1,0,0:0:0:0:
192,192,328228,1,0,0:0:0:0:
64,192,328290,1,0,0:0:0:0:
320,192,328353,1,0,0:0:0:0:
448,192,328415,1,0,0:0:0:0:
192,192,328478,1,0,0:0:0:0:
64,192,328540,1,0,0:0:0:0:
448,192,328603,1,0,0:0:0:0:
320,192,328665,1,0,0:0:0:0:
64,192,328728,1,0,0:0:0:0:
192,192,328790,1,0,0:0:0:0:
448,192,328853,1,0,0:0:0:0:
320,192,328915,1,0,0:0:0:0:
64,192,328978,1,0,0:0:0:0:
192,192,329040,1,0,0:0:0:0:
320,192,329103,1,0,0:0:0:0:
448,192,329165,1,0,0:0:0:0:
192,192,329228,1,0,0:0:0:0:
64,192,329290,1,0,0:0:0:0:
320,192,329353,1,0,0:0:0:0:
448,192,329415,1,0,0:0:0:0:
192,192,329478,1,0,0:0:0:0:
64,192,329540,1,0,0:0:0:0:
320,192,329603,1,0,0:0:0:0:
448,192,329665,1,0,0:0:0:0:
64,192,329728,1,0,0:0:0:0:
192,192,329790,1,0,0:0:0:0:
320,192,329853,1,0,0:0:0:0:
448,192,329915,1,0,0:0:0:0:
64,192,329978,1,0,0:0:0:0:
192,192,330040,1,0,0:0:0:0:
448,192,330103,1,0,0:0:0:0:
320,192,330103,128,0,330853:0:0:0:0:
