osu file format v14

[General]
AudioFilename: audio.mp3
AudioLeadIn: 0
PreviewTime: 46640
Countdown: 0
SampleSet: Normal
StackLeniency: 0.7
Mode: 1
LetterboxInBreaks: 0
WidescreenStoryboard: 1

[Editor]
Bookmarks: 35973,57307,78640,89307
DistanceSpacing: 1.4
BeatDivisor: 4
GridSize: 32
TimelineZoom: 2.7

[Metadata]
Title:Hibike!
TitleUnicode:響け!
Artist:Kry.exe
ArtistUnicode:Kry.exe
Creator:GOD82028
Version:Oni
Source:Cytus II
Tags:NEKO#ΦωΦ Video game Instrumental rhythm game chiptune happy hardcore electronic krydar
BeatmapID:2503905
BeatmapSetID:1202264

[Difficulty]
HPDrainRate:5
CircleSize:5
OverallDifficulty:5.5
ApproachRate:5
SliderMultiplier:1.4
SliderTickRate:1

[Events]
//Background and Video events
0,0,"5gWoKTL.jpg",0,75
//Break Periods
//Storyboard Layer 0 (Background)
//Storyboard Layer 1 (Fail)
//Storyboard Layer 2 (Pass)
//Storyboard Layer 3 (Foreground)
//Storyboard Layer 4 (Overlay)
//Storyboard Sound Samples

[TimingPoints]
3974,333.333333333333,4,1,0,60,1,0
3974,-142.857142857143,4,1,0,60,0,0
14557,-142.857142857143,4,1,0,70,0,0
14723,-117.647058823529,4,1,0,70,0,0
19890,-117.647058823529,4,1,0,80,0,0
20057,-100,4,1,0,80,0,0
22640,-100,4,1,0,70,0,0
23973,-100,4,1,0,80,0,0
25390,-142.857142857143,4,1,0,60,0,0
30598,-142.857142857143,4,1,0,70,0,0
30723,-117.647058823529,4,1,0,70,0,0
41223,-117.647058823529,4,1,0,80,0,0
41390,-100,4,1,0,80,0,0
46640,-100,4,1,0,90,0,1
62640,-117.647058823529,4,1,0,70,0,0
67973,-86.9565217391304,4,1,0,90,0,1
83973,-86.9565217391304,4,1,0,70,0,0
84057,-117.647058823529,4,1,0,70,0,0
89390,-142.857142857143,4,1,0,60,0,0
99890,-142.857142857143,4,1,0,70,0,0
100057,-117.647058823529,4,1,0,70,0,0
105223,-117.647058823529,4,1,0,80,0,0
105390,-100,4,1,0,80,0,0
110640,-100,4,1,0,60,0,0
111973,-111.111111111111,4,1,0,55,0,0
113307,-125,4,1,0,50,0,0
114640,-142.857142857143,4,1,0,45,0,0
115973,-142.857142857143,4,1,0,40,0,0
117307,-166.666666666667,4,1,0,30,0,0
118640,-200,4,1,0,20,0,0

[HitObjects]
256,192,3974,5,0,0:0:0:0:
256,192,4307,1,0,0:0:0:0:
256,192,4473,1,0,0:0:0:0:
256,192,4807,1,0,0:0:0:0:
256,192,4973,1,2,0:0:0:0:
256,192,5307,1,0,0:0:0:0:
256,192,5640,1,0,0:0:0:0:
256,192,5807,1,0,0:0:0:0:
256,192,6140,1,2,0:0:0:0:
256,192,6307,1,2,0:0:0:0:
256,192,6473,1,0,0:0:0:0:
256,192,6640,1,0,0:0:0:0:
256,192,6973,1,0,0:0:0:0:
256,192,7140,1,0,0:0:0:0:
256,192,7473,1,0,0:0:0:0:
256,192,7640,1,2,0:0:0:0:
256,192,7807,1,0,0:0:0:0:
256,192,7973,1,0,0:0:0:0:
256,192,8307,1,0,0:0:0:0:
256,192,8473,1,0,0:0:0:0:
256,192,8807,1,0,0:0:0:0:
256,192,8973,1,0,0:0:0:0:
256,192,9140,1,2,0:0:0:0:
256,192,9307,1,2,0:0:0:0:
256,192,9640,1,0,0:0:0:0:
256,192,9807,1,2,0:0:0:0:
256,192,10140,1,0,0:0:0:0:
256,192,10307,1,2,0:0:0:0:
256,192,10640,1,0,0:0:0:0:
256,192,10973,1,0,0:0:0:0:
256,192,11140,1,0,0:0:0:0:
256,192,11473,1,0,0:0:0:0:
256,192,11640,1,2,0:0:0:0:
256,192,11807,1,0,0:0:0:0:
256,192,11973,1,2,0:0:0:0:
256,192,12140,1,2,0:0:0:0:
256,192,12307,1,0,0:0:0:0:
256,192,12473,1,2,0:0:0:0:
256,192,12640,1,2,0:0:0:0:
256,192,12807,1,0,0:0:0:0:
256,192,12973,1,0,0:0:0:0:
256,192,13140,1,2,0:0:0:0:
256,192,13307,1,2,0:0:0:0:
256,192,13473,1,0,0:0:0:0:
256,192,13557,1,0,0:0:0:0:
256,192,13640,1,2,0:0:0:0:
256,192,13807,1,0,0:0:0:0:
256,192,13890,1,0,0:0:0:0:
256,192,13973,1,0,0:0:0:0:
256,192,14140,1,2,0:0:0:0:
256,192,14307,1,2,0:0:0:0:
256,192,14473,1,2,0:0:0:0:
256,192,14640,1,0,0:0:0:0:
256,192,14973,1,2,0:0:0:0:
256,192,15140,1,2,0:0:0:0:
256,192,15223,1,2,0:0:0:0:
256,192,15307,1,0,0:0:0:0:
256,192,15473,1,0,0:0:0:0:
256,192,15640,1,2,0:0:0:0:
256,192,15973,1,0,0:0:0:0:
256,192,16307,1,2,0:0:0:0:
256,192,16473,1,0,0:0:0:0:
256,192,16557,1,0,0:0:0:0:
256,192,16640,1,0,0:0:0:0:
256,192,16807,1,0,0:0:0:0:
256,192,16973,1,2,0:0:0:0:
256,192,17140,1,0,0:0:0:0:
256,192,17307,1,0,0:0:0:0:
256,192,17640,1,2,0:0:0:0:
256,192,17807,1,2,0:0:0:0:
256,192,17890,1,2,0:0:0:0:
256,192,17973,1,0,0:0:0:0:
256,192,18140,1,0,0:0:0:0:
256,192,18307,1,2,0:0:0:0:
256,192,18473,1,0,0:0:0:0:
256,192,18640,1,0,0:0:0:0:
256,192,18807,1,0,0:0:0:0:
256,192,18890,1,0,0:0:0:0:
256,192,18973,1,2,0:0:0:0:
256,192,19140,1,0,0:0:0:0:
256,192,19223,1,0,0:0:0:0:
256,192,19307,1,2,0:0:0:0:
256,192,19473,1,2,0:0:0:0:
256,192,19640,1,0,0:0:0:0:
256,192,19807,1,0,0:0:0:0:
256,192,19973,1,2,0:0:0:0:
256,192,20140,1,0,0:0:0:0:
256,192,20223,1,0,0:0:0:0:
256,192,20307,1,0,0:0:0:0:
256,192,20473,1,2,0:0:0:0:
256,192,20640,1,0,0:0:0:0:
256,192,20723,1,2,0:0:0:0:
256,192,20807,1,0,0:0:0:0:
256,192,20973,1,2,0:0:0:0:
256,192,21307,1,2,0:0:0:0:
256,192,21473,1,0,0:0:0:0:
256,192,21557,1,0,0:0:0:0:
256,192,21640,1,0,0:0:0:0:
256,192,21807,1,2,0:0:0:0:
256,192,21973,1,0,0:0:0:0:
256,192,22057,1,2,0:0:0:0:
256,192,22140,1,0,0:0:0:0:
256,192,22307,1,2,0:0:0:0:
256,192,22640,1,6,0:0:0:0:
256,192,22807,1,6,0:0:0:0:
256,192,22973,1,4,0:0:0:0:
256,192,23140,1,6,0:0:0:0:
256,192,23307,1,6,0:0:0:0:
256,192,23473,1,4,0:0:0:0:
256,192,23640,1,4,0:0:0:0:
256,192,23807,1,6,0:0:0:0:
256,192,23973,1,0,0:0:0:0:
256,192,24057,1,0,0:0:0:0:
256,192,24140,1,0,0:0:0:0:
256,192,24307,1,2,0:0:0:0:
256,192,24390,1,2,0:0:0:0:
256,192,24473,1,0,0:0:0:0:
256,192,24640,1,0,0:0:0:0:
256,192,24723,1,0,0:0:0:0:
256,192,24807,1,0,0:0:0:0:
256,192,24890,1,0,0:0:0:0:
256,192,24973,1,2,0:0:0:0:
256,192,25057,1,2,0:0:0:0:
256,192,25140,1,2,0:0:0:0:
256,192,25307,1,4,0:0:0:0:
256,192,26307,1,0,0:0:0:0:
256,192,26473,1,2,0:0:0:0:
256,192,26640,1,2,0:0:0:0:
256,192,26973,1,2,0:0:0:0:
256,192,27307,1,0,0:0:0:0:
256,192,27640,1,2,0:0:0:0:
256,192,27973,1,0,0:0:0:0:
256,192,28973,1,2,0:0:0:0:
256,192,29140,1,0,0:0:0:0:
256,192,29307,1,2,0:0:0:0:
256,192,30307,1,0,0:0:0:0:
256,192,30473,1,0,0:0:0:0:
256,192,30557,1,2,0:0:0:0:
256,192,30640,1,0,0:0:0:0:
256,192,30973,1,2,0:0:0:0:
256,192,31223,1,2,0:0:0:0:
256,192,31307,1,0,0:0:0:0:
256,192,31473,1,0,0:0:0:0:
256,192,31640,1,2,0:0:0:0:
256,192,31973,1,0,0:0:0:0:
256,192,32307,1,2,0:0:0:0:
256,192,32557,1,0,0:0:0:0:
256,192,32640,1,0,0:0:0:0:
256,192,32807,1,0,0:0:0:0:
256,192,32973,1,2,0:0:0:0:
256,192,33140,1,2,0:0:0:0:
256,192,33307,1,0,0:0:0:0:
256,192,33640,1,2,0:0:0:0:
256,192,33890,1,2,0:0:0:0:
256,192,33973,1,0,0:0:0:0:
256,192,34140,1,0,0:0:0:0:
256,192,34307,1,2,0:0:0:0:
256,192,34640,1,2,0:0:0:0:
256,192,34807,1,0,0:0:0:0:
256,192,34890,1,0,0:0:0:0:
256,192,34973,1,2,0:0:0:0:
256,192,35140,1,0,0:0:0:0:
256,192,35223,1,0,0:0:0:0:
256,192,35307,1,0,0:0:0:0:
256,192,35473,1,2,0:0:0:0:
256,192,35640,1,2,0:0:0:0:
256,192,35723,1,2,0:0:0:0:
256,192,35807,1,2,0:0:0:0:
256,192,35973,1,0,0:0:0:0:
256,192,36307,1,2,0:0:0:0:
256,192,36557,1,2,0:0:0:0:
256,192,36640,1,0,0:0:0:0:
256,192,36807,1,0,0:0:0:0:
256,192,36973,1,2,0:0:0:0:
256,192,37307,1,0,0:0:0:0:
256,192,37640,1,2,0:0:0:0:
256,192,37890,1,0,0:0:0:0:
256,192,37973,1,0,0:0:0:0:
256,192,38140,1,0,0:0:0:0:
256,192,38307,1,2,0:0:0:0:
256,192,38473,1,2,0:0:0:0:
256,192,38640,1,0,0:0:0:0:
256,192,38973,1,2,0:0:0:0:
256,192,39223,1,2,0:0:0:0:
256,192,39307,1,0,0:0:0:0:
256,192,39473,1,0,0:0:0:0:
256,192,39640,1,2,0:0:0:0:
256,192,39973,1,2,0:0:0:0:
256,192,40140,1,0,0:0:0:0:
256,192,40223,1,0,0:0:0:0:
256,192,40307,1,2,0:0:0:0:
256,192,40473,1,0,0:0:0:0:
256,192,40557,1,0,0:0:0:0:
256,192,40640,1,2,0:0:0:0:
256,192,40807,1,2,0:0:0:0:
256,192,40973,1,0,0:0:0:0:
256,192,41140,1,2,0:0:0:0:
256,192,41307,1,0,0:0:0:0:
256,192,41473,1,2,0:0:0:0:
256,192,41557,1,2,0:0:0:0:
256,192,41640,1,0,0:0:0:0:
256,192,41807,1,2,0:0:0:0:
256,192,41973,1,0,0:0:0:0:
256,192,42140,1,2,0:0:0:0:
256,192,42223,1,2,0:0:0:0:
256,192,42307,1,0,0:0:0:0:
256,192,42473,1,2,0:0:0:0:
256,192,42640,1,0,0:0:0:0:
256,192,42807,1,0,0:0:0:0:
256,192,42890,1,2,0:0:0:0:
256,192,42973,1,0,0:0:0:0:
256,192,43140,1,2,0:0:0:0:
256,192,43307,1,0,0:0:0:0:
256,192,43473,1,0,0:0:0:0:
256,192,43557,1,2,0:0:0:0:
256,192,43640,1,0,0:0:0:0:
256,192,43807,1,2,0:0:0:0:
256,192,43973,1,4,0:0:0:0:
256,192,44140,1,4,0:0:0:0:
256,192,44307,1,6,0:0:0:0:
256,192,44473,1,4,0:0:0:0:
256,192,44640,1,4,0:0:0:0:
256,192,44807,1,6,0:0:0:0:
256,192,44973,1,4,0:0:0:0:
256,192,45140,1,6,0:0:0:0:
256,192,45307,1,0,0:0:0:0:
256,192,45390,1,0,0:0:0:0:
256,192,45473,1,0,0:0:0:0:
256,192,45557,1,0,0:0:0:0:
256,192,45640,1,2,0:0:0:0:
256,192,45723,1,2,0:0:0:0:
256,192,45807,1,2,0:0:0:0:
256,192,45973,1,0,0:0:0:0:
256,192,46140,1,0,0:0:0:0:
256,192,46307,1,2,0:0:0:0:
256,192,46640,1,6,0:0:0:0:
256,192,46807,1,0,0:0:0:0:
256,192,46890,1,0,0:0:0:0:
256,192,46973,1,0,0:0:0:0:
256,192,47140,1,2,0:0:0:0:
256,192,47307,1,0,0:0:0:0:
256,192,47473,1,0,0:0:0:0:
256,192,47557,1,0,0:0:0:0:
256,192,47640,1,2,0:0:0:0:
256,192,47807,1,0,0:0:0:0:
256,192,47973,1,2,0:0:0:0:
256,192,48057,1,2,0:0:0:0:
256,192,48140,1,2,0:0:0:0:
256,192,48307,1,2,0:0:0:0:
256,192,48390,1,2,0:0:0:0:
256,192,48473,1,0,0:0:0:0:
256,192,48640,1,2,0:0:0:0:
256,192,48723,1,0,0:0:0:0:
256,192,48807,1,0,0:0:0:0:
256,192,48973,1,0,0:0:0:0:
256,192,49307,1,0,0:0:0:0:
256,192,49557,1,0,0:0:0:0:
256,192,49640,1,2,0:0:0:0:
256,192,49807,1,0,0:0:0:0:
256,192,49973,1,2,0:0:0:0:
256,192,50223,1,2,0:0:0:0:
256,192,50307,1,2,0:0:0:0:
256,192,50473,1,2,0:0:0:0:
256,192,50640,1,0,0:0:0:0:
256,192,50890,1,2,0:0:0:0:
256,192,50973,1,0,0:0:0:0:
256,192,51140,1,2,0:0:0:0:
256,192,51307,1,0,0:0:0:0:
256,192,51473,1,0,0:0:0:0:
256,192,51557,1,0,0:0:0:0:
256,192,51640,1,0,0:0:0:0:
256,192,51973,1,0,0:0:0:0:
256,192,52140,1,0,0:0:0:0:
256,192,52223,1,0,0:0:0:0:
256,192,52307,1,2,0:0:0:0:
256,192,52473,1,0,0:0:0:0:
256,192,52557,1,0,0:0:0:0:
256,192,52640,1,2,0:0:0:0:
256,192,52723,1,0,0:0:0:0:
256,192,52807,1,0,0:0:0:0:
256,192,52973,1,2,0:0:0:0:
256,192,53307,1,0,0:0:0:0:
256,192,53473,1,0,0:0:0:0:
256,192,53557,1,0,0:0:0:0:
256,192,53640,1,2,0:0:0:0:
256,192,53807,1,0,0:0:0:0:
256,192,53890,1,0,0:0:0:0:
256,192,53973,1,2,0:0:0:0:
256,192,54057,1,0,0:0:0:0:
256,192,54140,1,0,0:0:0:0:
256,192,54307,1,2,0:0:0:0:
256,192,54473,1,0,0:0:0:0:
256,192,54640,1,0,0:0:0:0:
256,192,54807,1,0,0:0:0:0:
256,192,54890,1,2,0:0:0:0:
256,192,54973,1,0,0:0:0:0:
256,192,55140,1,0,0:0:0:0:
256,192,55223,1,0,0:0:0:0:
256,192,55307,1,2,0:0:0:0:
256,192,55390,1,2,0:0:0:0:
256,192,55473,1,0,0:0:0:0:
256,192,55640,1,2,0:0:0:0:
256,192,55807,1,0,0:0:0:0:
256,192,55973,1,2,0:0:0:0:
256,192,56057,1,0,0:0:0:0:
256,192,56140,1,2,0:0:0:0:
256,192,56307,1,2,0:0:0:0:
256,192,56390,1,0,0:0:0:0:
256,192,56473,1,0,0:0:0:0:
256,192,56640,1,2,0:0:0:0:
256,192,56723,1,2,0:0:0:0:
256,192,56807,1,0,0:0:0:0:
256,192,56973,1,0,0:0:0:0:
256,192,57307,1,6,0:0:0:0:
256,192,57473,1,0,0:0:0:0:
256,192,57557,1,0,0:0:0:0:
256,192,57640,1,0,0:0:0:0:
256,192,57807,1,2,0:0:0:0:
256,192,57973,1,0,0:0:0:0:
256,192,58140,1,0,0:0:0:0:
256,192,58223,1,0,0:0:0:0:
256,192,58307,1,2,0:0:0:0:
256,192,58473,1,0,0:0:0:0:
256,192,58640,1,2,0:0:0:0:
256,192,58723,1,2,0:0:0:0:
256,192,58807,1,2,0:0:0:0:
256,192,58973,1,2,0:0:0:0:
256,192,59057,1,2,0:0:0:0:
256,192,59140,1,0,0:0:0:0:
256,192,59307,1,2,0:0:0:0:
256,192,59390,1,0,0:0:0:0:
256,192,59473,1,0,0:0:0:0:
256,192,59640,1,0,0:0:0:0:
256,192,59973,1,0,0:0:0:0:
256,192,60223,1,0,0:0:0:0:
256,192,60307,1,2,0:0:0:0:
256,192,60473,1,0,0:0:0:0:
256,192,60640,1,2,0:0:0:0:
256,192,60890,1,2,0:0:0:0:
256,192,60973,1,2,0:0:0:0:
256,192,61140,1,0,0:0:0:0:
256,192,61307,1,2,0:0:0:0:
256,192,61557,1,2,0:0:0:0:
256,192,61640,1,0,0:0:0:0:
256,192,61807,1,2,0:0:0:0:
256,192,61973,1,0,0:0:0:0:
256,192,62140,1,0,0:0:0:0:
256,192,62223,1,0,0:0:0:0:
256,192,62307,1,0,0:0:0:0:
256,192,62640,1,0,0:0:0:0:
256,192,62723,1,0,0:0:0:0:
256,192,62807,1,2,0:0:0:0:
256,192,62890,1,0,0:0:0:0:
256,192,62973,1,2,0:0:0:0:
256,192,63140,1,0,0:0:0:0:
256,192,63307,1,0,0:0:0:0:
256,192,63473,1,2,0:0:0:0:
256,192,63640,1,2,0:0:0:0:
256,192,63807,1,0,0:0:0:0:
256,192,63973,1,2,0:0:0:0:
256,192,64140,1,2,0:0:0:0:
256,192,64223,1,0,0:0:0:0:
256,192,64307,1,2,0:0:0:0:
256,192,64473,1,0,0:0:0:0:
256,192,64640,1,2,0:0:0:0:
256,192,64807,1,0,0:0:0:0:
256,192,64973,1,0,0:0:0:0:
256,192,65307,1,2,0:0:0:0:
256,192,65473,1,0,0:0:0:0:
256,192,65557,1,0,0:0:0:0:
256,192,65640,1,2,0:0:0:0:
256,192,65807,1,0,0:0:0:0:
256,192,65973,1,2,0:0:0:0:
256,192,66140,1,2,0:0:0:0:
256,192,66223,1,0,0:0:0:0:
256,192,66307,1,2,0:0:0:0:
256,192,66473,1,2,0:0:0:0:
256,192,66640,1,0,0:0:0:0:
256,192,66807,1,0,0:0:0:0:
256,192,66890,1,2,0:0:0:0:
256,192,66973,1,2,0:0:0:0:
256,192,67140,1,0,0:0:0:0:
256,192,67223,1,2,0:0:0:0:
256,192,67307,1,0,0:0:0:0:
256,192,67473,1,0,0:0:0:0:
256,192,67640,1,2,0:0:0:0:
256,192,67973,1,0,0:0:0:0:
256,192,68057,1,0,0:0:0:0:
256,192,68140,1,2,0:0:0:0:
256,192,68223,1,2,0:0:0:0:
256,192,68307,1,0,0:0:0:0:
256,192,68473,1,0,0:0:0:0:
256,192,68640,1,2,0:0:0:0:
256,192,68723,1,2,0:0:0:0:
256,192,68807,1,0,0:0:0:0:
256,192,68973,1,0,0:0:0:0:
256,192,69307,1,2,0:0:0:0:
256,192,69390,1,2,0:0:0:0:
256,192,69473,1,0,0:0:0:0:
256,192,69640,1,2,0:0:0:0:
256,192,69723,1,0,0:0:0:0:
256,192,69807,1,0,0:0:0:0:
256,192,69973,1,2,0:0:0:0:
256,192,70057,1,0,0:0:0:0:
256,192,70140,1,2,0:0:0:0:
256,192,70307,1,0,0:0:0:0:
256,192,70390,1,2,0:0:0:0:
256,192,70473,1,2,0:0:0:0:
256,192,70640,1,0,0:0:0:0:
256,192,70723,1,0,0:0:0:0:
256,192,70807,1,2,0:0:0:0:
256,192,70890,1,0,0:0:0:0:
256,192,70973,1,2,0:0:0:0:
256,192,71140,1,0,0:0:0:0:
256,192,71307,1,2,0:0:0:0:
256,192,71390,1,0,0:0:0:0:
256,192,71473,1,2,0:0:0:0:
256,192,71640,1,0,0:0:0:0:
256,192,71807,1,2,0:0:0:0:
256,192,71973,1,0,0:0:0:0:
256,192,72057,1,0,0:0:0:0:
256,192,72140,1,0,0:0:0:0:
256,192,72223,1,0,0:0:0:0:
256,192,72307,1,2,0:0:0:0:
256,192,72473,1,0,0:0:0:0:
256,192,72640,1,2,0:0:0:0:
256,192,72723,1,0,0:0:0:0:
256,192,72807,1,2,0:0:0:0:
256,192,72973,1,0,0:0:0:0:
256,192,73307,1,0,0:0:0:0:
256,192,73390,1,0,0:0:0:0:
256,192,73473,1,0,0:0:0:0:
256,192,73557,1,2,0:0:0:0:
256,192,73640,1,0,0:0:0:0:
256,192,73807,1,2,0:0:0:0:
256,192,73973,1,0,0:0:0:0:
256,192,74057,1,2,0:0:0:0:
256,192,74140,1,2,0:0:0:0:
256,192,74307,1,0,0:0:0:0:
256,192,74390,1,2,0:0:0:0:
256,192,74473,1,0,0:0:0:0:
256,192,74640,1,2,0:0:0:0:
256,192,74807,1,0,0:0:0:0:
256,192,74973,1,2,0:0:0:0:
256,192,75057,1,0,0:0:0:0:
256,192,75140,1,0,0:0:0:0:
256,192,75223,1,2,0:0:0:0:
256,192,75307,1,0,0:0:0:0:
256,192,75473,1,2,0:0:0:0:
256,192,75640,1,2,0:0:0:0:
256,192,75723,1,0,0:0:0:0:
256,192,75807,1,2,0:0:0:0:
256,192,75890,1,2,0:0:0:0:
256,192,75973,1,0,0:0:0:0:
256,192,76140,1,2,0:0:0:0:
256,192,76223,1,2,0:0:0:0:
256,192,76307,1,0,0:0:0:0:
256,192,76473,1,2,0:0:0:0:
256,192,76640,1,2,0:0:0:0:
256,192,76723,1,2,0:0:0:0:
256,192,76807,1,0,0:0:0:0:
256,192,76890,1,0,0:0:0:0:
256,192,76973,1,2,0:0:0:0:
256,192,77140,1,0,0:0:0:0:
256,192,77307,1,0,0:0:0:0:
256,192,77390,1,0,0:0:0:0:
256,192,77473,1,0,0:0:0:0:
256,192,77557,1,0,0:0:0:0:
256,192,77640,1,2,0:0:0:0:
256,192,77723,1,2,0:0:0:0:
256,192,77807,1,0,0:0:0:0:
256,192,77973,1,2,0:0:0:0:
256,192,78057,1,0,0:0:0:0:
256,192,78140,1,2,0:0:0:0:
256,192,78307,1,0,0:0:0:0:
256,192,78640,1,0,0:0:0:0:
256,192,78723,1,0,0:0:0:0:
256,192,78807,1,2,0:0:0:0:
256,192,78890,1,2,0:0:0:0:
256,192,78973,1,0,0:0:0:0:
256,192,79140,1,0,0:0:0:0:
256,192,79307,1,2,0:0:0:0:
256,192,79390,1,2,0:0:0:0:
256,192,79473,1,0,0:0:0:0:
256,192,79640,1,0,0:0:0:0:
256,192,79973,1,2,0:0:0:0:
256,192,80057,1,2,0:0:0:0:
256,192,80140,1,0,0:0:0:0:
256,192,80307,1,2,0:0:0:0:
256,192,80390,1,0,0:0:0:0:
256,192,80473,1,0,0:0:0:0:
256,192,80640,1,2,0:0:0:0:
256,192,80723,1,0,0:0:0:0:
256,192,80807,1,2,0:0:0:0:
256,192,80973,1,0,0:0:0:0:
256,192,81057,1,2,0:0:0:0:
256,192,81140,1,2,0:0:0:0:
256,192,81307,1,0,0:0:0:0:
256,192,81390,1,0,0:0:0:0:
256,192,81473,1,2,0:0:0:0:
256,192,81557,1,0,0:0:0:0:
256,192,81640,1,2,0:0:0:0:
256,192,81807,1,0,0:0:0:0:
256,192,81973,1,2,0:0:0:0:
256,192,82057,1,0,0:0:0:0:
256,192,82140,1,2,0:0:0:0:
256,192,82307,1,2,0:0:0:0:
256,192,82473,1,0,0:0:0:0:
256,192,82640,1,0,0:0:0:0:
256,192,82723,1,0,0:0:0:0:
256,192,82807,1,0,0:0:0:0:
256,192,82890,1,0,0:0:0:0:
256,192,82973,1,2,0:0:0:0:
256,192,83140,1,0,0:0:0:0:
256,192,83307,1,2,0:0:0:0:
256,192,83640,1,0,0:0:0:0:
256,192,83807,1,2,0:0:0:0:
256,192,83890,1,2,0:0:0:0:
256,192,83973,1,2,0:0:0:0:
256,192,84307,1,0,0:0:0:0:
256,192,84473,1,0,0:0:0:0:
256,192,84640,1,2,0:0:0:0:
256,192,84973,1,0,0:0:0:0:
256,192,85307,1,0,0:0:0:0:
256,192,85640,1,0,0:0:0:0:
256,192,85807,1,2,0:0:0:0:
256,192,85973,1,0,0:0:0:0:
256,192,86307,1,0,0:0:0:0:
256,192,86640,1,2,0:0:0:0:
256,192,86973,1,2,0:0:0:0:
256,192,87140,1,0,0:0:0:0:
256,192,87307,1,2,0:0:0:0:
256,192,87640,1,0,0:0:0:0:
256,192,87807,1,2,0:0:0:0:
256,192,87973,1,0,0:0:0:0:
256,192,88307,1,0,0:0:0:0:
256,192,88473,1,2,0:0:0:0:
256,192,88640,1,2,0:0:0:0:
256,192,88807,1,0,0:0:0:0:
256,192,88973,1,2,0:0:0:0:
256,192,89057,1,2,0:0:0:0:
256,192,89140,1,2,0:0:0:0:
256,192,89307,1,0,0:0:0:0:
256,192,89640,1,0,0:0:0:0:
256,192,89807,1,0,0:0:0:0:
256,192,90140,1,0,0:0:0:0:
256,192,90307,1,2,0:0:0:0:
256,192,90640,1,0,0:0:0:0:
256,192,90973,1,0,0:0:0:0:
256,192,91140,1,0,0:0:0:0:
256,192,91473,1,2,0:0:0:0:
256,192,91640,1,2,0:0:0:0:
256,192,91807,1,0,0:0:0:0:
256,192,91973,1,0,0:0:0:0:
256,192,92307,1,0,0:0:0:0:
256,192,92473,1,0,0:0:0:0:
256,192,92807,1,0,0:0:0:0:
256,192,92973,1,2,0:0:0:0:
256,192,93140,1,0,0:0:0:0:
256,192,93307,1,0,0:0:0:0:
256,192,93640,1,0,0:0:0:0:
256,192,93807,1,0,0:0:0:0:
256,192,94140,1,0,0:0:0:0:
256,192,94307,1,0,0:0:0:0:
256,192,94473,1,2,0:0:0:0:
256,192,94640,1,2,0:0:0:0:
256,192,94973,1,0,0:0:0:0:
256,192,95140,1,2,0:0:0:0:
256,192,95473,1,0,0:0:0:0:
256,192,95640,1,2,0:0:0:0:
256,192,95973,1,0,0:0:0:0:
256,192,96307,1,0,0:0:0:0:
256,192,96473,1,0,0:0:0:0:
256,192,96807,1,0,0:0:0:0:
256,192,96973,1,2,0:0:0:0:
256,192,97140,1,0,0:0:0:0:
256,192,97307,1,2,0:0:0:0:
256,192,97473,1,2,0:0:0:0:
256,192,97640,1,0,0:0:0:0:
256,192,97807,1,2,0:0:0:0:
256,192,97973,1,2,0:0:0:0:
256,192,98140,1,0,0:0:0:0:
256,192,98307,1,0,0:0:0:0:
256,192,98473,1,2,0:0:0:0:
256,192,98640,1,2,0:0:0:0:
256,192,98807,1,0,0:0:0:0:
256,192,98890,1,0,0:0:0:0:
256,192,98973,1,2,0:0:0:0:
256,192,99140,1,0,0:0:0:0:
256,192,99223,1,0,0:0:0:0:
256,192,99307,1,0,0:0:0:0:
256,192,99473,1,2,0:0:0:0:
256,192,99640,1,2,0:0:0:0:
256,192,99807,1,2,0:0:0:0:
256,192,99973,1,0,0:0:0:0:
256,192,100307,1,2,0:0:0:0:
256,192,100473,1,2,0:0:0:0:
256,192,100557,1,2,0:0:0:0:
256,192,100640,1,0,0:0:0:0:
256,192,100807,1,0,0:0:0:0:
256,192,100973,1,2,0:0:0:0:
256,192,101307,1,0,0:0:0:0:
256,192,101640,1,2,0:0:0:0:
256,192,101807,1,0,0:0:0:0:
256,192,101890,1,0,0:0:0:0:
256,192,101973,1,0,0:0:0:0:
256,192,102140,1,0,0:0:0:0:
256,192,102307,1,2,0:0:0:0:
256,192,102473,1,0,0:0:0:0:
256,192,102640,1,0,0:0:0:0:
256,192,102973,1,2,0:0:0:0:
256,192,103140,1,2,0:0:0:0:
256,192,103223,1,2,0:0:0:0:
256,192,103307,1,0,0:0:0:0:
256,192,103473,1,0,0:0:0:0:
256,192,103640,1,2,0:0:0:0:
256,192,103807,1,0,0:0:0:0:
256,192,103973,1,0,0:0:0:0:
256,192,104140,1,0,0:0:0:0:
256,192,104223,1,0,0:0:0:0:
256,192,104307,1,2,0:0:0:0:
256,192,104473,1,0,0:0:0:0:
256,192,104557,1,0,0:0:0:0:
256,192,104640,1,2,0:0:0:0:
256,192,104807,1,2,0:0:0:0:
256,192,104973,1,0,0:0:0:0:
256,192,105140,1,0,0:0:0:0:
256,192,105307,1,2,0:0:0:0:
256,192,105473,1,0,0:0:0:0:
256,192,105557,1,0,0:0:0:0:
256,192,105640,1,0,0:0:0:0:
256,192,105807,1,2,0:0:0:0:
256,192,105973,1,0,0:0:0:0:
256,192,106057,1,2,0:0:0:0:
256,192,106140,1,0,0:0:0:0:
256,192,106307,1,2,0:0:0:0:
256,192,106640,1,2,0:0:0:0:
256,192,106807,1,0,0:0:0:0:
256,192,106890,1,0,0:0:0:0:
256,192,106973,1,0,0:0:0:0:
256,192,107140,1,2,0:0:0:0:
256,192,107307,1,0,0:0:0:0:
256,192,107390,1,2,0:0:0:0:
256,192,107473,1,0,0:0:0:0:
256,192,107640,1,2,0:0:0:0:
256,192,107973,1,6,0:0:0:0:
256,192,108140,1,6,0:0:0:0:
256,192,108307,1,4,0:0:0:0:
256,192,108473,1,6,0:0:0:0:
256,192,108640,1,6,0:0:0:0:
256,192,108807,1,4,0:0:0:0:
256,192,108973,1,4,0:0:0:0:
256,192,109140,1,6,0:0:0:0:
256,192,109307,1,0,0:0:0:0:
256,192,109390,1,0,0:0:0:0:
256,192,109473,1,0,0:0:0:0:
256,192,109640,1,0,0:0:0:0:
256,192,109723,1,2,0:0:0:0:
256,192,109807,1,0,0:0:0:0:
256,192,109973,1,0,0:0:0:0:
256,192,110057,1,0,0:0:0:0:
256,192,110140,1,0,0:0:0:0:
256,192,110223,1,0,0:0:0:0:
256,192,110307,1,2,0:0:0:0:
256,192,110390,1,2,0:0:0:0:
256,192,110473,1,2,0:0:0:0:
256,192,110640,1,4,0:0:0:0:
256,192,110973,1,0,0:0:0:0:
256,192,111140,1,0,0:0:0:0:
256,192,111473,1,0,0:0:0:0:
256,192,111640,1,2,0:0:0:0:
256,192,111973,1,0,0:0:0:0:
256,192,112307,1,0,0:0:0:0:
256,192,112473,1,0,0:0:0:0:
256,192,112807,1,0,0:0:0:0:
256,192,112973,1,2,0:0:0:0:
256,192,113307,1,0,0:0:0:0:
256,192,113640,1,0,0:0:0:0:
256,192,113807,1,0,0:0:0:0:
256,192,114140,1,0,0:0:0:0:
256,192,114307,1,2,0:0:0:0:
256,192,114640,1,0,0:0:0:0:
256,192,114973,1,0,0:0:0:0:
256,192,115140,1,0,0:0:0:0:
256,192,115473,1,0,0:0:0:0:
256,192,115640,1,2,0:0:0:0:
256,192,115807,12,0,119973,0:0:0:0:
