osu file format v14

[General]
AudioFilename: audio.mp3
AudioLeadIn: 0
PreviewTime: 151875
Countdown: 0
SampleSet: Soft
StackLeniency: 0.3
Mode: 0
LetterboxInBreaks: 0
WidescreenStoryboard: 0

[Editor]
Bookmarks: 486,7986,11986,15986,19986,23986,31986,39986,47986,55986,63986,71986,79986,87986,95986,103986,111986,119986,127986,135986,143986,151986,159986,167986,175986,183986,191986,199986,207986,223986,227986,235986,243986,251986,259986,267986,271986,275986,283986,289986,291986,307986,321986,323986,339986,347986,355986
DistanceSpacing: 0.5
BeatDivisor: 8
GridSize: 32
TimelineZoom: 2.3

[Metadata]
Title:The Core
TitleUnicode:The Core
Artist:Krunislav Cvetkovski
ArtistUnicode:Krunislav Cvetkovski
Creator:Vitas2222
Version:Odium
Source:Odium to the Core
Tags:Hatred Dark-1 Dark_1 Dark 1 Instrumental Electronic DnB Drum Future Bass D&B D n & and B Jungle EDM IDM Dance Music Neurofunk Neuro Funk Dubstep Dub Step Sci-Fi Rock Metal Videogame Video Game OST Original Soundtrack
BeatmapID:3467406
BeatmapSetID:1697103

[Difficulty]
HPDrainRate:4
CircleSize:5.2
OverallDifficulty:8.8
ApproachRate:9.5
SliderMultiplier:2.2
SliderTickRate:2

[Events]
//Background and Video events
0,0,"BG.jpg",0,0
//Break Periods
//Storyboard Layer 0 (Background)
//Storyboard Layer 1 (Fail)
//Storyboard Layer 2 (Pass)
//Storyboard Layer 3 (Foreground)
//Storyboard Layer 4 (Overlay)
//Storyboard Sound Samples

[TimingPoints]
-19,500,4,2,2,15,1,0
481,-133.333333333333,4,2,2,15,0,0
731,-133.333333333333,4,2,2,5,0,0
981,-133.333333333333,4,2,2,15,0,0
1231,-133.333333333333,4,2,2,5,0,0
1481,-133.333333333333,4,2,2,15,0,0
1731,-133.333333333333,4,2,2,5,0,0
1981,-133.333333333333,4,2,2,15,0,0
2981,-133.333333333333,4,2,2,5,0,0
3481,-133.333333333333,4,2,2,15,0,0
3731,-133.333333333333,4,2,2,5,0,0
3981,-400,4,2,2,15,0,0
4481,-266.666666666667,4,2,2,15,0,0
4981,-200,4,2,2,15,0,0
5481,-160,4,2,2,15,0,0
5981,-133.333333333333,4,2,2,15,0,0
6981,-133.333333333333,4,2,2,5,0,0
7231,-133.333333333333,4,2,2,50,0,0
8356,-133.333333333333,4,2,2,5,0,0
8481,-133.333333333333,4,2,2,50,0,0
9356,-133.333333333333,4,2,2,5,0,0
9481,-133.333333333333,4,2,2,50,0,0
9981,-100,4,2,2,50,0,0
10106,-100,4,2,2,5,0,0
10231,-100,4,2,2,50,0,0
10356,-100,4,2,2,5,0,0
10481,-133.333333333333,4,2,2,50,0,0
10856,-133.333333333333,4,2,2,5,0,0
10981,-100,4,2,2,50,0,0
11106,-100,4,2,2,5,0,0
11231,-100,4,2,2,50,0,0
11356,-100,4,2,2,5,0,0
11481,-80,4,2,2,50,0,0
11606,-80,4,2,2,5,0,0
11981,-133.333333333333,4,2,2,50,0,0
12356,-133.333333333333,4,2,2,5,0,0
12481,-133.333333333333,4,2,2,50,0,0
12606,-133.333333333333,4,2,2,5,0,0
12731,-133.333333333333,4,2,2,50,0,0
12856,-133.333333333333,4,2,2,5,0,0
12981,-133.333333333333,4,2,2,50,0,0
13356,-133.333333333333,4,2,2,5,0,0
13481,-100,4,2,2,50,0,0
13606,-100,4,2,2,5,0,0
13731,-100,4,2,2,50,0,0
13856,-100,4,2,2,5,0,0
13981,-100,4,2,2,50,0,0
14106,-100,4,2,2,5,0,0
14231,-100,4,2,2,50,0,0
14356,-100,4,2,2,5,0,0
14481,-133.333333333333,4,2,2,50,0,0
14856,-133.333333333333,4,2,2,5,0,0
14981,-100,4,2,2,50,0,0
15106,-100,4,2,2,5,0,0
15231,-100,4,2,2,50,0,0
15356,-100,4,2,2,5,0,0
15481,-100,4,2,2,50,0,0
15981,-133.333333333333,4,2,2,50,0,0
16356,-133.333333333333,4,2,2,5,0,0
16481,-133.333333333333,4,2,2,50,0,0
17356,-133.333333333333,4,2,2,5,0,0
17481,-133.333333333333,4,2,2,50,0,0
17981,-100,4,2,2,50,0,0
18106,-100,4,2,2,5,0,0
18231,-100,4,2,2,50,0,0
18356,-100,4,2,2,5,0,0
18481,-100,4,2,2,50,0,0
19106,-100,4,2,2,5,0,0
19231,-100,4,2,2,50,0,0
19356,-100,4,2,2,5,0,0
19481,-100,4,2,2,50,0,0
19981,-200,4,2,2,50,0,0
20106,-200,4,2,2,5,0,0
20231,-200,4,2,2,50,0,0
21106,-200,4,2,2,5,0,0
21231,-200,4,2,2,50,0,0
21981,-400,4,2,2,50,0,0
22356,-400,4,2,2,5,0,0
22481,-400,4,2,2,50,0,0
23231,-400,4,2,2,5,0,0
23356,-400,4,2,2,50,0,0
24106,-100,4,2,2,50,0,0
24231,-100,4,2,2,5,0,0
24356,-100,4,2,2,50,0,0
24606,-100,4,2,2,5,0,0
24731,-100,4,2,2,50,0,0
24856,-100,4,2,2,5,0,0
24981,-100,4,2,2,50,0,0
25606,-100,4,2,2,5,0,0
25731,-100,4,2,2,50,0,0
25981,-50,4,2,2,50,0,0
26231,-50,4,2,2,5,0,0
26356,-50,4,2,2,50,0,0
26481,-100,4,2,2,50,0,0
26606,-100,4,2,2,5,0,0
26731,-100,4,2,2,50,0,0
26856,-100,4,2,2,5,0,0
26981,-50,4,2,2,50,0,0
27231,-50,4,2,2,5,0,0
27356,-50,4,2,2,50,0,0
27481,-400,4,2,2,50,0,0
27731,-400,4,2,2,5,0,0
27856,-400,4,2,2,50,0,0
28106,-100,4,2,2,50,0,0
28231,-100,4,2,2,5,0,0
28356,-100,4,2,2,50,0,0
28606,-100,4,2,2,5,0,0
28731,-100,4,2,2,50,0,0
28981,-50,4,2,2,50,0,0
29481,-200,4,2,2,50,0,0
29981,-66.6666666666667,4,2,2,50,0,0
30481,-100,4,2,2,50,0,0
30981,-50,4,2,2,50,0,0
31481,-400,4,2,2,50,0,0
31731,-133.333333333333,4,2,2,50,0,0
32106,-100,4,2,2,50,0,0
32481,-66.6666666666667,4,2,2,50,0,0
32731,-57.1428571428571,4,2,2,50,0,0
32981,-50,4,2,2,50,0,0
33481,-400,4,2,2,50,0,0
34481,-66.6666666666667,4,2,2,50,0,0
34731,-57.1428571428571,4,2,2,50,0,0
34981,-50,4,2,2,50,0,0
35481,-400,4,2,2,50,0,0
35981,-50,4,2,2,50,0,0
36481,-66.6666666666667,4,2,2,50,0,0
36981,-50,4,2,2,50,0,0
37481,-400,4,2,2,50,0,0
38106,-100,4,2,2,50,0,0
39481,-66.6666666666667,4,2,2,50,0,0
39981,-100,4,2,2,50,0,0
40106,-100,4,2,2,5,0,0
40231,-133.333333333333,4,2,2,50,0,0
40356,-133.333333333333,4,2,2,5,0,0
40481,-100,4,2,2,50,0,0
40606,-100,4,2,2,5,0,0
40731,-133.333333333333,4,2,2,50,0,0
40856,-133.333333333333,4,2,2,5,0,0
40981,-100,4,2,2,50,0,0
41106,-100,4,2,2,5,0,0
41231,-133.333333333333,4,2,2,50,0,0
41356,-133.333333333333,4,2,2,5,0,0
41481,-133.333333333333,4,2,2,50,0,0
41981,-66.6666666666667,4,2,2,50,0,0
42106,-66.6666666666667,4,2,2,5,0,0
42231,-133.333333333333,4,2,2,50,0,0
42356,-133.333333333333,4,2,2,5,0,0
42481,-100,4,2,2,50,0,0
42606,-100,4,2,2,5,0,0
42731,-133.333333333333,4,2,2,50,0,0
42856,-133.333333333333,4,2,2,5,0,0
42981,-200,4,2,2,50,0,0
43231,-200,4,2,2,5,0,0
43481,-66.6666666666667,4,2,2,50,0,0
43606,-66.6666666666667,4,2,2,5,0,0
43981,-100,4,2,2,50,0,0
44106,-100,4,2,2,5,0,0
44231,-100,4,2,2,50,0,0
44356,-100,4,2,2,5,0,0
44481,-133.333333333333,4,2,2,50,0,0
44606,-133.333333333333,4,2,2,5,0,0
44731,-133.333333333333,4,2,2,50,0,0
44856,-133.333333333333,4,2,2,5,0,0
44981,-100,4,2,2,50,0,0
45106,-100,4,2,2,5,0,0
45231,-100,4,2,2,50,0,0
45356,-100,4,2,2,5,0,0
45481,-100,4,2,2,50,0,0
45981,-66.6666666666667,4,2,2,50,0,0
46106,-66.6666666666667,4,2,2,5,0,0
46231,-133.333333333333,4,2,2,50,0,0
46356,-133.333333333333,4,2,2,5,0,0
46481,-100,4,2,2,50,0,0
46606,-100,4,2,2,5,0,0
46731,-133.333333333333,4,2,2,50,0,0
46856,-133.333333333333,4,2,2,5,0,0
46981,-200,4,2,2,50,0,0
47231,-200,4,2,2,5,0,0
47481,-200,4,2,2,50,0,0
47606,-66.6666666666667,4,2,2,50,0,0
47731,-66.6666666666667,4,2,2,5,0,0
47856,-66.6666666666667,4,2,2,50,0,0
47981,-100,4,2,2,50,0,0
48981,-66.6666666666667,4,2,2,50,0,0
49981,-100,4,2,2,50,0,0
51481,-66.6666666666667,4,2,2,50,0,0
52481,-100,4,2,2,50,0,0
52981,-66.6666666666667,4,2,2,50,0,0
53481,-100,4,2,2,50,0,0
53981,-133.333333333333,4,2,2,50,0,0
55606,-66.6666666666667,4,2,2,50,0,0
55981,-400,4,2,2,50,0,0
56481,-400,4,2,2,5,0,0
56981,-400,4,2,2,50,0,0
57481,-400,4,2,2,5,0,0
58481,-200,4,2,2,50,0,0
58814,-200,4,2,2,5,0,0
58981,-133.333333333333,4,2,2,50,0,0
59314,-133.333333333333,4,2,2,5,0,0
59481,-100,4,2,2,50,0,0
59814,-100,4,2,2,5,0,0
59981,-400,4,2,2,50,0,0
60314,-400,4,2,2,5,0,0
60481,-400,4,2,2,50,0,0
61981,-400,4,2,2,5,0,0
62481,-400,4,2,2,50,0,0
63981,-50,4,2,2,50,0,0
64481,-100,4,2,2,50,0,0
65480,-400,4,2,2,50,0,0
65981,-50,4,2,2,50,0,0
66481,-100,4,2,2,50,0,0
67481,-400,4,2,2,50,0,0
67981,-50,4,2,2,50,0,0
69981,-400,4,2,2,50,0,0
70481,-66.6666666666667,4,2,2,50,0,0
70981,-100,4,2,2,50,0,0
71481,-133.333333333333,4,2,2,50,0,0
71731,-200,4,2,2,50,0,0
71981,-66.6666666666667,4,2,2,50,0,1
72981,-50,4,2,2,50,0,0
73981,-66.6666666666667,4,2,2,50,0,1
74981,-50,4,2,2,50,0,0
75981,-66.6666666666667,4,2,2,50,0,1
76981,-50,4,2,2,50,0,0
77981,-400,4,2,2,50,0,0
78981,-100,4,2,2,50,0,0
79981,-57.1428571428571,4,2,2,50,0,0
80481,-57.1428571428571,4,2,2,50,0,0
80606,-57.1428571428571,4,2,2,5,0,0
80731,-57.1428571428571,4,2,2,50,0,0
80856,-57.1428571428571,4,2,2,5,0,0
80981,-57.1428571428571,4,2,2,50,0,0
81293,-57.1428571428571,4,2,2,5,0,0
81356,-57.1428571428571,4,2,2,50,0,0
81418,-57.1428571428571,4,2,2,5,0,0
81481,-400,4,2,2,50,0,0
81981,-50,4,2,2,50,0,0
82481,-57.1428571428571,4,2,2,50,0,0
82606,-57.1428571428571,4,2,2,5,0,0
82731,-57.1428571428571,4,2,2,50,0,0
82856,-57.1428571428571,4,2,2,5,0,0
82981,-57.1428571428571,4,2,2,50,0,0
83106,-57.1428571428571,4,2,2,5,0,0
83168,-57.1428571428571,4,2,2,50,0,0
83293,-57.1428571428571,4,2,2,5,0,0
83356,-57.1428571428571,4,2,2,50,0,0
83418,-57.1428571428571,4,2,2,5,0,0
83481,-400,4,2,2,50,0,0
84481,-57.1428571428571,4,2,2,50,0,0
84606,-57.1428571428571,4,2,2,5,0,0
84731,-57.1428571428571,4,2,2,50,0,0
84856,-57.1428571428571,4,2,2,5,0,0
84981,-57.1428571428571,4,2,2,50,0,0
85106,-57.1428571428571,4,2,2,5,0,0
85168,-57.1428571428571,4,2,2,50,0,0
85293,-57.1428571428571,4,2,2,5,0,0
85356,-57.1428571428571,4,2,2,50,0,0
85418,-57.1428571428571,4,2,2,5,0,0
85481,-400,4,2,2,50,0,0
85981,-50,4,2,2,50,0,0
86481,-57.1428571428571,4,2,2,50,0,0
86606,-57.1428571428571,4,2,2,5,0,0
86731,-57.1428571428571,4,2,2,50,0,0
86856,-57.1428571428571,4,2,2,5,0,0
86981,-57.1428571428571,4,2,2,50,0,0
87106,-57.1428571428571,4,2,2,5,0,0
87168,-57.1428571428571,4,2,2,50,0,0
87293,-57.1428571428571,4,2,2,5,0,0
87356,-57.1428571428571,4,2,2,50,0,0
87418,-57.1428571428571,4,2,2,5,0,0
87481,-400,4,2,2,50,0,0
87856,-400,4,2,2,5,0,0
87981,-50,4,2,2,50,0,0
88481,-57.1428571428571,4,2,2,50,0,0
88606,-57.1428571428571,4,2,2,5,0,0
88731,-57.1428571428571,4,2,2,50,0,0
88856,-57.1428571428571,4,2,2,5,0,0
88981,-50,4,2,2,50,0,0
89106,-50,4,2,2,5,0,0
89231,-57.1428571428571,4,2,2,50,0,0
89356,-57.1428571428571,4,2,2,5,0,0
89481,-400,4,2,2,50,0,0
89856,-400,4,2,2,5,0,0
89981,-50,4,2,2,50,0,0
90481,-57.1428571428571,4,2,2,50,0,0
90856,-57.1428571428571,4,2,2,5,0,0
90981,-57.1428571428571,4,2,2,50,0,0
91106,-57.1428571428571,4,2,2,5,0,0
91231,-57.1428571428571,4,2,2,50,0,0
91356,-57.1428571428571,4,2,2,5,0,0
91481,-50,4,2,2,50,0,0
91981,-50,4,2,2,50,0,0
92481,-57.1428571428571,4,2,2,50,0,0
92793,-57.1428571428571,4,2,2,5,0,0
92856,-57.1428571428571,4,2,2,50,0,0
92918,-57.1428571428571,4,2,2,5,0,0
92981,-57.1428571428571,4,2,2,50,0,0
93106,-57.1428571428571,4,2,2,5,0,0
93231,-57.1428571428571,4,2,2,50,0,0
93356,-57.1428571428571,4,2,2,5,0,0
93481,-400,4,2,2,50,0,0
93856,-400,4,2,2,5,0,0
93981,-400,4,2,2,50,0,0
94106,-57.1428571428571,4,2,2,50,0,0
94231,-57.1428571428571,4,2,2,5,0,0
94356,-57.1428571428571,4,2,2,50,0,0
95106,-133.333333333333,4,2,2,50,0,0
95231,-133.333333333333,4,2,2,5,0,0
95293,-133.333333333333,4,2,2,50,0,0
95481,-50,4,2,2,50,0,0
95856,-50,4,2,2,5,0,0
95981,-50,4,2,2,50,0,0
96481,-400,4,2,2,50,0,0
98981,-400,4,2,2,5,0,0
99231,-400,4,2,2,50,0,0
99856,-400,4,2,2,5,0,0
99981,-400,4,2,2,50,0,0
101856,-400,4,2,2,5,0,0
101981,-400,4,2,2,50,0,0
102981,-400,4,2,2,5,0,0
103231,-400,4,2,2,50,0,0
103856,-400,4,2,2,5,0,0
103981,-400,4,2,2,50,0,0
104481,-133.333333333333,4,2,2,50,0,0
105481,-400,4,2,2,50,0,0
105856,-400,4,2,2,5,0,0
105981,-400,4,2,2,50,0,0
106981,-400,4,2,2,5,0,0
107231,-400,4,2,2,50,0,0
107856,-400,4,2,2,5,0,0
107981,-400,4,2,2,50,0,0
108481,-133.333333333333,4,2,2,50,0,0
109481,-400,4,2,2,50,0,0
109856,-400,4,2,2,5,0,0
109981,-400,4,2,2,50,0,0
110981,-400,4,2,2,5,0,0
111231,-400,4,2,2,50,0,0
111981,-50,4,2,2,50,0,1
116981,-57.1428571428571,4,2,2,50,0,1
122981,-50,4,2,2,50,0,1
124981,-57.1428571428571,4,2,2,50,0,1
127981,-133.333333333333,4,2,2,50,0,0
130106,-133.333333333333,4,2,2,45,0,0
130981,-153.846153846154,4,2,2,50,0,0
131106,-153.846153846154,4,2,2,40,0,0
131981,-181.818181818182,4,2,2,50,0,0
132106,-181.818181818182,4,2,2,35,0,0
132981,-222.222222222222,4,2,2,50,0,0
133106,-222.222222222222,4,2,2,30,0,0
133981,-285.714285714286,4,2,2,50,0,0
134106,-285.714285714286,4,2,2,25,0,0
134981,-400,4,2,2,50,0,0
135106,-400,4,2,2,20,0,0
135981,-858.369098712446,4,2,2,50,0,0
136356,-858.369098712446,4,2,2,5,0,0
136481,-666.666666666667,4,2,2,50,0,0
136856,-666.666666666667,4,2,2,5,0,0
136981,-547.945205479452,4,2,2,50,0,0
137356,-547.945205479452,4,2,2,5,0,0
137481,-460.829493087558,4,2,2,50,0,0
137856,-460.829493087558,4,2,2,5,0,0
137981,-400,4,2,2,50,0,0
138356,-400,4,2,2,5,0,0
138481,-333.333333333333,4,2,2,50,0,0
138856,-333.333333333333,4,2,2,5,0,0
138981,-285.714285714286,4,2,2,50,0,0
139356,-285.714285714286,4,2,2,5,0,0
139481,-250,4,2,2,50,0,0
139856,-250,4,2,2,5,0,0
139981,-250,4,2,1,50,0,0
142981,-200,4,2,1,50,0,0
143981,-133.333333333333,4,2,1,50,0,0
151981,-28.5714285714286,4,2,1,50,0,1
152356,-28.5714285714286,4,2,1,5,0,1
152481,-28.5714285714286,4,2,1,50,0,1
152856,-28.5714285714286,4,2,1,5,0,1
152981,-40,4,2,1,50,0,0
153106,-40,4,2,1,5,0,0
153231,-40,4,2,1,50,0,0
153356,-40,4,2,1,5,0,0
153481,-40,4,2,1,50,0,0
153606,-40,4,2,1,5,0,0
153731,-40,4,2,1,50,0,0
153856,-40,4,2,1,5,0,0
153981,-66.6666666666667,4,2,1,50,0,0
154106,-66.6666666666667,4,2,1,5,0,0
154231,-66.6666666666667,4,2,1,50,0,0
154481,-40,4,2,1,50,0,0
154606,-40,4,2,1,5,0,0
154731,-40,4,2,1,50,0,0
154856,-40,4,2,1,5,0,0
154981,-66.6666666666667,4,2,15,50,0,0
155064,-66.6666666666667,4,2,15,5,0,0
155147,-62.5,4,2,15,50,0,0
155231,-62.5,4,2,15,5,0,0
155314,-58.8235294117647,4,2,15,50,0,0
155397,-58.8235294117647,4,2,15,5,0,0
155481,-55.5555555555556,4,2,15,50,0,0
155564,-55.5555555555556,4,2,15,5,0,0
155647,-52.6315789473684,4,2,15,50,0,0
155731,-52.6315789473684,4,2,15,5,0,0
155814,-50,4,2,15,50,0,0
155897,-50,4,2,15,5,0,0
155981,-28.5714285714286,4,2,1,50,0,1
156106,-28.5714285714286,4,2,1,5,0,1
156231,-28.5714285714286,4,2,1,50,0,1
156356,-28.5714285714286,4,2,1,5,0,1
156481,-28.5714285714286,4,2,1,50,0,1
156606,-28.5714285714286,4,2,1,5,0,1
156731,-28.5714285714286,4,2,1,50,0,1
156856,-28.5714285714286,4,2,1,5,0,1
156981,-40,4,2,1,50,0,0
157106,-40,4,2,1,5,0,0
157231,-40,4,2,1,50,0,0
157606,-40,4,2,1,5,0,0
157731,-40,4,2,1,50,0,0
159481,-100,4,2,1,50,0,0
159606,-100,4,2,1,5,0,0
159731,-100,4,2,1,50,0,0
159981,-40,4,2,1,50,0,0
160106,-40,4,2,1,5,0,0
160231,-40,4,2,1,50,0,0
160981,-100,4,2,1,50,0,0
161043,-100,4,2,1,5,0,0
161231,-100,4,2,1,50,0,0
162981,-400,4,2,1,50,0,0
163856,-400,4,2,1,5,0,0
163981,-40,4,2,1,50,0,0
164106,-40,4,2,1,5,0,0
164231,-40,4,2,1,50,0,0
164981,-100,4,2,1,50,0,0
165043,-100,4,2,1,5,0,0
165231,-100,4,2,1,50,0,0
165981,-200,4,2,1,50,0,0
166856,-200,4,2,1,5,0,0
166981,-100,4,2,1,50,0,0
167356,-100,4,2,1,5,0,0
167481,-66.6666666666667,4,2,1,50,0,0
167731,-66.6666666666667,4,2,1,5,0,0
167856,-66.6666666666667,4,2,1,50,0,0
167981,-80,4,2,1,50,0,0
168481,-80,4,2,3,50,0,0
168731,-80,4,2,1,50,0,0
168856,-80,4,2,1,5,0,0
168981,-74.0740740740741,4,2,1,50,0,0
169481,-74.0740740740741,4,2,3,50,0,0
169731,-74.0740740740741,4,2,1,50,0,0
169856,-74.0740740740741,4,2,1,5,0,0
169981,-68.9655172413793,4,2,1,50,0,0
170481,-68.9655172413793,4,2,3,50,0,0
170731,-68.9655172413793,4,2,1,50,0,0
170856,-68.9655172413793,4,2,1,5,0,0
170981,-64.5161290322581,4,2,1,50,0,0
171481,-64.5161290322581,4,2,3,50,0,0
171731,-64.5161290322581,4,2,1,50,0,0
171856,-64.5161290322581,4,2,1,5,0,0
171981,-40,4,2,1,50,0,0
172106,-40,4,2,1,5,0,0
172231,-40,4,2,1,50,0,0
172481,-60.6060606060606,4,2,1,50,0,0
172856,-60.6060606060606,4,2,1,5,0,0
172981,-68.9655172413793,4,2,1,50,0,0
173356,-68.9655172413793,4,2,1,5,0,0
173481,-80,4,2,1,50,0,0
173856,-80,4,2,1,5,0,0
173981,-200,4,2,1,50,0,0
174856,-200,4,2,1,5,0,0
174981,-64.5161290322581,4,2,1,50,0,0
175356,-64.5161290322581,4,2,1,5,0,0
175481,-60.6060606060606,4,2,1,50,0,0
175606,-60.6060606060606,4,2,1,5,0,0
175731,-60.6060606060606,4,2,1,50,0,0
175856,-60.6060606060606,4,2,1,5,0,0
175981,-40,4,2,1,50,0,0
176106,-40,4,2,1,5,0,0
176231,-40,4,2,1,50,0,0
176981,-100,4,2,1,50,0,0
177043,-100,4,2,1,5,0,0
177231,-100,4,2,1,50,0,0
178981,-400,4,2,1,50,0,0
179856,-400,4,2,1,5,0,0
179981,-40,4,2,1,50,0,0
180106,-40,4,2,1,5,0,0
180231,-40,4,2,1,50,0,0
180981,-100,4,2,1,50,0,0
181043,-100,4,2,1,5,0,0
181231,-100,4,2,1,50,0,0
181981,-200,4,2,1,50,0,0
182856,-200,4,2,1,5,0,0
182981,-100,4,2,1,50,0,0
183356,-100,4,2,1,5,0,0
183481,-66.6666666666667,4,2,1,50,0,0
183731,-66.6666666666667,4,2,1,5,0,0
183856,-66.6666666666667,4,2,1,50,0,0
183981,-80,4,2,1,50,0,0
184481,-80,4,2,3,50,0,0
184731,-80,4,2,1,50,0,0
184856,-80,4,2,1,5,0,0
184981,-74.0740740740741,4,2,1,50,0,0
185481,-74.0740740740741,4,2,3,50,0,0
185731,-74.0740740740741,4,2,1,50,0,0
185856,-74.0740740740741,4,2,1,5,0,0
185981,-68.9655172413793,4,2,1,50,0,0
186481,-68.9655172413793,4,2,3,50,0,0
186731,-68.9655172413793,4,2,1,50,0,0
186856,-68.9655172413793,4,2,1,5,0,0
186981,-64.5161290322581,4,2,1,50,0,0
187481,-64.5161290322581,4,2,3,50,0,0
187731,-64.5161290322581,4,2,1,50,0,0
187856,-64.5161290322581,4,2,1,5,0,0
187981,-40,4,2,1,50,0,0
188106,-40,4,2,1,5,0,0
188231,-40,4,2,1,50,0,0
188481,-60.6060606060606,4,2,1,50,0,0
188856,-60.6060606060606,4,2,1,5,0,0
188981,-68.9655172413793,4,2,1,50,0,0
189356,-68.9655172413793,4,2,1,5,0,0
189481,-80,4,2,1,50,0,0
189856,-80,4,2,1,5,0,0
189981,-200,4,2,1,50,0,0
190856,-200,4,2,1,5,0,0
190981,-64.5161290322581,4,2,1,50,0,0
191356,-64.5161290322581,4,2,1,5,0,0
191481,-60.6060606060606,4,2,1,50,0,0
191731,-60.6060606060606,4,2,1,5,0,0
191856,-60.6060606060606,4,2,1,50,0,0
191981,-50,4,2,1,50,0,0
192106,-50,4,2,1,5,0,0
192231,-50,4,2,1,50,0,0
192356,-50,4,2,1,5,0,0
192481,-50,4,2,1,50,0,0
192606,-50,4,2,1,5,0,0
192731,-50,4,2,1,50,0,0
192856,-50,4,2,1,5,0,0
192981,-50,4,2,1,50,0,0
193106,-50,4,2,1,5,0,0
193231,-50,4,2,1,50,0,0
193356,-50,4,2,1,5,0,0
193481,-50,4,2,1,50,0,0
193606,-50,4,2,1,5,0,0
193731,-50,4,2,1,50,0,0
193856,-50,4,2,1,5,0,0
193981,-66.6666666666667,4,2,1,50,0,0
194106,-66.6666666666667,4,2,1,5,0,0
194168,-66.6666666666667,4,2,1,50,0,0
194293,-66.6666666666667,4,2,1,5,0,0
194356,-66.6666666666667,4,2,1,50,0,0
194418,-66.6666666666667,4,2,1,5,0,0
194481,-66.6666666666667,4,2,1,50,0,0
194606,-66.6666666666667,4,2,1,5,0,0
194668,-66.6666666666667,4,2,1,50,0,0
194793,-66.6666666666667,4,2,1,5,0,0
194856,-66.6666666666667,4,2,1,50,0,0
194918,-66.6666666666667,4,2,1,5,0,0
194981,-80,4,2,1,50,0,0
195106,-80,4,2,1,5,0,0
195231,-80,4,2,1,50,0,0
195606,-80,4,2,1,5,0,0
195731,-80,4,2,1,50,0,0
195981,-50,4,2,1,50,0,0
196106,-50,4,2,1,5,0,0
196231,-50,4,2,1,50,0,0
196356,-50,4,2,1,5,0,0
196481,-50,4,2,1,50,0,0
196606,-50,4,2,1,5,0,0
196731,-50,4,2,1,50,0,0
196856,-50,4,2,1,5,0,0
196981,-50,4,2,1,50,0,0
197106,-50,4,2,1,5,0,0
197231,-50,4,2,1,50,0,0
197356,-50,4,2,1,5,0,0
197481,-50,4,2,1,50,0,0
197606,-50,4,2,1,5,0,0
197731,-50,4,2,1,50,0,0
197856,-50,4,2,1,5,0,0
197981,-66.6666666666667,4,2,1,50,0,0
198106,-66.6666666666667,4,2,1,5,0,0
198168,-66.6666666666667,4,2,1,50,0,0
198293,-66.6666666666667,4,2,1,5,0,0
198356,-66.6666666666667,4,2,1,50,0,0
198418,-66.6666666666667,4,2,1,5,0,0
198481,-66.6666666666667,4,2,1,50,0,0
198606,-66.6666666666667,4,2,1,5,0,0
198668,-66.6666666666667,4,2,1,50,0,0
198793,-66.6666666666667,4,2,1,5,0,0
198856,-66.6666666666667,4,2,1,50,0,0
198918,-66.6666666666667,4,2,1,5,0,0
198981,-80,4,2,1,50,0,0
199106,-80,4,2,1,5,0,0
199231,-80,4,2,1,50,0,0
199606,-80,4,2,1,5,0,0
199731,-80,4,2,1,50,0,0
199981,-100,4,2,1,50,0,0
207981,-200,4,2,1,50,0,0
208106,-200,4,2,1,5,0,0
208231,-200,4,2,1,50,0,0
208481,-100,4,2,1,50,0,0
208856,-100,4,2,1,5,0,0
208981,-80,4,2,1,50,0,0
209481,-133.333333333333,4,2,1,50,0,0
209606,-133.333333333333,4,2,1,5,0,0
209731,-133.333333333333,4,2,1,50,0,0
209856,-133.333333333333,4,2,1,5,0,0
209981,-200,4,2,1,50,0,0
210106,-200,4,2,1,5,0,0
210231,-200,4,2,1,50,0,0
210481,-133.333333333333,4,2,1,50,0,0
210856,-133.333333333333,4,2,1,5,0,0
210981,-100,4,2,1,50,0,0
211481,-80,4,2,1,50,0,0
211606,-80,4,2,1,5,0,0
211731,-80,4,2,1,50,0,0
211856,-80,4,2,1,5,0,0
211981,-133.333333333333,4,2,1,50,0,0
212106,-133.333333333333,4,2,1,5,0,0
212231,-133.333333333333,4,2,1,50,0,0
212481,-100,4,2,1,50,0,0
212856,-100,4,2,1,5,0,0
212981,-133.333333333333,4,2,1,50,0,0
213481,-200,4,2,1,50,0,0
213606,-200,4,2,1,5,0,0
213731,-200,4,2,1,50,0,0
213856,-200,4,2,1,5,0,0
213981,-200,4,2,1,50,0,0
216106,-200,4,2,1,5,0,0
216231,-200,4,2,1,50,0,0
216481,-100,4,2,1,50,0,0
216856,-100,4,2,1,5,0,0
216981,-133.333333333333,4,2,1,50,0,0
217481,-200,4,2,1,50,0,0
217606,-200,4,2,1,5,0,0
217731,-200,4,2,1,50,0,0
217856,-200,4,2,1,5,0,0
217981,-100,4,2,1,50,0,0
218106,-100,4,2,1,5,0,0
218231,-100,4,2,1,50,0,0
218481,-200,4,2,1,50,0,0
218856,-200,4,2,1,5,0,0
218981,-133.333333333333,4,2,1,50,0,0
219481,-100,4,2,1,50,0,0
219606,-100,4,2,1,5,0,0
219731,-100,4,2,1,50,0,0
219856,-100,4,2,1,5,0,0
219981,-200,4,2,1,50,0,0
220106,-200,4,2,1,5,0,0
220231,-200,4,2,1,50,0,0
220481,-100,4,2,1,50,0,0
220856,-100,4,2,1,5,0,0
220981,-133.333333333333,4,2,1,50,0,0
221481,-80,4,2,1,50,0,0
221606,-80,4,2,1,5,0,0
221731,-80,4,2,1,50,0,0
221856,-80,4,2,1,5,0,0
221981,-80,4,2,1,50,0,0
223481,-66.6666666666667,4,2,1,50,0,0
223606,-66.6666666666667,4,2,1,5,0,0
223731,-200,4,2,1,50,0,0
223981,-200,4,2,1,5,0,0
224981,-200,4,2,4,50,0,0
225981,-200,4,2,5,50,0,0
226981,-200,4,2,6,50,0,0
227106,-200,4,2,2,5,0,0
227981,-100,4,2,2,50,0,1
228356,-100,4,2,2,5,0,1
228481,-100,4,2,2,50,0,0
228981,-100,4,2,2,50,0,1
229356,-100,4,2,2,5,0,1
229481,-100,4,2,2,50,0,0
229981,-100,4,2,2,50,0,1
230356,-100,4,2,2,5,0,1
230481,-100,4,2,2,50,0,0
230981,-66.6666666666667,4,2,2,50,0,0
231106,-66.6666666666667,4,2,2,5,0,0
231356,-66.6666666666667,4,2,2,50,0,0
231481,-66.6666666666667,4,2,2,5,0,0
231731,-66.6666666666667,4,2,2,50,0,0
231856,-66.6666666666667,4,2,2,5,0,0
231981,-100,4,2,2,50,0,1
232356,-100,4,2,2,5,0,1
232481,-100,4,2,2,50,0,0
232981,-100,4,2,2,50,0,1
233356,-100,4,2,2,5,0,1
233481,-100,4,2,2,50,0,0
233981,-100,4,2,2,50,0,1
234356,-100,4,2,2,5,0,1
234481,-100,4,2,2,50,0,0
234981,-66.6666666666667,4,2,2,50,0,0
235106,-66.6666666666667,4,2,2,5,0,0
235356,-66.6666666666667,4,2,2,50,0,0
235481,-66.6666666666667,4,2,2,5,0,0
235731,-66.6666666666667,4,2,2,50,0,0
235856,-66.6666666666667,4,2,2,5,0,0
235981,-66.6666666666667,4,2,2,50,0,0
236106,-50,4,2,2,50,0,0
236481,-66.6666666666667,4,2,2,50,0,0
236606,-66.6666666666667,4,2,2,5,0,0
236731,-66.6666666666667,4,2,2,50,0,0
236981,-50,4,2,2,50,0,0
237106,-50,4,2,2,5,0,0
237231,-50,4,2,2,50,0,0
237356,-66.6666666666667,4,2,2,50,0,0
237856,-66.6666666666667,4,2,2,5,0,0
237981,-66.6666666666667,4,2,2,50,0,0
238606,-66.6666666666667,4,2,2,5,0,0
238731,-66.6666666666667,4,2,2,50,0,0
238981,-50,4,2,2,50,0,0
239106,-50,4,2,2,5,0,0
239231,-100,4,2,2,50,0,0
239356,-100,4,2,2,5,0,0
239481,-100,4,2,2,50,0,0
239606,-100,4,2,2,5,0,0
239981,-100,4,2,2,50,0,0
240106,-66.6666666666667,4,2,2,50,0,0
240606,-66.6666666666667,4,2,2,5,0,0
240731,-66.6666666666667,4,2,2,50,0,0
240981,-50,4,2,2,50,0,0
241106,-50,4,2,2,5,0,0
241231,-50,4,2,2,50,0,0
241356,-66.6666666666667,4,2,2,50,0,0
241856,-66.6666666666667,4,2,2,5,0,0
241981,-100,4,2,2,50,0,0
242356,-100,4,2,2,5,0,0
242481,-100,4,2,2,50,0,0
242606,-100,4,2,2,5,0,0
242731,-100,4,2,2,50,0,0
243606,-100,4,2,2,5,0,0
243731,-100,4,2,2,50,0,0
243981,-66.6666666666667,4,2,2,50,0,0
244106,-66.6666666666667,4,2,2,5,0,0
244356,-66.6666666666667,4,2,2,50,0,0
244481,-66.6666666666667,4,2,2,5,0,0
244731,-66.6666666666667,4,2,2,50,0,0
244856,-66.6666666666667,4,2,2,5,0,0
244981,-66.6666666666667,4,2,2,50,0,0
245231,-66.6666666666667,4,2,2,5,0,0
245481,-66.6666666666667,4,2,2,50,0,0
245606,-66.6666666666667,4,2,2,5,0,0
245731,-66.6666666666667,4,2,2,50,0,0
246043,-66.6666666666667,4,2,2,5,0,0
246231,-66.6666666666667,4,2,2,50,0,0
246293,-66.6666666666667,4,2,2,5,0,0
246481,-66.6666666666667,4,2,2,50,0,0
246543,-66.6666666666667,4,2,2,5,0,0
246731,-66.6666666666667,4,2,2,50,0,0
246793,-66.6666666666667,4,2,2,5,0,0
246981,-50,4,2,2,50,0,0
247106,-50,4,2,2,5,0,0
247231,-66.6666666666667,4,2,2,50,0,0
247293,-66.6666666666667,4,2,2,5,0,0
247481,-66.6666666666667,4,2,2,50,0,0
247606,-66.6666666666667,4,2,2,5,0,0
247731,-66.6666666666667,4,2,2,50,0,0
247856,-66.6666666666667,4,2,2,5,0,0
247981,-66.6666666666667,4,2,2,50,0,0
248106,-66.6666666666667,4,2,2,5,0,0
248356,-66.6666666666667,4,2,2,50,0,0
248481,-66.6666666666667,4,2,2,5,0,0
248731,-66.6666666666667,4,2,2,50,0,0
248856,-66.6666666666667,4,2,2,5,0,0
248981,-66.6666666666667,4,2,2,50,0,0
249231,-66.6666666666667,4,2,2,5,0,0
249481,-66.6666666666667,4,2,2,50,0,0
249606,-66.6666666666667,4,2,2,5,0,0
249731,-66.6666666666667,4,2,2,50,0,0
249981,-66.6666666666667,4,2,2,50,0,0
250043,-66.6666666666667,4,2,2,5,0,0
250231,-66.6666666666667,4,2,2,50,0,0
250293,-66.6666666666667,4,2,2,5,0,0
250481,-66.6666666666667,4,2,2,50,0,0
250543,-66.6666666666667,4,2,2,5,0,0
250731,-66.6666666666667,4,2,2,50,0,0
250793,-66.6666666666667,4,2,2,5,0,0
250981,-66.6666666666667,4,2,2,50,0,0
251043,-66.6666666666667,4,2,2,5,0,0
251231,-66.6666666666667,4,2,2,50,0,0
251293,-66.6666666666667,4,2,2,5,0,0
251481,-66.6666666666667,4,2,2,50,0,0
251606,-66.6666666666667,4,2,2,5,0,0
251731,-66.6666666666667,4,2,2,50,0,0
251856,-66.6666666666667,4,2,2,5,0,0
251981,-66.6666666666667,4,2,2,50,0,0
252481,-50,4,2,2,50,0,0
252606,-50,4,2,2,5,0,0
252731,-50,4,2,2,50,0,0
252856,-66.6666666666667,4,2,2,50,0,0
253106,-66.6666666666667,4,2,2,5,0,0
253231,-66.6666666666667,4,2,2,50,0,0
253856,-66.6666666666667,4,2,2,5,0,0
253981,-66.6666666666667,4,2,2,50,0,0
254481,-50,4,2,2,50,0,0
254606,-50,4,2,2,5,0,0
254731,-50,4,2,2,50,0,0
254856,-66.6666666666667,4,2,2,50,0,0
255106,-66.6666666666667,4,2,2,5,0,0
255231,-66.6666666666667,4,2,2,50,0,0
255481,-50,4,2,2,50,0,0
255606,-50,4,2,2,5,0,0
255731,-50,4,2,2,50,0,0
256606,-50,4,2,2,5,0,0
256731,-50,4,2,2,50,0,0
256856,-66.6666666666667,4,2,2,50,0,0
257106,-66.6666666666667,4,2,2,5,0,0
257231,-66.6666666666667,4,2,2,50,0,0
257856,-66.6666666666667,4,2,2,5,0,0
257981,-66.6666666666667,4,2,2,50,0,0
258481,-133.333333333333,4,2,2,50,0,0
258981,-200,4,2,2,50,0,0
259481,-66.6666666666667,4,2,2,50,0,0
259981,-36.3636363636364,4,2,2,50,0,1
260231,-36.3636363636364,4,2,2,5,0,1
260356,-36.3636363636364,4,2,2,50,0,1
260606,-36.3636363636364,4,2,2,5,0,1
260731,-36.3636363636364,4,2,2,50,0,1
260856,-36.3636363636364,4,2,2,5,0,1
260981,-36.3636363636364,4,2,2,50,0,1
261356,-36.3636363636364,4,2,2,5,0,1
261481,-36.3636363636364,4,2,2,50,0,0
261981,-36.3636363636364,4,2,2,50,0,1
262231,-36.3636363636364,4,2,2,5,0,1
262356,-36.3636363636364,4,2,2,50,0,1
262606,-36.3636363636364,4,2,2,5,0,1
262731,-36.3636363636364,4,2,2,50,0,1
262856,-36.3636363636364,4,2,2,5,0,1
262981,-36.3636363636364,4,2,2,50,0,1
263356,-36.3636363636364,4,2,2,5,0,1
263481,-400,4,2,2,50,0,0
263856,-400,4,2,2,5,0,0
263981,-36.3636363636364,4,2,2,50,0,1
264231,-36.3636363636364,4,2,2,5,0,1
264356,-36.3636363636364,4,2,2,50,0,1
264606,-36.3636363636364,4,2,2,5,0,1
264731,-36.3636363636364,4,2,2,50,0,1
264856,-36.3636363636364,4,2,2,5,0,1
264981,-36.3636363636364,4,2,2,50,0,1
265356,-36.3636363636364,4,2,2,5,0,1
265481,-36.3636363636364,4,2,2,50,0,0
265981,-44.4444444444445,4,2,2,50,0,0
266231,-44.4444444444445,4,2,2,5,0,0
266356,-57.1428571428571,4,2,2,50,0,0
266606,-57.1428571428571,4,2,2,5,0,0
266731,-80,4,2,2,50,0,0
266856,-80,4,2,2,5,0,0
266981,-80,4,2,2,50,0,0
267106,-133.333333333333,4,2,2,50,0,0
267356,-133.333333333333,4,2,2,5,0,0
267481,-66.6666666666667,4,2,2,50,0,0
267606,-66.6666666666667,4,2,2,5,0,0
267731,-66.6666666666667,4,2,2,50,0,0
267856,-66.6666666666667,4,2,2,5,0,0
267981,-66.6666666666667,4,2,2,50,0,1
268106,-40,4,2,2,50,0,1
268481,-50,4,2,2,50,0,1
268981,-33.3333333333333,4,2,2,50,0,1
269106,-33.3333333333333,4,2,2,5,0,1
269231,-50,4,2,2,50,0,1
269481,-57.1428571428571,4,2,2,50,0,1
269731,-66.6666666666667,4,2,2,50,0,1
269856,-66.6666666666667,4,2,2,5,0,1
269981,-66.6666666666667,4,2,2,50,0,1
270106,-40,4,2,2,50,0,1
270481,-50,4,2,2,50,0,1
270981,-33.3333333333333,4,2,2,50,0,1
271106,-33.3333333333333,4,2,2,5,0,1
271231,-50,4,2,2,50,0,1
271356,-50,4,2,2,5,0,1
271481,-400,4,2,2,50,0,0
271856,-400,4,2,2,5,0,0
271981,-400,4,2,2,50,0,0
272106,-36.3636363636364,4,2,2,50,0,0
272231,-36.3636363636364,4,2,2,5,0,0
272356,-36.3636363636364,4,2,2,50,0,0
272481,-50,4,2,2,50,0,0
272606,-50,4,2,2,5,0,0
272731,-50,4,2,2,50,0,0
273106,-50,4,2,2,5,0,0
273231,-50,4,2,2,50,0,0
273481,-66.6666666666667,4,2,2,50,0,0
273856,-66.6666666666667,4,2,2,5,0,0
273981,-66.6666666666667,4,2,2,50,0,0
274106,-36.3636363636364,4,2,2,50,0,0
274231,-36.3636363636364,4,2,2,5,0,0
274356,-36.3636363636364,4,2,2,50,0,0
274481,-50,4,2,2,50,0,0
274606,-50,4,2,2,5,0,0
274731,-36.3636363636364,4,2,2,50,0,0
274793,-36.3636363636364,4,2,2,5,0,0
274856,-36.3636363636364,4,2,2,50,0,0
274918,-36.3636363636364,4,2,2,5,0,0
274981,-36.3636363636364,4,2,2,50,0,0
275231,-66.6666666666667,4,2,2,50,0,0
275356,-66.6666666666667,4,2,2,5,0,0
275481,-200,4,2,2,50,0,0
275981,-133.333333333333,4,2,2,50,0,0
276231,-133.333333333333,4,2,2,5,0,0
276356,-133.333333333333,4,2,2,50,0,0
276606,-133.333333333333,4,2,2,5,0,0
276731,-133.333333333333,4,2,2,50,0,0
277231,-133.333333333333,4,2,2,5,0,0
277356,-133.333333333333,4,2,2,50,0,0
277481,-66.6666666666667,4,2,2,50,0,0
277606,-66.6666666666667,4,2,2,5,0,0
277731,-66.6666666666667,4,2,2,50,0,0
277856,-66.6666666666667,4,2,2,5,0,0
277981,-133.333333333333,4,2,2,50,0,0
278231,-133.333333333333,4,2,2,5,0,0
278356,-133.333333333333,4,2,2,50,0,0
278606,-133.333333333333,4,2,2,5,0,0
278731,-133.333333333333,4,2,2,50,0,0
278856,-133.333333333333,4,2,2,5,0,0
278981,-133.333333333333,4,2,2,50,0,0
279481,-66.6666666666667,4,2,2,50,0,0
279606,-66.6666666666667,4,2,2,5,0,0
279731,-66.6666666666667,4,2,2,50,0,0
279856,-66.6666666666667,4,2,2,5,0,0
279981,-133.333333333333,4,2,2,50,0,0
280231,-133.333333333333,4,2,2,5,0,0
280356,-133.333333333333,4,2,2,50,0,0
280606,-133.333333333333,4,2,2,5,0,0
280731,-133.333333333333,4,2,2,50,0,0
281106,-133.333333333333,4,2,2,50,0,0
281231,-133.333333333333,4,2,2,5,0,0
281356,-133.333333333333,4,2,2,50,0,0
281481,-66.6666666666667,4,2,2,50,0,0
281606,-66.6666666666667,4,2,2,5,0,0
281731,-66.6666666666667,4,2,2,50,0,0
281856,-66.6666666666667,4,2,2,5,0,0
281981,-400,4,2,2,50,0,0
282856,-400,4,2,2,5,0,0
282981,-80,4,2,2,50,0,0
283106,-80,4,2,2,5,0,0
283231,-80,4,2,2,50,0,0
283481,-66.6666666666667,4,2,2,50,0,0
283606,-66.6666666666667,4,2,2,5,0,0
283731,-66.6666666666667,4,2,2,50,0,0
283856,-66.6666666666667,4,2,2,5,0,0
283981,-66.6666666666667,4,2,2,50,0,1
284106,-25,4,2,2,50,0,1
284356,-25,4,2,2,50,0,0
284481,-44.4444444444445,4,2,2,50,0,0
285106,-44.4444444444445,4,2,2,5,0,0
285231,-50,4,2,2,50,0,0
285481,-57.1428571428571,4,2,2,50,0,0
285731,-66.6666666666667,4,2,2,50,0,0
285856,-66.6666666666667,4,2,2,5,0,0
285981,-66.6666666666667,4,2,2,50,0,1
286106,-25,4,2,2,50,0,1
286356,-25,4,2,2,50,0,0
286481,-44.4444444444445,4,2,2,50,0,0
286606,-44.4444444444445,4,2,2,5,0,0
286731,-44.4444444444445,4,2,2,50,0,0
287481,-36.3636363636364,4,2,2,50,0,0
287981,-36.3636363636364,4,2,2,50,0,1
288106,-22.2222222222222,4,2,2,50,0,1
288356,-22.2222222222222,4,2,2,50,0,0
288481,-44.4444444444445,4,2,2,50,0,0
288606,-44.4444444444445,4,2,2,5,0,0
288731,-44.4444444444445,4,2,2,50,0,0
289481,-57.1428571428571,4,2,2,50,0,0
289731,-80,4,2,2,50,0,0
289856,-80,4,2,2,5,0,0
289981,-80,4,2,2,50,0,0
290481,-133.333333333333,4,2,2,50,0,0
291981,-66.6666666666667,4,2,2,50,0,0
295981,-133.333333333333,4,2,2,50,0,0
299981,-66.6666666666667,4,2,2,50,0,0
302981,-133.333333333333,4,2,2,50,0,0
307981,-133.333333333333,4,2,2,50,0,1
308106,-36.3636363636364,4,2,2,50,0,1
308481,-66.6666666666667,4,2,2,50,0,1
308606,-66.6666666666667,4,2,2,5,0,1
308731,-50,4,2,2,50,0,1
308981,-33.3333333333333,4,2,2,50,0,1
309106,-33.3333333333333,4,2,2,5,0,1
309231,-33.3333333333333,4,2,2,50,0,1
309481,-400,4,2,2,50,0,1
309856,-400,4,2,2,5,0,1
309981,-400,4,2,2,50,0,1
310106,-36.3636363636364,4,2,2,50,0,1
310481,-66.6666666666667,4,2,2,50,0,1
310606,-66.6666666666667,4,2,2,5,0,1
310731,-50,4,2,2,50,0,1
310981,-33.3333333333333,4,2,2,50,0,1
311106,-33.3333333333333,4,2,2,5,0,1
311231,-66.6666666666667,4,2,2,50,0,1
311356,-66.6666666666667,4,2,2,5,0,1
311481,-66.6666666666667,4,2,2,50,0,1
312106,-36.3636363636364,4,2,2,50,0,1
312481,-66.6666666666667,4,2,2,50,0,1
312606,-66.6666666666667,4,2,2,5,0,1
312731,-50,4,2,2,50,0,1
312981,-33.3333333333333,4,2,2,50,0,1
313106,-33.3333333333333,4,2,2,5,0,1
313231,-66.6666666666667,4,2,2,50,0,1
313481,-50,4,2,2,50,0,1
313731,-66.6666666666667,4,2,2,50,0,1
313856,-66.6666666666667,4,2,2,5,0,1
313981,-66.6666666666667,4,2,2,50,0,1
314106,-36.3636363636364,4,2,2,50,0,1
314481,-66.6666666666667,4,2,2,50,0,1
314606,-66.6666666666667,4,2,2,5,0,1
314731,-66.6666666666667,4,2,2,50,0,1
315481,-400,4,2,2,50,0,1
316106,-36.3636363636364,4,2,2,50,0,1
316481,-66.6666666666667,4,2,2,50,0,1
316606,-66.6666666666667,4,2,2,5,0,1
316731,-50,4,2,2,50,0,1
316981,-33.3333333333333,4,2,2,50,0,1
317106,-33.3333333333333,4,2,2,5,0,1
317231,-66.6666666666667,4,2,2,50,0,1
317481,-50,4,2,2,50,0,1
317731,-66.6666666666667,4,2,2,50,0,1
317856,-66.6666666666667,4,2,2,5,0,1
317981,-66.6666666666667,4,2,2,50,0,1
318106,-36.3636363636364,4,2,2,50,0,1
318481,-66.6666666666667,4,2,2,50,0,1
318606,-66.6666666666667,4,2,2,5,0,1
318731,-50,4,2,2,50,0,1
318981,-33.3333333333333,4,2,2,50,0,1
319106,-33.3333333333333,4,2,2,5,0,1
319231,-66.6666666666667,4,2,2,50,0,1
319356,-66.6666666666667,4,2,2,5,0,1
319481,-50,4,2,2,50,0,1
319606,-50,4,2,2,5,0,1
319731,-66.6666666666667,4,2,2,50,0,1
319856,-66.6666666666667,4,2,2,5,0,1
319981,-66.6666666666667,4,2,2,50,0,1
320106,-36.3636363636364,4,2,2,50,0,1
320481,-66.6666666666667,4,2,2,50,0,1
320606,-66.6666666666667,4,2,2,5,0,1
320731,-50,4,2,2,50,0,1
320981,-33.3333333333333,4,2,2,50,0,1
321106,-33.3333333333333,4,2,2,5,0,1
321231,-66.6666666666667,4,2,2,50,0,1
321481,-50,4,2,2,50,0,1
321731,-66.6666666666667,4,2,2,50,0,1
321856,-66.6666666666667,4,2,2,5,0,1
321981,-142.857142857143,4,2,2,50,0,0
323856,-142.857142857143,4,2,2,5,0,0
323981,-142.857142857143,4,2,2,50,0,1
324106,-33.3333333333333,4,2,2,50,0,1
324231,-33.3333333333333,4,2,2,5,0,1
324356,-33.3333333333333,4,2,2,50,0,1
324481,-100,4,2,2,50,0,1
324606,-100,4,2,2,5,0,1
324731,-100,4,2,2,50,0,1
324981,-36.3636363636364,4,2,2,50,0,1
325231,-36.3636363636364,4,2,2,5,0,1
325356,-44.4444444444445,4,2,2,50,0,1
325731,-57.1428571428571,4,2,2,50,0,1
325856,-57.1428571428571,4,2,2,5,0,1
325981,-57.1428571428571,4,2,2,50,0,1
326106,-33.3333333333333,4,2,2,50,0,1
326231,-33.3333333333333,4,2,2,5,0,1
326356,-33.3333333333333,4,2,2,50,0,1
326481,-100,4,2,2,50,0,1
326856,-50,4,2,7,50,0,1
326981,-36.3636363636364,4,2,2,50,0,1
327231,-36.3636363636364,4,2,2,5,0,1
327356,-44.4444444444445,4,2,2,50,0,1
327606,-44.4444444444445,4,2,2,5,0,1
327731,-57.1428571428571,4,2,2,50,0,1
327856,-57.1428571428571,4,2,2,5,0,1
327981,-57.1428571428571,4,2,2,50,0,1
328106,-33.3333333333333,4,2,2,50,0,1
328231,-33.3333333333333,4,2,2,5,0,1
328356,-33.3333333333333,4,2,2,50,0,1
328481,-100,4,2,2,50,0,1
328981,-36.3636363636364,4,2,2,50,0,1
329356,-44.4444444444445,4,2,2,50,0,1
329731,-57.1428571428571,4,2,2,50,0,1
329856,-57.1428571428571,4,2,2,5,0,1
329981,-66.6666666666667,4,2,7,50,0,1
330356,-50,4,2,7,50,0,1
330856,-33.3333333333333,4,2,8,50,0,1
330981,-36.3636363636364,4,2,2,50,0,1
331231,-36.3636363636364,4,2,2,5,0,1
331356,-44.4444444444445,4,2,2,50,0,1
331606,-44.4444444444445,4,2,2,5,0,1
331731,-57.1428571428571,4,2,2,50,0,1
332106,-33.3333333333333,4,2,2,50,0,1
332231,-33.3333333333333,4,2,2,5,0,1
332356,-33.3333333333333,4,2,2,50,0,1
332481,-100,4,2,2,50,0,1
332981,-57.1428571428571,4,2,2,50,0,1
333356,-44.4444444444445,4,2,2,50,0,1
333731,-36.3636363636364,4,2,2,50,0,1
333856,-36.3636363636364,4,2,2,5,0,1
333981,-36.3636363636364,4,2,2,50,0,1
334106,-33.3333333333333,4,2,2,50,0,1
334231,-33.3333333333333,4,2,2,5,0,1
334356,-33.3333333333333,4,2,2,50,0,1
334481,-100,4,2,2,50,0,1
334981,-30.7692307692308,4,2,2,50,0,1
335231,-30.7692307692308,4,2,2,5,0,1
335356,-57.1428571428571,4,2,2,50,0,1
335606,-57.1428571428571,4,2,2,5,0,1
335731,-44.4444444444445,4,2,2,50,0,1
335856,-44.4444444444445,4,2,2,5,0,1
335981,-44.4444444444445,4,2,2,50,0,1
336106,-33.3333333333333,4,2,2,50,0,1
336231,-33.3333333333333,4,2,2,5,0,1
336356,-33.3333333333333,4,2,2,50,0,1
336481,-100,4,2,2,50,0,1
336981,-36.3636363636364,4,2,2,50,0,1
337356,-44.4444444444445,4,2,2,50,0,1
337731,-57.1428571428571,4,2,2,50,0,1
337856,-57.1428571428571,4,2,2,5,0,1
337981,-57.1428571428571,4,2,2,50,0,1
338106,-33.3333333333333,4,2,2,50,0,1
338231,-33.3333333333333,4,2,2,5,0,1
338356,-33.3333333333333,4,2,2,50,0,1
338481,-44.4444444444445,4,2,2,50,0,1
338981,-33.3333333333333,4,2,2,50,0,1
339106,-33.3333333333333,4,2,2,5,0,1
339356,-44.4444444444445,4,2,2,50,0,1
339606,-44.4444444444445,4,2,2,5,0,1
339731,-57.1428571428571,4,2,2,50,0,1
340106,-22.2222222222222,4,2,2,50,0,1
340231,-22.2222222222222,4,2,2,5,0,0
340481,-22.2222222222222,4,2,2,50,0,1
340606,-22.2222222222222,4,2,2,5,0,0
340981,-22.2222222222222,4,2,2,50,0,0
341481,-400,4,2,2,50,0,0
341856,-400,4,2,2,5,0,0
341981,-400,4,2,2,50,0,1
342106,-22.2222222222222,4,2,2,50,0,1
342231,-22.2222222222222,4,2,2,5,0,0
342481,-22.2222222222222,4,2,2,50,0,1
342606,-22.2222222222222,4,2,2,5,0,0
342981,-57.1428571428571,4,2,2,50,0,0
343231,-57.1428571428571,4,2,2,5,0,0
343356,-80,4,2,2,50,0,0
343606,-80,4,2,2,5,0,0
343731,-133.333333333333,4,2,2,50,0,0
343981,-133.333333333333,4,2,2,50,0,1
344106,-22.2222222222222,4,2,2,50,0,1
344231,-22.2222222222222,4,2,2,5,0,0
344481,-22.2222222222222,4,2,2,50,0,1
344606,-22.2222222222222,4,2,2,5,0,0
344981,-22.2222222222222,4,2,2,50,0,0
345481,-400,4,2,2,50,0,0
345856,-400,4,2,2,5,0,0
345981,-400,4,2,2,50,0,1
346106,-22.2222222222222,4,2,2,50,0,1
346231,-22.2222222222222,4,2,2,5,0,0
346481,-22.2222222222222,4,2,2,50,0,1
346606,-22.2222222222222,4,2,2,5,0,0
346981,-57.1428571428571,4,2,2,50,0,0
347231,-57.1428571428571,4,2,2,5,0,0
347356,-80,4,2,2,50,0,0
347606,-80,4,2,2,5,0,0
347731,-133.333333333333,4,2,2,50,0,0
347856,-133.333333333333,4,2,2,5,0,0
347981,-133.333333333333,4,2,2,50,0,0
348106,-36.3636363636364,4,2,2,50,0,0
348481,-80,4,2,2,50,0,0
348606,-80,4,2,2,5,0,0
348731,-80,4,2,2,50,0,0
348981,-57.1428571428571,4,2,2,50,0,0
349106,-57.1428571428571,4,2,2,5,0,0
349231,-57.1428571428571,4,2,2,50,0,0
349356,-80,4,2,2,50,0,0
349856,-80,4,2,2,5,0,0
349981,-80,4,2,2,50,0,0
350606,-80,4,2,2,5,0,0
350731,-80,4,2,2,50,0,0
350981,-57.1428571428571,4,2,2,50,0,0
351106,-57.1428571428571,4,2,2,5,0,0
351231,-80,4,2,2,50,0,0
352606,-80,4,2,2,5,0,0
352731,-80,4,2,2,50,0,0
352981,-57.1428571428571,4,2,2,50,0,0
353106,-57.1428571428571,4,2,2,5,0,0
353231,-57.1428571428571,4,2,2,50,0,0
353356,-80,4,2,2,50,0,0
353856,-80,4,2,2,5,0,0
353981,-133.333333333333,4,2,2,50,0,0
354356,-133.333333333333,4,2,2,5,0,0
354481,-133.333333333333,4,2,2,50,0,0
354856,-133.333333333333,4,2,2,5,0,0
354981,-80,4,2,2,50,0,0
355356,-80,4,2,2,5,0,0
355481,-57.1428571428571,4,2,2,50,0,0
355981,-57.1428571428571,4,2,2,5,0,0

[Colours]
Combo1 : 251,181,194
Combo2 : 186,175,245
Combo3 : 250,182,244
Combo4 : 176,244,244

[HitObjects]
62,384,481,6,0,P|50:337|28:301,1,82.5000031471254,2|0,0:0|0:0,0:0:0:0:
94,258,981,2,0,P|105:212|125:172,1,82.5000031471254,2|0,0:0|0:0,0:0:0:0:
51,140,1481,2,0,P|39:93|20:59,1,82.5000031471254,2|0,0:0|0:0,0:0:0:0:
222,162,1981,6,0,B|158:152|161:76|219:48|296:75|305:156|305:156|338:121|391:133,1,330.000012588502,2|0,0:0|0:0,0:0:0:0:
314,28,3481,6,0,P|346:22|392:70,1,82.5000031471254,2|0,0:0|0:0,0:0:0:0:
331,99,3981,6,0,L|334:113,3,13.75,2|0|0|0,0:2|0:0|0:0|0:0,0:0:0:0:
401,132,4481,2,0,L|398:153,3,20.6250007867813,2|0|0|0,0:2|0:0|0:0|0:0,0:0:0:0:
333,192,4981,2,0,L|338:220,3,27.5,2|0|0|0,0:2|0:0|0:0|0:0,0:0:0:0:
406,265,5481,2,0,L|400:302,3,34.375,2|0|0|0,0:2|0:0|0:0|0:0,0:0:0:0:
327,329,5981,6,0,B|263:368|224:279|276:227|314:214|314:214|349:203|336:161|336:161|295:174|305:222,1,330.000012588501,2|0,0:2|0:0,0:0:0:0:
373,269,7231,1,0,1:0:0:0:
194,353,7481,5,8,0:0:0:0:
26,285,7731,5,8,0:0:0:0:
7,206,7856,1,8,0:0:0:0:
13,189,7981,2,0,P|66:182|103:122,1,123.750004720688,2|0,1:2|0:0,0:0:0:0:
27,113,8481,1,8,0:0:0:0:
274,79,8981,6,0,P|211:93|183:142,1,123.750004720688,2|0,1:2|0:0,0:0:0:0:
259,153,9481,1,8,0:0:0:0:
489,369,9981,6,0,B|484:341|484:341|479:338|479:338|473:308,1,55,2|0,1:2|0:0,0:0:0:0:
441,222,10231,2,0,B|463:240|463:240|491:230,1,55,2|0,0:0|0:0,0:0:0:0:
370,190,10481,6,0,P|358:237|292:205,1,123.750004720688,8|0,0:2|0:0,0:0:0:0:
431,143,10981,6,0,B|456:133|456:133|480:150,1,55,2|0,1:2|0:0,0:0:0:0:
359,109,11231,2,0,B|352:81|352:81|346:76|346:76|338:40,1,55,2|0,0:0|0:0,0:0:0:0:
466,7,11481,6,0,P|438:34|423:82,1,68.75,10|0,0:2|0:0,0:0:0:0:
206,16,11981,6,0,P|240:41|278:113,1,123.750004720688,2|0,1:2|0:0,0:0:0:0:
167,114,12481,2,0,B|182:99|182:99|205:107,1,41.2500015735627,10|0,0:0|0:0,0:0:0:0:
225,174,12731,2,0,B|213:191|213:191|190:178,1,41.2500015735627,2|0,0:0|0:0,0:0:0:0:
89,164,12981,6,0,P|110:188|144:280,1,123.750004720688,2|0,1:2|0:0,0:0:0:0:
33,322,13481,2,0,B|61:328|61:328|68:326|68:326|95:332,1,55,10|0,0:2|0:0,0:0:0:0:
150,383,13731,2,0,B|177:378|177:378|181:372|181:372|214:364,1,55,2|0,0:2|0:0,0:0:0:0:
307,323,13981,6,0,B|287:303|287:303|257:314,1,55,2|0,1:2|0:0,0:0:0:0:
307,230,14231,2,0,B|299:202|299:202|292:198|292:198|282:162,1,55,2|0,0:2|0:0,0:0:0:0:
311,62,14481,6,0,P|324:108|389:84,1,123.750004720688,8|0,0:2|0:0,0:0:0:0:
475,12,14981,6,0,B|468:40|468:40|462:43|462:43|454:72,1,55,2|0,1:2|0:0,0:0:0:0:
505,150,15231,2,0,B|478:141|478:141|458:160,1,55,2|0,0:0|0:0,0:0:0:0:
434,235,15481,1,8,0:0:0:0:
486,297,15606,1,8,0:0:0:0:
272,236,15856,5,8,0:0:0:0:
358,260,15981,2,0,P|315:283|296:361,1,123.750004720688,2|0,1:2|0:0,0:0:0:0:
371,339,16481,1,8,0:0:0:0:
144,274,16981,6,0,P|201:240|207:177,1,123.750004720688,2|0,1:2|0:0,0:0:0:0:
134,196,17481,1,8,0:0:0:0:
51,52,17731,5,2,0:0:0:0:
49,64,17856,1,2,0:0:0:0:
79,138,17981,2,0,B|106:131|106:131|110:126|110:126|130:121,1,55,2|0,1:2|0:0,0:0:0:0:
200,55,18231,2,0,B|186:32|186:32|162:46,1,55,2|0,0:0|0:0,0:0:0:0:
212,128,18481,1,8,0:0:0:0:
433,138,18981,6,0,B|406:131|406:131|402:126|402:126|382:121,1,55,2|0,1:2|0:0,0:0:0:0:
311,55,19231,2,0,B|326:32|326:32|350:46,1,55,2|0,0:0|0:0,0:0:0:0:
300,128,19481,1,8,0:0:0:0:
256,384,19981,6,0,L|256:356,1,27.5,2|0,0:0|0:0,0:0:0:0:
320,311,20231,1,2,0:0:0:0:
389,352,20481,1,2,0:0:0:0:
456,308,20731,1,2,0:0:0:0:
256,288,20981,6,0,L|256:256,1,27.5,2|0,0:0|0:0,0:0:0:0:
197,209,21231,1,2,0:0:0:0:
126,245,21481,1,2,0:0:0:0:
56,209,21731,1,2,0:0:0:0:
256,0,21981,6,0,L|256:41,1,41.25,2|0,0:0|0:0,0:0:0:0:
321,87,22481,1,2,0:0:0:0:
389,44,22731,1,2,0:0:0:0:
256,320,22981,6,0,L|256:288,1,27.5,2|0,0:0|0:0,0:0:0:0:
256,282,23356,1,2,0:0:0:0:
179,306,23481,1,10,0:0:0:0:
196,228,23606,1,8,0:0:0:0:
27,349,23856,5,8,0:0:0:0:
8,270,23981,1,4,1:2:0:0:
12,260,24106,2,0,B|39:266|39:266|45:263|45:263|71:269,1,55,2|0,1:2|0:0,0:0:0:0:
122,216,24356,5,0,1:0:0:0:
120,205,24481,2,0,B|127:179|127:179|125:172|125:172|132:150,1,55,2|0,1:2|0:0,0:0:0:0:
80,94,24731,2,0,B|54:99|54:99|50:105|50:105|23:112,1,55,2|0,1:2|0:0,0:0:0:0:
198,104,24981,5,12,0:0:0:0:
272,134,25106,1,8,0:0:0:0:
300,4,25356,5,0,1:0:0:0:
298,16,25481,2,0,B|305:43|305:43|311:46|311:46|317:69,1,55,2|0,1:2|0:0,0:0:0:0:
383,79,25731,1,0,1:0:0:0:
451,36,25856,1,8,0:0:0:0:
381,0,25981,6,0,B|392:4|392:4|423:98|423:98|421:106|421:106|449:192|449:192|461:196,1,220,4|0,1:2|0:0,0:0:0:0:
504,132,26356,1,0,1:0:0:0:
501,121,26481,2,0,B|508:95|508:95|506:88|506:88|513:67,1,55,2|0,0:2|0:0,0:0:0:0:
451,36,26731,2,0,B|423:41|423:41|419:47|419:47|401:51,1,55,2|0,1:2|0:0,0:0:0:0:
351,115,26981,6,0,B|345:103|345:103|249:86|249:86|246:81|246:81|158:64|158:64|151:45,1,220,12|0,0:0|0:0,0:0:0:0:
96,0,27356,1,2,0:0:0:0:
78,77,27481,2,0,L|71:105,1,27.5,2|0,1:2|0:0,0:0:0:0:
99,167,27856,1,0,1:0:0:0:
175,144,27981,5,4,1:2:0:0:
188,149,28106,2,0,B|194:176|194:176|200:180|200:180|209:217,1,55,2|0,1:2|0:0,0:0:0:0:
277,244,28356,1,0,1:0:0:0:
264,249,28481,2,0,B|258:278|258:278|252:283|252:283|246:310,1,55,2|0,1:2|0:0,0:0:0:0:
175,324,28731,1,2,1:2:0:0:
121,267,28856,1,2,0:0:0:0:
150,192,28981,6,0,B|156:178|156:178|250:165|250:165|254:160|254:160|343:147|343:147|349:134,1,220,12|0,0:0|0:0,0:0:0:0:
408,72,29481,6,0,B|424:125,1,55,2|0,0:0|0:0,0:0:0:0:
386,195,29856,1,0,1:0:0:0:
317,156,29981,2,0,B|306:116|306:116|341:95|341:95|353:135|353:135|317:156,1,165.000006294251,6|0,1:2|0:0,0:0:0:0:
287,217,30356,5,0,1:0:0:0:
285,230,30481,2,0,B|314:235|314:235|318:241|318:241|341:246,1,55,2|0,0:0|0:0,0:0:0:0:
387,304,30731,2,0,B|379:332|379:332|371:334|371:334|363:360,1,55,2|0,0:0|0:0,0:0:0:0:
289,379,30981,6,0,B|237:360|237:360|255:296,1,110,8|0,0:2|0:0,0:0:0:0:
317,294,31231,1,0,1:0:0:0:
320,304,31356,1,2,1:2:0:0:
374,349,31481,6,0,L|371:367,1,13.75,2|0,1:2|1:0,0:0:0:0:
435,384,31731,6,0,L|443:340,1,41.2500015735627,4|0,0:0|0:0,0:0:0:0:
423,257,31981,5,2,1:2:0:0:
418,245,32106,2,0,B|390:250|390:250|384:247|384:247|358:252,1,55,2|0,1:2|0:0,0:0:0:0:
296,211,32356,5,0,1:0:0:0:
299,200,32481,2,0,P|336:187|342:135,1,82.5000031471254,2|0,1:2|0:0,0:0:0:0:
291,91,32731,2,0,P|245:109|241:166,1,96.2500009179115,2|0,1:2|0:0,0:0:0:0:
230,242,32981,6,0,B|223:259|223:259|134:276|134:276|130:282|130:282|46:300|46:300|39:317,1,220,12|0,0:0|0:0,0:0:0:0:
63,166,33481,6,0,L|72:209,1,41.25,2|0,0:0|0:0,0:0:0:0:
45,98,33981,1,4,1:2:0:0:
159,98,34481,6,0,P|127:69|127:27,1,82.5000031471254,2|0,0:0|0:0,0:0:0:0:
198,0,34731,2,0,P|228:22|233:84,1,96.2500009179115,2|0,0:0|0:0,0:0:0:0:
180,174,34981,6,0,B|234:186|234:186|273:141,1,110,8|0,0:0|0:0,0:0:0:0:
329,80,35231,5,0,1:0:0:0:
327,92,35356,1,2,1:2:0:0:
364,152,35481,2,0,L|370:181,1,27.5,2|0,1:2|0:0,0:0:0:0:
334,236,35856,1,0,1:0:0:0:
399,298,35981,6,0,B|390:324|390:324|308:340|308:340|304:345|304:345|221:361|221:361|211:385,1,220,6|0,1:2|0:0,0:0:0:0:
146,215,36481,6,0,P|106:255|70:168,1,165.000006294251,2|0,0:0|0:0,0:0:0:0:
118,142,36856,1,2,0:0:0:0:
197,156,36981,2,0,B|203:174|203:174|292:191|292:191|296:196|296:196|381:212|381:212|388:235,1,220,12|0,0:0|0:0,0:0:0:0:
451,129,37481,6,0,L|443:169,1,41.25,2|0,0:0|0:0,0:0:0:0:
467,53,37981,1,12,0:0:0:0:
464,44,38106,2,0,P|428:52|402:72,1,55,2|2,1:2|0:0,0:0:0:0:
364,110,38356,5,2,1:2:0:0:
302,60,38481,1,12,0:0:0:0:
291,55,38606,2,0,P|276:78|268:109,1,55,2|2,1:2|0:0,0:0:0:0:
311,159,38856,5,2,0:0:0:0:
251,211,38981,1,8,0:0:0:0:
179,178,39106,1,8,0:0:0:0:
176,168,39231,1,2,0:0:0:0:
203,107,39356,5,0,1:0:0:0:
203,107,39418,1,0,1:0:0:0:
203,107,39481,2,0,L|104:90,1,82.5000031471254,2|0,1:2|0:0,0:0:0:0:
64,39,39731,5,8,0:0:0:0:
54,35,39856,1,0,0:0:0:0:
0,80,39981,6,0,P|21:108|29:138,1,55,2|0,1:2|0:0,0:0:0:0:
29,133,40231,2,0,P|11:147|0:164,1,41.2500015735627,2|0,0:0|0:0,0:0:0:0:
115,218,40481,6,0,P|88:211|64:191,1,55,10|0,0:0|0:0,0:0:0:0:
62,189,40731,2,0,P|51:208|46:233,1,41.2500015735627,2|0,0:0|0:0,0:0:0:0:
69,314,40981,6,0,P|94:295|123:287,1,55,2|0,1:2|0:0,0:0:0:0:
124,286,41231,2,0,P|131:308|149:328,1,41.2500015735627,2|0,0:0|0:0,0:0:0:0:
178,243,41481,1,10,0:0:0:0:
307,311,41981,6,0,B|267:306|267:306|263:301|263:301|226:296,1,82.5000031471254,2|0,1:2|0:0,0:0:0:0:
220,295,42231,2,0,P|238:281|245:259,1,41.2500015735627,2|0,0:0|0:0,0:0:0:0:
192,165,42481,6,0,P|210:192|246:195,1,55,10|0,0:0|0:0,0:0:0:0:
239,197,42731,2,0,B|240:174|240:174|224:162,1,41.2500015735627,2|0,0:0|0:0,0:0:0:0:
292,95,42981,6,0,B|307:157,1,55,2|0,1:2|0:0,0:0:0:0:
398,64,43481,6,0,P|345:46|325:12,1,82.5000031471254,10|0,0:0|0:0,0:0:0:0:
482,32,43981,6,0,B|476:61|476:61|470:64|470:64|463:92,1,55,2|0,1:2|0:0,0:0:0:0:
397,159,44231,2,0,B|415:139|415:139|446:153,1,55,2|0,0:0|0:0,0:0:0:0:
505,207,44481,6,0,P|480:217|464:231,1,41.2500015735627,10|0,0:0|0:0,0:0:0:0:
466,232,44731,2,0,P|492:250|503:265,1,41.2500015735627,2|0,0:0|0:0,0:0:0:0:
423,353,44981,6,0,B|428:326|428:326|433:323|433:323|438:298,1,55,2|0,1:2|0:0,0:0:0:0:
394,230,45231,2,0,B|372:246|372:246|344:237,1,55,2|0,0:0|0:0,0:0:0:0:
349,320,45481,1,10,0:0:0:0:
194,293,45981,6,0,B|235:289|235:289|239:284|239:284|280:280,1,82.5000031471254,2|0,1:2|0:0,0:0:0:0:
281,280,46231,2,0,P|252:268|237:251,1,41.2500015735627,2|0,0:0|0:0,0:0:0:0:
198,138,46481,6,0,P|211:164|241:188,1,55,10|0,0:0|0:0,0:0:0:0:
237,183,46731,2,0,B|232:162|232:162|217:150,1,41.2500015735627,2|0,0:0|0:0,0:0:0:0:
311,79,46981,6,0,B|300:134,1,55,2|0,1:2|0:0,0:0:0:0:
139,66,47481,5,10,0:0:0:0:
214,40,47606,2,0,L|232:127,1,82.5000031471254,8|0,0:0|0:0,0:0:0:0:
193,190,47856,1,8,0:0:0:0:
128,144,47981,6,0,B|84:129|60:62|60:62|62:134|28:161|28:161|88:163|110:252|13:266|-1:220,1,385,2|0,1:2|0:0,0:0:0:0:
147,256,48981,6,0,B|186:245|186:245|194:247|194:247|226:239,1,82.5000031471254,2|0,1:2|0:0,0:0:0:0:
368,176,49231,2,0,B|393:209|393:209|380:251,1,82.5000031471254,2|0,0:0|0:0,0:0:0:0:
304,226,49481,1,8,0:0:0:0:
407,52,49731,5,2,0:0:0:0:
431,119,49856,1,2,0:0:0:0:
506,151,49981,2,0,B|471:185|471:252|471:252|436:190|372:183,1,220,2|8,1:2|0:0,0:0:0:0:
394,355,50731,5,2,0:2:0:0:
381,358,50856,1,2,0:2:0:0:
296,330,50981,2,0,B|315:273|376:265|376:265|339:258|323:237,1,165,2|0,1:2|0:0,0:0:0:0:
154,283,51481,6,0,P|193:300|217:332,1,82.5000031471254,10|0,0:0|0:0,0:0:0:0:
96,229,51981,6,0,B|89:189|89:189|83:185|83:185|76:150,1,82.5000031471254,2|0,1:2|0:0,0:0:0:0:
152,65,52231,2,0,B|111:77|111:77|78:48,1,82.5000031471254,2|0,0:0|0:0,0:0:0:0:
223,103,52481,6,0,P|194:119|180:151,1,55,10|0,0:0|0:0,0:0:0:0:
471,125,52981,6,0,B|431:119|431:119|427:114|427:114|388:107,1,82.5000031471254,2|0,1:2|0:0,0:0:0:0:
278,50,53231,2,0,B|316:67|316:67|348:38,1,82.5000031471254,2|0,0:0|0:0,0:0:0:0:
323,145,53481,6,0,P|300:167|289:198,1,55,10|0,0:0|0:0,0:0:0:0:
436,298,53981,6,0,P|412:240|356:214,1,123.750004720688,2|0,1:2|0:0,0:0:0:0:
354,296,54481,1,10,0:0:0:0:
285,371,54731,5,2,0:0:0:0:
280,358,54856,1,2,0:0:0:0:
204,334,54981,2,0,B|217:302|243:288|243:288|215:263|211:234,1,123.750004720688,2|0,1:2|0:0,0:0:0:0:
92,198,55481,5,8,0:0:0:0:
166,169,55606,2,0,P|177:122|192:91,1,82.5000031471254,8|0,0:0|0:0,0:0:0:0:
152,16,55856,1,8,0:0:0:0:
149,24,55981,6,0,L|93:32,1,55,2|0,0:0|0:0,0:0:0:0:
59,112,56981,6,0,L|113:104,1,55,2|0,0:0|0:0,0:0:0:0:
113,103,58481,6,0,B|104:130|104:130|120:150|120:150|111:177,1,73.3333333333333,2|0,0:0|0:0,0:0:0:0:
167,221,58981,2,0,B|207:211|207:211|190:169|190:169|218:151,1,110.000004196167,2|0,0:0|0:0,0:0:0:0:
277,231,59481,2,0,B|304:182|304:182|279:124|279:124|292:75,1,146.666666666667,2|0,0:0|0:0,0:0:0:0:
339,7,59981,6,0,L|347:42,1,36.6666666666667,2|0,0:2|0:0,0:0:0:0:
401,113,60481,5,2,0:0:0:0:
483,88,60647,1,2,0:0:0:0:
506,5,60814,1,2,0:0:0:0:
404,123,60981,5,2,0:0:0:0:
487,96,61147,1,2,0:0:0:0:
510,14,61314,1,2,0:0:0:0:
409,132,61481,6,0,L|398:189,1,55,2|0,0:2|0:0,0:0:0:0:
446,314,62481,5,2,0:0:0:0:
377,261,62647,1,2,0:0:0:0:
295,283,62814,1,2,0:0:0:0:
450,305,62981,5,2,0:0:0:0:
381,251,63147,1,2,0:0:0:0:
298,275,63314,1,2,0:0:0:0:
450,212,63481,5,8,0:0:0:0:
345,179,63606,1,8,0:0:0:0:
478,15,63856,5,8,0:0:0:0:
509,107,63981,2,0,B|502:125|502:125|412:137|412:137|408:143|408:143|325:155|325:155|316:176,1,220,4|0,1:2|0:0,0:0:0:0:
139,117,64480,5,2,1:2:0:0:
214,137,64647,2,0,P|235:171|247:215,1,73.3333333333333,2|2,0:0|0:0,0:0:0:0:
105,186,64980,5,14,0:0:0:0:
21,211,65147,1,2,0:0:0:0:
0,295,65314,1,2,0:0:0:0:
70,342,65480,6,0,L|65:319,1,13.75,2|0,0:0|0:0,0:0:0:0:
110,266,65731,1,0,1:0:0:0:
206,239,65856,1,8,0:0:0:0:
179,323,65981,6,0,B|187:343|187:343|275:354|275:354|281:361|281:361|359:371|359:371|368:391,1,220,4|0,1:2|0:0,0:0:0:0:
282,202,66481,5,2,0:0:0:0:
207,223,66647,2,0,P|189:252|175:288,1,73.3333333333333,2|2,0:0|0:0,0:0:0:0:
322,266,66981,5,14,0:0:0:0:
406,288,67147,1,2,0:0:0:0:
474,234,67314,1,2,0:0:0:0:
320,276,67481,6,0,L|326:307,1,27.5,2|0,1:2|0:0,0:0:0:0:
273,359,67856,1,0,1:0:0:0:
179,327,67981,6,0,B|199:322|199:322|219:234|219:234|227:230|227:230|244:152|244:152|271:145,1,220,4|0,1:2|0:0,0:0:0:0:
385,47,68481,5,2,1:2:0:0:
301,70,68647,1,2,0:0:0:0:
236,16,68814,1,2,0:0:0:0:
120,188,68981,5,10,0:0:0:0:
97,105,69147,1,2,0:0:0:0:
153,39,69314,1,2,0:0:0:0:
237,60,69481,5,2,1:2:0:0:
265,143,69647,1,2,0:0:0:0:
205,204,69814,1,2,0:0:0:0:
25,171,69981,6,0,L|15:130,1,41.25,4|0,1:2|1:0,0:0:0:0:
156,53,70481,6,0,B|176:0|106:-34|56:-4|44:97|130:133,1,247.500009441376,2|0,0:0|0:0,0:0:0:0:
252,92,70981,6,0,P|217:102|185:126,1,55,12|0,0:0|0:0,0:0:0:0:
172,172,71231,1,0,1:0:0:0:
176,181,71356,1,0,1:0:0:0:
246,204,71481,6,0,B|266:201|266:201|269:196|269:196|288:193,1,41.2500015735627,2|0,0:0|0:0,0:0:0:0:
344,155,71731,2,0,B|348:167|348:167|360:159,1,27.5,2|0,0:0|0:0,0:0:0:0:
493,97,71981,6,0,B|455:111|438:164|438:164|482:186|507:230|507:230|499:145|400:93|400:93|418:47|475:29|475:29|393:20|388:99,1,577.500022029878,10|0,0:0|0:0,0:0:0:0:
323,250,72981,6,0,B|329:269|329:269|418:284|418:284|423:291|423:291|506:306|506:306|517:332,1,220,4|0,0:0|0:0,0:0:0:0:
157,357,73981,6,0,B|211:333|231:282|231:282|147:217|115:258|90:302|90:302|138:307|185:248|185:248|195:208|150:162|150:162|98:185|108:258,1,577.500022029878,10|0,0:0|0:0,0:0:0:0:
288,342,74981,6,0,B|331:375|331:375|405:356,1,110,4|0,0:0|0:0,0:0:0:0:
349,301,75231,5,2,1:2:0:0:
347,294,75356,1,2,1:2:0:0:
344,286,75481,1,2,1:2:0:0:
341,278,75606,1,2,1:2:0:0:
423,240,75856,5,2,1:2:0:0:
421,54,75981,2,0,B|455:94|444:178|444:178|482:105|533:99|533:99|451:104|387:134|387:134|375:86|341:62|341:62|370:103|369:158,1,577.500022029878,10|0,0:0|0:0,0:0:0:0:
186,281,76981,6,0,B|195:262|195:262|284:251|284:251|289:247|289:247|372:238|372:238|382:216,1,220,4|0,0:0|0:0,0:0:0:0:
131,223,77981,6,0,L|112:122,1,96.25,2|0,0:0|0:0,0:0:0:0:
151,59,78981,5,2,0:0:0:0:
151,59,79106,2,0,P|174:80|215:81,1,55,2|2,0:0|0:0,0:0:0:0:
271,62,79293,5,0,1:0:0:0:
273,56,79356,1,0,1:0:0:0:
275,50,79418,1,0,1:0:0:0:
277,44,79481,1,0,1:0:0:0:
208,21,79606,1,0,1:0:0:0:
253,139,79731,1,8,0:0:0:0:
257,151,79981,6,0,B|304:160|331:198|331:198|351:164|392:145|392:145|370:116|350:104|350:104|381:86|386:52,1,288.750002753735,6|0,1:2|1:0,0:0:0:0:
465,89,80481,2,0,B|466:104|479:120|479:120|469:135|463:149|463:149|479:162|492:179,1,96.2500009179115,2|0,1:2|0:0,0:0:0:0:
440,234,80731,2,0,B|441:220|422:208|422:208|414:245|439:270,1,96.2500009179115,2|0,1:2|0:0,0:0:0:0:
493,349,80981,6,0,B|504:331|522:332|522:332|499:350|490:382,1,96.2500009179115,10|0,0:0|1:0,0:0:0:0:
413,356,81168,2,0,B|412:314|381:307|381:307|396:320|400:336,1,96.2500009179115,2|0,0:0|0:0,0:0:0:0:
334,370,81356,2,0,B|329:358|317:355|317:355|327:365|331:376,1,48.1250004589558
215,350,81481,6,0,L|259:340,1,41.25,2|8,1:2|0:0,0:0:0:0:
0,223,81981,6,0,B|6:239|6:239|98:248|98:248|103:254|103:254|188:262|188:262|196:280,1,220,4|0,1:2|0:0,0:0:0:0:
312,93,82481,6,0,B|295:111|291:136|291:136|276:115|245:109,1,96.2500009179115,2|0,0:0|0:0,0:0:0:0:
244,32,82731,2,0,B|259:11|259:11|280:26|280:26|266:45|266:45|244:32,1,96.2500009179115,2|0,1:2|0:0,0:0:0:0:
166,57,82981,6,0,B|166:72|190:93|190:93|160:82|153:58,1,96.2500009179115,10|0,0:0|0:0,0:0:0:0:
91,13,83168,2,0,B|73:35|75:59|75:59|66:36|26:22,1,96.2500009179115,2|0,0:0|0:0,0:0:0:0:
7,98,83356,2,0,B|8:110|-6:121|-6:121|2:107|0:97,1,48.1250004589558,2|0,0:0|0:0,0:0:0:0:
9,198,83481,6,0,L|54:203,1,41.25,2|0,1:2|1:0,0:0:0:0:
102,257,83981,5,6,1:2:0:0:
113,254,84106,1,0,1:0:0:0:
202,205,84356,5,0,1:0:0:0:
273,230,84481,2,0,B|290:215|292:197|292:197|323:199|344:225,1,96.2500009179115,2|0,1:2|0:0,0:0:0:0:
396,282,84731,2,0,B|376:294|371:322|371:322|355:302|309:301,1,96.2500009179115,2|0,1:2|0:0,0:0:0:0:
209,289,84981,6,0,B|199:264|174:259|174:259|197:277|202:306,1,96.2500009179115,10|0,0:0|0:0,0:0:0:0:
127,321,85168,2,0,B|114:340|114:367|114:367|106:342|79:328,1,96.2500009179115,2|0,0:0|0:0,0:0:0:0:
6,316,85356,2,0,P|29:294|39:268,1,48.1250004589558,2|0,0:0|0:0,0:0:0:0:
96,209,85481,6,0,L|46:220,1,41.25,2|0,0:0|1:0,0:0:0:0:
325,202,85981,6,0,B|319:182|319:182|231:170|231:170|226:163|226:163|144:151|144:151|137:128,1,220,4|0,1:2|0:0,0:0:0:0:
403,220,86481,6,0,B|386:236|381:271|381:271|397:247|421:236,1,96.2500009179115,2|0,0:0|0:0,0:0:0:0:
484,255,86731,2,0,B|501:271|509:288|509:288|512:250|482:222,1,96.2500009179115,2|0,0:0|0:0,0:0:0:0:
460,163,86981,6,0,B|463:139|486:124|486:124|457:126|449:148,1,96.2500009179115,10|0,0:0|0:0,0:0:0:0:
386,101,87168,2,0,B|372:112|365:136|365:136|362:98|380:83,1,96.2500009179115,2|0,0:0|0:0,0:0:0:0:
433,36,87356,2,0,B|442:37|453:45|453:45|446:28|431:24,1,48.1250004589558,2|0,0:0|0:0,0:0:0:0:
318,19,87481,6,0,L|358:12,1,41.25,2|0,1:2|0:0,0:0:0:0:
253,74,87981,6,0,B|313:55|324:173|214:168|185:98|185:98|178:82|151:67|128:77|128:77|158:90|174:120,1,330,6|0,0:0|1:0,0:0:0:0:
115,157,88481,6,0,B|101:133|74:132|74:132|95:156|96:187,1,96.2500009179115,2|0,1:2|0:0,0:0:0:0:
52,238,88731,2,0,B|48:265|29:283|29:283|63:270|73:246,1,96.2500009179115,2|0,1:2|0:0,0:0:0:0:
202,256,88981,6,0,B|178:247|163:217|163:217|140:236|137:268,1,110,10|0,0:0|0:0,0:0:0:0:
97,323,89231,2,0,B|116:342|124:364|124:364|143:344|184:345,1,96.2500009179115,2|0,0:0|0:0,0:0:0:0:
274,328,89481,6,0,L|224:321,1,41.25,2|0,0:0|0:0,0:0:0:0:
512,206,89981,6,0,B|505:227|505:227|414:238|414:238|409:243|409:243|336:253|336:253|326:279,1,220,6|0,1:2|0:0,0:0:0:0:
460,149,90481,6,0,B|439:120|444:88|444:88|412:114|411:127,1,96.2500009179115,2|0,0:0|0:0,0:0:0:0:
364,162,90731,2,0,B|344:140|325:135|325:135|344:117|349:78,1,96.2500009179115,2|0,0:0|0:0,0:0:0:0:
411,22,90981,6,0,B|422:10|439:7|439:7|401:-1|379:17,1,96.2500009179115,10|0,0:0|0:0,0:0:0:0:
303,28,91231,2,0,B|273:23|261:7|261:7|235:27|236:60,1,96.2500009179115,2|0,1:2|0:0,0:0:0:0:
214,151,91481,6,0,B|233:131|261:124|261:124|202:123|180:153|180:153|170:212|129:263|50:225|73:127|156:160,1,330,6|0,0:0|1:0,0:0:0:0:
244,238,91981,6,0,B|251:259|251:259|338:269|338:269|342:276|342:276|419:284|419:284|430:315,1,220,6|0,1:2|0:0,0:0:0:0:
182,304,92481,6,0,B|167:315|166:347|166:347|155:317|130:309,1,96.2500009179115,2|0,0:0|0:0,0:0:0:0:
77,259,92668,2,0,B|62:267|58:292|58:292|48:264|74:238,1,96.2500009179115,2|0,0:0|0:0,0:0:0:0:
18,183,92856,2,0,B|33:169|43:169|43:169|28:163|16:169,1,48.1250004589558,2|0,0:0|0:0,0:0:0:0:
108,141,92981,6,0,B|126:154|134:180|134:180|149:160|188:150,1,96.2500009179115,10|0,0:0|0:0,0:0:0:0:
228,207,93231,2,0,B|207:208|189:224|189:224|215:225|241:245,1,96.2500009179115,2|0,0:0|0:0,0:0:0:0:
318,134,93481,6,0,L|309:182,1,41.25,2|0,0:0|0:0,0:0:0:0:
273,78,93981,5,8,0:0:0:0:
269,66,94106,2,0,P|316:55|340:14,1,96.2500009179115,2|0,1:2|0:0,0:0:0:0:
277,2,94356,1,0,1:0:0:0:
383,96,94481,6,0,B|405:76|432:70|432:70|411:87|405:117,1,96.2500009179115,10|0,0:0|1:0,0:0:0:0:
415,182,94731,2,0,B|441:179|458:163|458:163|479:178|486:205,1,96.2500009179115,2|0,0:0|1:0,0:0:0:0:
433,259,94981,1,10,0:0:0:0:
358,235,95106,2,0,L|368:287,1,41.2500015735627,8|0,0:0|0:0,0:0:0:0:
328,329,95293,5,0,1:0:0:0:
326,336,95356,1,0,1:0:0:0:
325,343,95418,1,0,1:0:0:0:
323,350,95481,2,0,B|267:334|244:286|244:286|200:299|185:348|185:348|169:303|126:292|126:292|165:284|181:313,1,330,6|0,1:2|0:0,0:0:0:0:
110,367,95981,5,2,0:0:0:0:
22,196,96481,6,0,L|19:178,4,13.75
82,227,97231,5,0,0:0:0:0:
102,220,97356,1,0,0:0:0:0:
158,260,97481,2,0,L|154:276,3,13.75
217,225,97981,1,2,0:0:0:0:
237,219,98106,1,0,0:0:0:0:
154,114,98481,6,0,L|163:172,1,55
214,213,99231,1,0,0:0:0:0:
234,206,99356,1,0,0:0:0:0:
254,200,99481,2,0,L|262:157,1,41.25
225,88,99981,1,2,0:0:0:0:
219,68,100106,1,0,0:0:0:0:
338,9,100481,6,0,L|341:23,4,13.75
321,87,101231,1,0,0:0:0:0:
341,92,101356,1,0,0:0:0:0:
361,97,101481,2,0,L|372:138,1,41.25
338,210,101981,1,2,0:0:0:0:
334,231,102106,1,0,0:0:0:0:
206,163,102481,6,0,L|193:223,1,55
216,296,103231,1,0,0:0:0:0:
236,290,103356,1,0,0:0:0:0:
256,284,103481,2,0,L|267:324,1,41.25
207,374,103981,1,2,0:0:0:0:
187,368,104106,1,0,0:0:0:0:
21,331,104481,6,0,L|11:285,4,41.2500015735627
82,382,105231,1,0,0:0:0:0:
103,374,105356,1,0,0:0:0:0:
123,367,105481,2,0,L|133:319,1,41.25
98,258,105981,1,2,0:0:0:0:
94,238,106106,1,0,0:0:0:0:
199,287,106481,6,0,L|187:231,1,55
231,168,107231,1,0,0:0:0:0:
251,173,107356,1,0,0:0:0:0:
271,179,107481,2,0,L|281:218,1,41.25
247,292,107981,1,2,0:0:0:0:
227,287,108106,1,0,0:0:0:0:
132,174,108481,6,0,L|121:125,4,41.2500015735627
94,238,109231,1,0,0:0:0:0:
74,231,109356,1,0,0:0:0:0:
55,223,109481,2,0,L|43:264,1,41.25
79,331,109981,1,2,0:0:0:0:
84,351,110106,1,0,0:0:0:0:
236,371,110481,6,0,L|222:308,1,55,2|0,0:0|0:0,0:0:0:0:
274,255,111231,1,0,0:0:0:0:
279,235,111356,1,0,0:0:0:0:
352,205,111481,1,8,0:0:0:0:
412,259,111606,1,8,0:0:0:0:
328,311,111856,5,8,0:0:0:0:
352,205,111981,1,4,1:2:0:0:
412,259,112106,1,0,1:0:0:0:
488,235,112231,1,0,1:0:0:0:
508,157,112356,1,0,1:0:0:0:
430,182,112481,5,0,1:0:0:0:
488,235,112606,1,0,1:0:0:0:
508,157,112731,1,0,1:0:0:0:
430,182,112856,1,0,1:0:0:0:
335,286,112981,5,12,1:2:0:0:
258,264,113106,1,8,1:2:0:0:
240,186,113231,1,0,1:0:0:0:
298,134,113356,1,0,1:0:0:0:
321,215,113481,5,0,1:0:0:0:
226,186,113606,1,0,1:0:0:0:
299,121,113731,1,0,1:0:0:0:
321,215,113856,1,8,1:2:0:0:
206,325,113981,5,4,1:2:0:0:
183,249,114106,1,0,1:0:0:0:
109,228,114231,1,0,1:0:0:0:
53,283,114356,1,0,1:0:0:0:
128,306,114481,5,0,1:0:0:0:
109,228,114606,1,0,1:0:0:0:
53,283,114731,1,0,1:0:0:0:
128,306,114856,1,0,1:0:0:0:
258,221,114981,6,0,P|250:167|204:125,2,110,14|0|0,1:2|1:0|1:0,1:0:0:0:
392,254,115356,2,0,P|420:211|481:191,2,110,2|0|0,1:2|1:0|1:0,1:0:0:0:
290,384,115731,2,0,L|319:265,1,110,2|0,1:2|1:0,0:0:0:0:
350,138,115981,5,4,1:2:0:0:
426,109,116106,1,0,1:0:0:0:
484,163,116231,1,0,1:0:0:0:
470,240,116356,1,0,1:0:0:0:
411,187,116481,5,0,1:0:0:0:
484,163,116606,1,0,1:0:0:0:
470,240,116731,1,0,1:0:0:0:
411,187,116856,1,0,1:0:0:0:
448,318,116981,6,0,P|397:339|376:379,2,96.2500009179115,14|0|0,1:2|1:0|1:0,0:0:0:0:
241,255,117356,2,0,P|266:295|260:347,2,96.2500009179115,2|0|0,1:2|1:0|1:0,0:0:0:0:
360,229,117731,2,0,L|392:135,1,96.2500009179115,2|0,1:2|1:0,0:0:0:0:
310,19,117981,5,4,1:2:0:0:
325,93,118106,1,0,1:0:0:0:
271,150,118231,1,0,1:0:0:0:
192,131,118356,1,0,1:0:0:0:
247,72,118481,5,0,1:0:0:0:
271,150,118606,1,0,1:0:0:0:
192,131,118731,1,0,1:0:0:0:
247,72,118856,1,0,1:0:0:0:
348,172,118981,5,10,1:2:0:0:
217,207,119106,1,2,1:2:0:0:
213,217,119231,1,0,1:0:0:0:
318,299,119356,5,2,1:2:0:0:
348,172,119481,1,2,1:2:0:0:
271,150,119606,1,0,1:0:0:0:
217,207,119731,1,0,1:0:0:0:
237,285,119856,1,0,1:0:0:0:
129,349,119981,5,2,1:2:0:0:
50,331,120106,1,0,1:0:0:0:
22,259,120231,1,0,1:0:0:0:
69,197,120356,1,0,1:0:0:0:
100,273,120481,5,0,1:0:0:0:
22,259,120606,1,0,1:0:0:0:
69,197,120731,1,0,1:0:0:0:
100,273,120856,1,0,1:0:0:0:
107,123,120981,5,14,1:2:0:0:
9,143,121106,1,2,1:2:0:0:
6,133,121231,1,0,1:0:0:0:
47,39,121356,5,2,1:2:0:0:
107,123,121481,1,2,1:2:0:0:
181,152,121606,1,0,1:0:0:0:
246,104,121731,1,0,1:0:0:0:
234,23,121856,1,0,1:0:0:0:
179,160,121981,5,6,1:2:0:0:
162,237,122106,1,0,1:0:0:0:
217,292,122231,1,0,1:0:0:0:
292,270,122356,1,0,1:0:0:0:
235,213,122481,5,0,1:0:0:0:
217,292,122606,1,0,1:0:0:0:
292,270,122731,1,0,1:0:0:0:
235,213,122856,1,0,1:0:0:0:
276,348,122981,6,0,P|331:355|387:375,1,110,14|0,1:2|1:0,0:0:0:0:
455,346,123231,1,0,1:0:0:0:
478,170,123356,2,0,P|448:219|429:284,2,110,2|0|0,1:2|1:0|1:0,0:0:0:0:
366,106,123731,2,0,P|347:42|319:2,1,110,2|0,1:2|1:0,0:0:0:0:
213,153,123981,5,4,1:2:0:0:
272,211,124106,1,0,1:0:0:0:
353,190,124231,1,0,1:0:0:0:
366,106,124356,1,0,1:0:0:0:
289,128,124481,5,0,1:0:0:0:
353,190,124606,1,0,1:0:0:0:
366,106,124731,1,0,1:0:0:0:
289,128,124856,1,0,1:0:0:0:
159,167,124981,6,0,P|183:120|221:89,2,96.2500009179115,14|0|0,1:2|1:0|1:0,0:0:0:0:
20,137,125356,2,0,P|20:79|-1:28,2,96.2500009179115,2|0|0,1:2|1:0|1:0,0:0:0:0:
66,251,125731,2,0,L|47:348,1,96.2500009179115,2|0,1:2|1:0,0:0:0:0:
153,364,125981,5,12,1:2:0:0:
193,295,126106,1,0,1:0:0:0:
271,281,126231,1,0,1:0:0:0:
327,339,126356,1,0,1:0:0:0:
193,295,126481,5,12,1:2:0:0:
126,248,126606,1,0,1:0:0:0:
102,171,126731,1,0,1:0:0:0:
147,105,126856,1,0,1:0:0:0:
220,219,126981,5,2,1:2:0:0:
245,144,127106,1,2,1:2:0:0:
298,204,127231,1,2,1:2:0:0:
324,129,127356,1,2,1:2:0:0:
376,189,127481,1,2,1:2:0:0:
404,116,127606,1,2,1:2:0:0:
456,176,127731,1,2,1:2:0:0:
483,101,127856,1,2,1:2:0:0:
435,9,127981,6,0,P|414:24|398:48,3,41.2500015735627,2|0|0|0,0:0|0:0|0:0|0:0,0:0:0:0:
431,112,128481,6,0,P|450:105|470:103,3,41.2500015735627,2|0|0|0,0:0|0:0|0:0|0:0,0:0:0:0:
444,202,128981,6,0,P|426:192|406:189,3,41.2500015735627,2|0|0|0,0:0|0:0|0:0|0:0,0:0:0:0:
355,250,129481,6,0,P|370:263|381:280,3,41.2500015735627,2|0|0|0,0:0|0:0|0:0|0:0,0:0:0:0:
288,317,129981,6,0,P|286:296|279:277,7,41.2500015735627,2|0|0|0|0|0|0|0,0:0|0:0|0:0|0:0|0:0|0:0|0:0|0:0,0:0:0:0:
201,268,130981,6,0,P|197:288|186:307,7,35.749998363495,2|0|0|0|0|0|0|0,0:0|0:0|0:0|0:0|0:0|0:0|0:0|0:0,0:0:0:0:
116,270,131981,6,0,P|130:260|142:247,7,30.2500009231568,2|0|0|0|0|0|0|0,0:0|0:0|0:0|0:0|0:0|0:0|0:0|0:0,0:0:0:0:
101,185,132981,6,0,P|86:190|72:192,7,24.74999924469,2|0|0|0|0|0|0|0,0:0|0:0|0:0|0:0|0:0|0:0|0:0|0:0,0:0:0:0:
70,113,133981,6,0,P|81:117|93:119,7,19.2499994125366,2|0|0|0|0|0|0|0,0:0|0:0|0:0|0:0|0:0|0:0|0:0|0:0,0:0:0:0:
118,49,134981,6,0,P|109:43|103:34,7,13.75,2|0|0|0|0|0|0|0,0:0|0:0|0:0|0:0|0:0|0:0|0:0|0:0,0:0:0:0:
70,113,135981,6,0,P|81:117|93:119,1,19.2499994125366,2|0,0:0|0:0,0:0:0:0:
101,185,136481,6,0,P|86:190|72:192,1,24.74999924469,2|0,0:0|0:0,0:0:0:0:
116,270,136981,6,0,P|130:260|142:247,1,30.2500009231568,2|0,0:0|0:0,0:0:0:0:
201,268,137481,6,0,P|197:288|186:307,1,35.749998363495,2|0,0:0|0:0,0:0:0:0:
288,317,137981,6,0,P|286:296|279:277,1,41.2500015735627,2|0,0:0|0:0,0:0:0:0:
343,234,138481,6,0,P|358:247|374:272,1,49.4999984893799,2|0,0:0|0:0,0:0:0:0:
420,180,138981,6,0,P|398:167|365:160,1,57.7499982376099,2|0,0:0|0:0,0:0:0:0:
352,82,139481,6,0,P|380:71|417:66,1,66,2|0,0:0|0:0,0:0:0:0:
512,152,139981,5,2,3:2:0:0:
491,146,140106,1,2,0:0:0:0:
470,140,140231,1,2,0:0:0:0:
450,133,140356,1,2,0:0:0:0:
393,186,140481,5,2,3:2:0:0:
367,190,140606,1,2,0:0:0:0:
341,195,140731,1,2,0:0:0:0:
315,201,140856,1,2,0:0:0:0:
259,133,140981,5,2,3:2:0:0:
229,126,141106,1,2,0:0:0:0:
199,118,141231,1,2,0:0:0:0:
169,111,141356,1,2,0:0:0:0:
119,194,141481,5,2,3:2:0:0:
80,200,141606,1,2,0:0:0:0:
41,206,141731,1,2,0:0:0:0:
2,214,141856,1,2,0:0:0:0:
23,114,141981,5,0,3:0:0:0:
121,137,142106,1,0,3:0:0:0:
100,235,142231,1,0,3:0:0:0:
2,214,142356,1,0,3:0:0:0:
40,106,142481,5,0,3:0:0:0:
128,153,142606,1,0,3:0:0:0:
83,242,142731,1,0,3:0:0:0:
0,197,142856,1,0,3:0:0:0:
59,103,142981,6,0,P|97:96|132:68,1,82.5,0|0,3:0|0:0,0:0:0:0:
65,31,143481,1,8,0:0:0:0:
209,92,143731,5,0,3:0:0:0:
284,71,143856,1,8,0:0:0:0:
376,113,143981,5,2,3:2:0:0:
363,74,144106,1,2,0:0:0:0:
383,40,144231,1,2,0:0:0:0:
423,34,144356,1,2,0:0:0:0:
456,58,144481,1,10,0:0:0:0:
468,97,144606,1,2,0:0:0:0:
459,137,144731,1,2,0:0:0:0:
437,172,144856,1,2,0:0:0:0:
410,203,144981,5,2,3:2:0:0:
387,237,145106,1,2,0:0:0:0:
377,277,145231,1,2,0:0:0:0:
386,317,145356,1,2,0:0:0:0:
408,352,145481,1,10,0:0:0:0:
446,368,145606,1,2,0:0:0:0:
485,356,145731,1,2,0:0:0:0:
507,321,145856,1,2,0:0:0:0:
473,234,145981,5,2,3:2:0:0:
448,202,146106,1,2,0:0:0:0:
408,194,146231,1,2,0:0:0:0:
372,213,146356,1,2,0:0:0:0:
358,251,146481,1,10,0:0:0:0:
331,281,146606,1,2,0:0:0:0:
291,287,146731,1,2,0:0:0:0:
255,267,146856,1,2,0:0:0:0:
240,229,146981,5,2,3:2:0:0:
217,197,147106,1,2,0:0:0:0:
177,188,147231,1,2,0:0:0:0:
142,207,147356,1,2,3:2:0:0:
127,244,147481,1,10,0:0:0:0:
102,276,147606,1,2,0:0:0:0:
63,284,147731,1,2,0:0:0:0:
28,264,147856,1,10,0:0:0:0:
49,174,147981,5,2,3:2:0:0:
76,143,148106,1,2,0:0:0:0:
113,126,148231,1,2,0:0:0:0:
154,124,148356,1,2,0:0:0:0:
193,137,148481,1,10,0:0:0:0:
223,165,148606,1,2,0:0:0:0:
241,202,148731,1,2,0:0:0:0:
243,243,148856,1,2,0:0:0:0:
230,281,148981,5,2,3:2:0:0:
202,311,149106,1,2,0:0:0:0:
165,328,149231,1,2,0:0:0:0:
124,330,149356,1,2,0:0:0:0:
85,317,149481,1,10,0:0:0:0:
55,289,149606,1,2,0:0:0:0:
35,254,149731,1,2,0:0:0:0:
26,215,149856,1,2,0:0:0:0:
76,138,149981,5,2,3:2:0:0:
90,100,150106,1,2,0:0:0:0:
124,78,150231,1,2,0:0:0:0:
164,80,150356,1,2,0:0:0:0:
195,106,150481,1,10,0:0:0:0:
226,133,150606,1,2,0:0:0:0:
266,135,150731,1,2,0:0:0:0:
299,111,150856,1,2,0:0:0:0:
310,72,150981,5,2,3:2:0:0:
291,37,151106,1,2,0:0:0:0:
254,21,151231,1,2,0:0:0:0:
215,32,151356,1,2,0:0:0:0:
192,65,151481,1,10,0:0:0:0:
195,105,151606,1,2,0:0:0:0:
225,132,151731,1,2,0:0:0:0:
265,134,151856,1,2,0:0:0:0:
398,94,151981,6,0,B|370:56|387:10|387:10|385:3|385:3|394:2|394:2|437:-1|474:9|474:9|481:6|481:6|481:15|481:15|513:68|510:88|510:88|513:95|513:95|506:94|506:94|457:131|446:148|446:148|446:158|446:158|454:155|454:155|480:180|495:219|495:219|495:228|495:228|486:223|486:223|452:244|433:289,1,577.500005507469,2|0,3:2|0:0,0:0:0:0:
330,284,152481,6,0,B|344:242|377:212|377:212|382:205|382:205|373:203|373:203|328:223|296:205|296:205|289:201|289:201|287:208|287:208|256:247|248:278|248:278|247:286|247:286|240:282|240:282|193:297|164:268|164:268|163:261|163:261|169:259|169:259|183:212|206:187|206:187|210:180|210:180|203:177|203:177|183:127|151:100,1,577.500005507469,10|0,0:0|0:0,0:0:0:0:
81,27,152981,6,0,B|85:46|99:59|99:59|70:74|65:97|65:97|86:113|91:147,1,137.5,2|0,3:2|0:0,0:0:0:0:
27,169,153231,2,0,B|31:145|15:141|15:141|-18:124|-9:77|-9:77|17:64|21:33,1,137.5,2|0,0:0|0:0,0:0:0:0:
89,219,153481,6,0,B|63:245|31:247|31:247|41:286|74:303,1,137.5,10|0,0:0|0:0,0:0:0:0:
137,337,153731,2,0,B|154:300|137:271|137:271|170:284|176:329,1,137.5,2|0,0:0|0:0,0:0:0:0:
260,373,153981,6,0,B|301:365|301:365|305:359|305:359|345:353,1,82.5000031471254,2|0,3:2|0:0,0:0:0:0:
408,380,154231,1,2,0:0:0:0:
433,384,154356,1,2,0:0:0:0:
504,356,154481,2,0,B|495:333|475:320|475:320|498:306|516:286|516:286|494:267|494:244,1,137.5,10|0,0:0|0:0,0:0:0:0:
451,203,154731,2,0,B|430:230|389:234|389:234|390:278|413:308,1,137.5,2|0,0:0|0:0,0:0:0:0:
311,270,154981,6,0,P|280:287|257:317,1,55.0000020980836,2|0,3:2|0:0,0:0:0:0:
314,198,155147,2,0,P|278:197|241:211,1,58.6666666666667,2|0,0:0|0:0,0:0:0:0:
356,140,155314,2,0,P|325:121|286:113,1,62.3333345222473,2|0,0:0|0:0,0:0:0:0:
451,203,155481,6,0,P|482:220|505:252,1,65.9999979858399,10|0,0:0|0:0,0:0:0:0:
443,118,155647,2,0,P|478:117|517:133,1,69.666664806366,2|0,0:0|0:0,0:0:0:0:
397,47,155814,2,0,P|427:28|469:19,1,73.3333333333333,2|0,0:0|0:0,0:0:0:0:
245,55,155981,6,0,B|150:73|150:73|142:71|142:71|45:89,1,192.500001835823,2|0,3:2|0:0,0:0:0:0:
233,294,156231,6,0,B|264:202|264:202|270:196|270:196|303:103,1,192.500001835823,2|0,0:0|0:0,0:0:0:0:
32,165,156481,6,0,B|95:238|95:238|97:246|97:246|161:321,1,192.500001835823,10|0,0:0|0:0,0:0:0:0:
245,55,156731,6,0,B|150:73|150:73|142:71|142:71|45:89,1,192.500001835823,2|0,0:0|0:0,0:0:0:0:
33,165,156981,6,0,B|67:174|99:155|99:155|79:184|81:224,1,137.5,0|0,3:0|0:0,0:0:0:0:
9,239,157231,1,2,0:0:0:0:
3,267,157356,1,2,0:0:0:0:
48,329,157481,6,0,B|19:344|-1:383|-1:383|27:359|59:352,1,137.5,10|0,0:0|0:0,0:0:0:0:
120,311,157731,1,2,0:0:0:0:
148,318,157856,1,2,0:0:0:0:
243,350,157981,5,2,3:2:0:0:
341,329,158106,1,0,3:0:0:0:
320,231,158231,1,0,3:0:0:0:
221,250,158356,1,0,3:0:0:0:
259,357,158481,5,2,3:2:0:0:
349,312,158606,1,0,3:0:0:0:
303,222,158731,1,0,3:0:0:0:
212,266,158856,1,0,3:0:0:0:
278,361,158981,5,2,3:2:0:0:
352,293,159106,1,0,3:0:0:0:
285,219,159231,1,0,3:0:0:0:
209,285,159356,1,0,3:0:0:0:
296,359,159481,6,0,L|356:372,1,55,10|0,0:0|0:0,0:0:0:0:
421,341,159731,1,0,3:0:0:0:
499,326,159856,1,8,0:0:0:0:
484,228,159981,6,0,B|492:206|510:196|510:196|489:175|475:157|475:157|500:149|508:123,1,137.5,2|0,3:2|0:0,0:0:0:0:
490,33,160231,5,0,3:0:0:0:
393,53,160356,1,0,3:0:0:0:
338,137,160606,5,0,3:0:0:0:
239,114,160731,1,0,3:0:0:0:
297,36,160981,6,0,L|304:9,1,27.5,8|0,0:0|0:0,0:0:0:0:
338,137,161231,5,0,3:0:0:0:
310,233,161356,1,0,3:0:0:0:
397,280,161606,5,0,3:0:0:0:
420,377,161731,1,0,3:0:0:0:
325,345,161981,5,0,3:0:0:0:
229,381,162231,5,0,3:0:0:0:
249,280,162356,1,0,3:0:0:0:
172,212,162606,5,0,3:0:0:0:
154,114,162731,1,0,3:0:0:0:
265,56,162981,6,0,L|242:157,1,96.25,10|0,0:0|0:0,0:0:0:0:
262,228,163981,6,0,B|230:239|211:272|211:272|214:234|191:205,1,137.5,2|0,3:2|0:0,0:0:0:0:
137,128,164231,5,0,3:0:0:0:
166,32,164356,1,0,3:0:0:0:
266,30,164606,5,0,3:0:0:0:
296,126,164731,1,0,3:0:0:0:
222,190,164981,6,0,L|227:219,1,27.5,8|0,0:0|0:0,0:0:0:0:
251,311,165231,5,0,3:0:0:0:
154,286,165356,1,0,3:0:0:0:
95,365,165606,5,0,3:0:0:0:
0,384,165731,1,0,3:0:0:0:
2,192,165981,6,0,P|25:269|85:209,1,192.5,2|0,3:2|0:0,0:0:0:0:
66,119,166981,6,0,L|244:98,1,165,2|0,0:0|0:0,0:0:0:0:
309,171,167481,6,0,L|145:190,1,165,10|0,0:0|0:0,0:0:0:0:
108,259,167856,1,8,0:0:0:0:
162,319,167981,6,0,B|165:277|234:260|281:329|237:401|158:386|158:386|-9:353|-9:353|57:357|93:318,1,481.25,0|0,3:0|0:0,0:0:0:0:
137,212,168981,6,0,B|112:261|66:255|66:255|31:204|61:136|123:82|222:130|220:211|220:211|291:196|316:137,1,519.750001982689,0|0,3:0|0:0,0:0:0:0:
368,0,169981,6,0,B|323:-63|241:1|263:121|427:94|485:32|485:32|472:106|502:167|502:167|449:128|402:126,1,558.250017036439,0|0,3:0|0:0,0:0:0:0:
384,215,170981,6,0,B|449:155|514:274|433:336|350:305|314:253|314:253|254:169|166:147|92:268|209:355|267:270,1,596.750004552841,0|0,3:0|0:0,0:0:0:0:
329,165,171981,6,0,B|337:142|355:127|355:127|336:109|322:94|322:94|344:77|351:52,1,137.5,2|0,3:2|0:0,0:0:0:0:
278,30,172231,1,2,0:0:0:0:
272,8,172356,1,2,0:0:0:0:
219,78,172481,6,0,B|132:98|97:35|97:35|85:109|0:123,1,272.250002596378,8|0,0:0|0:0,0:0:0:0:
79,172,172981,6,0,P|147:243|167:147,1,239.250007301331,2|0,3:2|0:0,0:0:0:0:
153,73,173481,2,0,P|188:16|223:104,1,206.25,10|0,0:0|0:0,0:0:0:0:
125,189,173981,6,0,P|172:206|124:185,1,192.5,2|0,0:0|0:0,0:0:0:0:
99,279,174981,6,0,B|156:285|192:362|192:362|197:278|246:252,1,255.750001951218,2|0,0:0|0:0,0:0:0:0:
316,299,175481,6,0,P|282:322|273:372,1,90.7500008654595,10|0,0:0|0:0,0:0:0:0:
395,299,175731,2,0,P|429:322|438:372,1,90.7500008654595,0|0,3:0|0:0,0:0:0:0:
355,230,175981,6,0,B|366:205|385:195|385:195|365:177|357:161|357:161|384:148|396:111,1,137.5,2|0,3:2|0:0,0:0:0:0:
346,39,176231,5,0,3:0:0:0:
250,64,176356,1,0,3:0:0:0:
204,152,176606,5,0,3:0:0:0:
106,129,176731,1,0,3:0:0:0:
146,38,176981,6,0,L|156:63,1,27.5,8|0,0:0|0:0,0:0:0:0:
204,152,177231,5,0,3:0:0:0:
164,244,177356,1,0,3:0:0:0:
63,245,177606,5,0,3:0:0:0:
30,150,177731,1,0,3:0:0:0:
118,100,177981,5,0,3:0:0:0:
204,152,178231,5,0,3:0:0:0:
301,127,178356,1,0,3:0:0:0:
357,211,178606,5,0,3:0:0:0:
456,227,178731,1,0,3:0:0:0:
393,306,178981,6,0,L|299:322,1,96.25,8|0,0:0|0:0,0:0:0:0:
224,298,179981,6,0,B|231:274|251:262|251:262|251:240|233:226|233:226|271:219|276:180,1,137.5,2|0,3:2|0:0,0:0:0:0:
238,106,180231,5,0,3:0:0:0:
142,129,180356,1,0,3:0:0:0:
97,38,180606,5,0,3:0:0:0:
0,16,180731,1,0,3:0:0:0:
29,111,180981,6,0,L|55:105,1,27.5,8|0,0:0|0:0,0:0:0:0:
149,134,181231,5,0,3:0:0:0:
118,230,181356,1,0,3:0:0:0:
208,273,181606,5,0,3:0:0:0:
238,370,181731,1,0,3:0:0:0:
380,271,181981,6,0,P|335:215|312:299,1,192.5,2|0,3:2|0:0,0:0:0:0:
375,384,182981,6,0,L|210:356,1,165,2|0,0:0|0:0,0:0:0:0:
143,267,183481,6,0,L|305:294,1,165,10|0,0:0|0:0,0:0:0:0:
355,234,183856,1,8,0:0:0:0:
315,166,183981,6,0,B|251:187|230:105|264:57|333:52|381:103|381:103|428:148|503:138|485:67|485:67|425:47|408:113,1,481.25,0|0,3:0|0:0,0:0:0:0:
385,196,184981,6,0,B|388:242|468:275|468:275|402:309|398:379|398:379|381:312|306:283|306:283|287:355|205:368,1,519.750001982689,0|0,3:0|0:0,0:0:0:0:
105,301,185981,6,0,B|64:371|-19:308|-3:227|85:166|173:205|190:298|190:298|276:268|231:192|231:192|205:149|246:112,1,558.250017036439,0|0,3:0|0:0,0:0:0:0:
393,132,186981,6,0,B|462:158|498:71|449:2|369:-10|261:32|260:235|373:273|373:273|399:205|470:207,1,596.750004552841,0|0,3:0|0:0,0:0:0:0:
421,333,187981,6,0,B|398:338|388:355|388:355|358:350|339:343|339:343|329:368|296:373,1,137.5,2|0,3:2|0:0,0:0:0:0:
276,302,188231,1,2,0:0:0:0:
268,280,188356,1,2,0:0:0:0:
321,223,188481,6,0,B|281:190|226:199|202:243|202:243|173:294|112:309|66:266,1,272.250002596378,8|0,0:0|0:0,0:0:0:0:
150,205,188981,6,0,B|130:240|86:208|86:208|84:130|171:111|210:159,1,239.250007301331,2|0,3:2|0:0,0:0:0:0:
285,151,189481,2,0,B|327:185|381:150|381:150|356:84|292:89,1,206.25,10|0,0:0|0:0,0:0:0:0:
181,46,189981,6,0,P|244:35|183:52,1,192.5,2|0,0:0|0:0,0:0:0:0:
104,58,190981,6,0,B|115:120|183:152|183:152|133:188|146:277,1,255.750001951218,2|0,0:0|0:0,0:0:0:0:
0,310,191481,6,0,B|-43:258|40:216|81:263|87:333,1,181.500001730919,10|0,0:2|0:0,0:0:0:0:
148,363,191856,1,8,0:0:0:0:
243,335,191981,6,0,B|227:282|227:282|230:274|230:274|215:220,1,110,2|0,3:2|0:0,0:0:0:0:
273,174,192231,2,0,B|328:186|328:186|332:193|332:193|391:205,1,110,2|0,0:0|0:0,0:0:0:0:
512,132,192481,6,0,B|528:79|528:79|492:35,1,110,10|0,0:0|0:0,0:0:0:0:
418,56,192731,2,0,B|402:109|402:109|438:153,1,110,2|0,0:0|0:0,0:0:0:0:
512,287,192981,6,0,B|458:277|458:277|453:270|453:270|404:260,1,110,2|0,3:2|0:0,0:0:0:0:
350,315,193231,2,0,B|296:324|296:324|291:331|291:331|239:341,1,110,2|0,0:0|0:0,0:0:0:0:
107,270,193481,6,0,B|91:217|91:217|127:173,1,110,10|0,0:0|0:0,0:0:0:0:
201,194,193731,2,0,B|217:247|217:247|181:291,1,110,2|0,0:0|0:0,0:0:0:0:
0,319,193981,6,0,L|101:337,1,82.5000031471254,2|0,3:2|0:0,0:0:0:0:
22,254,194168,2,0,L|110:270,1,82.5000031471254,2|0,0:0|0:0,0:0:0:0:
50,189,194356,2,0,L|92:196,1,41.2500015735627,2|0,0:0|0:0,0:0:0:0:
210,123,194481,6,0,L|124:137,1,82.5000031471254,10|0,0:0|0:0,0:0:0:0:
242,185,194668,2,0,L|141:203,1,82.5000031471254,2|0,0:0|0:0,0:0:0:0:
269,250,194856,2,0,L|217:260,1,41.2500015735627,2|0,0:0|0:0,0:0:0:0:
361,319,194981,6,0,L|432:334,1,68.75,2|0,0:0|0:0,0:0:0:0:
478,286,195231,1,2,0:0:0:0:
449,224,195356,1,2,0:0:0:0:
343,135,195481,6,0,L|272:147,1,68.75,2|0,0:0|0:0,0:0:0:0:
231,94,195731,1,2,0:0:0:0:
254,29,195856,1,2,0:0:0:0:
405,88,195981,6,0,B|458:101|458:101|463:108|463:108|512:121,1,110,2|0,3:2|0:0,0:0:0:0:
488,235,196231,2,0,B|435:222|435:222|430:215|430:215|384:202,1,110,2|0,0:0|0:0,0:0:0:0:
246,274,196481,6,0,B|234:329|234:329|268:383,1,110,10|0,0:0|0:0,0:0:0:0:
341,359,196731,2,0,B|353:304|353:304|319:250,1,110,2|0,0:0|0:0,0:0:0:0:
167,315,196981,6,0,B|114:302|114:302|109:295|109:295|63:282,1,110,2|0,3:2|0:0,0:0:0:0:
84,168,197231,2,0,B|137:181|137:181|142:188|142:188|187:200,1,110,2|0,0:0|0:0,0:0:0:0:
335,145,197481,6,0,B|347:90|347:90|318:44,1,110,10|0,0:0|0:0,0:0:0:0:
240,60,197731,2,0,B|228:115|228:115|256:160,1,110,2|0,0:0|0:0,0:0:0:0:
407,190,197981,6,0,L|491:206,1,82.5000031471254,2|0,0:0|0:0,0:0:0:0:
416,260,198168,2,0,L|496:276,1,82.5000031471254,2|0,0:0|0:0,0:0:0:0:
429,330,198356,2,0,L|476:340,1,41.2500015735627,2|0,0:0|0:0,0:0:0:0:
348,277,198481,6,0,L|332:360,1,82.5000031471254,2|0,0:0|0:0,0:0:0:0:
278,287,198668,2,0,L|261:369,1,82.5000031471254,2|0,0:0|0:0,0:0:0:0:
208,296,198856,2,0,L|196:349,1,41.2500015735627,2|0,0:0|0:0,0:0:0:0:
141,242,198981,6,0,L|68:229,1,68.75,2|0,0:0|0:0,0:0:0:0:
46,167,199231,1,2,0:0:0:0:
91,115,199356,1,2,0:0:0:0:
220,230,199481,6,0,L|290:217,1,68.75,10|0,0:0|0:0,0:0:0:0:
328,162,199731,1,2,0:0:0:0:
287,107,199856,1,10,0:0:0:0:
397,43,199981,6,0,P|378:67|366:98,1,55,2|2,3:2|0:0,0:0:0:0:
404,178,200231,5,2,0:0:0:0:
369,155,200356,1,2,0:0:0:0:
328,162,200481,2,0,P|345:184|356:213,1,55,10|2,0:0|0:0,0:0:0:0:
315,301,200731,5,2,0:0:0:0:
349,277,200856,1,2,0:0:0:0:
391,283,200981,2,0,P|371:318|363:353,1,55,2|2,3:2|0:0,0:0:0:0:
281,368,201231,5,2,0:0:0:0:
242,353,201356,1,2,0:0:0:0:
223,316,201481,2,0,P|246:298|254:255,1,55,10|2,0:0|0:0,0:0:0:0:
241,176,201731,5,2,0:0:0:0:
221,212,201856,1,2,0:0:0:0:
181,224,201981,2,0,P|161:197|129:183,1,55,2|2,3:2|0:0,0:0:0:0:
30,185,202231,5,2,0:0:0:0:
68,170,202356,1,2,0:0:0:0:
83,132,202481,2,0,P|52:115|41:89,1,55,10|2,0:0|0:0,0:0:0:0:
137,21,202731,5,2,0:0:0:0:
176,34,202856,1,2,0:0:0:0:
192,72,202981,2,0,P|165:89|151:118,1,55,2|2,3:2|0:0,0:0:0:0:
179,183,203231,5,2,0:0:0:0:
218,169,203356,1,2,0:0:0:0:
236,132,203481,2,0,P|247:165|262:186,1,55,10|2,0:0|0:0,0:0:0:0:
388,235,203731,5,2,0:0:0:0:
349,222,203856,1,2,0:0:0:0:
333,184,203981,2,0,P|325:213|308:237,1,55,2|2,3:2|0:0,0:0:0:0:
211,260,204231,5,2,0:0:0:0:
248,278,204356,1,2,0:0:0:0:
261,317,204481,2,0,P|238:335|227:370,1,55,10|2,0:0|0:0,0:0:0:0:
330,383,204731,5,2,0:0:0:0:
368,367,204856,1,2,0:0:0:0:
382,328,204981,2,0,P|358:311|345:278,1,55,2|2,3:2|0:0,0:0:0:0:
354,175,205231,5,2,0:0:0:0:
370,213,205356,1,2,0:0:0:0:
410,224,205481,2,0,P|430:204|462:191,1,55,10|2,0:0|0:0,0:0:0:0:
504,124,205731,5,2,0:0:0:0:
466,108,205856,1,2,0:0:0:0:
450,70,205981,2,0,P|475:45|482:14,1,55,2|2,3:2|0:0,0:0:0:0:
373,35,206231,5,2,0:0:0:0:
334,49,206356,1,2,0:0:0:0:
320,88,206481,2,0,P|339:108|352:138,1,55,10|2,0:0|0:0,0:0:0:0:
276,198,206731,5,2,0:0:0:0:
236,187,206856,1,2,0:0:0:0:
218,150,206981,2,0,P|237:126|245:92,1,55,2|2,3:2|0:0,0:0:0:0:
177,25,207231,5,2,0:0:0:0:
139,40,207356,1,2,0:0:0:0:
123,78,207481,2,0,P|135:101|140:132,1,55,10|2,0:0|0:0,0:0:0:0:
72,168,207731,1,2,0:0:0:0:
6,128,207856,1,2,0:0:0:0:
2,116,207981,6,0,L|31:110,1,27.5,2|0,3:2|0:0,0:0:0:0:
60,50,208231,2,0,L|53:17,1,27.5,2|0,0:0|0:0,0:0:0:0:
142,74,208481,6,0,P|117:91|100:125,1,55,2|0,0:0|0:0,0:0:0:0:
231,135,208731,2,0,P|226:104|205:80,1,55,2|0,0:0|0:0,0:0:0:0:
157,179,208981,6,0,P|164:212|186:241,1,68.75,2|0,3:2|0:0,0:0:0:0:
288,255,209231,2,0,P|320:232|332:196,1,68.75,2|0,0:0|0:0,0:0:0:0:
306,132,209481,6,0,L|345:142,1,41.2500015735627,2|0,0:0|0:0,0:0:0:0:
407,117,209731,2,0,L|417:78,1,41.2500015735627,2|0,0:0|0:0,0:0:0:0:
288,31,209981,6,0,L|296:63,1,27.5,2|0,3:2|0:0,0:0:0:0:
358,43,210231,2,0,L|350:12,1,27.5,2|0,0:0|0:0,0:0:0:0:
246,106,210481,6,0,L|238:147,1,41.2500015735627,2|0,0:0|0:0,0:0:0:0:
169,128,210731,2,0,L|182:83,1,41.2500015735627,2|0,0:0|0:0,0:0:0:0:
28,42,210981,6,0,P|42:64|51:103,1,55,2|0,3:2|0:0,0:0:0:0:
95,153,211231,2,0,P|88:189|69:218,1,55,2|0,0:0|0:0,0:0:0:0:
4,315,211481,6,0,P|35:298|83:285,1,68.75,2|0,0:0|0:0,0:0:0:0:
138,262,211731,2,0,P|176:270|213:289,1,68.75,2|0,0:0|0:0,0:0:0:0:
331,379,211981,6,0,L|323:336,1,41.2500015735627,2|0,3:2|0:0,0:0:0:0:
250,341,212231,2,0,L|257:381,1,41.2500015735627,2|0,0:0|0:0,0:0:0:0:
419,241,212481,6,0,P|397:263|386:294,1,55,2|0,0:0|0:0,0:0:0:0:
306,219,212731,2,0,P|321:246|321:274,1,55,2|0,0:0|0:0,0:0:0:0:
202,282,212981,6,0,L|160:271,1,41.2500015735627,2|0,3:2|0:0,0:0:0:0:
157,198,213231,2,0,L|199:210,1,41.2500015735627,2|0,0:0|0:0,0:0:0:0:
282,154,213481,6,0,L|248:162,1,27.5,2|0,0:0|0:0,0:0:0:0:
235,96,213731,2,0,L|264:89,1,27.5,2|0,0:0|0:0,0:0:0:0:
332,44,213981,5,2,3:2:0:0:
353,47,214106,1,0,0:0:0:0:
340,64,214231,1,2,0:0:0:0:
361,68,214356,1,0,0:0:0:0:
346,84,214481,1,2,0:0:0:0:
366,91,214606,1,0,0:0:0:0:
349,105,214731,1,2,0:0:0:0:
369,113,214856,1,0,0:0:0:0:
349,120,214981,1,2,3:2:0:0:
366,133,215106,1,0,0:0:0:0:
345,137,215231,1,2,0:0:0:0:
360,152,215356,1,0,0:0:0:0:
339,154,215481,5,2,0:0:0:0:
347,173,215731,5,2,0:0:0:0:
271,310,215981,6,0,L|278:282,1,27.5,2|0,3:2|0:0,0:0:0:0:
344,298,216231,2,0,L|337:328,1,27.5,2|0,0:0|0:0,0:0:0:0:
206,336,216481,6,0,P|182:304|151:285,1,55,2|0,0:0|0:0,0:0:0:0:
91,302,216731,2,0,P|71:327|58:358,1,55,2|0,0:0|0:0,0:0:0:0:
17,265,216981,6,0,L|7:221,1,41.2500015735627,2|0,3:2|0:0,0:0:0:0:
72,189,217231,2,0,L|80:230,1,41.2500015735627,2|0,0:0|0:0,0:0:0:0:
134,156,217481,6,0,L|139:128,1,27.5,2|0,0:0|0:0,0:0:0:0:
203,140,217731,2,0,L|196:180,1,27.5,2|0,0:0|0:0,0:0:0:0:
11,152,217981,6,0,P|42:136|59:99,1,55,2|0,3:2|0:0,0:0:0:0:
39,52,218231,2,0,P|56:23|61:-4,1,55,2|0,0:0|0:0,0:0:0:0:
135,25,218481,6,0,L|140:52,1,27.5,2|0,0:0|0:0,0:0:0:0:
209,57,218731,2,0,L|204:28,1,27.5,2|0,0:0|0:0,0:0:0:0:
278,106,218981,6,0,L|287:61,1,41.2500015735627,2|0,3:2|0:0,0:0:0:0:
355,77,219231,2,0,L|344:127,1,41.2500015735627,2|0,0:0|0:0,0:0:0:0:
330,214,219481,6,0,P|349:192|388:175,1,55,2|0,0:0|0:0,0:0:0:0:
451,189,219731,2,0,P|471:211|485:235,1,55,2|0,0:0|0:0,0:0:0:0:
367,307,219981,6,0,L|360:274,1,27.5,2|0,3:2|0:0,0:0:0:0:
427,269,220231,2,0,L|434:303,1,27.5,2|0,0:0|0:0,0:0:0:0:
296,330,220481,6,0,P|278:350|268:378,1,55,2|0,0:0|0:0,0:0:0:0:
184,312,220731,2,0,P|197:338|197:371,1,55,2|0,0:0|0:0,0:0:0:0:
99,325,220981,6,0,L|47:315,1,41.2500015735627,2|0,3:2|0:0,0:0:0:0:
48,246,221231,2,0,L|91:255,1,41.2500015735627,2|0,0:0|0:0,0:0:0:0:
190,227,221481,6,0,L|261:215,1,68.75,2|0,0:0|0:0,0:0:0:0:
271,145,221731,2,0,L|199:156,1,68.75,2|0,0:0|0:0,0:0:0:0:
85,120,221981,5,2,3:2:0:0:
58,114,222106,1,0,0:0:0:0:
31,108,222231,1,2,0:0:0:0:
3,102,222356,1,0,0:0:0:0:
56,33,222481,5,2,3:2:0:0:
89,39,222606,1,0,0:0:0:0:
122,47,222731,1,2,0:0:0:0:
155,54,222856,1,0,0:0:0:0:
199,129,222981,5,2,3:2:0:0:
239,122,223106,1,0,0:0:0:0:
279,115,223231,1,2,0:0:0:0:
319,109,223356,1,0,0:0:0:0:
391,138,223481,6,0,P|369:179|358:224,1,82.5000031471254,2|0,3:2|0:0,0:0:0:0:
389,277,223731,6,0,P|417:259|451:250,1,55,2|0,0:0|0:0,0:0:0:0:
444,329,224981,5,0,0:0:0:0:
303,352,225981,5,0,0:0:0:0:
188,271,226981,5,0,0:0:0:0:
256,192,227106,12,0,227856,0:0:0:0:
256,192,227981,6,0,B|309:203|309:203|345:245|345:245|421:259,1,165,4|0,1:2|0:0,0:0:0:0:
512,202,228481,1,2,0:0:0:0:
455,162,228606,1,2,0:0:0:0:
388,180,228731,1,2,0:0:0:0:
378,250,228856,1,2,0:0:0:0:
448,342,228981,6,0,B|457:287|457:287|502:255|502:255|512:197,1,165,4|0,1:2|0:0,0:0:0:0:
378,140,229481,1,2,0:0:0:0:
455,162,229606,1,2,0:0:0:0:
512,107,229731,1,2,0:0:0:0:
488,31,229856,1,2,0:0:0:0:
327,89,229981,6,0,B|276:71|276:71|253:20|253:20|200:1,1,165,4|0,1:2|0:0,0:0:0:0:
133,28,230481,1,2,0:0:0:0:
114,67,230606,1,2,0:0:0:0:
125,110,230731,1,2,0:0:0:0:
166,125,230856,1,2,0:0:0:0:
220,277,230981,6,0,L|195:188,1,82.5000031471254,10|0,0:0|0:0,0:0:0:0:
94,321,231356,6,0,L|183:343,1,82.5000031471254,2|0,0:0|0:0,0:0:0:0:
119,188,231731,6,0,L|54:254,1,82.5000031471254,2|0,0:0|0:0,0:0:0:0:
253,349,231981,6,0,B|308:339|308:339|335:292|335:292|392:280,1,165,4|0,1:2|0:0,0:0:0:0:
487,227,232481,1,2,0:0:0:0:
455,164,232606,1,2,0:0:0:0:
387,148,232731,1,2,0:0:0:0:
337,196,232856,1,2,0:0:0:0:
226,161,232981,6,0,B|280:148|280:148|302:98|302:98|355:85,1,165,4|2,1:2|0:0,0:0:0:0:
459,8,233481,1,2,0:0:0:0:
512,66,233606,1,2,0:0:0:0:
490,143,233731,1,2,0:0:0:0:
414,165,233856,1,2,0:0:0:0:
333,1,233981,6,0,B|349:54|349:54|321:100|321:100|339:160,1,165,4|0,1:2|0:0,0:0:0:0:
414,165,234481,1,2,0:0:0:0:
384,228,234606,1,2,0:0:0:0:
316,244,234731,1,2,0:0:0:0:
258,203,234856,1,2,0:0:0:0:
112,202,234981,6,0,L|197:182,1,82.5000031471254,10|0,0:0|0:0,0:0:0:0:
80,65,235356,6,0,L|54:148,1,82.5000031471254,2|0,0:0|0:0,0:0:0:0:
215,105,235731,6,0,L|155:41,1,82.5000031471254,2|0,0:0|0:0,0:0:0:0:
77,281,235981,5,2,1:2:0:0:
77,281,236043,1,0,1:0:0:0:
77,281,236106,2,0,B|97:295|97:295|189:274,1,110,0|2,1:0|0:0,0:0:0:0:
298,309,236356,5,0,1:0:0:0:
333,381,236481,2,0,P|367:352|378:312,1,82.5000031471254,2|0,1:2|0:0,0:0:0:0:
271,230,236731,5,2,1:2:0:0:
352,245,236856,1,0,1:0:0:0:
417,155,236981,2,0,B|365:137|365:137|321:172,1,110,10|0,0:0|0:0,0:0:0:0:
191,216,237231,5,2,1:2:0:0:
170,137,237356,2,0,P|218:141|251:164,1,82.5000031471254,0|2,1:0|0:0,0:0:0:0:
123,259,237606,5,0,1:0:0:0:
47,241,237731,2,0,P|77:204|115:188,1,82.5000031471254,2|0,1:2|0:0,0:0:0:0:
231,320,237981,5,2,1:2:0:0:
231,320,238043,1,0,1:0:0:0:
231,320,238106,2,0,L|147:336,1,82.5000031471254,2|2,1:2|0:0,0:0:0:0:
23,315,238356,5,0,1:0:0:0:
47,241,238481,2,0,P|38:192|12:150,1,82.5000031471254,2|0,1:2|0:0,0:0:0:0:
0,51,238731,5,2,1:2:0:0:
75,75,238856,1,0,1:0:0:0:
171,39,238981,2,0,B|208:80|208:80|197:140,1,110,10|0,0:0|0:0,0:0:0:0:
131,195,239231,6,0,L|117:131,1,55,2|0,0:0|0:0,0:0:0:0:
212,224,239481,2,0,L|200:278,1,55,2|0,0:0|0:0,0:0:0:0:
508,174,239981,5,2,1:2:0:0:
508,174,240043,1,0,1:0:0:0:
508,174,240106,2,0,L|423:159,1,82.5000031471254,0|2,1:0|0:0,0:0:0:0:
292,131,240356,5,0,1:0:0:0:
313,50,240481,2,0,P|350:72|370:104,1,82.5000031471254,2|0,1:2|0:0,0:0:0:0:
261,205,240731,5,2,1:2:0:0:
184,181,240856,1,0,1:0:0:0:
92,224,240981,2,0,B|58:181|58:181|69:124,1,110,10|0,0:0|0:0,0:0:0:0:
215,107,241231,5,2,1:2:0:0:
139,81,241356,2,0,P|177:35|216:26,1,82.5000031471254,0|2,1:0|0:0,0:0:0:0:
292,131,241606,5,0,1:0:0:0:
261,205,241731,2,0,P|304:212|346:194,1,82.5000031471254,2|0,1:2|0:0,0:0:0:0:
464,88,241981,6,0,P|437:130|396:244,1,165,2|0,0:0|0:0,0:0:0:0:
379,323,242481,2,0,P|406:306|445:294,1,55,2|0,0:0|0:0,0:0:0:0:
494,316,242731,1,0,1:0:0:0:
512,384,242856,1,0,1:0:0:0:
321,361,242981,1,8,0:0:0:0:
311,358,243356,5,0,0:0:0:0:
212,377,243481,2,0,B|205:349|205:349|223:314,1,55
289,258,243731,1,0,0:0:0:0:
217,184,243856,1,0,0:0:0:0:
124,224,243981,6,0,L|43:208,1,82.5000031471254,6|0,1:2|0:0,0:0:0:0:
148,85,244356,6,0,L|174:163,1,82.5000031471254,2|0,0:0|0:0,0:0:0:0:
15,131,244731,6,0,L|69:68,1,82.5000031471254,2|0,0:0|0:0,0:0:0:0:
225,64,244981,5,12,0:0:0:0:
290,110,245106,6,0,L|377:90,1,82.5000031471254,2|0,0:0|0:0,0:0:0:0:
512,192,245481,6,0,L|425:172,1,82.5000031471254,2|0,0:0|0:0,0:0:0:0:
384,217,245731,1,0,1:0:0:0:
403,284,245856,1,0,1:0:0:0:
493,114,245981,6,0,L|504:73,1,41.2500015735627,6|0,1:2|0:0,0:0:0:0:
415,92,246231,6,0,L|373:102,1,41.2500015735627,2|0,0:0|0:0,0:0:0:0:
437,169,246481,6,0,L|467:199,1,41.2500015735627,2|0,0:0|0:0,0:0:0:0:
493,114,246731,6,0,L|504:73,1,41.2500015735627,2|0,0:0|0:0,0:0:0:0:
373,267,246981,6,0,B|394:274|394:274|416:363,1,110,14|0,0:0|0:0,0:0:0:0:
341,384,247231,2,0,L|295:374,1,41.2500015735627,2|0,0:0|0:0,0:0:0:0:
158,343,247481,6,0,B|199:336|199:336|203:331|203:331|241:325,1,82.5000031471254,2|0,0:0|0:0,0:0:0:0:
302,239,247731,2,0,B|262:251|262:251|234:222,1,82.5000031471254,2|0,0:0|0:0,0:0:0:0:
325,56,247981,6,0,L|298:139,1,82.5000031471254,6|0,1:2|0:0,0:0:0:0:
186,18,248356,6,0,L|271:0,1,82.5000031471254,2|0,0:0|0:0,0:0:0:0:
224,159,248731,6,0,L|165:94,1,82.5000031471254,2|0,0:0|0:0,0:0:0:0:
405,72,248981,5,12,0:0:0:0:
445,142,249106,2,0,L|420:232,1,82.5000031471254,2|0,0:0|0:0,0:0:0:0:
260,339,249481,6,0,L|241:255,1,82.5000031471254,2|0,0:0|0:0,0:0:0:0:
299,225,249731,1,0,1:0:0:0:
362,255,249856,1,0,1:0:0:0:
106,337,249981,6,0,L|64:324,1,41.2500015735627,6|0,1:2|0:0,0:0:0:0:
131,260,250231,6,0,L|163:232,1,41.2500015735627,2|0,0:0|0:0,0:0:0:0:
184,319,250481,6,0,L|192:360,1,41.2500015735627,6|0,0:0|0:0,0:0:0:0:
106,337,250731,6,0,L|64:324,1,41.2500015735627,2|0,0:0|0:0,0:0:0:0:
192,161,250981,6,0,L|235:175,1,41.2500015735627,14|0,0:0|0:0,0:0:0:0:
151,93,251231,6,0,L|108:107,1,41.2500015735627,2|0,0:0|0:0,0:0:0:0:
255,15,251481,6,0,B|246:56|246:56|239:61|239:61|229:101,1,82.5000031471254,6|0,0:0|0:0,0:0:0:0:
333,149,251731,2,0,B|304:178|304:178|250:162,1,82.5000031471254,2|0,0:0|0:0,0:0:0:0:
488,130,251981,5,6,1:2:0:0:
488,130,252043,1,0,1:0:0:0:
488,130,252106,2,0,L|404:115,1,82.5000031471254,0|2,1:0|0:0,0:0:0:0:
320,251,252356,5,0,1:0:0:0:
403,314,252481,2,0,B|437:271|437:271|415:212,1,110,14|0,0:0|0:0,0:0:0:0:
244,222,252731,5,2,1:2:0:0:
169,250,252856,2,0,B|129:225|128:184|128:184|107:221|58:227,1,165.000006294251,0|0,1:0|0:0,0:0:0:0:
4,113,253231,5,2,1:2:0:0:
82,91,253356,1,0,1:0:0:0:
212,135,253481,1,14,0:0:0:0:
239,60,253606,1,0,1:0:0:0:
191,0,253731,2,0,P|165:41|163:90,1,82.5000031471254,2|0,1:2|0:0,0:0:0:0:
321,42,253981,5,6,1:2:0:0:
321,42,254043,1,0,1:0:0:0:
321,42,254106,2,0,L|406:56,1,82.5000031471254,0|2,1:0|0:0,0:0:0:0:
512,152,254356,5,0,1:0:0:0:
431,220,254481,2,0,B|392:183|392:183|413:125,1,110,14|0,1:2|0:0,0:0:0:0:
508,243,254731,5,2,1:2:0:0:
448,301,254856,2,0,B|396:301|374:271|374:271|340:296|336:353,1,165.000006294251,0|0,1:0|0:0,0:0:0:0:
222,382,255231,5,2,1:2:0:0:
143,361,255356,1,2,1:2:0:0:
102,265,255481,2,0,B|156:256|156:256|160:250|160:250|223:240,1,110,14|0,0:0|0:0,0:0:0:0:
373,218,255731,5,2,1:2:0:0:
297,195,255856,1,0,1:0:0:0:
274,96,255981,5,6,1:2:0:0:
274,96,256043,1,0,1:0:0:0:
274,96,256106,2,0,B|289:86|289:86|385:110,1,110,0|2,1:0|0:0,0:0:0:0:
508,42,256356,5,0,1:0:0:0:
407,16,256481,2,0,B|367:53|367:53|381:124,1,110,14|0,0:0|0:0,0:0:0:0:
409,227,256731,5,2,1:2:0:0:
487,203,256856,2,0,B|474:163|430:146|430:146|480:148|514:108,1,165.000006294251,0|0,1:0|0:0,0:0:0:0:
486,281,257231,5,2,1:2:0:0:
411,308,257356,1,0,1:0:0:0:
320,245,257481,1,14,0:0:0:0:
265,304,257606,1,0,1:0:0:0:
292,380,257731,2,0,P|329:353|346:320,1,82.5000031471254,2|0,1:2|0:0,0:0:0:0:
148,271,257981,5,4,0:0:0:0:
105,282,258106,1,0,0:0:0:0:
72,298,258231,1,0,0:0:0:0:
49,315,258356,1,0,0:0:0:0:
36,330,258481,2,0,P|64:338|87:353,1,41.2500015735627
146,377,258731,5,0,0:0:0:0:
170,367,258856,1,0,0:0:0:0:
199,349,258981,2,0,B|229:358|249:370|249:370|261:360|290:352,1,82.5
427,337,259481,6,0,B|385:328|385:328|380:321|380:321|338:311,1,82.5000031471254,8|0,0:0|0:0,0:0:0:0:
386,161,259731,5,0,1:0:0:0:
388,168,259793,1,0,1:0:0:0:
391,179,259856,1,0,1:0:0:0:
395,194,259918,1,0,1:0:0:0:
401,213,259981,6,0,B|251:190|251:190|246:182|246:182|99:158,1,302.500002884865,4|0,1:2|0:0,0:0:0:0:
6,36,260356,6,0,B|30:-10|30:-10|55:91|55:91|17:143|17:143|38:227,1,302.500002884865,4|0,1:2|0:0,0:0:0:0:
97,382,260731,6,0,B|111:310|111:310|116:304|116:304|131:232,1,151.250001442432,0|0,1:2|0:0,0:0:0:0:
106,159,260981,1,8,0:0:0:0:
185,344,261106,6,0,B|324:321|324:321|329:313|329:313|480:289,1,302.500002884865,4|0,1:2|0:0,0:0:0:0:
436,198,261481,5,2,0:0:0:0:
367,181,261606,1,2,0:0:0:0:
418,132,261731,1,2,0:0:0:0:
350,112,261856,1,2,0:0:0:0:
269,216,261981,6,0,B|186:197|186:197|182:189|182:189|99:171|99:171|57:224|57:224|77:285,1,302.500002884865,4|0,1:2|0:0,0:0:0:0:
240,369,262356,6,0,B|261:331|261:331|228:283|228:283|156:303|156:303|141:334|141:334|52:363,1,302.500002884865,4|0,1:2|0:0,0:0:0:0:
0,191,262731,6,0,B|76:205|76:205|81:213|81:213|156:226,1,151.250001442432,0|0,1:2|0:0,0:0:0:0:
218,196,262981,1,8,0:0:0:0:
131,93,263106,6,0,B|106:62|106:62|204:48|204:48|231:65|231:65|361:49,1,302.500002884865,4|0,1:2|0:0,0:0:0:0:
77,138,263481,6,0,L|34:130,1,41.25,0|0,1:0|0:0,0:0:0:0:
218,196,263981,6,0,B|206:165|206:165|293:183|293:183|308:236|308:236|281:278|281:278|303:363,1,302.500002884865,4|0,1:2|0:0,0:0:0:0:
170,303,264356,6,0,B|206:267|206:267|86:246|86:246|106:320|106:320|62:366,1,302.500002884865,0|0,1:0|0:0,0:0:0:0:
0,191,264731,6,0,B|75:178|75:178|80:168|80:168|150:156,1,151.250001442432,4|0,1:2|0:0,0:0:0:0:
183,89,264981,1,8,0:0:0:0:
285,167,265106,6,0,B|272:137|272:137|389:160|389:160|415:230|415:230|491:243,1,302.500002884865,0|0,1:0|0:0,0:0:0:0:
485,76,265481,5,6,1:2:0:0:
406,93,265606,1,2,0:0:0:0:
349,39,265731,1,2,0:0:0:0:
272,57,265856,1,2,0:0:0:0:
150,31,265981,6,0,B|122:152|122:152|115:157|115:157|87:274,1,247.500009441376,4|0,1:2|0:0,0:0:0:0:
161,367,266356,6,0,B|256:349|256:349|261:342|261:342|351:326,1,192.500001835823,0|0,1:0|0:0,0:0:0:0:
512,166,266731,6,0,L|434:151,1,68.75,4|0,1:2|0:0,0:0:0:0:
400,88,266981,1,8,0:0:0:0:
331,197,267106,6,0,L|232:211,1,82.5000031471254,0|0,1:2|0:0,0:0:0:0:
120,67,267481,6,0,P|155:105|173:151,1,82.5000031471254,4|0,1:2|0:0,0:0:0:0:
132,227,267731,2,0,P|121:271|90:318,1,82.5000031471254,2|0,0:0|0:0,0:0:0:0:
255,120,267981,5,6,1:2:0:0:
255,120,268043,1,0,1:0:0:0:
255,120,268106,2,0,B|232:70|322:31|372:96|345:190|293:152|255:197|312:274,1,275,0|0,1:0|1:0,0:0:0:0:
451,235,268481,6,0,B|395:260|364:301|364:301|426:320|459:354,1,220,2|0,1:2|1:0,0:0:0:0:
382,384,268856,1,2,1:2:0:0:
215,336,268981,6,0,B|131:348|131:348|124:343|124:343|39:354,1,165.000006294251,12|0,0:0|0:0,0:0:0:0:
87,245,269231,6,0,P|52:197|11:167,1,110,2|0,1:2|1:0,0:0:0:0:
67,112,269481,6,0,P|111:145|141:187,1,96.2500009179115,2|0,0:0|1:0,0:0:0:0:
180,119,269731,6,0,P|148:83|103:54,1,82.5000031471254,2|0,1:2|0:0,0:0:0:0:
234,180,269981,5,6,1:2:0:0:
234,180,270043,1,0,1:0:0:0:
234,180,270106,2,0,B|167:226|252:293|279:270|369:175|258:106,1,275,0|0,1:0|1:0,0:0:0:0:
138,0,270481,6,0,B|186:17|226:63|226:63|259:21|319:5,1,220,2|0,1:2|1:0,0:0:0:0:
398,32,270856,1,2,1:2:0:0:
366,246,270981,6,0,B|353:165|353:165|347:160|347:160|334:86,1,165.000006294251,12|0,0:0|0:0,0:0:0:0:
255,60,271231,2,0,P|227:96|152:113,1,110,2|0,0:0|0:0,0:0:0:0:
1,35,271481,6,0,P|22:41|40:50,1,41.25,2|0,0:0|0:0,0:0:0:0:
99,288,271981,5,6,1:2:0:0:
99,288,272043,1,0,1:0:0:0:
99,288,272106,2,0,L|74:138,1,151.250001442432,0|0,1:0|0:0,0:0:0:0:
130,26,272356,5,2,1:2:0:0:
196,76,272481,2,0,P|165:111|157:175,1,110,0|0,1:0|0:0,0:0:0:0:
304,196,272731,5,2,1:2:0:0:
236,150,272856,1,0,1:0:0:0:
160,245,272981,2,0,P|216:257|272:279,1,110,8|0,0:0|0:0,0:0:0:0:
378,313,273231,5,2,1:2:0:0:
455,290,273356,1,0,1:0:0:0:
419,192,273481,6,0,P|402:147|376:110,1,82.5000031471254,2|0,0:0|1:0,0:0:0:0:
475,85,273731,2,0,P|487:42|511:0,1,82.5000031471254,2|0,1:2|0:0,0:0:0:0:
313,56,273981,5,6,1:2:0:0:
313,56,274043,1,0,1:0:0:0:
313,56,274106,2,0,L|164:34,1,151.250001442432,0|0,1:0|0:0,0:0:0:0:
21,62,274356,5,2,1:2:0:0:
99,83,274481,2,0,P|124:133|138:190,1,110,0|0,1:0|0:0,0:0:0:0:
218,310,274731,6,0,L|293:296,1,75.6250007212162,4|0,1:2|0:0,0:0:0:0:
361,338,274856,2,0,L|441:325,1,75.6250007212162,4|0,1:2|0:0,0:0:0:0:
507,362,274981,1,8,0:0:0:0:
503,354,275231,6,0,P|511:310|527:267,1,82.5000031471254,2|0,0:0|0:0,0:0:0:0:
420,207,275481,6,0,L|508:195,1,82.5,2|2,0:0|0:0,0:0:0:0:
354,160,275981,6,0,L|266:148,1,82.5,2|0,0:0|0:0,0:0:0:0:
215,205,276356,2,0,L|127:217,1,82.5,2|0,0:0|0:0,0:0:0:0:
12,190,276731,6,0,L|0:109,1,82.5000031471254,2|0,0:0|0:0,0:0:0:0:
52,49,277106,2,0,L|62:-6,1,41.2500015735627,2|0,0:0|0:0,0:0:0:0:
128,33,277356,1,0,1:0:0:0:
85,136,277481,6,0,B|125:143|125:143|132:139|132:139|167:144,1,82.5000031471254,8|0,0:3|0:0,0:0:0:0:
270,54,277731,2,0,B|240:83|240:83|193:66,1,82.5000031471254,8|0,0:3|0:0,0:0:0:0:
256,161,277981,6,0,L|271:252,1,82.5000031471254,2|0,0:0|0:0,0:0:0:0:
215,302,278356,2,0,L|200:393,1,82.5000031471254,2|0,0:0|0:0,0:0:0:0:
106,355,278731,6,0,L|51:365,1,41.2500015735627,2|0,0:0|0:0,0:0:0:0:
0,336,278981,1,8,0:3:0:0:
138,280,279231,5,0,1:0:0:0:
203,302,279356,1,0,1:0:0:0:
309,264,279481,6,0,B|299:224|299:224|293:219|293:219|284:180,1,82.5000031471254,8|0,0:3|0:0,0:0:0:0:
355,99,279731,2,0,B|315:112|315:112|284:83,1,82.5000031471254,8|0,0:3|0:0,0:0:0:0:
449,0,279981,6,0,L|433:81,1,82.5000031471254,2|0,0:0|0:0,0:0:0:0:
482,142,280356,2,0,L|498:223,1,82.5000031471254,2|0,0:0|0:0,0:0:0:0:
449,335,280731,6,0,L|359:319,1,82.5000031471254,2|0,0:0|0:0,0:0:0:0:
300,362,281106,2,0,L|243:372,1,41.2500015735627,2|0,0:0|0:0,0:0:0:0:
192,350,281356,1,0,1:0:0:0:
214,206,281481,6,0,B|221:246|221:246|218:253|218:253|226:295,1,82.5000031471254,8|0,0:3|0:0,0:0:0:0:
356,234,281731,2,0,B|316:247|316:247|287:219,1,82.5000031471254,8|0,0:3|0:0,0:0:0:0:
476,245,281981,6,0,L|436:252,1,41.25,4|2,0:0|0:0,0:0:0:0:
423,321,282481,2,0,L|465:313,1,41.25,4|0,0:0|0:0,0:0:0:0:
271,275,282981,6,0,P|239:261|197:251,1,68.75,10|0,0:0|0:0,0:0:0:0:
158,297,283231,1,0,1:0:0:0:
181,363,283356,1,0,1:0:0:0:
335,336,283481,6,0,P|345:294|364:248,1,82.5000031471254,2|0,1:2|0:0,0:0:0:0:
274,168,283731,2,0,P|259:117|239:80,1,82.5000031471254,2|0,1:2|0:0,0:0:0:0:
181,363,283981,5,6,1:2:0:0:
181,363,284043,1,0,1:0:0:0:
181,363,284106,2,0,B|155:210|155:210|24:157|24:157|-2:7,1,440,0|0,1:0|1:0,0:0:0:0:
186,20,284481,6,0,B|144:39|91:99|91:99|174:107|206:158,1,247.500009441376,2|0,1:2|1:0,0:0:0:0:
334,71,284856,6,0,B|321:35|256:46|256:46|244:158|373:154,1,247.500009441376,2|0,1:2|0:0,0:0:0:0:
499,62,285231,6,0,P|453:78|401:116,1,110,2|0,1:2|1:0,0:0:0:0:
432,190,285481,6,0,P|474:149|516:131,1,96.2500009179115,2|0,1:2|1:0,0:0:0:0:
512,212,285731,6,0,P|490:232|459:270,1,82.5000031471254,10|0,0:0|0:0,0:0:0:0:
173,384,285981,5,6,1:2:0:0:
173,384,286043,1,0,1:0:0:0:
173,384,286106,2,0,B|203:228|203:228|322:177|322:177|357:12,1,440,0|0,1:0|1:0,0:0:0:0:
139,69,286481,6,0,P|201:85|256:111,1,123.750004720688,2|0,1:2|0:0,0:0:0:0:
24,183,286731,6,0,B|83:189|117:257|117:257|115:183|162:145,1,247.500009441376,2|8,1:2|0:0,0:0:0:0:
39,272,287106,6,0,B|-12:301|-13:378|-13:378|44:338|107:323,1,247.500009441376,2|0,1:2|1:0,0:0:0:0:
234,297,287481,6,0,P|297:307|388:349,1,151.250001442432,2|0,1:2|1:0,0:0:0:0:
439,323,287731,1,8,3:0:0:0:
416,257,287856,1,0,1:0:0:0:
476,32,287981,5,6,1:2:0:0:
476,32,288043,1,0,1:0:0:0:
476,32,288106,2,0,B|290:55|290:55|236:163|236:163|52:193,1,495.000018882752,0|0,1:0|1:0,0:0:0:0:
0,44,288481,6,0,P|66:55|126:79,1,123.750004720688,2|0,1:2|0:0,0:0:0:0:
270,126,288731,6,0,B|228:178|226:241|226:241|197:183|135:150,1,247.500009441376,2|8,1:2|0:0,0:0:0:0:
347,107,289106,6,0,B|415:117|461:152|461:152|398:165|358:227,1,247.500009441376,2|0,0:0|1:0,0:0:0:0:
437,285,289481,6,0,P|461:330|474:381,1,96.2500009179115,2|0,0:0|0:0,0:0:0:0:
394,364,289731,2,0,P|358:344|310:331,1,68.75,10|0,0:0|0:0,0:0:0:0:
176,358,289981,5,6,1:2:0:0:
212,347,290106,1,2,0:0:0:0:
239,332,290231,1,2,0:0:0:0:
256,315,290356,1,2,0:0:0:0:
264,299,290481,2,0,P|233:292|211:276,1,41.2500015735627,2|2,0:0|0:0,0:0:0:0:
157,249,290731,1,2,0:0:0:0:
144,255,290856,1,2,0:0:0:0:
66,229,290981,5,10,0:0:0:0:
62,215,291106,1,2,0:0:0:0:
104,161,291231,1,2,1:2:0:0:
170,182,291356,1,2,1:2:0:0:
243,147,291481,5,10,0:0:0:0:
254,67,291606,1,10,0:0:0:0:
180,36,291731,1,10,0:0:0:0:
116,82,291856,1,10,0:0:0:0:
237,228,291981,6,0,B|319:237|319:237|325:244|325:244|406:253,1,165.000006294251,6|2,1:2|0:0,0:0:0:0:
446,204,292481,1,2,0:0:0:0:
419,139,292731,1,2,0:0:0:0:
419,139,293231,5,2,0:0:0:0:
446,204,293481,1,2,0:0:0:0:
397,252,293731,1,2,0:0:0:0:
397,252,294231,5,2,0:0:0:0:
446,204,294481,1,2,0:0:0:0:
414,69,294731,5,2,1:2:0:0:
383,75,294856,1,0,1:0:0:0:
306,53,294981,1,8,0:0:0:0:
240,72,295231,5,2,1:2:0:0:
238,85,295356,1,0,1:0:0:0:
236,98,295481,1,2,1:2:0:0:
173,124,295606,1,8,0:0:0:0:
96,98,295731,1,10,0:0:0:0:
188,236,295981,6,0,B|229:243|229:243|234:249|234:249|268:254,2,82.5000031471254,6|2|2,1:2|0:0|0:0,0:0:0:0:
114,259,296731,1,2,1:2:0:0:
108,289,296856,1,0,1:0:0:0:
137,362,296981,1,8,0:0:0:0:
19,384,297231,5,2,0:0:0:0:
42,318,297481,1,2,0:0:0:0:
0,262,297731,1,2,0:0:0:0:
0,262,298231,5,2,0:0:0:0:
42,318,298481,1,2,0:0:0:0:
19,384,298731,1,2,0:0:0:0:
153,356,298981,5,8,0:0:0:0:
23,197,299356,5,8,0:0:0:0:
4,118,299481,1,8,0:0:0:0:
151,80,299731,5,8,0:0:0:0:
167,0,299856,1,8,0:0:0:0:
274,49,299981,2,0,B|287:137|287:137|294:141|294:141|307:215,1,165.000006294251,4|2,1:2|0:0,0:0:0:0:
228,274,300481,1,2,0:0:0:0:
130,246,300731,1,2,0:0:0:0:
130,246,301231,5,2,0:0:0:0:
167,306,301481,1,2,0:0:0:0:
112,349,301731,1,2,1:2:0:0:
99,345,301856,1,0,1:0:0:0:
87,340,301981,1,8,0:0:0:0:
2,214,302231,5,2,0:0:0:0:
68,197,302481,1,2,0:0:0:0:
87,130,302731,1,2,0:0:0:0:
181,20,302981,6,0,B|221:26|221:26|225:31|225:31|260:36,1,82.5000031471254,12|2,0:0|0:0,0:0:0:0:
312,92,303481,1,2,0:0:0:0:
246,132,303731,1,2,1:2:0:0:
250,145,303856,1,0,1:0:0:0:
267,215,303981,2,0,B|227:209|227:209|220:212|220:212|180:207,1,82.5000031471254,0|2,1:0|0:0,0:0:0:0:
107,272,304481,1,2,0:0:0:0:
142,369,304731,1,2,0:0:0:0:
307,342,304981,6,0,B|313:300|313:300|318:295|318:295|324:255,1,82.5000031471254,12|2,0:0|0:0,0:0:0:0:
385,230,305481,1,2,0:0:0:0:
258,213,305731,5,2,1:2:0:0:
255,200,305856,1,0,1:0:0:0:
283,135,305981,2,0,B|324:141|324:141|331:137|331:137|364:142,1,82.5000031471254,4|2,1:2|0:0,0:0:0:0:
429,98,306481,2,0,B|435:57|435:57|431:50|431:50|436:17,1,82.5000031471254,6|2,0:0|0:0,0:0:0:0:
509,186,306981,6,0,B|476:191|476:191|469:187|469:187|428:193,1,82.5000031471254,12|2,0:0|0:0,0:0:0:0:
401,256,307481,1,2,0:0:0:0:
448,307,307731,1,2,0:0:0:0:
307,342,307981,5,6,1:0:0:0:
307,342,308043,1,0,1:0:0:0:
307,342,308106,2,0,L|155:324,1,151.250001442432,0|2,1:0|0:0,0:0:0:0:
70,231,308356,5,0,1:0:0:0:
103,171,308481,2,0,P|125:191|136:243,1,82.5000031471254,2|0,1:2|0:0,0:0:0:0:
32,360,308731,6,0,P|20:299|0:244,1,110,2|0,1:2|1:0,0:0:0:0:
79,94,308981,6,0,B|159:105|159:105|165:102|165:102|245:112,1,165.000006294251,14|0,0:0|0:0,0:0:0:0:
292,66,309231,1,2,1:2:0:0:
262,3,309356,1,0,1:0:0:0:
359,89,309481,6,0,L|400:83,1,41.25,2|0,0:0|0:0,0:0:0:0:
328,238,309981,5,6,1:0:0:0:
328,238,310043,1,0,1:0:0:0:
328,238,310106,2,0,L|175:221,1,151.250001442432,0|2,1:0|0:0,0:0:0:0:
48,261,310356,5,0,1:0:0:0:
81,321,310481,2,0,P|106:296|114:249,1,82.5000031471254,2|0,1:2|0:0,0:0:0:0:
5,170,310731,6,0,P|57:153|118:141,1,110,2|0,1:2|1:0,0:0:0:0:
248,229,310981,6,0,B|232:148|232:148|235:141|235:141|219:60,1,165.000006294251,14|0,0:0|0:0,0:0:0:0:
255,0,311231,2,0,P|279:31|325:43,1,82.5000031471254,2|0,0:0|0:0,0:0:0:0:
454,31,311481,5,2,0:0:0:0:
387,50,311606,1,2,0:0:0:0:
439,99,311731,1,2,1:2:0:0:
372,119,311856,1,2,1:2:0:0:
229,98,311981,5,6,1:2:0:0:
229,98,312043,1,0,1:0:0:0:
229,98,312106,2,0,B|255:260,1,151.250001442432,0|2,1:0|0:0,0:0:0:0:
217,374,312356,5,0,1:0:0:0:
149,353,312481,2,0,P|175:317|215:303,1,82.5000031471254,2|0,1:2|0:0,0:0:0:0:
379,363,312731,6,0,P|326:344|271:332,1,110,2|0,1:2|1:0,0:0:0:0:
27,374,312981,6,0,B|16:293|16:293|10:289|10:289|0:214,1,165.000006294251,14|0,0:0|0:0,0:0:0:0:
30,140,313231,2,0,P|60:169|106:179,1,82.5000031471254,2|0,1:2|1:0,0:0:0:0:
223,63,313481,6,0,P|192:117|176:178,1,110,2|0,0:0|1:0,0:0:0:0:
212,235,313731,2,0,P|247:207|296:192,1,82.5000031471254,2|0,1:2|0:0,0:0:0:0:
457,340,313981,5,6,1:2:0:0:
457,340,314043,1,0,1:0:0:0:
457,340,314106,2,0,L|478:179,1,151.250001442432,0|2,1:0|0:0,0:0:0:0:
449,61,314356,5,0,1:0:0:0:
384,76,314481,2,0,P|403:110|441:129,1,82.5000031471254,2|0,1:2|0:0,0:0:0:0:
386,185,314731,2,0,P|346:197|323:233,1,82.5000031471254,2|0,1:2|1:0,0:0:0:0:
284,369,314981,5,14,0:0:0:0:
216,352,315106,1,2,0:0:0:0:
202,284,315231,1,2,0:0:0:0:
135,266,315356,1,2,0:0:0:0:
40,318,315481,6,0,L|83:308,1,41.25,2|0,0:0|0:0,0:0:0:0:
272,241,315981,5,6,1:2:0:0:
272,241,316043,1,0,1:0:0:0:
272,241,316106,2,0,B|249:79,1,151.250001442432,0|2,1:0|0:0,0:0:0:0:
342,50,316356,5,0,1:0:0:0:
408,64,316481,2,0,P|383:104|349:118,1,82.5000031471254,2|0,1:2|0:0,0:0:0:0:
168,146,316731,6,0,P|121:108|54:91,1,110,2|0,1:2|1:0,0:0:0:0:
29,384,316981,6,0,B|17:302|17:302|11:297|11:297|0:224,1,165.000006294251,14|0,0:0|0:0,0:0:0:0:
27,149,317231,2,0,P|57:183|102:194,1,82.5000031471254,2|0,1:2|1:0,0:0:0:0:
232,225,317481,6,0,P|177:235|120:264,1,110,2|0,0:0|1:0,0:0:0:0:
94,325,317731,2,0,P|133:333|181:355,1,82.5000031471254,2|0,1:2|0:0,0:0:0:0:
349,326,317981,5,6,1:2:0:0:
349,326,318043,1,0,1:0:0:0:
349,326,318106,2,0,L|375:172,1,151.250001442432,0|2,1:0|0:0,0:0:0:0:
337,41,318356,5,0,1:0:0:0:
271,55,318481,2,0,P|295:94|340:108,1,82.5000031471254,2|0,1:2|0:0,0:0:0:0:
488,30,318731,6,0,P|464:74|443:144,1,110,2|0,1:2|1:0,0:0:0:0:
508,356,318981,6,0,B|427:344|427:344|423:337|423:337|346:325,1,165.000006294251,14|0,0:0|0:0,0:0:0:0:
306,255,319231,2,0,P|350:231|368:192,1,82.5000031471254,2|0,0:0|0:0,0:0:0:0:
250,73,319481,6,0,P|276:113|299:184,1,110,2|0,0:0|0:0,0:0:0:0:
243,220,319731,2,0,P|203:199|159:190,1,82.5000031471254,2|0,0:0|0:0,0:0:0:0:
29,384,319981,5,2,1:2:0:0:
29,384,320043,1,0,1:0:0:0:
29,384,320106,2,0,L|4:227,1,151.250001442432,0|2,1:0|0:0,0:0:0:0:
46,98,320356,5,0,1:0:0:0:
112,112,320481,2,0,P|87:151|41:165,1,82.5000031471254,2|0,1:2|0:0,0:0:0:0:
27,0,320731,6,0,P|90:9|141:29,1,110,2|0,1:2|1:0,0:0:0:0:
218,238,320981,6,0,B|205:157|205:157|209:150|209:150|196:69,1,165.000006294251,14|0,0:0|0:0,0:0:0:0:
248,10,321231,2,0,P|285:40|331:50,1,82.5000031471254,2|0,1:2|1:0,0:0:0:0:
457,12,321481,6,0,P|430:69|419:133,1,110,2|0,0:0|1:0,0:0:0:0:
416,197,321731,2,0,P|456:177|504:162,1,82.5000031471254,2|0,1:2|0:0,0:0:0:0:
333,160,321981,6,0,B|381:113|302:32|234:98|205:205|311:253|311:253|267:280|274:335|274:335|255:283|206:271|206:271|239:237|246:200,1,577.499982376099,2|0,0:0|0:0,0:0:0:0:
185,11,323981,5,4,1:2:0:0:
185,11,324043,1,0,1:0:0:0:
185,11,324106,2,0,B|104:23|104:23|98:20|98:20|18:33,1,165.000006294251,0|0,1:0|0:0,0:0:0:0:
0,97,324356,5,0,1:0:0:0:
45,149,324481,2,0,B|39:180|39:180|33:184|33:184|28:207,1,55,0|0,1:0|0:0,0:0:0:0:
79,246,324731,1,0,1:0:0:0:
147,228,324856,1,0,1:0:0:0:
270,73,324981,6,0,B|305:22|250:-17|190:-3|168:64|191:115|250:122|267:197|189:227,1,302.500002884865,14|0,0:0|0:0,0:0:0:0:
79,246,325356,6,0,B|0:227|68:97|169:175|156:269,1,247.500009441376,2|0,0:0|1:0,0:0:0:0:
14,356,325731,6,0,P|55:336|104:322,1,96.2500009179115,2|0,1:2|0:0,0:0:0:0:
354,364,325981,5,4,1:2:0:0:
354,364,326043,1,0,1:0:0:0:
354,364,326106,2,0,B|364:282|364:282|361:274|361:274|370:201,1,165.000006294251,0|0,1:0|0:0,0:0:0:0:
319,153,326356,5,0,1:0:0:0:
254,174,326481,2,0,B|259:201|259:201|264:206|264:206|270:233,1,55,0|0,1:0|0:0,0:0:0:0:
223,279,326731,1,0,1:0:0:0:
157,258,326856,2,0,L|150:227,2,27.5,2|2|2,1:0|0:1|0:1,0:0:0:0:
19,310,326981,6,0,B|-44:316|-61:217|10:181|107:223|119:303|86:353,1,302.500002884865,14|0,0:0|0:0,0:0:0:0:
283,238,327356,6,0,B|241:276|240:351|240:351|219:279|153:264,1,247.500009441376,2|0,0:0|0:0,0:0:0:0:
314,310,327731,6,0,P|370:323|426:346,1,96.2500009179115,2|0,0:0|0:0,0:0:0:0:
466,142,327981,5,4,1:2:0:0:
466,142,328043,1,0,1:0:0:0:
466,142,328106,2,0,B|385:154|385:154|376:150|376:150|289:162,1,165.000006294251,0|0,1:0|0:0,0:0:0:0:
257,108,328356,5,0,1:0:0:0:
285,44,328481,2,0,B|313:48|313:48|318:45|318:45|340:48,1,55,0|0,1:0|0:0,0:0:0:0:
374,108,328731,1,0,1:0:0:0:
342,170,328856,1,0,1:0:0:0:
193,213,328981,6,0,B|145:186|191:98|263:124|301:179|305:238|242:230|232:296|299:332,1,302.500002884865,14|0,0:0|1:0,0:0:0:0:
451,286,329356,6,0,B|397:298|357:362|357:362|371:289|332:238,1,247.500009441376,2|0,1:2|1:0,0:0:0:0:
504,195,329731,6,0,P|450:203|395:222,1,96.2500009179115,2|0,1:2|0:0,0:0:0:0:
183,86,329981,6,0,L|131:77,2,41.2500015735627,6|2|2,1:0|0:1|0:1,0:0:0:0:
24,135,330356,6,0,L|18:106,2,27.5,2|2|2,1:0|0:1|0:1,0:0:0:0:
81,196,330606,2,0,L|88:227,2,27.5,2|2|2,0:1|0:1|0:1,0:0:0:0:
223,165,330856,6,0,L|266:174,2,41.2500015735627,2|2|2,1:0|0:1|0:1,0:0:0:0:
183,86,330981,6,0,B|134:57|154:-18|237:-32|318:12|315:129,1,302.500002884865,14|0,0:0|0:0,0:0:0:0:
256,288,331356,6,0,B|243:244|179:244|151:293|178:349|227:391|302:354,1,247.500009441376,2|0,1:2|0:0,0:0:0:0:
372,210,331731,6,0,P|348:255|335:300,1,96.2500009179115,2|0,1:2|1:0,0:0:0:0:
113,257,331981,5,4,1:2:0:0:
113,257,332043,1,0,1:0:0:0:
113,257,332106,2,0,B|99:176|99:176|92:169|92:169|80:96,1,165.000006294251,0|0,1:0|0:0,0:0:0:0:
128,47,332356,5,0,1:0:0:0:
195,70,332481,2,0,B|189:98|189:98|183:103|183:103|177:129,1,55,0|0,1:0|0:0,0:0:0:0:
215,180,332731,1,0,1:0:0:0:
282,164,332856,1,0,1:0:0:0:
349,328,332981,6,0,B|335:263|335:263|365:221|365:221|350:147,1,192.500001835823,14|0,0:0|1:0,0:0:0:0:
202,77,333356,6,0,B|151:41|185:-33|265:-17|303:48|276:114,1,247.500009441376,2|0,1:2|1:0,0:0:0:0:
64,196,333731,6,0,P|127:173|219:157,1,151.250001442432,2|0,1:2|0:0,0:0:0:0:
433,294,333981,5,4,1:2:0:0:
433,294,334043,1,0,1:0:0:0:
433,294,334106,2,0,B|445:213|445:213|441:203|441:203|453:128,1,165.000006294251,0|0,1:0|0:0,0:0:0:0:
410,76,334356,5,0,1:0:0:0:
345,99,334481,2,0,B|351:126|351:126|348:135|348:135|352:155,1,55,0|0,1:0|0:0,0:0:0:0:
302,201,334731,1,0,1:0:0:0:
235,184,334856,1,0,1:0:0:0:
159,0,334981,6,0,B|129:120|129:120|178:226|178:226|149:342,1,357.500010228157,14|0,0:0|0:0,0:0:0:0:
0,304,335356,6,0,P|-1:244|82:290,1,192.500001835823,2|0,0:0|0:0,0:0:0:0:
267,375,335731,6,0,P|194:350|136:337,1,123.750004720688,2|0,0:0|0:0,0:0:0:0:
372,357,335981,5,4,1:2:0:0:
372,357,336043,1,0,1:0:0:0:
372,357,336106,2,0,B|389:275|389:275|386:266|386:266|403:191,1,165.000006294251,0|0,1:0|0:0,0:0:0:0:
358,141,336356,5,0,1:0:0:0:
293,162,336481,2,0,B|299:188|299:188|296:194|296:194|303:220,1,55,0|0,1:0|0:0,0:0:0:0:
255,266,336731,1,0,1:0:0:0:
188,249,336856,1,0,1:0:0:0:
15,284,336981,6,0,B|-36:338|50:427|146:336|125:217|20:197,1,302.500002884865,14|0,0:0|1:0,0:0:0:0:
30,108,337356,6,0,B|-15:79|19:-1|80:16|141:62|103:154,1,247.500009441376,2|0,1:2|1:0,0:0:0:0:
247,180,337731,6,0,P|200:190|157:211,1,96.2500009179115,2|0,1:2|0:0,0:0:0:0:
351,214,337981,5,4,1:2:0:0:
351,214,338043,1,0,1:0:0:0:
351,214,338106,2,0,B|365:133|365:133|360:123|360:123|372:50,1,165.000006294251,0|0,1:0|0:0,0:0:0:0:
313,14,338356,1,0,1:0:0:0:
171,70,338481,6,0,B|216:132|296:63|271:5|204:-73|58:-22|94:100,1,371.250014162064,2|0,1:2|1:0,0:0:0:0:
177,311,338981,6,0,B|258:299|258:299|262:293|262:293|342:282,1,165.000006294251,10|0,0:0|0:0,0:0:0:0:
23,223,339356,6,0,B|-16:181|28:116|99:132|139:200|88:289,1,247.500009441376,2|0,0:0|0:0,0:0:0:0:
17,383,339731,6,0,P|61:367|112:356,1,96.2500009179115,2|0,1:2|1:0,0:0:0:0:
417,384,339981,5,4,1:2:0:0:
417,384,340043,1,0,1:0:0:0:
417,384,340106,2,0,B|435:302|435:302|395:232|395:232|421:130,1,247.500009441376,0|0,1:0|0:0,0:0:0:0:
415,151,340481,6,0,B|435:231|435:231|395:301|395:301|413:383,1,247.500009441376,4|0,1:2|0:0,0:0:0:0:
337,372,340981,5,10,0:0:0:0:
333,361,341106,1,2,0:0:0:0:
329,350,341231,1,2,0:0:0:0:
325,338,341356,1,2,0:0:0:0:
298,259,341481,2,0,L|339:267,1,41.25,2|0,0:0|0:0,0:0:0:0:
95,384,341981,5,4,1:2:0:0:
95,384,342043,1,0,1:2:0:0:
95,384,342106,2,0,B|77:302|77:302|117:232|117:232|91:130,1,247.500009441376,0|0,1:0|0:0,0:0:0:0:
97,151,342481,6,0,B|77:231|77:231|117:301|117:301|99:383,1,247.500009441376,4|0,1:2|0:0,0:0:0:0:
208,222,342981,6,0,B|238:238|256:304|256:304|270:239|302:223,1,192.500001835823,10|0,0:0|0:0,0:0:0:0:
313,125,343356,2,0,B|278:133|256:161|256:161|237:133|194:125,1,137.5,2|0,0:0|0:0,0:0:0:0:
256,62,343731,2,0,L|256:12,1,41.2500015735627,2|0,0:0|1:0,0:0:0:0:
417,0,343981,5,4,1:2:0:0:
417,0,344043,1,0,1:0:0:0:
417,0,344106,2,0,B|435:82|435:82|395:152|395:152|421:254,1,247.500009441376,0|0,1:0|0:0,0:0:0:0:
415,233,344481,6,0,B|435:153|435:153|395:83|395:83|413:1,1,247.500009441376,4|0,1:2|0:0,0:0:0:0:
337,12,344981,5,10,0:0:0:0:
333,23,345106,1,2,0:0:0:0:
329,34,345231,1,2,1:2:0:0:
325,46,345356,1,2,1:2:0:0:
298,125,345481,2,0,L|339:117,1,41.25,2|0,0:0|0:0,0:0:0:0:
95,0,345981,5,4,1:2:0:0:
95,0,346043,1,0,1:0:0:0:
95,0,346106,2,0,B|77:82|77:82|117:152|117:152|91:254,1,247.500009441376,0|0,1:0|0:0,0:0:0:0:
97,233,346481,6,0,B|77:153|77:153|117:83|117:83|99:1,1,247.500009441376,4|0,1:2|0:0,0:0:0:0:
301,28,346981,6,0,B|270:44|256:109|256:109|238:43|208:27,1,192.500001835823,2|0,0:0|0:0,0:0:0:0:
199,165,347356,2,0,B|237:172|256:200|256:200|278:172|313:164,1,137.5,2|0,0:0|0:0,0:0:0:0:
256,278,347731,2,0,L|256:319,1,41.2500015735627,2|0,0:0|0:0,0:0:0:0:
95,384,347981,5,6,1:2:0:0:
95,384,348043,1,0,1:0:0:0:
95,384,348106,2,0,B|82:310|82:310|75:304|75:304|64:235,1,151.250001442432,0|2,1:0|0:0,0:0:0:0:
93,116,348356,5,0,1:0:0:0:
158,136,348481,2,0,P|141:164|98:184,1,68.75,2|0,1:2|0:0,0:0:0:0:
25,101,348731,5,2,1:2:0:0:
8,33,348856,1,0,1:0:0:0:
107,10,348981,2,0,B|154:15|154:15|158:21|158:21|199:25,1,96.2500009179115,10|0,0:0|0:0,0:0:0:0:
281,1,349231,5,2,1:2:0:0:
254,67,349356,2,0,P|292:72|330:51,1,68.75,0|2,1:0|0:0,0:0:0:0:
431,2,349606,5,0,1:0:0:0:
458,68,349731,2,0,P|420:73|382:52,1,68.75,2|0,1:2|0:0,0:0:0:0:
357,198,349981,5,2,1:2:0:0:
357,198,350043,1,0,1:0:0:0:
357,198,350106,2,0,L|428:185,1,68.75,0|2,1:0|0:0,0:0:0:0:
479,271,350356,5,0,1:0:0:0:
459,336,350481,2,0,P|423:312|412:277,1,68.75,2|0,1:2|0:0,0:0:0:0:
499,204,350731,5,2,1:2:0:0:
479,136,350856,1,0,1:0:0:0:
381,110,350981,2,0,B|334:117|334:117|330:124|330:124|280:132,1,96.2500009179115,10|0,0:0|0:0,0:0:0:0:
141,129,351231,6,0,P|167:94|204:159,1,137.5,2|2,0:0|0:0,0:0:0:0:
123,236,351606,5,0,1:0:0:0:
187,211,351731,1,2,1:2:0:0:
228,269,351856,1,0,1:0:0:0:
156,341,351981,5,2,1:2:0:0:
156,341,352043,1,0,1:0:0:0:
156,341,352106,2,0,L|85:321,1,68.75,0|2,1:0|0:0,0:0:0:0:
18,207,352356,5,0,1:0:0:0:
38,273,352481,2,0,P|74:250|87:218,1,68.75,2|0,1:2|0:0,0:0:0:0:
47,101,352731,5,2,1:2:0:0:
114,119,352856,1,0,1:0:0:0:
214,97,352981,2,0,B|201:143|201:143|203:151|203:151|188:201,1,96.2500009179115,10|0,0:0|0:0,0:0:0:0:
236,242,353231,5,2,1:2:0:0:
303,230,353356,2,0,P|290:201|253:176,1,68.75,0|2,1:0|0:0,0:0:0:0:
164,257,353606,5,0,1:0:0:0:
149,325,353731,2,0,P|188:324|218:302,1,68.75,2|0,1:2|0:0,0:0:0:0:
386,219,353981,6,0,P|364:264|345:342,1,123.750004720688,2|0,0:0|0:0,0:0:0:0:
402,375,354481,2,0,P|445:353|522:336,1,123.750004720688,2|0,0:0|0:0,0:0:0:0:
484,233,354981,6,0,B|508:197|452:143|392:176|381:264|444:304,1,206.25,2|0,0:0|0:0,0:0:0:0:
291,307,355481,6,0,B|325:322|349:279|353:232|281:192|236:229|195:280|228:348|228:348|182:301|129:312,1,385.000003671646,2|0,0:0|0:0,0:0:0:0:
