osu file format v14

[General]
AudioFilename: audio.mp3
AudioLeadIn: 0
PreviewTime: -1
Countdown: 0
SampleSet: None
StackLeniency: 0.7
Mode: 0
LetterboxInBreaks: 0
WidescreenStoryboard: 0

[Editor]
Bookmarks: 66439,94243
DistanceSpacing: 0.9
BeatDivisor: 3
GridSize: 32
TimelineZoom: 1.2

[Metadata]
Title:SM4$H THE SPE4K3R$!
TitleUnicode:SM4$H THE SPE4K3R$!
Artist:Krowdexx, Barber
ArtistUnicode:Krowdexx, Barber
Creator:kake40
Version:nukleaari
Source:
Tags:Rawstyle, Hardstyle, uptempo
BeatmapID:4549316
BeatmapSetID:2157978

[Difficulty]
HPDrainRate:0
CircleSize:3
OverallDifficulty:0
ApproachRate:10
SliderMultiplier:2
SliderTickRate:1

[Events]
//Background and Video events
0,0,"Nuke.jpg",0,0
//Break Periods
2,1370,7745
2,62248,65989
2,74980,75647
2,85370,92037
2,126346,127159
2,129858,131842
2,145224,145890
//Storyboard Layer 0 (Background)
//Storyboard Layer 1 (Fail)
//Storyboard Layer 2 (Pass)
//Storyboard Layer 3 (Foreground)
//Storyboard Layer 4 (Overlay)
//Storyboard Sound Samples

[TimingPoints]
0,292.682926829268,4,1,0,40,1,0
7902,-100,4,1,0,40,0,0
18731,-50,4,1,0,40,0,0
26926,-50,4,1,0,40,0,0
38634,-25,4,1,0,40,0,0
42731,-25,4,1,0,40,0,0
45951,-100,4,1,0,40,0,0
47999,-25,4,1,0,40,0,0
49756,-50,4,1,0,40,0,0
50341,-25,4,1,0,40,0,0
54439,-50,4,1,0,40,0,0
66731,-25,4,1,0,40,0,0
84292,-50,4,1,0,40,0,0
94243,-100,4,1,0,40,0,0
104195,-50,4,1,0,40,0,0
113560,-100,4,1,0,40,0,0
136682,-25,4,1,0,40,0,0
140487,-50,4,1,0,40,0,0
141951,-100,4,1,0,40,0,0
142243,-25,4,1,0,40,0,0
148097,-50,4,1,0,40,0,0
148609,-25,4,1,0,40,0,0
149853,-50,4,1,0,40,0,0
150146,-25,4,1,0,40,0,0
150439,-50,4,1,0,40,0,0
151024,-25,4,1,0,40,0,0

[HitObjects]
175,239,1170,5,0,0:0:0:0:
256,192,8195,12,0,9365,0:0:0:0:
365,208,9804,5,0,0:0:0:0:
365,208,9951,5,0,0:0:0:0:
224,96,10097,1,0,0:0:0:0:
226,92,10243,5,0,0:0:0:0:
192,320,10536,6,0,P|160:128|160:128,1,150
431,72,10975,5,0,0:0:0:0:
431,72,11121,2,0,P|416:128|352:224,1,150
90,184,11560,5,0,0:0:0:0:
90,184,11707,2,0,P|160:192|287:115,1,200
336,282,12146,1,0,0:0:0:0:
336,282,12292,2,0,L|335:79,1,200
55,84,12731,5,0,0:0:0:0:
64,96,12878,2,0,P|130:190|162:198,1,150
87,263,13243,6,0,P|241:243|259:219,1,150
330,90,13609,1,0,0:0:0:0:
160,224,13829,5,0,0:0:0:0:
376,160,14048,1,0,0:0:0:0:
182,312,14195,5,0,0:0:0:0:
182,312,14341,2,0,L|368:172,1,200
308,124,14926,5,0,0:0:0:0:
308,124,15073,1,0,0:0:0:0:
308,124,15219,2,0,P|208:110|90:93,1,200
214,316,15658,5,0,0:0:0:0:
214,316,15804,2,0,L|88:139,1,200
344,149,16243,5,0,0:0:0:0:
344,149,16390,2,0,L|203:313,1,200
137,105,16829,5,0,0:0:0:0:
137,105,16975,2,0,B|163:155|108:53|172:161|110:56|175:163|87:32|200:180|65:12|212:94|104:139|50:149|213:67|64:160|274:193,1,200
104,217,17560,5,0,0:0:0:0:
366,87,17853,5,0,0:0:0:0:
129,287,18145,5,0,0:0:0:0:
415,135,18438,5,0,0:0:0:0:
160,64,18731,6,0,L|160:192,1,100
160,320,19024,6,0,L|160:192,1,100
320,256,19317,1,0,0:0:0:0:
320,256,19414,1,0,0:0:0:0:
320,256,19512,1,0,0:0:0:0:
320,256,19609,2,0,P|320:160|320:32,1,200
128,288,19902,6,2,L|192:192,1,100
384,288,20195,2,2,L|320:192,1,100
128,192,20487,6,2,L|192:96,1,100
384,192,20780,2,2,L|320:96,1,100
96,64,21073,6,2,L|224:160,1,100
448,320,21365,2,2,L|320:224,1,100
96,320,21658,6,2,L|224:224,1,100
416,64,21951,6,2,L|288:160,1,100
288,160,22243,6,2,L|160:256,1,100
160,256,22536,6,2,L|32:352,1,100
416,64,22829,6,2,L|416:192,1,100
320,64,23121,6,2,L|320:192,1,100
224,64,23414,6,2,L|224:192,1,100
128,64,23707,6,2,L|128:192,1,100
128,320,23999,2,0,L|128:192,1,100
224,320,24292,6,0,L|224:192,1,100
320,320,24585,6,4,L|320:192,3,100
288,160,24878,6,4,L|192:64,3,100
128,288,25170,6,4,L|192:192,3,100
416,128,25463,6,4,L|256:96,3,100
128,256,25756,6,4,L|160:160,3,100
416,96,26048,6,4,L|320:192,3,100
256,64,26341,6,0,L|288:224,3,100
128,160,26634,6,0,L|256:224,3,100
416,160,26926,6,0,L|352:96,61,50,0|0|0|0|0|0|0|0|0|0|0|0|0|0|0|0|0|0|0|0|0|0|0|0|0|0|0|0|0|0|0|0|0|0|0|0|0|0|0|0|0|0|0|0|0|0|0|0|0|0|0|0|0|0|0|0|0|0|0|0|0|0,2:2|2:2|2:2|2:2|2:2|2:2|2:2|2:2|2:2|2:2|2:2|2:2|2:2|2:2|2:2|2:2|2:2|2:2|2:2|2:2|2:2|2:2|2:2|2:2|2:2|2:2|2:2|2:2|2:2|2:2|2:2|2:2|2:2|2:2|2:2|2:2|2:2|2:2|2:2|2:2|2:2|2:2|2:2|2:2|2:2|2:2|2:2|2:2|2:2|2:2|2:2|2:2|2:2|2:2|2:2|2:2|2:2|2:2|2:2|2:2|2:2|2:2,2:2:0:0:
160,224,29268,5,14,0:0:0:0:
320,128,29707,5,0,3:0:0:0:
320,128,29853,1,0,3:0:0:0:
384,256,30439,5,14,0:0:0:0:
160,256,30878,5,0,3:0:0:0:
160,256,31024,1,0,3:0:0:0:
256,192,31609,12,14,32487,0:0:0:0:
384,96,32780,5,8,2:0:0:0:
128,288,33073,1,8,2:0:0:0:
448,160,33365,5,8,2:0:0:0:
96,192,33658,1,8,2:0:0:0:
288,64,33951,5,0,0:0:0:0:
288,64,34243,5,0,0:0:0:0:
160,288,34536,5,0,0:0:0:0:
160,288,34829,5,0,0:0:0:0:
384,192,35121,5,0,0:0:0:0:
384,192,35414,5,0,0:0:0:0:
160,96,35707,5,0,0:0:0:0:
160,96,35999,5,0,0:0:0:0:
160,96,36146,1,0,0:0:0:0:
384,288,36292,6,0,L|320:192,3,100
384,160,36585,6,0,L|256:96,3,100
384,64,36878,6,0,L|256:64,3,100
128,192,37170,6,0,L|224:128,4,100
352,96,37756,5,0,0:0:0:0:
128,288,38048,5,0,0:0:0:0:
352,96,38341,5,0,0:0:0:0:
352,96,38487,1,0,0:0:0:0:
352,96,38634,2,0,B|221:270|465:49|305:25|188:76|187:145|351:172|452:156|407:185|475:100|345:194|226:174|356:178|192:103|191:95|188:111|209:225|324:222|259:269|44:323|166:269,1,400
427,246,38926,6,0,B|224:240|455:249|363:245|401:245|447:251|319:243|446:237|314:245|302:244|487:252|548:249|300:235|327:268|317:294|313:303|231:255|210:258|183:222|163:197|191:234|243:256|231:280|143:256|96:174|408:345|88:88|304:329|69:22|276:362,1,400
112,67,39219,6,0,B|279:184|86:55|186:118|202:129|223:143|154:113|117:76|77:49|138:89|191:126|232:151|210:141|126:86|91:60|64:46|142:77|206:123|235:148|237:157|138:117|86:115|46:106|63:150|142:103|192:55|211:32|231:50|254:75|266:103|263:110|268:84|271:98|287:136|295:147|301:162|290:174|334:198|261:136,1,400
129,297,39512,6,0,B|316:130|151:297|77:330|76:325|180:303|225:243|351:175|57:257|393:142,1,400
405,308,39804,6,0,B|205:171|401:301|443:321|458:298|495:243|443:171|359:242|267:312|250:340|312:321|408:306|438:282|364:254|205:188|156:155|130:133|220:157|302:211|203:205|197:206|198:258|159:321|220:209,1,400
365,77,40097,6,0,B|222:224|391:59|393:49|333:53|284:120|361:157|396:169|454:142|326:96|261:66|243:58|225:45|195:3|383:230|241:252|329:174|254:182|196:187|213:171|173:163|166:144|220:137|225:103|204:69|155:168|140:186|122:233|191:265|256:359|208:323,1,400
112,295,40390,6,0,B|335:275|276:259|60:284|77:288|48:283|26:291|72:339|114:347|138:386|137:249|166:200|154:173|256:241|356:249|169:264|263:305,1,400
440,182,40682,6,2,L|108:112,1,200
383,292,40829,6,2,L|226:121,1,200
273,333,40975,6,2,L|243:136,1,200
88,81,41268,6,0,B|286:165|60:71|177:101|228:128|94:157|260:133|64:61|15:30|99:32|46:68|199:133|378:183|201:157|302:160|337:168|255:113|322:134|355:141|200:121|93:101|67:94|144:138|256:163|322:179|219:115,1,400
360,238,41560,6,0,B|446:178|336:252|318:259|287:274|354:304|464:301|325:183|365:211|345:205|348:186|406:225|492:283|419:285|294:268|332:247|403:231|337:185|395:186|484:173|495:158|507:150|420:248|397:271|379:284|342:279|415:206|434:162|426:151|488:207|509:206|505:224|429:247|368:273|280:274|330:199|301:239|286:255|320:295|375:323|360:218|401:194,1,400
152,231,41853,6,0,B|290:78|132:262|125:263|68:259|93:296|259:319|114:183|350:280|67:177|300:246|43:146|116:219|120:191|74:160|77:190|70:204|225:177|288:210|310:254|284:298|130:273|219:169|243:169|261:132|284:129|354:115|146:118|328:156|304:203|243:200,1,400
416,160,42146,6,0,P|229:69|84:194,1,400
182,46,42439,6,0,P|66:224|179:358,1,400
128,192,42731,6,2,L|131:310,4,100
288,64,43024,5,0,0:0:0:0:
192,256,43170,1,0,0:0:0:0:
416,256,43317,6,0,B|256:128|448:288|448:288|416:224|416:288|512:320|352:320|448:224|448:192|288:192|224:128|192:128|256:160,1,400
96,64,43609,6,0,P|224:224|416:320,1,400
288,96,43902,6,0,B|256:320|288:32|352:64|320:32|256:64|224:128|224:160|224:192|224:224|256:224|288:224|320:192|320:256,1,400
480,256,44195,6,0,P|320:128|128:96,1,400
128,256,44487,6,0,B|352:128|64:320|64:256|64:256|96:224|128:192|96:256|192:352|288:160,1,400
384,96,44780,6,0,P|224:256|32:256,1,400
160,96,45073,6,0,B|320:288|128:64|160:32|96:64|64:64|96:96|128:160|160:160|64:192|64:224|288:64|288:128,2,400
320,256,45512,1,0,0:0:0:0:
64,64,45658,2,0,L|480:64,1,400
373,241,45951,6,0,L|320:192,4,50
160,288,46390,1,0,0:0:0:0:
192,96,46536,2,0,L|224:160,4,50
256,192,47121,5,0,0:0:0:0:
256,192,47414,12,0,47853,0:0:0:0:
419,332,47999,6,0,P|328:125|169:55,1,400
424,86,48292,6,0,P|301:279|89:252,1,400
118,64,48585,6,0,P|371:119|421:267,1,400
110,291,48878,6,0,P|348:278|392:89,1,400
64,160,49170,6,0,L|462:104,1,400
96,64,49463,6,0,L|448:352,1,400
352,128,49756,6,0,L|256:192,2,100
128,256,50048,6,0,P|224:128|192:96,1,200
384,288,50341,6,0,B|224:128|480:352|384:320|320:256|384:224|384:256|320:288|320:224|416:288|416:288|416:320|256:192|256:192|288:192,1,400
128,288,50634,6,0,B|256:128|96:288|96:288|160:320|160:288,1,400
96,64,50926,6,0,B|256:192|32:32|96:32|192:64|32:64|64:96|128:96|128:96|160:32|64:0|96:96|160:64|160:64|160:96|128:32|64:64|64:64|160:128,1,400
320,256,51219,6,0,B|288:128|256:224|320:224|320:160|256:256|288:288|352:288|352:288|384:224|288:192|320:288|384:256|384:256|384:288|352:224|288:256|288:256|320:160,1,400
256,192,51512,12,2,52390,0:0:0:0:
192,128,52536,5,0,0:0:0:0:
384,320,52682,2,0,B|384:96|384:256|224:224|256:192|256:224|256:224|448:128,1,400
64,288,52975,6,0,L|416:64,1,400
96,64,53268,6,0,B|192:128|64:0|32:32|0:96|32:128|96:128|160:128|192:96|192:64|128:64|192:128|128:128|128:128|64:128|64:64|160:32|160:32|96:0|160:64,1,400
448,96,53560,6,0,L|32:288,1,400
384,288,53853,6,0,B|384:256|384:256|448:288|448:320|384:320|288:320|416:352|416:352|352:256|352:256|448:256|384:256|416:256|416:256|352:288|288:288|352:256,1,400
352,32,54146,6,0,L|128:384,1,400
384,128,54439,6,0,L|384:256,1,100
288,128,54585,2,0,L|288:256,1,100
192,128,54731,2,0,L|192:256,1,100
96,224,54878,6,0,L|96:64,1,100
352,288,55024,6,0,P|256:224|256:128,1,200
249,147,55317,5,0,0:0:0:0:
249,147,55463,1,0,0:0:0:0:
128,288,55609,1,0,0:0:0:0:
128,288,55756,6,0,P|256:64|256:64,1,200
384,64,56195,5,0,0:0:0:0:
128,288,56487,1,0,0:0:0:0:
128,64,56780,5,0,0:0:0:0:
384,288,57073,1,0,0:0:0:0:
352,96,57365,6,0,P|160:128|96:192,1,200
160,127,57658,1,0,0:0:0:0:
352,128,57951,5,0,0:0:0:0:
160,256,58243,1,0,0:0:0:0:
352,288,58536,6,0,P|160:256|128:192,1,200
160,256,58829,1,0,0:0:0:0:
352,256,59121,5,0,0:0:0:0:
160,128,59414,1,0,0:0:0:0:
433,96,59707,6,0,L|401:192,3,100
305,288,59999,6,0,L|145:288,3,100
113,192,60292,6,6,L|49:96,3,100
255,80,60585,6,14,L|256:192,4,100
128,288,61170,5,0,0:0:0:0:
384,96,61463,5,0,0:0:0:0:
96,192,61756,5,0,0:0:0:0:
416,192,62048,5,10,0:0:0:0:
352,128,66439,5,2,0:0:0:0:
352,128,66585,1,2,0:0:0:0:
352,128,66731,2,0,B|192:288|224:256|224:256|192:256|192:256|160:224|160:224|160:192|160:192|160:160|128:160|128:160|160:128|192:160,1,400
384,288,67024,6,0,B|192:160|224:160|224:160|192:192|192:192|160:128|288:96,1,400
128,288,67317,6,0,B|256:128|224:128|224:128|256:160|288:128|320:128|320:128|224:96|224:96|160:96,1,400
448,160,67609,6,0,B|192:224|160:160|192:160|224:160|224:192|192:192|192:128|192:64|256:64|256:64|256:96|224:96,1,400
96,64,67902,6,0,B|256:288|320:256|224:256|224:256|288:288|224:288|192:288|320:192|352:160|352:128,1,400
384,64,68195,6,0,B|288:288|192:288|320:288|224:288|160:224|352:256|256:320|256:160|352:288|256:288|224:224|256:224|256:224|160:192,1,400
384,288,68487,6,0,B|288:96|288:128|320:128|320:160|416:192|384:192|384:192|224:96|256:96,1,400,0|6,0:0|0:0,0:0:0:0:
192,64,68707,6,0,B|96:160|128:192|128:256|128:256|64:160|128:160|192:160|64:256|192:128|160:128|64:128|96:192,2,400,6|0|0,0:0|0:0|0:0,0:0:0:0:
416,128,69073,6,0,L|32:288,1,400
416,288,69365,6,0,L|64:64,1,400
96,320,69658,6,0,L|448:96,1,400
96,64,69951,6,0,L|448:320,1,400
384,64,70243,6,0,L|64:320,1,400
416,320,70536,6,0,L|96:32,1,400
128,256,70829,5,0,0:0:0:0:
320,128,70975,2,0,B|224:320|320:192|352:128|288:96|256:192|352:160|352:160|320:96|448:128|256:224,1,400
128,160,71268,6,0,B|320:256|96:160|0:128|96:192|96:224|192:96|256:128|320:64|160:224,1,400
384,96,71707,5,0,0:0:0:0:
384,96,71804,1,0,0:0:0:0:
384,96,71902,1,0,0:0:0:0:
384,96,71999,2,2,B|256:256|192:192|384:192|352:128|288:128|448:96|320:96|288:192|256:192|256:192|288:96,1,400
128,288,72292,6,0,B|288:128|192:224|128:256|160:352|256:320|192:352|32:256|128:192|224:288|96:256|64:192|64:224|160:256|32:224|96:192|96:192|224:160,1,400
384,192,72584,6,0,B|224:64|256:192|320:224|384:256|256:224|352:256|352:256|224:160|192:192,1,400
128,64,72877,6,0,B|288:192|64:160|128:128|96:64|192:128|64:128|192:64|224:128|96:128|96:128|192:96|256:128|256:128,1,400
160,288,73170,6,0,B|288:128|160:256|160:256|128:288|288:192|192:256|288:224|288:224|192:160|320:160|352:96,2,400
352,96,73609,1,0,0:0:0:0:
352,96,73756,2,0,B|288:224|256:160|320:128|224:96|384:96|320:224|160:128|416:96|384:192|224:192|256:64|256:64|448:192|224:160,1,400
128,288,74048,6,0,B|256:128|288:224|160:224|128:160|128:160|160:192|224:192|256:192|256:192|256:224|192:128,1,400
352,192,74268,5,0,0:0:0:0:
352,192,74341,2,0,B|448:0|320:192|288:224|288:224|224:224|256:224|320:160|256:128|192:128|288:160,1,400
320,64,74634,6,0,B|224:192|224:192|448:256|448:288,1,400
352,96,76097,6,0,B|221:270|465:49|305:25|188:76|187:145|351:172|452:156|407:185|475:100|345:194|226:174|356:178|192:103|191:95|188:111|209:225|324:222|259:269|44:323|166:269,1,400
427,246,76389,6,0,B|224:240|455:249|363:245|401:245|447:251|319:243|446:237|314:245|302:244|487:252|548:249|300:235|327:268|317:294|313:303|231:255|210:258|183:222|163:197|191:234|243:256|231:280|143:256|96:174|408:345|88:88|304:329|69:22|276:362,1,400
112,67,76682,6,0,B|279:184|86:55|186:118|202:129|223:143|154:113|117:76|77:49|138:89|191:126|232:151|210:141|126:86|91:60|64:46|142:77|206:123|235:148|237:157|138:117|86:115|46:106|63:150|142:103|192:55|211:32|231:50|254:75|266:103|263:110|268:84|271:98|287:136|295:147|301:162|290:174|334:198|261:136,1,400
129,297,76975,6,0,B|316:130|151:297|77:330|76:325|180:303|225:243|351:175|57:257|393:142,1,400
405,308,77267,6,0,B|205:171|401:301|443:321|458:298|495:243|443:171|359:242|267:312|250:340|312:321|408:306|438:282|364:254|205:188|156:155|130:133|220:157|302:211|203:205|197:206|198:258|159:321|220:209,1,400
365,77,77560,6,0,B|222:224|391:59|393:49|333:53|284:120|361:157|396:169|454:142|326:96|261:66|243:58|225:45|195:3|383:230|241:252|329:174|254:182|196:187|213:171|173:163|166:144|220:137|225:103|204:69|155:168|140:186|122:233|191:265|256:359|208:323,1,400
112,295,77853,6,0,B|335:275|276:259|60:284|77:288|48:283|26:291|72:339|114:347|138:386|137:249|166:200|154:173|256:241|356:249|169:264|263:305,1,400
224,96,78073,5,0,0:0:0:0:
224,96,78146,2,0,B|416:224|256:128|256:160|352:192|224:192|352:160|352:160|288:160|384:192|192:224|224:160|224:160,1,400
88,81,78439,1,0,0:0:0:0:
88,81,78731,6,0,B|286:165|60:71|177:101|228:128|94:157|260:133|64:61|15:30|99:32|46:68|199:133|378:183|201:157|302:160|337:168|255:113|322:134|355:141|200:121|93:101|67:94|144:138|256:163|322:179|219:115,1,400
360,238,79023,6,0,B|446:178|336:252|318:259|287:274|354:304|464:301|325:183|365:211|345:205|348:186|406:225|492:283|419:285|294:268|332:247|403:231|337:185|395:186|484:173|495:158|507:150|420:248|397:271|379:284|342:279|415:206|434:162|426:151|488:207|509:206|505:224|429:247|368:273|280:274|330:199|301:239|286:255|320:295|375:323|360:218|401:194,1,400
152,231,79316,6,0,B|290:78|132:262|125:263|68:259|93:296|259:319|114:183|350:280|67:177|300:246|43:146|116:219|120:191|74:160|77:190|70:204|225:177|288:210|310:254|284:298|130:273|219:169|243:169|261:132|284:129|354:115|146:118|328:156|304:203|243:200,2,400
352,96,79902,5,0,0:0:0:0:
192,256,80195,5,0,0:0:0:0:
288,64,80487,5,0,0:0:0:0:
192,256,80633,1,0,0:0:0:0:
416,256,80780,6,0,B|256:128|448:288|448:288|416:224|416:288|512:320|352:320|448:224|448:192|288:192|224:128|192:128|256:160,1,400
96,64,81072,6,0,P|224:224|416:320,1,400
288,96,81365,6,0,B|256:320|288:32|352:64|320:32|256:64|224:128|224:160|224:192|224:224|256:224|288:224|320:192|320:256,1,400
480,256,81658,6,0,P|320:128|128:96,1,400
128,256,81950,6,0,B|352:128|64:320|64:256|64:256|96:224|128:192|96:256|192:352|288:160,1,400
384,96,82243,6,0,P|224:256|32:256,1,400
160,64,82536,6,0,P|384:160|448:384,1,400
96,224,82829,5,0,0:0:0:0:
256,192,83024,1,4,0:0:0:0:
128,128,83121,1,4,0:0:0:0:
128,128,83219,1,4,0:0:0:0:
128,128,83317,1,4,0:0:0:0:
373,241,83414,6,0,L|320:192,4,50
352,96,83707,5,4,0:0:0:0:
352,96,83804,1,4,0:0:0:0:
352,96,83902,1,4,0:0:0:0:
192,96,83999,6,0,L|224:160,4,50
384,288,84292,6,0,B|160:256|192:192|160:160|128:128|96:160|64:256|128:256|160:288|192:288|256:256|256:192|256:128|256:96|224:32|320:32|384:0|416:64|480:128|416:224|384:192|384:192|320:192|320:192|288:224|256:160|160:128|32:32,1,1200
256,192,92487,12,0,93658,0:0:0:0:
365,208,94098,5,0,0:0:0:0:
365,208,94243,5,0,0:0:0:0:
224,96,94390,1,0,0:0:0:0:
226,92,94536,5,0,0:0:0:0:
192,320,94828,6,0,P|160:128|160:128,1,150
431,72,95267,5,0,0:0:0:0:
431,72,95413,2,0,P|416:128|352:224,1,150
90,184,95852,5,0,0:0:0:0:
90,184,95999,2,0,P|160:192|287:115,1,200
336,282,96438,1,0,0:0:0:0:
336,282,96584,2,0,L|335:79,1,200
55,84,97023,5,0,0:0:0:0:
64,96,97170,2,0,P|130:190|162:198,1,150
87,263,97535,6,0,P|241:243|259:219,1,150
330,90,97901,1,0,0:0:0:0:
160,224,98121,5,0,0:0:0:0:
376,160,98340,1,0,0:0:0:0:
182,312,98487,5,0,0:0:0:0:
182,312,98633,2,0,L|368:172,1,200
308,124,99218,5,0,0:0:0:0:
308,124,99365,1,0,0:0:0:0:
308,124,99511,2,0,P|208:110|90:93,1,200
214,316,99950,5,0,0:0:0:0:
214,316,100096,2,0,L|88:139,1,200
344,149,100535,5,0,0:0:0:0:
344,149,100682,2,0,L|203:313,1,200
137,105,101121,5,0,0:0:0:0:
137,105,101267,2,0,B|163:155|108:53|172:161|110:56|175:163|87:32|200:180|65:12|212:94|104:139|50:149|213:67|64:160|274:193,1,200
104,217,101852,5,0,0:0:0:0:
366,87,102145,5,0,0:0:0:0:
129,287,102437,5,0,0:0:0:0:
415,135,102730,5,0,0:0:0:0:
365,208,103024,5,0,0:0:0:0:
365,208,103097,5,0,0:0:0:0:
224,96,103317,5,0,0:0:0:0:
226,92,103389,5,0,0:0:0:0:
147,271,103609,5,0,0:0:0:0:
147,271,103682,5,0,0:0:0:0:
384,128,103902,6,0,P|288:288|288:288,1,150
306,256,104195,1,0,0:0:0:0:
192,160,104487,6,0,L|128:288,3,133.333333333333
320,96,105073,1,0,0:0:0:0:
128,192,105365,1,0,0:0:0:0:
352,256,105658,5,0,0:0:0:0:
128,192,105951,1,0,0:0:0:0:
320,96,106243,1,0,0:0:0:0:
352,256,106536,5,0,0:0:0:0:
128,192,106829,2,0,L|224:96,3,133.333333333333
128,192,107414,5,0,0:0:0:0:
384,192,107707,1,0,0:0:0:0:
128,128,107999,1,0,0:0:0:0:
352,256,108292,5,0,0:0:0:0:
192,96,108487,1,0,0:0:0:0:
192,96,108585,1,0,0:0:0:0:
256,288,108878,5,0,0:0:0:0:
256,64,109170,2,0,L|256:224,3,133.333333333333
128,288,109756,5,0,0:0:0:0:
128,96,110048,1,0,0:0:0:0:
352,96,110341,5,0,0:0:0:0:
352,288,110634,1,0,0:0:0:0:
128,288,110926,5,0,0:0:0:0:
352,288,111219,1,0,0:0:0:0:
128,64,111512,6,0,L|288:224,3,133.333333333333
384,64,112097,5,0,0:0:0:0:
128,320,112390,5,0,0:0:0:0:
416,192,112682,5,0,0:0:0:0:
96,192,112975,5,0,0:0:0:0:
256,192,113268,1,0,0:0:0:0:
416,192,113560,6,0,L|416:288,1,66.6666666666667
256,288,113853,6,0,L|160:288,3,66.6666666666667
96,54,114439,6,2,L|96:150,1,66.6666666666667
256,54,114731,2,2,L|256:147,1,66.6666666666667
416,52,115024,2,2,L|416:133,1,66.6666666666667
416,320,115317,6,0,L|416:224,1,66.6666666666667
256,320,115609,2,0,L|256:224,1,66.6666666666667
96,320,115902,2,0,L|96:224,1,66.6666666666667
288,96,116195,6,0,L|224:160,3,66.6666666666667
160,288,116780,6,2,L|224:224,1,66.6666666666667
160,96,117073,2,2,L|224:160,1,66.6666666666667
352,96,117365,6,2,L|288:160,1,66.6666666666667
352,288,117658,2,2,L|288:224,1,66.6666666666667
160,288,117951,6,2,L|224:224,1,66.6666666666667
256,192,118243,6,0,L|320:128,5,66.6666666666667
384,128,118829,6,0,L|416:192,5,66.6666666666667
384,256,119414,6,0,L|288:288,5,66.6666666666667
256,224,119999,6,0,L|192:160,5,66.6666666666667
160,128,120585,6,0,L|96:64,2,66.6666666666667
249,220,120878,6,8,L|281:284,2,66.6666666666667
249,124,121170,6,8,L|217:60,2,66.6666666666667
317,189,121463,6,8,L|349:256,2,66.6666666666667
256,192,121756,12,8,122926,0:0:0:0:
256,192,123999,5,8,0:0:0:0:
256,192,124097,5,8,0:0:0:0:
352,128,125268,5,0,0:0:0:0:
352,128,125365,1,0,0:0:0:0:
352,128,125463,1,0,0:0:0:0:
352,128,125560,1,0,0:0:0:0:
192,160,125658,5,8,0:0:0:0:
192,160,125756,1,8,0:0:0:0:
192,160,125853,1,8,0:0:0:0:
320,288,125951,5,14,0:0:0:0:
320,288,126048,1,14,0:0:0:0:
320,288,126146,1,14,0:0:0:0:
352,128,127609,6,6,P|320:192|288:192,1,100
192,96,127902,6,6,P|160:128|160:192,1,100
288,224,128195,6,6,P|256:288|224:288,1,100
160,160,128487,6,6,P|224:128|256:160,1,100
192,256,128780,6,6,P|256:288|288:256,1,100
288,128,129073,6,0,B|320:160|320:192|320:192|288:192|352:192|352:192|352:160|352:160|288:160|288:160,2,200
256,192,132292,12,0,135804,0:0:0:0:
352,128,136682,5,0,0:0:0:0:
352,128,136878,1,0,0:0:0:0:
352,128,136974,2,0,B|192:288|224:256|224:256|192:256|192:256|160:224|160:224|160:192|160:192|160:160|128:160|128:160|160:128|192:160,1,400
384,288,137267,6,0,B|192:160|224:160|224:160|192:192|192:192|160:128|288:96,1,400
128,288,137560,6,0,B|256:128|224:128|224:128|256:160|288:128|320:128|320:128|224:96|224:96|160:96,1,400
448,160,137852,6,0,B|192:224|160:160|192:160|224:160|224:192|192:192|192:128|192:64|256:64|256:64|256:96|224:96,1,400
96,64,138145,6,0,B|256:288|320:256|224:256|224:256|288:288|224:288|192:288|320:192|352:160|352:128,1,400
384,64,138439,6,0,B|288:288|192:288|320:288|224:288|160:224|352:256|256:320|256:160|352:288|256:288|224:224|256:224|256:224|160:192,1,400
384,288,138731,6,0,B|288:96|288:128|320:128|320:160|416:192|384:192|384:192|224:96|256:96,1,400,0|6,0:0|0:0,0:0:0:0:
96,96,138951,5,0,0:0:0:0:
96,96,139024,2,0,B|320:160|192:160|160:128|128:128|128:128|160:64|224:64|224:128|224:160|288:192,1,400
416,128,139316,6,0,L|32:288,1,400
416,288,139608,6,0,L|64:64,1,400
96,320,139901,6,0,L|448:96,1,400
96,64,140194,6,0,L|448:320,1,400
352,64,140487,6,0,L|352:224,3,133.333333333333
128,256,140975,5,0,0:0:0:0:
128,256,141073,1,0,0:0:0:0:
256,96,141268,5,0,0:0:0:0:
256,96,141365,1,0,0:0:0:0:
384,256,141560,5,0,0:0:0:0:
384,256,141658,1,0,0:0:0:0:
128,224,141951,6,0,L|192:192,1,66.6666666666667,0|6,0:0|0:0,0:0:0:0:
384,64,142243,6,0,L|96:384,1,400
128,64,142536,6,0,L|448:320,1,400
384,64,142829,6,0,L|64:352,1,400
128,64,143121,6,0,L|448:320,1,400
96,192,143414,6,0,B|288:160|192:256|192:224|192:224|192:160|160:224|128:128|128:128|224:224|288:224,1,400
384,128,143707,5,0,0:0:0:0:
384,128,143902,1,0,0:0:0:0:
384,128,143999,2,0,B|352:320|256:320|256:320|288:256|352:256|416:256|320:224,1,400
128,96,144292,6,0,B|160:192|160:192|160:96|128:128|96:64|96:64|64:192|160:192,1,400
416,288,144585,6,0,B|288:96|352:224|416:224|416:224|352:288|288:256|320:192|352:256|256:192|256:224,1,400
128,64,144878,6,0,B|224:224|128:192|96:96|160:96|256:128|256:128|192:160|160:128|160:128|224:192|160:160,1,400
352,96,146340,6,0,B|221:270|465:49|305:25|188:76|187:145|351:172|452:156|407:185|475:100|345:194|226:174|356:178|192:103|191:95|188:111|209:225|324:222|259:269|44:323|166:269,1,400
427,246,146632,6,0,B|224:240|455:249|363:245|401:245|447:251|319:243|446:237|314:245|302:244|487:252|548:249|300:235|327:268|317:294|313:303|231:255|210:258|183:222|163:197|191:234|243:256|231:280|143:256|96:174|408:345|88:88|304:329|69:22|276:362,1,400
112,67,146925,6,0,B|279:184|86:55|186:118|202:129|223:143|154:113|117:76|77:49|138:89|191:126|232:151|210:141|126:86|91:60|64:46|142:77|206:123|235:148|237:157|138:117|86:115|46:106|63:150|142:103|192:55|211:32|231:50|254:75|266:103|263:110|268:84|271:98|287:136|295:147|301:162|290:174|334:198|261:136,1,400
129,297,147218,6,0,B|316:130|151:297|77:330|76:325|180:303|225:243|351:175|57:257|393:142,1,400
405,308,147510,6,0,B|205:171|401:301|443:321|458:298|495:243|443:171|359:242|267:312|250:340|312:321|408:306|438:282|364:254|205:188|156:155|130:133|220:157|302:211|203:205|197:206|198:258|159:321|220:209,1,400
365,77,147803,6,0,B|222:224|391:59|393:49|333:53|284:120|361:157|396:169|454:142|326:96|261:66|243:58|225:45|195:3|383:230|241:252|329:174|254:182|196:187|213:171|173:163|166:144|220:137|225:103|204:69|155:168|140:186|122:233|191:265|256:359|208:323,1,400
160,288,148097,6,0,L|224:160,4,100
384,160,148609,5,0,0:0:0:0:
384,160,148682,2,0,B|256:320|256:288|256:256|320:256|320:288|320:288|384:224|384:256|288:224|352:224|352:224|256:224,1,400
88,81,148974,6,0,B|286:165|60:71|177:101|228:128|94:157|260:133|64:61|15:30|99:32|46:68|199:133|378:183|201:157|302:160|337:168|255:113|322:134|355:141|200:121|93:101|67:94|144:138|256:163|322:179|219:115,1,400
360,238,149266,6,0,B|446:178|336:252|318:259|287:274|354:304|464:301|325:183|365:211|345:205|348:186|406:225|492:283|419:285|294:268|332:247|403:231|337:185|395:186|484:173|495:158|507:150|420:248|397:271|379:284|342:279|415:206|434:162|426:151|488:207|509:206|505:224|429:247|368:273|280:274|330:199|301:239|286:255|320:295|375:323|360:218|401:194,1,400
96,192,149560,6,0,B|288:96|192:160|160:160|192:224|160:224|160:128|256:160|192:128|224:160|224:224|128:128|128:128|224:192,1,400
384,64,149853,6,0,L|320:192,2,100
160,288,150146,6,0,B|256:96|288:160|224:192|256:224|192:224|352:192|352:160|384:160|384:160|416:192|320:192,1,400
128,64,150439,6,0,L|224:192,3,100
256,224,150731,2,0,L|288:64,1,100
416,256,151023,6,0,B|256:128|448:288|448:288|416:224|416:288|512:320|352:320|448:224|448:192|288:192|224:128|192:128|256:160,1,400
96,64,151315,6,0,P|224:224|416:320,1,400
288,96,151608,6,0,B|256:320|288:32|352:64|320:32|256:64|224:128|224:160|224:192|224:224|256:224|288:224|320:192|320:256,1,400
480,256,151901,6,0,P|320:128|128:96,1,400
128,256,152193,6,0,B|352:128|64:320|64:256|64:256|96:224|128:192|96:256|192:352|288:160,1,400
384,96,152486,6,0,P|224:256|32:256,1,400
128,96,152780,6,0,L|384:224,1,200
160,256,153073,5,0,0:0:0:0:
384,128,153268,5,0,0:0:0:0:
384,128,153365,2,0,B|256:288|160:160|224:192|288:224|352:224|288:160|192:128|128:128|96:160|288:128,6,400,0|0|0|0|8|8|8,0:0|0:0|0:0|0:0|0:0|0:0|0:0,0:0:0:0:
320,96,154463,5,0,0:0:0:0:
320,96,154536,1,0,0:0:0:0:
160,256,154756,5,0,0:0:0:0:
160,256,154829,1,0,0:0:0:0:
384,256,155048,5,0,0:0:0:0:
384,256,155121,1,0,0:0:0:0:
160,96,155341,5,0,0:0:0:0:
160,96,155414,1,0,0:0:0:0:
256,192,155707,5,6,0:0:0:0:
