osu file format v14

[General]
AudioFilename: audio.mp3
AudioLeadIn: 0
PreviewTime: 30057
Countdown: 0
SampleSet: Soft
StackLeniency: 0.7
Mode: 0
LetterboxInBreaks: 0
WidescreenStoryboard: 1

[Editor]
Bookmarks: 37557,52326,59711,67096,74480,81865,90173,91096,93403,98480,105865,108634,113249,120634,127326,142788,172326,187096,201865,231403,238788
DistanceSpacing: 1.4
BeatDivisor: 4
GridSize: 32
TimelineZoom: 3

[Metadata]
Title:Hyper
TitleUnicode:Hyper
Artist:Kroi
ArtistUnicode:Kroi
Creator:Kine
Version:Hard
Source:アンダーニンジャ
Tags:jpop japanese yayakoi j-pop under ninja pop anime opening op Leo Uchida Yuki Hasebe Masanori Seki Daiki Chiba Hidetomo Masuda UNDERNINJA
BeatmapID:4442345
BeatmapSetID:2094148

[Difficulty]
HPDrainRate:4.5
CircleSize:3.8
OverallDifficulty:6
ApproachRate:8
SliderMultiplier:1.3
SliderTickRate:1

[Events]
//Background and Video events
0,0,"bg.jpg",0,0
//Break Periods
//Storyboard Layer 0 (Background)
//Storyboard Layer 1 (Fail)
//Storyboard Layer 2 (Pass)
//Storyboard Layer 3 (Foreground)
//Storyboard Layer 4 (Overlay)
//Storyboard Sound Samples

[TimingPoints]
173,461.538461538462,4,2,1,70,1,0
634,461.538461538462,4,2,1,70,1,0
634,-100,4,2,1,70,0,0
1557,-100,4,2,1,70,0,0
2942,-100,4,2,1,70,0,0
4326,-100,4,2,1,70,0,0
8134,-100,4,2,1,5,0,0
8249,-100,4,2,1,70,0,0
8365,-100,4,2,1,5,0,0
8480,-100,4,2,1,70,0,0
8596,-100,4,2,1,5,0,0
8711,-100,4,2,1,70,0,0
8826,-100,4,2,1,5,0,0
8942,-100,4,2,1,70,0,0
9519,-100,4,2,1,5,0,0
9634,-100,4,2,1,70,0,0
9980,-100,4,2,1,5,0,0
10095,-100,4,2,1,70,0,0
10442,-100,4,2,1,5,0,0
10557,-100,4,2,1,70,0,0
11711,-100,4,2,1,70,0,0
11826,-100,4,2,1,5,0,0
11941,-100,4,2,1,70,0,0
12057,-100,4,2,1,5,0,0
12172,-100,4,2,1,70,0,0
12288,-100,4,2,1,5,0,0
12403,-100,4,2,1,70,0,0
12519,-100,4,2,1,5,0,0
12634,-100,4,2,1,70,0,0
13038,-100,4,2,1,5,0,0
13096,-100,4,2,1,70,0,0
15403,-100,4,2,1,70,0,0
16326,-100,4,2,1,70,0,0
17711,-100,4,2,1,70,0,0
19096,-100,4,2,1,70,0,0
22903,-100,4,2,1,5,0,0
23018,-100,4,2,1,70,0,0
23134,-100,4,2,1,5,0,0
23249,-100,4,2,1,70,0,0
23365,-100,4,2,1,5,0,0
23480,-100,4,2,1,70,0,0
23596,-100,4,2,1,5,0,0
23711,-100,4,2,1,70,0,0
24288,-100,4,2,1,5,0,0
24403,-100,4,2,1,70,0,0
24749,-100,4,2,1,5,0,0
24864,-100,4,2,1,70,0,0
25211,-100,4,2,1,5,0,0
25326,-100,4,2,1,70,0,0
26480,-100,4,2,1,70,0,0
26596,-100,4,2,1,5,0,0
26711,-100,4,2,1,70,0,0
26826,-100,4,2,1,5,0,0
26941,-100,4,2,1,70,0,0
27057,-100,4,2,1,5,0,0
27172,-100,4,2,1,70,0,0
27288,-100,4,2,1,5,0,0
27403,-100,4,2,1,70,0,0
27980,-100,4,2,1,5,0,0
28095,-100,4,2,1,70,0,0
28442,-100,4,2,1,5,0,0
28557,-100,4,2,1,70,0,0
28903,-100,4,2,1,5,0,0
29018,-100,4,2,1,70,0,0
30173,-100,4,2,1,70,0,0
30634,-100,4,2,1,70,0,0
31038,-100,4,2,1,5,0,0
31096,-100,4,2,1,70,0,0
31615,-100,4,2,1,5,0,0
31673,-100,4,2,1,70,0,0
32019,-100,4,2,1,70,0,0
32480,-100,4,2,1,70,0,0
32884,-100,4,2,1,5,0,0
32942,-100,4,2,1,70,0,0
33461,-100,4,2,1,5,0,0
33519,-100,4,2,1,70,0,0
33865,-100,4,2,1,70,0,0
34326,-100,4,2,1,70,0,0
34730,-100,4,2,1,5,0,0
34788,-100,4,2,1,70,0,0
35307,-100,4,2,1,5,0,0
35365,-100,4,2,1,70,0,0
35711,-100,4,2,1,70,0,0
37557,-100,4,2,1,70,0,0
38018,-100,4,2,1,70,0,0
38423,-100,4,2,1,5,0,0
38481,-100,4,2,1,70,0,0
38999,-100,4,2,1,5,0,0
39057,-100,4,2,1,70,0,0
39403,-100,4,2,1,70,0,0
39864,-100,4,2,1,70,0,0
40269,-100,4,2,1,5,0,0
40327,-100,4,2,1,70,0,0
40846,-100,4,2,1,5,0,0
40904,-100,4,2,1,70,0,0
41249,-100,4,2,1,70,0,0
41710,-100,4,2,1,70,0,0
42115,-100,4,2,1,5,0,0
42173,-100,4,2,1,70,0,0
42692,-100,4,2,1,5,0,0
42750,-100,4,2,1,70,0,0
43096,-100,4,2,1,70,0,0
44192,-100,4,2,1,5,0,0
44250,-100,4,2,1,70,0,0
44942,-100,4,2,1,70,0,0
45173,-100,4,2,1,70,0,0
45461,-100,4,2,1,5,0,0
45519,-100,4,2,1,70,0,0
47653,-100,4,2,1,5,0,0
47711,-100,4,2,1,70,0,0
49499,-100,4,2,1,5,0,0
49557,-100,4,2,1,70,0,0
51230,-100,4,2,1,5,0,0
51288,-100,4,2,1,70,0,0
55038,-100,4,2,1,5,0,0
55096,-100,4,2,1,70,0,0
56884,-100,4,2,1,5,0,0
56942,-100,4,2,1,70,0,0
58615,-100,4,2,1,5,0,0
58673,-100,4,2,1,70,0,0
59711,-100,4,2,1,70,0,0
73442,-100,4,2,1,70,0,0
73557,-100,4,2,1,5,0,0
73614,-100,4,2,1,70,0,0
73788,-100,4,2,1,60,0,0
74596,-100,4,2,1,5,0,0
74653,-100,4,2,1,60,0,0
74999,-100,4,2,1,5,0,0
75056,-100,4,2,1,5,0,0
75173,-100,4,2,1,60,0,0
75230,-100,4,2,1,5,0,0
75287,-100,4,2,1,5,0,0
75519,-100,4,2,1,60,0,0
75634,-100,4,2,1,5,0,0
75691,-100,4,2,1,60,0,0
75807,-100,4,2,1,5,0,0
75864,-100,4,2,1,70,0,0
75980,-100,4,2,1,5,0,0
76037,-100,4,2,1,60,0,0
76211,-100,4,2,1,5,0,0
76268,-100,4,2,1,60,0,0
76442,-100,4,2,1,5,0,0
76499,-100,4,2,1,60,0,0
76846,-100,4,2,1,5,0,0
76903,-100,4,2,1,5,0,0
77019,-100,4,2,1,60,0,0
77076,-100,4,2,1,5,0,0
77133,-100,4,2,1,5,0,0
77365,-100,4,2,1,60,0,0
77480,-100,4,2,1,5,0,0
77537,-100,4,2,1,60,0,0
77653,-100,4,2,1,5,0,0
77710,-100,4,2,1,60,0,0
77826,-100,4,2,1,5,0,0
77883,-100,4,2,1,60,0,0
78057,-100,4,2,1,5,0,0
78114,-100,4,2,1,60,0,0
78288,-100,4,2,1,5,0,0
78345,-100,4,2,1,60,0,0
78692,-100,4,2,1,5,0,0
78749,-100,4,2,1,5,0,0
78865,-100,4,2,1,60,0,0
78923,-100,4,2,1,5,0,0
78980,-100,4,2,1,5,0,0
79211,-100,4,2,1,60,0,0
79326,-100,4,2,1,5,0,0
79383,-100,4,2,1,60,0,0
79499,-100,4,2,1,5,0,0
79557,-100,4,2,1,60,0,0
79788,-100,4,2,1,5,0,0
79845,-100,4,2,1,60,0,0
80019,-100,4,2,1,70,0,0
80096,-100,4,2,1,5,0,0
80173,-100,4,2,1,70,0,0
80249,-100,4,2,1,5,0,0
80326,-100,4,2,1,70,0,0
80480,-100,4,2,1,70,0,0
80557,-100,4,2,1,5,0,0
80634,-100,4,2,1,70,0,0
80711,-100,4,2,1,5,0,0
80788,-100,4,2,1,70,0,0
80942,-100,4,2,1,70,0,0
81019,-100,4,2,1,5,0,0
81096,-100,4,2,1,70,0,0
81173,-100,4,2,1,5,0,0
81249,-100,4,2,1,70,0,0
81326,-100,4,2,1,5,0,0
81403,-100,4,2,1,70,0,0
81480,-100,4,2,1,5,0,0
81557,-100,4,2,1,70,0,0
81634,-100,4,2,1,5,0,0
81711,-100,4,2,1,70,0,0
81788,-100,4,2,1,5,0,0
81865,-100,4,2,1,70,0,0
82096,-100,4,2,1,70,0,0
82384,-100,4,2,1,5,0,0
82442,-100,4,2,1,70,0,0
84576,-100,4,2,1,5,0,0
84634,-100,4,2,1,70,0,0
86422,-100,4,2,1,5,0,0
86480,-100,4,2,1,70,0,0
88153,-100,4,2,1,5,0,0
88211,-100,4,2,1,70,0,0
89249,-100,4,2,1,70,0,0
89365,-100,4,2,1,5,0,0
89481,-100,4,2,1,70,0,0
89826,-100,4,2,1,5,0,0
89942,-100,4,2,1,70,0,0
90057,-100,4,2,1,5,0,0
90173,-100,4,2,1,70,0,0
90980,-100,4,2,1,5,0,0
91095,-90.9090909090909,4,2,2,80,0,1
91153,-90.9090909090909,4,2,1,80,0,1
91557,-90.9090909090909,4,2,1,80,0,1
92249,-90.9090909090909,4,2,1,80,0,1
93403,-90.9090909090909,4,2,1,80,0,1
98480,-90.9090909090909,4,2,1,80,0,1
98537,-90.9090909090909,4,2,1,80,0,1
98941,-90.9090909090909,4,2,1,80,0,1
99633,-90.9090909090909,4,2,1,80,0,1
100787,-90.9090909090909,4,2,1,80,0,1
119769,-90.9090909090909,4,2,1,5,0,1
119826,-90.9090909090909,4,2,1,80,0,1
119884,-90.9090909090909,4,2,1,5,0,1
119941,-90.9090909090909,4,2,1,80,0,1
119999,-90.9090909090909,4,2,1,5,0,1
120056,-90.9090909090909,4,2,1,80,0,1
120115,-90.9090909090909,4,2,1,5,0,1
120172,-90.9090909090909,4,2,1,80,0,1
120230,-90.9090909090909,4,2,1,5,0,1
120287,-90.9090909090909,4,2,1,80,0,1
120346,-90.9090909090909,4,2,1,5,0,1
120403,-90.9090909090909,4,2,1,80,0,1
120461,-90.9090909090909,4,2,1,5,0,1
120518,-90.9090909090909,4,2,1,80,0,1
120576,-90.9090909090909,4,2,1,5,0,1
120633,-90.9090909090909,4,2,1,80,0,1
120634,-100,4,2,1,80,0,0
124096,-100,4,2,1,80,0,0
128019,-100,4,2,1,70,0,0
128480,-100,4,2,1,70,0,0
128884,-100,4,2,1,5,0,0
128942,-100,4,2,1,70,0,0
129461,-100,4,2,1,5,0,0
129519,-100,4,2,1,70,0,0
129865,-100,4,2,1,70,0,0
130326,-100,4,2,1,70,0,0
130730,-100,4,2,1,5,0,0
130788,-100,4,2,1,70,0,0
131307,-100,4,2,1,5,0,0
131365,-100,4,2,1,70,0,0
131711,-100,4,2,1,70,0,0
132172,-100,4,2,1,70,0,0
132576,-100,4,2,1,5,0,0
132634,-100,4,2,1,70,0,0
133153,-100,4,2,1,5,0,0
133211,-100,4,2,1,70,0,0
133557,-100,4,2,1,70,0,0
135403,-100,4,2,1,70,0,0
135864,-100,4,2,1,70,0,0
136269,-100,4,2,1,5,0,0
136327,-100,4,2,1,70,0,0
136845,-100,4,2,1,5,0,0
136903,-100,4,2,1,70,0,0
137249,-100,4,2,1,70,0,0
137710,-100,4,2,1,70,0,0
138115,-100,4,2,1,5,0,0
138173,-100,4,2,1,70,0,0
138692,-100,4,2,1,5,0,0
138750,-100,4,2,1,70,0,0
139095,-100,4,2,1,70,0,0
139556,-100,4,2,1,70,0,0
139961,-100,4,2,1,5,0,0
140019,-100,4,2,1,70,0,0
140538,-100,4,2,1,5,0,0
140596,-100,4,2,1,70,0,0
140942,-100,4,2,1,70,0,0
142038,-100,4,2,1,5,0,0
142096,-100,4,2,1,70,0,0
144173,-100,4,2,1,70,0,0
144634,-100,4,2,1,70,0,0
147865,-100,4,2,1,70,0,0
148326,-100,4,2,1,70,0,0
150173,-100,4,2,1,70,0,0
151557,-100,4,2,1,70,0,0
152019,-100,4,2,1,70,0,0
155249,-100,4,2,1,70,0,0
155711,-100,4,2,1,70,0,0
157557,-100,4,2,1,70,0,0
158942,-100,4,2,1,70,0,0
159403,-100,4,2,1,70,0,0
162634,-100,4,2,1,70,0,0
163095,-100,4,2,1,70,0,0
164480,-100,4,2,1,70,0,0
164942,-100,4,2,1,70,0,0
166326,-100,4,2,1,70,0,0
166788,-100,4,2,1,70,0,0
170018,-100,4,2,1,70,0,0
170480,-100,4,2,1,70,0,0
172326,-90.9090909090909,4,2,2,80,0,1
172383,-90.9090909090909,4,2,1,80,0,1
172787,-90.9090909090909,4,2,1,80,0,1
173479,-90.9090909090909,4,2,1,80,0,1
174633,-90.9090909090909,4,2,1,80,0,1
179710,-90.9090909090909,4,2,1,80,0,1
179769,-90.9090909090909,4,2,1,5,0,1
179826,-90.9090909090909,4,2,1,80,0,1
179884,-90.9090909090909,4,2,1,5,0,1
179941,-90.9090909090909,4,2,1,80,0,1
179999,-90.9090909090909,4,2,1,5,0,1
180056,-90.9090909090909,4,2,1,80,0,1
180171,-90.9090909090909,4,2,1,80,0,1
180288,-90.9090909090909,4,2,1,80,0,1
180863,-90.9090909090909,4,2,1,80,0,1
182017,-90.9090909090909,4,2,1,80,0,1
194480,-90.9090909090909,4,2,1,80,0,1
194942,-90.9090909090909,4,2,1,80,0,1
200999,-90.9090909090909,4,2,1,5,0,1
201056,-90.9090909090909,4,2,1,80,0,1
201114,-90.9090909090909,4,2,1,5,0,1
201171,-90.9090909090909,4,2,1,80,0,1
201229,-90.9090909090909,4,2,1,5,0,1
201286,-90.9090909090909,4,2,1,80,0,1
201345,-90.9090909090909,4,2,1,5,0,1
201402,-90.9090909090909,4,2,1,80,0,1
201460,-90.9090909090909,4,2,1,5,0,1
201517,-90.9090909090909,4,2,1,80,0,1
201576,-90.9090909090909,4,2,1,5,0,1
201633,-90.9090909090909,4,2,1,80,0,1
201691,-90.9090909090909,4,2,1,5,0,1
201748,-90.9090909090909,4,2,1,80,0,1
201806,-90.9090909090909,4,2,1,5,0,1
201864,-100,4,2,1,80,0,0
205327,-100,4,2,1,80,0,0
207403,-100,4,2,1,80,0,0
208788,-100,4,2,1,80,0,0
209249,-90.9090909090909,4,2,1,80,0,1
216634,-90.9090909090909,4,2,1,80,0,1
217096,-90.9090909090909,4,2,1,80,0,1
220326,-90.9090909090909,4,2,1,80,0,1
224019,-90.9090909090909,4,2,1,80,0,1
224480,-90.9090909090909,4,2,1,80,0,1
231404,-90.9090909090909,4,2,1,80,0,1
231865,-90.9090909090909,4,2,1,80,0,1
235096,-90.9090909090909,4,2,1,80,0,1
235557,-90.9090909090909,4,2,1,80,0,1
235788,-90.9090909090909,4,2,1,80,0,1
237057,-90.9090909090909,4,2,1,80,0,1
237865,-90.9090909090909,4,2,1,80,0,1
237923,-90.9090909090909,4,2,1,5,0,1
237980,-90.9090909090909,4,2,1,80,0,1
238038,-90.9090909090909,4,2,1,5,0,1
238095,-90.9090909090909,4,2,1,80,0,1
238153,-90.9090909090909,4,2,1,5,0,1
238210,-90.9090909090909,4,2,1,80,0,1
238269,-90.9090909090909,4,2,1,5,0,1
238326,-90.9090909090909,4,2,1,80,0,1
238384,-90.9090909090909,4,2,1,5,0,1
238441,-90.9090909090909,4,2,1,80,0,1
238499,-90.9090909090909,4,2,1,5,0,1
238556,-90.9090909090909,4,2,1,80,0,1
238615,-90.9090909090909,4,2,1,5,0,1
238672,-90.9090909090909,4,2,1,80,0,1
238730,-90.9090909090909,4,2,1,5,0,1
238787,-100,4,2,1,80,0,0

[Colours]
Combo1 : 184,184,220
Combo2 : 255,128,182
Combo3 : 191,223,255
Combo4 : 192,192,192
Combo5 : 252,217,173
Combo6 : 255,64,159

[HitObjects]
0,96,634,5,4,1:0:0:0:
0,96,1557,6,0,L|83:76,1,65,10|0,0:0|0:0,0:0:0:0:
117,24,2019,2,0,L|180:39,1,65,0|0,1:0|0:0,0:0:0:0:
256,23,2480,1,2,0:0:0:0:
234,98,2711,1,0,1:0:0:0:
234,98,2942,2,0,B|205:178|249:152|226:239,1,130,0|10,1:0|0:0,0:0:0:0:
196,377,3865,1,2,0:0:0:0:
196,377,4326,6,0,P|246:345|315:360,1,130,0|2,1:0|0:0,0:0:0:0:
389,369,5019,1,0,1:0:0:0:
389,369,5249,2,0,P|405:343|402:303,1,65,10|0,0:0|0:0,0:0:0:0:
480,292,5711,2,0,P|470:263|437:239,1,65,2|0,1:0|0:0,0:0:0:0:
371,211,6173,5,2,0:0:0:0:
297,236,6403,1,0,1:0:0:0:
297,236,6634,2,0,P|288:188|276:137,1,97.5,2|0,1:0|0:0,0:0:0:0:
263,103,7096,1,10,0:0:0:0:
138,9,7557,1,2,0:0:0:0:
3,88,8019,6,0,P|4:117|15:164,1,65,0|0,1:0|0:0,0:0:0:0:
89,151,8480,2,0,P|82:182|80:215,1,65,0|0,0:0|1:0,0:0:0:0:
41,283,8942,2,0,P|100:251|169:271,1,130,10|2,0:0|1:0,0:0:0:0:
279,363,9865,1,2,0:0:0:0:
348,327,10096,1,0,1:0:0:0:
348,327,10326,2,0,L|339:256,1,65,2|0,1:0|0:0,0:0:0:0:
396,208,10788,2,0,P|353:166|279:177,1,130,10|0,0:0|0:0,0:0:0:0:
143,232,11711,6,0,L|135:305,2,65,0|0|0,1:0|0:0|0:0,0:0:0:0:
106,162,12403,1,0,1:0:0:0:
106,162,12634,2,0,P|101:132|117:97,1,65,10|0,0:0|0:0,0:0:0:0:
138,70,12980,1,8,0:0:0:0:
138,70,13096,5,2,1:0:0:0:
207,104,13326,1,8,0:0:0:0:
275,66,13557,2,0,P|312:48|348:56,1,65,2|0,0:0|1:0,0:0:0:0:
413,52,14019,2,0,L|403:121,1,65,2|0,1:0|0:0,0:0:0:0:
334,152,14480,2,0,L|343:216,1,65,10|0,0:0|1:0,0:0:0:0:
352,254,14826,1,0,1:0:0:0:
352,254,14942,2,0,L|389:243,2,32.5,8|0|0,0:0|1:0|1:0,0:0:0:0:
321,325,15403,5,4,1:0:0:0:
14,380,16326,6,0,P|1:355|13:312,1,65,10|0,0:0|0:0,0:0:0:0:
79,289,16788,2,0,P|92:260|85:228,1,65,0|0,1:0|0:0,0:0:0:0:
32,171,17249,1,2,0:0:0:0:
57,97,17480,1,0,1:0:0:0:
57,97,17711,2,0,P|90:64|173:76,1,130,2|10,1:0|0:0,0:0:0:0:
279,181,18634,1,2,0:0:0:0:
279,181,19096,6,0,B|266:254|266:254|297:316,1,130,0|2,1:0|0:0,0:0:0:0:
339,365,19788,1,0,1:0:0:0:
339,365,20018,2,0,P|370:364|404:344,1,65,10|0,0:0|0:0,0:0:0:0:
474,326,20480,2,0,L|455:258,1,65,2|0,1:0|0:0,0:0:0:0:
395,214,20942,5,2,0:0:0:0:
454,163,21172,1,0,1:0:0:0:
454,163,21403,2,0,L|472:56,1,97.5,2|0,1:0|0:0,0:0:0:0:
481,29,21865,1,10,0:0:0:0:
327,2,22326,1,2,0:0:0:0:
271,57,22557,1,0,1:0:0:0:
271,57,22673,1,0,1:0:0:0:
271,57,22788,6,0,P|278:87|284:124,1,65,0|0,1:0|0:0,0:0:0:0:
355,151,23249,2,0,P|348:181|342:218,1,65,0|0,0:0|1:0,0:0:0:0:
341,293,23711,2,0,B|272:270|286:320|207:301,1,130,10|2,0:0|0:0,0:0:0:0:
60,324,24634,1,2,0:0:0:0:
90,252,24865,1,0,1:0:0:0:
90,252,25095,2,0,P|88:217|81:181,1,65,2|0,1:0|0:0,0:0:0:0:
20,140,25557,2,0,P|52:91|120:90,1,130,10|0,0:0|0:0,0:0:0:0:
246,178,26480,6,0,P|251:208|232:246,2,65,0|0|0,1:0|0:0|0:0,0:0:0:0:
198,115,27172,1,0,1:0:0:0:
198,115,27403,2,0,P|193:85|212:47,1,65,10|0,0:0|0:0,0:0:0:0:
262,0,27865,2,0,L|330:14,1,65,2|0,1:0|0:0,0:0:0:0:
362,81,28326,2,0,L|425:67,1,65,2|0,0:0|1:0,0:0:0:0:
458,139,28788,2,0,L|362:158,1,97.5,2|0,1:0|0:0,0:0:0:0:
326,172,29249,2,0,P|327:204|341:238,1,65,10|0,0:0|0:0,0:0:0:0:
384,298,29711,2,0,L|421:287,2,32.5,0|8|8,0:0|0:0|0:0,0:0:0:0:
323,348,30173,6,0,P|265:333|194:330,1,130,6|10,1:0|0:0,0:0:0:0:
132,377,30865,1,2,0:0:0:0:
74,323,31096,2,0,P|65:288|78:250,1,65,0|0,0:0|1:0,0:0:0:0:
96,186,31557,1,10,0:0:0:0:
96,186,31673,1,0,1:0:0:0:
135,76,32019,6,0,P|165:67|200:85,1,65,2|0,1:0|0:0,0:0:0:0:
227,101,32365,1,0,1:0:0:0:
227,101,32480,1,10,0:0:0:0:
284,153,32711,1,2,0:0:0:0:
223,202,32942,2,0,L|238:270,1,65,0|0,0:0|1:0,0:0:0:0:
255,341,33403,1,10,0:0:0:0:
255,341,33519,1,0,1:0:0:0:
369,365,33865,6,0,P|402:356|454:359,1,65,2|0,1:0|0:0,0:0:0:0:
471,361,34211,1,0,1:0:0:0:
471,361,34326,1,10,0:0:0:0:
511,294,34557,1,2,0:0:0:0:
454,240,34788,2,0,P|461:209|463:174,1,65,0|2,0:0|1:0,0:0:0:0:
486,101,35249,1,10,0:0:0:0:
486,101,35365,1,0,1:0:0:0:
422,2,35711,6,0,L|356:17,1,65,2|0,1:0|0:0,0:0:0:0:
319,14,36057,1,0,1:0:0:0:
319,14,36173,1,10,0:0:0:0:
236,97,36519,1,10,0:0:0:0:
236,97,36634,2,0,L|172:82,1,65,0|2,0:0|1:0,0:0:0:0:
103,45,37096,2,0,L|93:3,2,32.5,10|10|10,0:0|0:0|0:0,0:0:0:0:
55,107,37557,6,0,P|71:167|79:236,1,130,6|10,1:0|0:0,0:0:0:0:
71,312,38249,1,2,0:0:0:0:
125,368,38480,2,0,P|154:355|193:353,1,65,0|0,0:0|1:0,0:0:0:0:
264,361,38941,1,10,0:0:0:0:
264,361,39057,1,0,1:0:0:0:
365,302,39403,6,0,P|370:271|372:232,1,65,2|0,1:0|0:0,0:0:0:0:
362,199,39749,1,0,1:0:0:0:
362,199,39864,1,10,0:0:0:0:
321,132,40095,1,2,0:0:0:0:
339,56,40326,2,0,P|365:37|407:41,1,65,0|0,0:0|1:0,0:0:0:0:
474,39,40787,1,10,0:0:0:0:
474,39,40903,1,0,1:0:0:0:
453,154,41249,6,0,L|464:237,1,65,2|0,1:0|0:0,0:0:0:0:
463,257,41595,1,0,1:0:0:0:
463,257,41710,1,10,0:0:0:0:
500,325,41941,1,2,0:0:0:0:
449,383,42172,2,0,P|417:373|385:371,1,65,0|0,0:0|1:0,0:0:0:0:
308,383,42633,1,10,0:0:0:0:
308,383,42749,1,0,1:0:0:0:
192,362,43095,6,0,P|181:330|186:298,1,65,2|0,1:0|0:0,0:0:0:0:
197,262,43441,1,0,1:0:0:0:
197,262,43557,1,10,0:0:0:0:
264,223,43788,2,0,L|252:153,1,65,14|0,0:0|0:0,0:0:0:0:
241,81,44249,1,2,0:0:0:0:
241,81,44365,1,2,0:0:0:0:
241,81,44480,2,0,P|211:62|173:67,1,65,2|10,1:0|0:0,0:0:0:0:
106,83,44942,6,0,L|94:168,1,65,6|2,1:0|0:0,0:0:0:0:
90,185,45288,1,2,1:0:0:0:
90,185,45403,1,8,0:0:0:0:
41,246,45634,1,2,0:0:0:0:
88,352,45980,2,0,L|80:404,2,32.5,2|2|2,0:0|1:0|0:0,0:0:0:0:
117,326,46326,2,0,L|121:293,2,32.5,10|2|2,0:0|1:0|0:0,0:0:0:0:
189,355,46788,6,0,P|221:346|263:345,1,65,2|0,1:0|0:0,0:0:0:0:
291,346,47134,1,2,0:0:0:0:
291,346,47249,1,10,0:0:0:0:
353,299,47480,1,2,0:0:0:0:
319,187,47826,2,0,L|267:195,2,32.5,2|0|2,0:0|1:0|0:0,0:0:0:0:
339,153,48172,2,0,L|371:148,2,32.5,10|2|2,0:0|1:0|0:0,0:0:0:0:
279,101,48634,6,0,P|289:70|280:33,1,65,2|2,1:0|0:0,0:0:0:0:
263,0,48980,1,0,1:0:0:0:
263,0,49096,1,8,0:0:0:0:
194,49,49326,1,0,0:0:0:0:
66,46,49673,2,0,L|33:50,2,32.5,2|2|0,0:0|1:0|0:0,0:0:0:0:
82,85,50019,2,0,L|114:89,2,32.5,10|0|0,0:0|1:0|0:0,0:0:0:0:
22,144,50480,6,0,L|15:225,1,65,0|2,1:0|0:0,0:0:0:0:
33,247,50826,1,0,1:0:0:0:
33,247,50942,1,10,0:0:0:0:
5,327,51173,1,10,0:0:0:0:
5,327,51288,1,2,0:0:0:0:
5,327,51403,6,0,P|36:346|79:340,1,65,0|2,1:0|1:0,0:0:0:0:
132,296,51865,1,10,0:0:0:0:
132,296,51980,1,8,0:0:0:0:
132,296,52096,1,2,0:0:0:0:
207,322,52326,2,0,L|281:312,1,65,2|2,1:0|0:0,0:0:0:0:
349,310,52788,6,0,P|350:275|360:236,1,65,14|2,0:0|0:0,0:0:0:0:
298,132,53365,2,0,L|335:126,2,32.5,0|2|0,0:0|1:0|0:0,0:0:0:0:
271,102,53711,2,0,L|234:96,2,32.5,10|2|2,0:0|1:0|0:0,0:0:0:0:
326,38,54173,6,0,P|354:18|395:18,1,65,2|0,1:0|0:0,0:0:0:0:
422,27,54519,1,2,1:0:0:0:
422,27,54634,1,10,0:0:0:0:
499,60,54865,1,2,0:0:0:0:
427,164,55211,2,0,L|387:178,2,32.5,2|0|2,0:0|1:0|0:0,0:0:0:0:
451,194,55557,2,0,L|481:204,2,32.5,10|2|2,0:0|1:0|0:0,0:0:0:0:
432,277,56019,6,0,P|401:272|368:283,1,65,2|2,1:0|0:0,0:0:0:0:
336,301,56365,1,2,1:0:0:0:
336,301,56480,1,10,0:0:0:0:
268,352,56711,1,2,0:0:0:0:
156,291,57057,2,0,L|161:242,2,32.5,2|2|2,0:0|1:0|0:0,0:0:0:0:
184,318,57403,2,0,L|187:350,2,32.5,10|2|2,0:0|1:0|0:0,0:0:0:0:
237,252,57865,6,0,P|268:238|307:243,1,65,2|2,1:0|0:0,0:0:0:0:
340,242,58211,1,0,0:0:0:0:
340,242,58326,1,10,0:0:0:0:
411,196,58557,2,0,L|422:123,1,65,14|0,0:0|0:0,0:0:0:0:
413,93,58903,1,10,0:0:0:0:
505,6,59249,1,10,0:0:0:0:
505,6,59365,1,2,1:0:0:0:
505,6,59480,1,2,1:0:0:0:
420,9,59711,6,0,L|345:29,1,65,6|0,1:0|0:0,0:0:0:0:
279,60,60173,1,10,0:0:0:0:
166,2,60519,1,10,0:0:0:0:
129,77,60749,1,0,0:0:0:0:
129,77,60865,1,2,1:0:0:0:
46,58,61096,2,0,P|39:39|40:11,2,32.5,8|2|0,0:0|1:0|0:0,0:0:0:0:
8,133,61557,6,0,L|14:197,1,65,2|0,1:0|0:0,0:0:0:0:
20,239,61903,1,0,1:0:0:0:
20,239,62019,1,10,0:0:0:0:
133,295,62365,1,10,0:0:0:0:
210,194,62711,1,2,1:0:0:0:
277,245,62942,1,8,0:0:0:0:
277,245,63057,1,0,1:0:0:0:
277,245,63173,1,0,0:0:0:0:
356,217,63403,6,0,P|362:186|357:150,1,65,2|0,1:0|0:0,0:0:0:0:
332,119,63749,1,0,1:0:0:0:
332,119,63865,1,10,0:0:0:0:
283,15,64211,1,10,0:0:0:0:
399,20,64557,1,2,1:0:0:0:
468,56,64788,2,0,L|457:125,1,65,2|10,1:0|0:0,0:0:0:0:
481,194,65249,2,0,P|496:187|517:188,2,32.5,2|10|0,1:0|0:0|0:0,0:0:0:0:
448,265,65711,1,10,0:0:0:0:
394,207,65942,6,0,L|323:221,1,65,14|0,0:0|0:0,0:0:0:0:
292,231,66288,1,8,0:0:0:0:
292,231,66403,1,2,1:0:0:0:
233,282,66634,2,0,L|240:318,2,32.5,2|0|2,1:0|1:0|1:0,0:0:0:0:
157,261,67096,6,0,P|147:229|153:193,1,65,6|0,1:0|0:0,0:0:0:0:
196,133,67558,1,10,0:0:0:0:
142,29,67904,1,10,0:0:0:0:
73,66,68134,1,0,0:0:0:0:
73,66,68250,1,2,1:0:0:0:
81,143,68481,2,0,L|112:134,2,32.5,8|2|0,0:0|1:0|0:0,0:0:0:0:
28,200,68942,6,0,P|22:233|28:268,1,65,2|0,1:0|0:0,0:0:0:0:
38,301,69288,1,0,1:0:0:0:
38,301,69404,1,10,0:0:0:0:
141,246,69750,1,10,0:0:0:0:
232,319,70096,1,2,1:0:0:0:
294,272,70327,1,8,0:0:0:0:
294,272,70442,1,2,1:0:0:0:
294,272,70558,1,0,0:0:0:0:
371,264,70788,6,0,L|363:329,1,65,2|0,1:0|0:0,0:0:0:0:
355,366,71134,1,0,1:0:0:0:
355,366,71250,1,10,0:0:0:0:
471,355,71596,1,10,0:0:0:0:
490,239,71942,1,2,1:0:0:0:
429,189,72173,6,0,P|399:173|364:178,1,65,14|0,0:0|0:0,0:0:0:0:
294,153,72634,2,0,L|288:117,2,32.5,2|2|2,1:0|1:0|1:0,0:0:0:0:
226,204,73095,1,2,1:0:0:0:
225,213,73209,1,2,1:0:0:0:
224,222,73325,1,2,1:0:0:0:
223,231,73442,6,0,P|191:239|153:226,1,65,0|2,1:0|0:0,0:0:0:0:
132,200,73788,1,2,1:0:0:0:
59,156,74019,2,0,P|63:142|66:123,1,32.5,2|2,1:0|1:0,0:0:0:0:
100,106,74249,2,0,P|96:92|93:73,1,32.5,2|2,1:0|1:0,0:0:0:0:
78,37,74480,5,6,0:0:0:0:
243,2,74942,2,0,L|321:23,1,65,2|2,0:0|0:0,0:0:0:0:
408,64,75519,1,2,0:0:0:0:
480,36,75749,1,2,0:0:0:0:
480,36,75865,2,0,P|485:69|472:107,1,65,2|0,0:0|0:0,0:0:0:0:
446,170,76326,5,2,0:0:0:0:
383,313,76788,2,0,L|312:299,1,65,2|2,0:0|0:0,0:0:0:0:
201,301,77365,1,2,0:0:0:0:
140,251,77596,1,2,0:0:0:0:
140,251,77711,2,0,P|146:221|151:182,1,65,2|2,0:0|0:0,0:0:0:0:
181,114,78173,5,2,0:0:0:0:
67,7,78634,2,0,P|34:8|7:34,1,65,2|2,0:0|0:0,0:0:0:0:
12,146,79211,1,2,0:0:0:0:
43,221,79442,1,2,0:0:0:0:
43,221,79557,2,0,P|72:210|116:205,1,65,2|0,0:0|0:0,0:0:0:0:
177,165,80019,6,0,L|184:121,2,43.3333333333333,10|10|10,0:0|0:0|0:0,0:0:0:0:
208,206,80480,6,0,L|201:248,2,43.3333333333333,10|10|8,0:0|0:0|0:0,0:0:0:0:
254,181,80942,6,0,L|261:137,2,43.3333333333333,14|10|10,0:0|0:0|0:0,0:0:0:0:
285,222,81403,6,0,L|278:264,1,43.3333333333333,10|2,0:0|0:0,0:0:0:0:
280,369,81865,6,0,P|312:356|351:361,1,65,6|2,1:0|0:0,0:0:0:0:
379,370,82211,1,2,1:0:0:0:
379,370,82326,1,8,0:0:0:0:
446,331,82557,1,2,0:0:0:0:
479,218,82903,2,0,L|531:226,2,32.5,2|2|2,0:0|1:0|0:0,0:0:0:0:
453,189,83249,2,0,L|420:185,2,32.5,10|2|2,0:0|1:0|0:0,0:0:0:0:
499,125,83711,6,0,P|508:93|495:54,1,65,2|0,1:0|0:0,0:0:0:0:
480,28,84057,1,2,0:0:0:0:
480,28,84172,1,10,0:0:0:0:
410,63,84403,1,2,0:0:0:0:
293,52,84749,2,0,L|301:104,2,32.5,2|0|2,0:0|1:0|0:0,0:0:0:0:
259,32,85095,2,0,L|254:0,2,32.5,10|2|2,0:0|1:0|0:0,0:0:0:0:
225,102,85557,6,0,P|194:92|157:101,1,65,2|2,1:0|0:0,0:0:0:0:
131,113,85903,1,0,1:0:0:0:
131,113,86019,1,8,0:0:0:0:
83,174,86249,1,0,0:0:0:0:
117,286,86596,2,0,L|121:319,2,32.5,2|2|0,0:0|1:0|0:0,0:0:0:0:
153,270,86942,2,0,L|157:238,2,32.5,10|0|0,0:0|1:0|0:0,0:0:0:0:
193,338,87403,6,0,P|222:326|268:328,1,65,0|2,1:0|0:0,0:0:0:0:
294,330,87749,1,0,1:0:0:0:
294,330,87865,1,10,0:0:0:0:
367,302,88096,1,14,0:0:0:0:
367,302,88211,1,2,0:0:0:0:
367,302,88326,2,0,L|372:349,2,32.5,0|10|2,1:0|0:0|1:0,0:0:0:0:
444,293,88788,2,0,L|447:325,2,32.5,10|8|2,0:0|0:0|0:0,0:0:0:0:
478,223,89249,5,6,1:0:0:0:
478,223,90634,5,10,0:0:0:0:
422,60,91096,6,0,B|380:72|380:72|368:92|368:92|323:106,1,107.25000327301,4|0,1:0|0:0,0:0:0:0:
289,119,91557,1,8,0:0:0:0:
204,134,91788,1,0,1:0:0:0:
204,134,91903,2,0,P|211:99|212:63,1,71.5000021820069,8|0,0:0|0:0,0:0:0:0:
208,20,92249,1,0,1:0:0:0:
123,6,92480,1,8,0:0:0:0:
123,6,92596,1,0,1:0:0:0:
123,6,92711,1,8,0:0:0:0:
39,24,92942,6,0,B|42:70|55:46|63:96,1,71.5000021820069,6|0,1:0|0:0,0:0:0:0:
68,132,93288,1,0,1:0:0:0:
68,132,93403,1,8,0:0:0:0:
27,207,93634,1,0,1:0:0:0:
27,207,93749,2,0,P|54:218|102:209,1,71.5000021820069,8|0,0:0|0:0,0:0:0:0:
134,194,94096,1,0,1:0:0:0:
213,161,94326,1,8,0:0:0:0:
213,161,94442,1,0,1:0:0:0:
213,161,94557,1,8,0:0:0:0:
288,201,94788,6,0,L|277:288,1,71.5000021820069,6|0,1:0|0:0,0:0:0:0:
270,314,95134,1,0,1:0:0:0:
270,314,95249,1,10,0:0:0:0:
337,366,95480,1,0,1:0:0:0:
337,366,95596,2,0,P|371:356|415:355,1,71.5000021820069,10|2,0:0|0:0,0:0:0:0:
449,358,95942,1,0,1:0:0:0:
413,279,96173,2,0,P|396:276|375:281,2,35.7500010910034,10|2|10,0:0|1:0|0:0,0:0:0:0:
455,272,96519,6,0,P|459:235|473:188,1,71.5000021820069,6|2,1:0|0:0,0:0:0:0:
482,161,96865,1,2,1:0:0:0:
443,84,97096,2,0,P|406:79|359:66,1,71.5000021820069,10|0,0:0|0:0,0:0:0:0:
332,57,97442,1,8,0:0:0:0:
332,57,97557,6,0,L|292:71,1,35.7500010910034,2|8,0:0|0:0,0:0:0:0:
271,102,97788,2,0,L|237:90,1,35.7500010910034,2|2,1:0|0:0,0:0:0:0:
202,65,98019,2,0,L|199:28,2,35.7500010910034,2|2|2,1:0|0:0|1:0,0:0:0:0:
130,112,98480,6,0,B|131:180|156:147|155:213,1,107.25000327301,4|0,1:0|1:0,0:0:0:0:
154,257,98942,1,10,0:0:0:0:
127,338,99173,1,0,1:0:0:0:
127,338,99288,2,0,P|162:341|198:330,1,71.5000021820069,10|2,0:0|0:0,0:0:0:0:
236,313,99634,1,0,1:0:0:0:
283,241,99865,1,10,0:0:0:0:
283,241,99981,1,2,1:0:0:0:
283,241,100095,1,10,0:0:0:0:
338,306,100327,6,0,P|372:295|411:292,1,71.5000021820069,4|0,1:0|0:0,0:0:0:0:
450,296,100673,1,2,1:0:0:0:
450,296,100788,1,10,0:0:0:0:
493,222,101019,1,0,1:0:0:0:
493,222,101134,2,0,P|503:188|491:149,1,71.5000021820069,10|2,0:0|0:0,0:0:0:0:
470,117,101481,1,0,1:0:0:0:
415,51,101711,1,10,0:0:0:0:
415,51,101827,1,2,1:0:0:0:
415,51,101942,1,8,0:0:0:0:
329,57,102173,6,0,P|319:89|318:136,1,71.5000021820069,4|0,1:0|0:0,0:0:0:0:
317,169,102519,1,0,1:0:0:0:
317,169,102634,1,10,0:0:0:0:
272,242,102865,1,0,1:0:0:0:
272,242,102981,2,0,L|194:231,1,71.5000021820069,10|2,0:0|0:0,0:0:0:0:
158,232,103327,1,0,1:0:0:0:
184,321,103558,2,0,L|219:325,2,35.7500010910034,10|2|10,0:0|0:0|0:0,0:0:0:0:
147,350,103904,6,0,P|110:356|63:332,1,71.5000021820069,6|0,1:0|0:0,0:0:0:0:
41,316,104250,1,4,1:0:0:0:
2,231,104481,2,0,L|20:147,1,71.5000021820069,8|0,0:0|0:0,0:0:0:0:
55,134,104827,1,8,0:0:0:0:
55,134,104942,6,0,L|41:94,1,35.7500010910034,0|8,1:0|0:0,0:0:0:0:
10,73,105173,2,0,L|22:39,1,35.7500010910034,0|0,1:0|0:0,0:0:0:0:
47,4,105403,1,8,0:0:0:0:
47,4,105519,1,8,0:0:0:0:
47,4,105634,1,8,0:0:0:0:
121,60,105865,6,0,P|174:67|237:84,1,107.25000327301,4|0,1:0|1:0,0:0:0:0:
270,93,106326,1,10,0:0:0:0:
354,132,106557,1,0,0:0:0:0:
354,132,106673,1,8,0:0:0:0:
354,132,106788,2,0,P|351:170|339:206,1,71.5000021820069,2|0,0:0|1:0,0:0:0:0:
292,281,107249,6,0,L|361:298,1,71.5000021820069,10|0,0:0|0:0,0:0:0:0:
451,322,107711,2,0,B|453:284|472:299|474:248,1,71.5000021820069,2|0,1:0|0:0,0:0:0:0:
475,208,108057,1,0,1:0:0:0:
475,208,108173,1,10,0:0:0:0:
456,117,108403,1,0,0:0:0:0:
456,117,108519,1,8,0:0:0:0:
456,117,108634,2,0,P|463:97|463:72,1,35.7500010910034,2|0,0:0|0:0,0:0:0:0:
464,35,108865,2,0,P|444:28|419:28,1,35.7500010910034,2|0,1:0|0:0,0:0:0:0:
382,26,109096,1,10,0:0:0:0:
197,46,109557,6,0,P|203:81|207:125,1,71.5000021820069,4|0,1:0|0:0,0:0:0:0:
211,163,109903,1,0,1:0:0:0:
211,163,110019,1,10,0:0:0:0:
288,278,110365,1,10,0:0:0:0:
288,278,110480,2,0,L|377:263,2,71.5000021820069,8|2|0,0:0|1:0|1:0,0:0:0:0:
248,362,111173,1,10,0:0:0:0:
156,374,111403,5,2,1:0:0:0:
156,374,111519,2,0,P|122:366|85:361,1,71.5000021820069,8|0,0:0|1:0,0:0:0:0:
39,358,111865,1,10,0:0:0:0:
18,267,112096,2,0,B|19:208|46:227|47:155,1,107.25000327301,14|10,0:0|0:0,0:0:0:0:
41,119,112557,1,0,1:0:0:0:
41,119,112673,1,10,0:0:0:0:
41,119,112788,2,0,L|7:109,2,35.7500010910034,8|8|8,0:0|0:0|0:0,0:0:0:0:
33,26,113249,6,0,L|141:62,1,107.25000327301,4|0,1:0|1:0,0:0:0:0:
180,68,113710,1,10,0:0:0:0:
271,52,113941,1,0,0:0:0:0:
271,52,114057,1,8,0:0:0:0:
271,52,114172,2,0,P|273:84|255:121,1,71.5000021820069,2|0,0:0|1:0,0:0:0:0:
236,209,114633,6,0,L|305:192,1,71.5000021820069,10|0,0:0|0:0,0:0:0:0:
398,195,115095,2,0,P|390:230|388:272,1,71.5000021820069,2|0,1:0|0:0,0:0:0:0:
389,312,115441,1,0,1:0:0:0:
389,312,115557,1,10,0:0:0:0:
296,310,115787,1,0,0:0:0:0:
296,310,115903,1,8,0:0:0:0:
296,310,116018,2,0,P|276:303|251:303,1,35.7500010910034,2|0,0:0|0:0,0:0:0:0:
221,278,116249,2,0,P|201:271|176:271,1,35.7500010910034,2|0,1:0|0:0,0:0:0:0:
145,292,116480,1,10,0:0:0:0:
16,157,116941,6,0,P|5:121|15:86,1,71.5000021820069,4|0,1:0|0:0,0:0:0:0:
33,46,117287,1,0,1:0:0:0:
33,46,117403,1,10,0:0:0:0:
114,1,117634,2,0,B|153:3|136:29|181:32,1,71.5000021820069,14|0,0:0|0:0,0:0:0:0:
222,38,117980,1,0,0:0:0:0:
222,38,118096,1,2,1:0:0:0:
312,20,118326,1,10,0:0:0:0:
312,20,118442,1,0,1:0:0:0:
312,20,118557,1,0,0:0:0:0:
399,50,118787,5,0,1:0:0:0:
399,50,118903,2,0,L|448:60,2,35.7500010910034,2|10|2,0:0|0:0|1:0,0:0:0:0:
379,92,119249,2,0,L|343:99,2,35.7500010910034,2|10|2,1:0|0:0|1:0,0:0:0:0:
455,145,119711,1,2,1:0:0:0:
455,145,119826,1,2,0:0:0:0:
455,145,119942,1,10,0:0:0:0:
382,202,120173,2,0,L|394:243,2,35.7500010910034,10|10|10,0:0|0:0|0:0,0:0:0:0:
302,173,120634,6,0,P|250:148|172:158,1,130,4|2,1:0|0:0,0:0:0:0:
12,128,121557,2,0,B|15:203|46:173|46:254,1,130,10|2,0:0|0:0,0:0:0:0:
44,335,122249,1,10,0:0:0:0:
44,335,122365,1,0,1:0:0:0:
44,335,122480,2,0,P|88:318|143:306,1,97.5,2|0,1:0|1:0,0:0:0:0:
263,313,123173,1,0,1:0:0:0:
263,313,123403,1,10,0:0:0:0:
422,257,123865,1,2,0:0:0:0:
384,181,124096,5,4,1:0:0:0:
256,192,124326,12,0,126864,0:0:0:0:
384,181,127326,5,0,1:0:0:0:
384,181,127442,1,0,1:0:0:0:
384,181,127557,1,0,1:0:0:0:
478,40,128019,6,0,P|421:6|349:22,1,130,6|10,1:0|0:0,0:0:0:0:
281,46,128711,1,2,0:0:0:0:
199,16,128942,2,0,P|190:45|195:80,1,65,0|0,0:0|1:0,0:0:0:0:
216,160,129403,1,10,0:0:0:0:
216,160,129519,1,0,1:0:0:0:
235,285,129865,6,0,P|203:275|164:277,1,65,2|0,1:0|0:0,0:0:0:0:
130,284,130211,1,0,1:0:0:0:
130,284,130326,1,10,0:0:0:0:
49,259,130557,1,2,0:0:0:0:
49,259,130673,2,0,L|66:158,1,97.5,8|0,0:0|1:0,0:0:0:0:
40,82,131249,1,10,0:0:0:0:
40,82,131365,1,2,0:0:0:0:
40,82,131480,1,0,1:0:0:0:
93,16,131711,6,0,L|178:10,1,65,2|0,1:0|0:0,0:0:0:0:
195,12,132057,1,0,1:0:0:0:
195,12,132172,1,10,0:0:0:0:
273,43,132403,1,2,0:0:0:0:
223,111,132634,2,0,P|231:144|232:175,1,65,0|2,0:0|1:0,0:0:0:0:
226,259,133095,1,10,0:0:0:0:
226,259,133211,1,0,1:0:0:0:
278,374,133557,6,0,P|312:375|344:353,1,65,2|0,1:0|0:0,0:0:0:0:
369,331,133903,1,2,1:0:0:0:
369,331,134019,1,10,0:0:0:0:
443,291,134249,2,0,L|434:217,1,65,14|2,0:0|0:0,0:0:0:0:
386,156,134711,1,2,1:0:0:0:
425,81,134942,2,0,L|467:71,2,32.5,10|10|10,0:0|0:0|0:0,0:0:0:0:
351,39,135403,6,0,B|277:24|302:83|227:75,1,130,6|10,1:0|0:0,0:0:0:0:
156,39,136095,1,2,0:0:0:0:
78,72,136326,2,0,P|87:100|94:137,1,65,0|0,0:0|1:0,0:0:0:0:
70,216,136787,1,10,0:0:0:0:
70,216,136903,1,2,0:0:0:0:
70,216,137019,1,2,0:0:0:0:
102,293,137249,6,0,P|134:283|167:279,1,65,2|0,1:0|0:0,0:0:0:0:
207,281,137595,1,0,1:0:0:0:
207,281,137710,1,10,0:0:0:0:
276,329,137941,1,2,0:0:0:0:
334,267,138172,2,0,P|339:235|323:203,1,65,0|0,0:0|1:0,0:0:0:0:
261,150,138634,2,0,L|221:145,2,32.5,10|0|0,0:0|1:0|0:0,0:0:0:0:
318,87,139096,6,0,P|348:69|391:75,1,65,2|0,1:0|0:0,0:0:0:0:
418,78,139441,1,0,1:0:0:0:
418,78,139556,1,10,0:0:0:0:
485,128,139787,1,2,0:0:0:0:
485,128,139903,2,0,L|466:227,1,97.5,8|4,0:0|1:0,0:0:0:0:
451,306,140479,1,10,0:0:0:0:
300,382,140941,6,0,L|291:313,1,65,6|8,1:0|0:0,0:0:0:0:
293,275,141287,1,8,0:0:0:0:
254,199,141518,1,0,1:0:0:0:
254,199,141634,1,2,1:0:0:0:
206,129,141865,2,0,L|213:80,3,32.5,0|0|2|2,1:0|1:0|1:0|1:0,0:0:0:0:
209,54,142326,1,2,1:0:0:0:
209,54,142442,1,0,1:0:0:0:
209,54,142557,1,2,1:0:0:0:
291,36,142788,6,0,P|347:8|414:16,2,130,4|0|10,1:0|0:0|0:0,0:0:0:0:
148,126,144173,1,2,0:0:0:0:
148,126,144403,2,0,L|141:169,1,32.5
112,188,144634,2,0,P|72:168|15:172,2,97.5,2|0|2,1:0|1:0|1:0,0:0:0:0:
196,181,145557,2,0,P|199:213|183:250,1,65,10|0,0:0|0:0,0:0:0:0:
110,291,146019,1,2,0:0:0:0:
189,330,146249,2,0,P|208:330|229:316,1,32.5,2|0,0:0|0:0,0:0:0:0:
261,316,146480,6,0,B|275:241|300:274|312:188,1,130,2|0,1:0|0:0,0:0:0:0:
344,119,147173,1,0,0:0:0:0:
344,119,147288,1,0,0:0:0:0:
344,119,147403,1,8,0:0:0:0:
419,80,147634,1,0,0:0:0:0:
373,8,147865,2,0,L|299:25,1,65
236,67,148326,6,0,P|196:38|142:37,2,97.5,0|0|0,1:0|1:0|1:0,0:0:0:0:
268,145,149249,1,8,0:0:0:0:
287,227,149480,1,0,0:0:0:0:
287,227,149710,1,0,0:0:0:0:
251,304,149942,1,0,1:0:0:0:
251,304,150057,1,0,1:0:0:0:
251,304,150173,6,0,P|188:287|114:278,1,130,4|0,1:0|0:0,0:0:0:0:
38,273,150865,1,0,0:0:0:0:
38,273,151096,2,0,L|48:182,1,65,10|0,0:0|0:0,0:0:0:0:
116,162,151557,2,0,L|106:71,1,65,2|0,0:0|0:0,0:0:0:0:
81,16,152019,2,0,P|31:16|-4:52,2,97.5,2|0|2,1:0|1:0|1:0,0:0:0:0:
164,32,152941,2,0,L|152:102,1,65,10|0,0:0|0:0,0:0:0:0:
217,151,153403,1,2,0:0:0:0:
251,73,153634,2,0,L|295:63,1,32.5,2|0,0:0|0:0,0:0:0:0:
323,52,153865,6,0,B|308:102|308:102|318:128|318:128|307:190,1,130,2|0,1:0|0:0,0:0:0:0:
278,256,154557,1,0,0:0:0:0:
278,256,154788,2,0,P|328:219|406:232,1,130,8|0,0:0|0:0,0:0:0:0:
476,215,155480,1,0,0:0:0:0:
476,215,155711,2,0,L|460:320,2,97.5,0|0|0,1:0|1:0|1:0,0:0:0:0:
397,184,156634,2,0,L|382:87,1,97.5,8|8,0:0|0:0,0:0:0:0:
382,45,157095,1,0,0:0:0:0:
301,19,157326,1,8,0:0:0:0:
301,19,157442,1,8,0:0:0:0:
301,19,157557,6,0,P|240:26|170:60,1,130,6|0,1:0|0:0,0:0:0:0:
126,121,158249,1,0,0:0:0:0:
126,121,158480,2,0,L|149:221,1,97.5,10|0,0:0|0:0,0:0:0:0:
139,257,158942,1,2,0:0:0:0:
256,378,159403,2,0,P|290:353|349:347,2,97.5,2|0|0,1:0|1:0|1:0,0:0:0:0:
172,367,160326,1,10,0:0:0:0:
37,264,160788,1,2,0:0:0:0:
26,95,161249,6,0,P|52:76|99:76,1,65,2|0,1:0|0:0,0:0:0:0:
124,58,161596,1,0,0:0:0:0:
124,58,161711,1,0,0:0:0:0:
201,91,161942,1,0,1:0:0:0:
280,62,162173,2,0,L|271:129,1,65,8|0,0:0|0:0,0:0:0:0:
201,172,162634,2,0,L|210:239,1,65,2|0,0:0|0:0,0:0:0:0:
248,311,163096,6,0,P|205:288|156:289,2,97.5,2|0|0,1:0|1:0|1:0,0:0:0:0:
319,356,164019,1,8,0:0:0:0:
479,304,164480,1,0,0:0:0:0:
462,135,164942,6,0,B|381:132|424:185|341:189,1,130,4|0,1:0|0:0,0:0:0:0:
266,174,165634,1,0,0:0:0:0:
266,174,165865,2,0,L|273:109,1,65,10|0,0:0|0:0,0:0:0:0:
241,30,166326,2,0,P|211:19|176:23,1,65,2|0,0:0|0:0,0:0:0:0:
125,88,166788,2,0,P|81:67|28:69,2,97.5,2|0|2,1:0|1:0|1:0,0:0:0:0:
179,152,167711,1,10,0:0:0:0:
127,219,167942,1,0,0:0:0:0:
127,219,168057,1,0,0:0:0:0:
127,219,168173,1,2,0:0:0:0:
173,381,168634,6,0,B|248:364|209:327|299:314,1,130,6|0,1:0|0:0,0:0:0:0:
365,334,169326,1,0,0:0:0:0:
365,334,169557,2,0,P|376:303|373:263,1,65,8|0,0:0|0:0,0:0:0:0:
297,235,170019,2,0,P|286:204|289:164,1,65
317,93,170480,1,0,1:0:0:0:
317,93,170596,1,0,1:0:0:0:
317,93,170711,1,0,1:0:0:0:
385,44,170942,6,0,P|400:33|425:32,3,32.5,8|8|8|8,0:0|0:0|0:0|0:0,0:0:0:0:
455,27,171403,2,0,P|465:42|467:67,3,32.5,8|0|0|0,0:0|1:0|1:0|1:0,0:0:0:0:
469,98,171865,1,8,0:0:0:0:
469,98,171980,1,0,1:0:0:0:
469,98,172096,1,0,1:0:0:0:
459,204,172326,6,0,B|403:210|432:243|365:260,1,107.25000327301,4|0,1:0|0:0,0:0:0:0:
326,273,172787,1,8,0:0:0:0:
256,211,173018,1,0,1:0:0:0:
256,211,173133,2,0,L|264:140,1,71.5000021820069,8|0,0:0|0:0,0:0:0:0:
261,93,173479,1,0,1:0:0:0:
180,46,173710,1,8,0:0:0:0:
180,46,173826,1,0,1:0:0:0:
180,46,173941,1,8,0:0:0:0:
142,131,174173,6,0,P|109:117|70:115,1,71.5000021820069,4|0,1:0|0:0,0:0:0:0:
27,120,174518,1,0,1:0:0:0:
27,120,174633,1,8,0:0:0:0:
49,210,174864,1,0,1:0:0:0:
49,210,174980,2,0,P|81:223|121:226,1,71.5000021820069,8|0,0:0|0:0,0:0:0:0:
164,227,175326,1,0,1:0:0:0:
237,170,175556,1,8,0:0:0:0:
237,170,175672,1,0,1:0:0:0:
237,170,175787,1,8,0:0:0:0:
304,233,176018,6,0,P|296:269|293:320,1,71.5000021820069,6|0,1:0|0:0,0:0:0:0:
289,350,176364,1,0,1:0:0:0:
289,350,176479,1,10,0:0:0:0:
380,368,176710,1,0,1:0:0:0:
380,368,176826,2,0,P|418:371|448:351,1,71.5000021820069,10|2,0:0|0:0,0:0:0:0:
474,317,177172,1,0,1:0:0:0:
476,223,177403,2,0,L|512:218,2,35.7500010910034,10|2|10,0:0|1:0|0:0,0:0:0:0:
429,222,177749,6,0,P|421:193|435:154,1,71.5000021820069,6|2,1:0|0:0,0:0:0:0:
461,117,178095,1,2,1:0:0:0:
474,24,178326,2,0,L|400:42,1,71.5000021820069,10|0,0:0|0:0,0:0:0:0:
361,60,178672,1,8,0:0:0:0:
361,60,178787,6,0,L|321:46,1,35.7500010910034,2|0,0:0|0:0,0:0:0:0:
300,15,179018,2,0,L|266:27,1,35.7500010910034,2|2,1:0|0:0,0:0:0:0:
231,52,179249,2,0,L|228:89,3,35.7500010910034,2|2|2|2,1:0|0:0|0:0|0:0,0:0:0:0:
195,120,179711,1,4,1:0:0:0:
195,120,179826,1,0,0:0:0:0:
195,120,179942,1,0,0:0:0:0:
239,201,180173,6,0,L|127:227,1,107.25000327301,14|0,0:0|0:0,0:0:0:0:
88,219,180634,1,0,0:0:0:0:
25,287,180864,1,0,1:0:0:0:
79,362,181095,1,10,0:0:0:0:
79,362,181211,1,2,1:0:0:0:
79,362,181326,1,10,0:0:0:0:
159,315,181557,6,0,L|232:300,1,71.5000021820069,4|0,1:0|0:0,0:0:0:0:
274,311,181903,1,2,1:0:0:0:
274,311,182018,1,10,0:0:0:0:
361,343,182249,1,0,1:0:0:0:
361,343,182364,2,0,P|371:309|359:270,1,71.5000021820069,10|2,0:0|0:0,0:0:0:0:
338,238,182711,1,0,1:0:0:0:
288,159,182941,1,10,0:0:0:0:
288,159,183057,1,2,1:0:0:0:
288,159,183172,1,8,0:0:0:0:
306,67,183403,6,0,P|338:52|384:59,1,71.5000021820069,4|0,1:0|0:0,0:0:0:0:
418,66,183749,1,0,1:0:0:0:
418,66,183864,1,10,0:0:0:0:
498,112,184095,1,0,1:0:0:0:
498,112,184211,2,0,P|491:147|487:190,1,71.5000021820069,10|2,0:0|0:0,0:0:0:0:
465,223,184557,1,0,1:0:0:0:
477,315,184788,2,0,L|512:319,2,35.7500010910034,10|2|10,0:0|0:0|0:0,0:0:0:0:
442,346,185134,6,0,L|370:336,1,71.5000021820069,6|0,1:0|0:0,0:0:0:0:
326,350,185480,1,4,1:0:0:0:
234,365,185711,2,0,P|238:329|257:290,1,71.5000021820069,8|0,0:0|0:0,0:0:0:0:
287,268,186057,1,8,0:0:0:0:
287,268,186172,6,0,L|273:228,1,35.7500010910034,0|8,1:0|0:0,0:0:0:0:
242,207,186403,2,0,L|254:173,1,35.7500010910034,0|0,1:0|1:0,0:0:0:0:
281,136,186633,1,0,1:0:0:0:
281,136,186749,1,0,1:0:0:0:
281,136,186864,1,0,1:0:0:0:
245,50,187095,6,0,P|190:45|142:81,1,107.25000327301,4|0,1:0|1:0,0:0:0:0:
120,109,187556,1,10,0:0:0:0:
57,177,187787,1,0,0:0:0:0:
57,177,187903,1,8,0:0:0:0:
57,177,188018,2,0,P|66:211|72:255,1,71.5000021820069,2|0,0:0|1:0,0:0:0:0:
73,339,188479,6,0,P|101:325|142:322,1,71.5000021820069,10|0,0:0|0:0,0:0:0:0:
223,365,188941,2,0,B|225:327|240:336|246:291,1,71.5000021820069,2|0,1:0|0:0,0:0:0:0:
248,251,189287,1,0,1:0:0:0:
248,251,189403,1,10,0:0:0:0:
181,186,189633,1,0,0:0:0:0:
181,186,189749,1,8,0:0:0:0:
181,186,189864,2,0,P|174:166|174:141,1,35.7500010910034,2|0,0:0|0:0,0:0:0:0:
173,104,190095,2,0,P|193:97|218:97,1,35.7500010910034,2|0,1:0|0:0,0:0:0:0:
255,95,190326,1,10,0:0:0:0:
421,11,190787,6,0,P|440:40|431:90,1,71.5000021820069,4|0,1:0|0:0,0:0:0:0:
424,120,191133,1,0,1:0:0:0:
424,120,191249,1,10,0:0:0:0:
350,238,191595,1,10,0:0:0:0:
350,238,191710,2,0,L|261:223,2,71.5000021820069,8|2|8,0:0|1:0|0:0,0:0:0:0:
389,322,192403,1,0,0:0:0:0:
316,379,192633,5,2,1:0:0:0:
316,379,192749,2,0,P|282:371|245:366,1,71.5000021820069,8|0,0:0|1:0,0:0:0:0:
199,363,193095,1,10,0:0:0:0:
108,382,193326,2,0,P|117:326|115:266,1,107.25000327301,14|10,0:0|0:0,0:0:0:0:
88,239,193787,1,0,1:0:0:0:
88,239,193903,1,10,0:0:0:0:
88,239,194018,2,0,L|54:229,2,35.7500010910034,8|8|8,0:0|0:0|0:0,0:0:0:0:
180,229,194480,6,0,P|184:174|194:117,1,107.25000327301,4|0,1:0|0:0,0:0:0:0:
193,76,194942,1,10,0:0:0:0:
251,3,195173,1,0,0:0:0:0:
251,3,195287,1,8,0:0:0:0:
251,3,195402,2,0,P|283:1|320:19,1,71.5000021820069,2|0,0:0|1:0,0:0:0:0:
341,107,195865,6,0,L|410:90,1,71.5000021820069,10|0,0:0|0:0,0:0:0:0:
495,52,196325,2,0,P|508:82|485:129,1,71.5000021820069,2|0,1:0|0:0,0:0:0:0:
471,156,196673,1,0,1:0:0:0:
471,156,196787,1,10,0:0:0:0:
471,248,197019,1,0,0:0:0:0:
471,248,197133,1,8,0:0:0:0:
471,248,197248,2,0,P|451:241|426:241,1,35.7500010910034,2|0,0:0|0:0,0:0:0:0:
396,216,197479,2,0,P|376:209|351:209,1,35.7500010910034,2|0,1:0|0:0,0:0:0:0:
320,230,197710,1,10,0:0:0:0:
181,353,198173,6,0,L|192:279,1,71.5000021820069,4|0,1:0|0:0,0:0:0:0:
190,235,198519,1,0,1:0:0:0:
190,235,198633,1,10,0:0:0:0:
240,156,198864,2,0,B|201:154|218:128|173:125,1,71.5000021820069,14|0,0:0|0:0,0:0:0:0:
132,119,199210,1,0,0:0:0:0:
132,119,199326,1,2,1:0:0:0:
63,56,199557,1,10,0:0:0:0:
63,56,199673,1,0,1:0:0:0:
63,56,199788,1,0,0:0:0:0:
153,37,200019,5,0,1:0:0:0:
153,37,200133,2,0,L|163:-12,2,35.7500010910034,2|10|2,0:0|0:0|1:0,0:0:0:0:
195,57,200479,2,0,L|202:93,2,35.7500010910034,2|10|2,1:0|0:0|1:0,0:0:0:0:
274,8,200941,1,2,1:0:0:0:
274,8,201056,1,2,0:0:0:0:
274,8,201172,1,10,0:0:0:0:
327,84,201403,2,0,L|321:120,2,35.7500010910034,10|10|10,0:0|0:0|0:0,0:0:0:0:
397,23,201865,6,0,P|460:15|511:73,1,130,4|2,1:0|0:0,0:0:0:0:
496,141,202557,1,2,0:0:0:0:
496,141,202788,2,0,P|487:172|483:207,1,65,10|0,0:0|0:0,0:0:0:0:
398,211,203249,2,0,P|407:242|411:277,1,65,2|10,0:0|0:0,0:0:0:0:
413,317,203596,5,0,1:0:0:0:
413,317,203711,2,0,P|365:301|313:303,1,97.5,2|0,1:0|1:0,0:0:0:0:
207,356,204403,1,0,1:0:0:0:
207,356,204634,1,10,0:0:0:0:
39,333,205096,1,2,0:0:0:0:
83,261,205326,5,4,1:0:0:0:
83,261,206942,6,0,L|51:257,2,32.5,2|2|0,0:0|0:0|0:0,0:0:0:0:
124,253,207288,1,2,0:0:0:0:
124,253,207403,2,0,P|138:205|136:152,1,97.5,2|2,0:0|0:0,0:0:0:0:
137,157,209249,6,0,L|254:138,1,107.25000327301,4|0,1:0|1:0,0:0:0:0:
286,123,209710,1,10,0:0:0:0:
356,62,209941,1,0,0:0:0:0:
356,62,210057,1,8,0:0:0:0:
356,62,210172,2,0,P|377:89|371:140,1,71.5000021820069,2|0,0:0|1:0,0:0:0:0:
367,217,210633,6,0,P|395:203|436:200,1,71.5000021820069,10|0,0:0|0:0,0:0:0:0:
456,291,211096,2,0,P|428:305|387:308,1,71.5000021820069,2|0,1:0|0:0,0:0:0:0:
342,308,211441,1,0,1:0:0:0:
342,308,211557,1,10,0:0:0:0:
255,341,211787,1,0,0:0:0:0:
255,341,211903,1,8,0:0:0:0:
255,341,212018,2,0,P|248:321|248:296,1,35.7500010910034,2|0,0:0|0:0,0:0:0:0:
264,263,212249,2,0,P|271:243|271:218,1,35.7500010910034,2|0,1:0|0:0,0:0:0:0:
250,187,212480,1,10,0:0:0:0:
208,5,212942,6,0,L|118:27,1,71.5000021820069,4|0,1:0|0:0,0:0:0:0:
92,20,213287,1,0,1:0:0:0:
92,20,213403,1,10,0:0:0:0:
35,147,213749,1,10,0:0:0:0:
35,147,213865,2,0,L|-4:141,2,35.7500010910034,0|0|2,0:0|0:0|1:0,0:0:0:0:
71,176,214211,1,0,0:0:0:0:
71,176,214326,2,0,L|110:170,2,35.7500010910034,8|0|2,0:0|1:0|0:0,0:0:0:0:
64,268,214787,5,2,1:0:0:0:
64,268,214903,2,0,P|98:260|135:255,1,71.5000021820069,8|0,0:0|1:0,0:0:0:0:
180,255,215249,1,10,0:0:0:0:
249,317,215480,2,0,P|276:264|256:201,1,107.25000327301,14|10,0:0|0:0,0:0:0:0:
239,182,215941,1,0,1:0:0:0:
239,182,216057,1,10,0:0:0:0:
239,182,216172,2,0,L|204:172,2,35.7500010910034,8|8|8,0:0|0:0|0:0,0:0:0:0:
327,151,216634,6,0,L|442:172,1,107.25000327301,4|0,1:0|0:0,0:0:0:0:
472,191,217096,1,10,0:0:0:0:
508,105,217325,1,0,0:0:0:0:
508,105,217441,1,8,0:0:0:0:
508,105,217556,2,0,P|510:73|492:36,1,71.5000021820069,2|0,0:0|1:0,0:0:0:0:
408,0,218019,6,0,L|339:17,1,71.5000021820069,10|0,0:0|0:0,0:0:0:0:
245,9,218479,2,0,P|232:39|255:86,1,71.5000021820069,2|0,1:0|0:0,0:0:0:0:
270,112,218825,1,0,1:0:0:0:
270,112,218941,1,10,0:0:0:0:
272,204,219173,1,0,0:0:0:0:
272,204,219287,1,8,0:0:0:0:
272,204,219402,2,0,P|252:197|227:197,1,35.7500010910034,2|8,0:0|0:0,0:0:0:0:
197,172,219633,2,0,P|177:165|152:165,1,35.7500010910034,2|0,1:0|0:0,0:0:0:0:
121,186,219864,1,10,0:0:0:0:
45,355,220325,6,0,P|78:347|119:344,1,71.5000021820069,4|8,1:0|0:0,0:0:0:0:
191,288,220788,2,0,P|224:295|265:299,1,71.5000021820069,14|0,0:0|0:0,0:0:0:0:
306,312,221134,1,10,0:0:0:0:
306,312,221249,1,0,0:0:0:0:
392,277,221480,1,2,1:0:0:0:
473,321,221711,1,0,1:0:0:0:
473,321,221827,1,0,0:0:0:0:
473,321,221942,1,10,0:0:0:0:
392,277,222173,5,10,0:0:0:0:
392,277,222287,2,0,L|343:267,2,35.7500010910034,2|0|8,0:0|0:0|0:0,0:0:0:0:
412,235,222633,2,0,L|448:228,2,35.7500010910034,2|0|8,0:0|0:0|0:0,0:0:0:0:
341,173,223095,1,10,0:0:0:0:
341,173,223210,1,10,0:0:0:0:
341,173,223326,1,2,1:0:0:0:
388,93,223557,2,0,L|394:57,2,35.7500010910034,2|2|2,1:0|1:0|1:0,0:0:0:0:
341,173,224019,6,0,P|285:167|237:199,1,107.25000327301,4|0,1:0|0:0,0:0:0:0:
210,225,224480,1,10,0:0:0:0:
128,269,224711,1,0,0:0:0:0:
128,269,224827,1,8,0:0:0:0:
128,269,224942,2,0,P|125:231|113:195,1,71.5000021820069,2|0,0:0|1:0,0:0:0:0:
28,163,225403,1,10,0:0:0:0:
28,163,225519,6,0,L|38:91,1,71.5000021820069,0|0,1:0|0:0,0:0:0:0:
56,49,225865,2,0,P|96:34|129:39,1,71.5000021820069,2|0,1:0|0:0,0:0:0:0:
169,47,226211,1,0,1:0:0:0:
169,47,226327,1,10,0:0:0:0:
254,11,226557,1,0,0:0:0:0:
254,11,226673,1,8,0:0:0:0:
254,11,226788,2,0,P|261:31|261:56,1,35.7500010910034,2|0,0:0|0:0,0:0:0:0:
249,90,227019,2,0,P|242:110|242:135,1,35.7500010910034,2|0,1:0|0:0,0:0:0:0:
253,169,227250,1,10,0:0:0:0:
245,354,227711,6,0,P|278:339|324:344,1,71.5000021820069,4|0,1:0|0:0,0:0:0:0:
357,351,228057,1,0,1:0:0:0:
357,351,228173,1,10,0:0:0:0:
494,327,228519,1,10,0:0:0:0:
494,327,228634,2,0,P|494:288|479:248,1,71.5000021820069,8|2,0:0|1:0,0:0:0:0:
398,219,229095,2,0,P|398:180|413:140,1,71.5000021820069,12|10,0:0|0:0,0:0:0:0:
470,80,229557,6,0,P|439:58|398:59,1,71.5000021820069,2|2,1:0|0:0,0:0:0:0:
314,41,230019,2,0,L|322:122,1,71.5000021820069,14|10,0:0|0:0,0:0:0:0:
318,158,230365,1,8,0:0:0:0:
318,158,230480,1,0,1:0:0:0:
321,250,230711,1,0,1:0:0:0:
321,250,230827,1,2,1:0:0:0:
321,250,230942,2,0,L|355:240,2,35.7500010910034,0|0|0,1:0|1:0|1:0,0:0:0:0:
268,326,231403,6,0,P|219:303|165:306,1,107.25000327301,4|0,1:0|1:0,0:0:0:0:
124,324,231864,1,10,0:0:0:0:
32,341,232095,1,0,0:0:0:0:
32,341,232211,1,8,0:0:0:0:
32,341,232326,2,0,P|30:309|48:272,1,71.5000021820069,2|0,0:0|1:0,0:0:0:0:
125,224,232787,6,0,L|108:155,1,71.5000021820069,10|0,0:0|0:0,0:0:0:0:
15,142,233249,2,0,L|32:73,1,71.5000021820069,2|0,1:0|0:0,0:0:0:0:
62,37,233595,1,0,1:0:0:0:
62,37,233711,1,10,0:0:0:0:
153,54,233941,1,0,0:0:0:0:
153,54,234057,1,8,0:0:0:0:
153,54,234172,2,0,P|173:47|198:47,1,35.7500010910034,2|0,0:0|0:0,0:0:0:0:
228,22,234403,2,0,P|248:15|273:15,1,35.7500010910034,2|0,1:0|0:0,0:0:0:0:
304,36,234634,1,10,0:0:0:0:
486,1,235095,6,0,P|497:37|487:72,1,71.5000021820069,4|0,1:0|0:0,0:0:0:0:
469,112,235441,1,0,1:0:0:0:
469,112,235557,1,10,0:0:0:0:
382,146,235788,2,0,P|394:180|399:218,1,71.5000021820069,14|0,0:0|0:0,0:0:0:0:
398,257,236134,1,0,0:0:0:0:
398,257,236250,1,2,1:0:0:0:
470,321,236480,1,10,0:0:0:0:
470,321,236596,1,0,1:0:0:0:
470,321,236711,1,0,0:0:0:0:
356,339,236941,5,0,1:0:0:0:
356,339,237057,2,0,L|366:388,2,35.7500010910034,2|10|2,0:0|0:0|1:0,0:0:0:0:
392,293,237403,2,0,L|399:257,2,35.7500010910034,2|10|2,1:0|0:0|1:0,0:0:0:0:
320,236,237865,1,2,1:0:0:0:
320,236,237980,1,2,0:0:0:0:
320,236,238096,1,10,0:0:0:0:
238,191,238326,2,0,L|231:155,2,35.7500010910034,10|10|10,0:0|0:0|0:0,0:0:0:0:
218,233,238673,1,10,0:0:0:0:
218,233,238788,5,4,1:0:0:0:
