osu file format v14

[General]
AudioFilename: audio.mp3
AudioLeadIn: 0
PreviewTime: -1
Countdown: 1
SampleSet: None
StackLeniency: 0.7
Mode: 0
LetterboxInBreaks: 0
WidescreenStoryboard: 0

[Editor]
Bookmarks: 21923,113538,129461,144230,196615,198461,204000,204230,204461,204692,212653,217384
DistanceSpacing: 2.5
BeatDivisor: 8
GridSize: 4
TimelineZoom: 2.200001

[Metadata]
Title:Kill Shit [Explicit]
TitleUnicode:Kill Shit [Explicit]
Artist:Krizz Kaliko feat. Tech N9ne, Twista
ArtistUnicode:Krizz Kaliko feat. Tech N9ne, Twista
Creator:Rayne
Version:
Source:
Tags:
BeatmapID:1896677
BeatmapSetID:908868

[Difficulty]
HPDrainRate:4
CircleSize:3.8
OverallDifficulty:10
ApproachRate:9
SliderMultiplier:2
SliderTickRate:1

[Events]
//Background and Video events
0,0,"701827.png",0,0
//Break Periods
2,33430,179861
2,205892,211707
//Storyboard Layer 0 (Background)
//Storyboard Layer 1 (Fail)
//Storyboard Layer 2 (Pass)
//Storyboard Layer 3 (Foreground)
//Storyboard Sound Samples

[TimingPoints]
0,461.538461538462,4,3,0,60,1,0
14076,-100,4,3,0,60,0,0
14769,-76.9230769230769,4,3,0,60,0,0
108923,-76.9230769230769,4,3,0,60,0,0
109384,-76.9230769230769,4,3,0,60,0,0
109846,-76.9230769230769,4,3,0,60,0,0
110192,-76.9230769230769,4,3,0,60,0,0
110307,-76.9230769230769,4,3,0,60,0,0
110538,-76.9230769230769,4,3,0,60,0,0
110769,-76.9230769230769,4,3,0,60,0,0
111000,-76.9230769230769,4,3,0,60,0,0
111230,-76.9230769230769,4,3,0,60,0,0
111461,-76.9230769230769,4,3,0,60,0,0
111807,-76.9230769230769,4,3,0,60,0,0
111923,-76.9230769230769,4,3,0,60,0,0
112038,-76.9230769230769,4,3,0,60,0,0
112153,-76.9230769230769,4,3,0,60,0,0
112384,-76.9230769230769,4,3,0,60,0,0
112615,-76.9230769230769,4,3,0,60,0,0
112846,-76.9230769230769,4,3,0,60,0,0
113076,-76.9230769230769,4,3,0,60,0,0
113307,-76.9230769230769,4,3,0,60,0,0
113538,-76.9230769230769,4,3,0,60,0,0
113884,-76.9230769230769,4,3,0,60,0,0
114230,-76.9230769230769,4,3,0,60,0,0
114461,-76.9230769230769,4,3,0,60,0,0
114692,-76.9230769230769,4,3,0,60,0,0
114923,-76.9230769230769,4,3,0,60,0,0
115038,-76.9230769230769,4,3,0,60,0,0
115384,-76.9230769230769,4,3,0,60,0,0
115846,-76.9230769230769,4,3,0,60,0,0
116076,-76.9230769230769,4,3,0,60,0,0
116307,-76.9230769230769,4,3,0,60,0,0
116769,-76.9230769230769,4,3,0,60,0,0
117230,-76.9230769230769,4,3,0,60,0,0
117461,-76.9230769230769,4,3,0,60,0,0
117692,-76.9230769230769,4,3,0,60,0,0
118153,-76.9230769230769,4,3,0,60,0,0
181500,-76.9230769230769,4,3,0,60,0,0
181730,-76.9230769230769,4,3,0,60,0,0
182538,-76.9230769230769,4,3,0,60,0,0
182615,-76.9230769230769,4,3,0,60,0,0
182692,-76.9230769230769,4,3,0,60,0,0
182769,-76.9230769230769,4,3,0,60,0,0
183692,-76.9230769230769,4,3,0,60,0,0
184961,-76.9230769230769,4,3,0,60,0,0
185192,-76.9230769230769,4,3,0,60,0,0
185538,-76.9230769230769,4,3,0,60,0,0
186000,-76.9230769230769,4,3,0,60,0,0
186461,-76.9230769230769,4,3,0,60,0,0
187384,-76.9230769230769,4,3,0,60,0,0
189000,-76.9230769230769,4,3,0,60,0,0
189461,-76.9230769230769,4,3,0,60,0,0
191307,-76.9230769230769,4,3,0,60,0,0
196615,-76.9230769230769,4,3,0,60,0,0
198461,-76.9230769230769,4,3,0,60,0,0
202961,-76.9230769230769,4,3,0,60,0,0
203076,-76.9230769230769,4,3,0,60,0,0
203230,-76.9230769230769,4,3,0,60,0,0
203307,-76.9230769230769,4,3,0,60,0,0
203384,-76.9230769230769,4,3,0,60,0,0
203538,-76.9230769230769,4,3,0,60,0,0
203692,-76.9230769230769,4,3,0,60,0,0
203769,-76.9230769230769,4,3,0,60,0,0
203846,-76.9230769230769,4,3,0,60,0,0
203884,-76.9230769230769,4,3,0,60,0,0
204115,-76.9230769230769,4,3,0,60,0,0
204230,-76.9230769230769,4,3,0,60,0,0
204346,-76.9230769230769,4,3,0,60,0,0
204461,-76.9230769230769,4,3,0,60,0,0
204576,-76.9230769230769,4,3,0,60,0,0
204692,-76.9230769230769,4,3,0,60,0,0
204807,-76.9230769230769,4,3,0,60,0,0
204923,-76.9230769230769,4,3,0,60,0,0
205076,-76.9230769230769,4,3,0,60,0,0
205230,-76.9230769230769,4,3,0,60,0,0
205384,-76.9230769230769,4,3,0,60,0,0
205538,-76.9230769230769,4,3,0,60,0,0
205692,-76.9230769230769,4,3,0,60,0,0
212307,-76.9230769230769,4,3,0,60,0,0
212423,-76.9230769230769,4,3,0,60,0,0
212538,-76.9230769230769,4,3,0,60,0,0
212615,-76.9230769230769,4,3,0,60,0,0
212692,-76.9230769230769,4,3,0,60,0,0
212769,-76.9230769230769,4,3,0,60,0,0
212884,-76.9230769230769,4,3,0,60,0,0
213000,-76.9230769230769,4,3,0,60,0,0
213115,-76.9230769230769,4,3,0,60,0,0
213230,-76.9230769230769,4,3,0,60,0,0
213346,-76.9230769230769,4,3,0,60,0,0
213461,-76.9230769230769,4,3,0,60,0,0
213692,-76.9230769230769,4,3,0,60,0,0
214038,-76.9230769230769,4,3,0,60,0,0
216000,-76.9230769230769,4,3,0,60,0,0
216346,-76.9230769230769,4,3,0,60,0,0
216923,-76.9230769230769,4,3,0,60,0,0
217384,-76.9230769230769,4,3,0,60,0,0
218538,-76.9230769230769,4,3,0,60,0,0
222230,-76.9230769230769,4,3,0,60,0,0
225923,-76.9230769230769,4,3,0,60,0,0

[HitObjects]
216,95,7384,5,0,0:0:0:0:
308,164,7614,1,0,0:0:0:0:
368,103,7845,1,0,0:0:0:0:
54,176,8076,1,0,0:0:0:0:
146,245,8306,1,0,0:0:0:0:
206,184,8537,1,0,0:0:0:0:
368,103,8769,1,0,0:0:0:0:
216,95,9230,5,0,0:0:0:0:
308,164,9460,1,0,0:0:0:0:
368,103,9691,1,0,0:0:0:0:
54,176,9922,1,0,0:0:0:0:
146,245,10152,1,0,0:0:0:0:
368,103,10615,1,0,0:0:0:0:
216,95,11076,5,0,0:0:0:0:
308,164,11306,1,0,0:0:0:0:
368,103,11537,1,0,0:0:0:0:
54,176,11768,1,0,0:0:0:0:
146,245,11998,1,0,0:0:0:0:
206,184,12229,1,0,0:0:0:0:
368,103,12461,1,0,0:0:0:0:
256,196,14076,6,0,P|248:144|243:131,1,50
168,192,14307,2,0,P|176:244|180:256,1,50
172,112,14538,2,0,P|120:120|107:124,1,50
248,292,14769,6,0,L|384:244,1,129.999994049073
336,360,15115,1,0,0:0:0:0:
256,196,15230,2,0,L|220:64,1,129.999994049073
332,116,15576,1,0,0:0:0:0:
424,265,15692,2,0,L|308:388,1,129.999994049073
216,360,16038,1,0,0:0:0:0:
108,276,16153,2,0,L|108:172,1,64.9999970245363
192,132,16384,2,0,L|192:236,1,64.9999970245363
331,115,16615,6,0,L|224:128,1,64.9999970245363
380,220,16846,2,0,L|487:207,1,64.9999970245363
264,216,17076,2,0,L|276:323,1,64.9999970245363
444,115,17307,1,0,0:0:0:0:
379,121,17423,2,0,L|495:109,1,64.9999970245363
324,40,17653,2,0,L|208:52,1,64.9999970245363
240,136,17884,1,0,0:0:0:0:
64,244,18000,2,0,L|64:156,1,64.9999970245363
144,124,18230,2,0,L|144:212,1,64.9999970245363
236,256,18461,5,0,0:0:0:0:
316,200,18576,1,0,0:0:0:0:
324,296,18692,2,0,L|276:352,1,64.9999970245363
408,240,18923,2,0,L|456:184,1,64.9999970245363
220,216,19153,5,0,0:0:0:0:
316,200,19268,1,0,0:0:0:0:
160,140,19384,2,0,L|86:134,1,64.9999970245363
248,96,19615,2,0,L|321:101,1,64.9999970245363
220,216,20307,5,0,0:0:0:0:
300,272,20423,1,0,0:0:0:0:
320,184,20538,1,0,0:0:0:0:
248,124,20653,1,0,0:0:0:0:
156,144,20769,1,0,0:0:0:0:
124,236,20884,2,0,L|84:288,1,64.9999970245363
56,160,21115,2,0,L|76:132,3,32.4999985122681
196,308,21346,2,0,L|156:164,1,129.999994049073
328,176,22269,5,0,0:0:0:0:
240,216,22384,1,0,0:0:0:0:
148,208,22500,1,0,0:0:0:0:
100,132,22615,2,0,P|152:116|168:120,1,64.9999970245363
188,300,22846,2,0,P|136:316|120:312,1,64.9999970245363
240,216,23076,2,0,P|272:215|300:230,2,64.9999970245363
284,316,23423,5,0,0:0:0:0:
376,288,23538,2,0,L|392:224,1,64.9999970245363
336,124,23769,2,0,L|272:108,1,64.9999970245363
72,224,24115,5,0,0:0:0:0:
208,224,24230,1,0,0:0:0:0:
144,296,24346,1,0,0:0:0:0:
52,320,24461,2,0,P|24:294|8:268,1,64.9999970245363
232,340,24692,2,0,P|206:367|180:384,1,64.9999970245363
208,224,24923,5,0,0:0:0:0:
264,144,25038,1,0,0:0:0:0:
240,256,25153,1,0,0:0:0:0:
164,132,25268,1,0,0:0:0:0:
320,216,25384,2,0,P|368:217|392:208,1,64.9999970245363
192,56,25615,2,0,P|143:54|88:108,1,129.999994049073
96,332,26076,5,0,0:0:0:0:
176,296,26192,1,0,0:0:0:0:
176,212,26307,1,4,0:0:0:0:
260,296,26423,1,0,0:0:0:0:
343,293,26538,2,0,P|319:234|260:212,1,129.999994049073
176,116,26884,5,0,0:0:0:0:
88,156,27000,1,0,0:0:0:0:
96,24,27115,1,4,0:0:0:0:
88,156,27230,6,0,P|89:229|132:288,1,129.999994049073
216,208,27576,1,0,0:0:0:0:
284,132,27692,2,0,L|276:64,1,64.9999970245363
220,308,27923,2,0,L|228:376,1,64.9999970245363
196,164,28153,2,0,L|128:172,1,64.9999970245363
372,228,28384,6,0,L|440:220,2,64.9999970245363
144,248,28730,2,0,L|80:256,2,64.9999970245363
248,188,29076,5,0,0:0:0:0:
180,120,29192,1,0,0:0:0:0:
376,108,29307,1,0,0:0:0:0:
144,248,29769,6,0,L|154:312,1,64.9999970245363
248,188,30000,2,0,L|237:123,2,64.9999970245363
344,160,30346,1,0,0:0:0:0:
296,300,30461,2,0,L|306:364,2,64.9999970245363
296,300,30807,1,0,0:0:0:0:
344,160,30923,1,0,0:0:0:0:
184,292,31038,2,0,L|128:332,2,64.9999970245363
140,96,31384,6,0,L|64:132,1,64.9999970245363
256,76,31615,2,0,L|324:44,1,64.9999970245363
288,288,31846,2,2,L|268:352,2,64.9999970245363
368,116,32192,2,2,L|388:48,2,64.9999970245363,0|2|0,0:0|0:0|0:0,0:0:0:0:
432,240,32538,2,0,L|494:258,1,64.9999970245363
260,168,32769,2,0,L|197:149,1,64.9999970245363
340,316,33000,2,0,L|464:360,1,129.999994049073,0|2,0:0|0:0,0:0:0:0:
256,192,180461,6,0,L|256:168,14,16.2499992561341
256,192,180923,1,0,0:0:0:0:
256,192,181038,1,0,0:0:0:0:
256,192,181153,1,0,0:0:0:0:
256,192,181269,1,0,0:0:0:0:
256,192,181384,1,0,0:0:0:0:
358,91,181499,5,0,0:0:0:0:
256,192,181615,1,0,0:0:0:0:
154,293,181730,5,0,0:0:0:0:
256,192,181846,1,0,0:0:0:0:
256,192,181962,1,0,0:0:0:0:
256,192,182077,1,0,0:0:0:0:
256,192,182192,1,0,0:0:0:0:
256,192,182307,1,0,0:0:0:0:
256,192,182423,1,0,0:0:0:0:
256,192,182538,5,0,0:0:0:0:
256,192,182615,1,0,0:0:0:0:
256,192,182692,1,0,0:0:0:0:
256,192,182769,1,0,0:0:0:0:
256,192,182884,1,0,0:0:0:0:
256,192,183000,1,0,0:0:0:0:
154,293,183115,5,0,0:0:0:0:
256,192,183231,1,0,0:0:0:0:
256,192,183347,1,0,0:0:0:0:
256,192,183462,1,0,0:0:0:0:
256,192,183577,1,0,0:0:0:0:
256,192,183692,1,0,0:0:0:0:
256,192,183750,1,0,0:0:0:0:
256,192,183808,5,0,0:0:0:0:
256,192,183865,1,0,0:0:0:0:
256,192,183923,1,0,0:0:0:0:
256,192,184038,1,0,0:0:0:0:
154,293,184153,5,0,0:0:0:0:
256,192,184269,1,0,0:0:0:0:
256,192,184385,1,0,0:0:0:0:
256,192,184500,1,0,0:0:0:0:
256,192,184615,1,0,0:0:0:0:
154,293,184730,5,0,0:0:0:0:
256,192,184846,1,0,0:0:0:0:
256,192,184962,5,0,0:0:0:0:
256,192,185077,1,0,0:0:0:0:
256,192,185192,5,0,0:0:0:0:
256,192,185307,1,0,0:0:0:0:
256,192,185422,1,0,0:0:0:0:
256,192,185538,5,0,0:0:0:0:
256,192,185653,1,0,0:0:0:0:
256,192,185768,1,0,0:0:0:0:
256,192,185883,1,0,0:0:0:0:
256,192,186000,5,0,0:0:0:0:
256,192,186115,1,0,0:0:0:0:
256,192,186230,1,0,0:0:0:0:
256,192,186346,1,0,0:0:0:0:
256,192,186463,5,0,0:0:0:0:
256,192,186578,1,0,0:0:0:0:
256,192,186693,1,0,0:0:0:0:
130,86,186923,5,0,0:0:0:0:
130,86,187040,1,0,0:0:0:0:
130,86,187155,1,0,0:0:0:0:
130,86,187269,1,0,0:0:0:0:
130,86,187384,1,0,0:0:0:0:
130,86,187500,1,0,0:0:0:0:
130,86,187615,5,0,0:0:0:0:
130,86,187732,1,0,0:0:0:0:
130,86,187847,1,0,0:0:0:0:
130,86,187961,1,0,0:0:0:0:
130,86,188076,1,0,0:0:0:0:
446,91,188307,5,0,0:0:0:0:
446,91,188424,1,0,0:0:0:0:
446,91,188539,1,0,0:0:0:0:
446,91,188653,1,0,0:0:0:0:
446,91,188768,1,0,0:0:0:0:
446,91,188884,1,0,0:0:0:0:
446,293,189000,5,0,0:0:0:0:
446,293,189115,1,0,0:0:0:0:
446,293,189231,1,0,0:0:0:0:
446,293,189346,1,0,0:0:0:0:
200,140,189461,5,0,0:0:0:0:
240,52,189577,1,0,0:0:0:0:
276,236,189692,1,0,0:0:0:0:
312,120,189807,2,0,L|336:48,2,64.9999970245363
200,140,190153,5,0,0:0:0:0:
240,52,190269,1,0,0:0:0:0:
276,236,190384,1,0,0:0:0:0:
312,120,190499,2,0,L|336:48,2,64.9999970245363
276,236,190846,1,0,0:0:0:0:
72,340,190961,5,0,0:0:0:0:
312,120,191076,2,0,L|336:48,2,64.9999970245363
276,236,191423,1,0,0:0:0:0:
276,236,191538,1,0,0:0:0:0:
276,236,191653,1,0,0:0:0:0:
276,236,191769,1,0,0:0:0:0:
276,236,191884,1,0,0:0:0:0:
200,264,192000,2,0,L|176:336,2,64.9999970245363
404,96,192461,5,0,0:0:0:0:
356,184,192576,1,0,0:0:0:0:
204,96,192692,1,0,0:0:0:0:
108,96,192807,5,0,0:0:0:0:
156,184,192922,1,0,0:0:0:0:
308,96,193038,1,0,0:0:0:0:
356,184,193153,1,0,0:0:0:0:
308,316,193269,1,0,0:0:0:0:
200,264,193384,2,0,L|176:336,2,64.9999970245363
404,96,193846,5,0,0:0:0:0:
356,184,193961,1,0,0:0:0:0:
204,96,194077,1,0,0:0:0:0:
108,96,194192,5,0,0:0:0:0:
156,184,194307,1,0,0:0:0:0:
308,96,194423,1,0,0:0:0:0:
356,184,194538,1,0,0:0:0:0:
308,316,194654,1,0,0:0:0:0:
308,96,194769,1,0,0:0:0:0:
356,184,194884,1,0,0:0:0:0:
308,316,195000,1,0,0:0:0:0:
356,184,195115,1,0,0:0:0:0:
200,264,195230,6,0,L|176:336,2,64.9999970245363
139,85,195692,5,0,0:0:0:0:
274,191,195846,1,0,0:0:0:0:
71,243,196000,1,0,0:0:0:0:
332,83,196153,1,0,0:0:0:0:
180,301,196307,1,0,0:0:0:0:
332,83,196461,1,0,0:0:0:0:
148,92,196615,5,0,0:0:0:0:
150,113,196691,1,0,0:0:0:0:
157,134,196768,1,0,0:0:0:0:
167,153,196845,1,0,0:0:0:0:
181,169,196922,1,0,0:0:0:0:
198,183,196999,1,0,0:0:0:0:
276,216,197076,5,0,0:0:0:0:
296,222,197153,1,0,0:0:0:0:
317,226,197230,1,0,0:0:0:0:
339,227,197307,1,0,0:0:0:0:
361,226,197384,1,0,0:0:0:0:
382,223,197461,1,0,0:0:0:0:
403,219,197538,5,0,0:0:0:0:
268,64,197692,1,0,0:0:0:0:
108,272,197846,1,0,0:0:0:0:
428,96,198000,1,0,0:0:0:0:
403,219,198153,1,0,0:0:0:0:
403,219,198307,1,0,0:0:0:0:
403,219,198461,5,0,0:0:0:0:
382,223,198538,1,0,0:0:0:0:
361,226,198615,1,0,0:0:0:0:
339,227,198692,1,0,0:0:0:0:
317,226,198769,1,0,0:0:0:0:
296,222,198846,1,0,0:0:0:0:
216,220,198923,5,0,0:0:0:0:
192,220,199000,1,0,0:0:0:0:
172,226,199077,1,0,0:0:0:0:
151,230,199154,1,0,0:0:0:0:
129,231,199231,1,0,0:0:0:0:
107,230,199308,1,0,0:0:0:0:
130,223,199385,5,0,0:0:0:0:
403,219,199538,1,0,0:0:0:0:
403,219,199692,1,0,0:0:0:0:
403,219,199846,1,0,0:0:0:0:
403,219,200000,1,0,0:0:0:0:
403,219,200153,1,0,0:0:0:0:
403,219,200307,5,4,0:2:0:0:
403,219,200423,1,4,0:2:0:0:
403,219,200653,5,4,0:0:0:0:
403,219,200769,1,4,0:0:0:0:
403,219,200884,1,4,0:0:0:0:
109,219,201115,5,0,0:0:0:0:
109,219,201231,1,0,0:0:0:0:
109,219,201346,1,0,0:0:0:0:
109,219,201461,1,0,0:0:0:0:
109,219,201577,1,0,0:0:0:0:
109,219,201692,1,0,0:0:0:0:
109,219,201807,5,0,0:0:0:0:
109,219,201923,1,0,0:0:0:0:
109,219,202038,1,0,0:0:0:0:
109,219,202153,5,4,0:0:0:0:
109,219,202269,1,4,0:0:0:0:
109,219,202538,5,4,0:0:0:0:
109,219,202616,1,4,0:0:0:0:
109,219,202692,1,4,0:0:0:0:
109,219,203000,5,0,0:0:0:0:
260,44,203153,1,0,0:0:0:0:
109,219,203230,6,0,L|104:124,2,86.6666626993817
403,219,203692,6,0,L|408:124,2,86.6666626993817
96,136,204117,1,0,0:0:0:0:
172,196,204230,1,0,0:0:0:0:
172,196,204347,1,0,0:0:0:0:
280,144,204461,1,0,0:0:0:0:
280,144,204578,1,0,0:0:0:0:
328,244,204692,1,0,0:0:0:0:
328,244,204809,1,0,0:0:0:0:
109,219,204923,1,0,0:0:0:0:
260,44,205077,5,8,0:0:0:0:
109,219,205230,1,0,0:0:0:0:
260,44,205384,5,8,0:0:0:0:
403,219,205538,1,0,0:0:0:0:
252,44,205692,1,0,0:0:0:0:
192,272,212307,5,0,0:0:0:0:
76,104,212423,1,0,0:0:0:0:
104,132,212538,5,0,0:0:0:0:
104,132,212615,1,0,0:0:0:0:
104,132,212692,1,0,0:0:0:0:
104,132,212769,1,0,0:0:0:0:
104,132,212846,1,0,0:0:0:0:
104,132,212923,1,0,0:0:0:0:
104,132,213000,5,0,0:0:0:0:
104,132,213115,1,0,0:0:0:0:
104,132,213231,5,0,0:0:0:0:
104,132,213346,1,0,0:0:0:0:
104,132,213461,1,0,0:0:0:0:
104,132,213576,1,0,0:0:0:0:
152,204,213692,6,0,L|152:68,1,129.999994049073
240,152,214038,2,0,L|240:16,1,129.999994049073
412,136,214384,5,0,0:0:0:0:
412,136,214500,1,0,0:0:0:0:
272,232,214615,2,0,L|272:368,1,129.999994049073
272,152,216000,6,0,L|272:16,1,129.999994049073
240,232,216346,2,0,L|240:368,1,129.999994049073
96,105,216692,5,0,0:0:0:0:
104,240,216807,1,0,0:0:0:0:
240,232,216923,2,0,L|240:368,1,129.999994049073
272,152,217269,1,0,0:0:0:0:
272,152,217384,2,0,L|272:16,2,129.999994049073
164,128,218538,5,0,0:0:0:0:
164,128,218653,1,0,0:0:0:0:
164,128,218769,1,0,0:0:0:0:
164,128,218884,1,0,0:0:0:0:
164,128,219000,5,0,0:0:0:0:
164,128,219115,1,0,0:0:0:0:
164,128,219231,1,0,0:0:0:0:
164,128,219346,1,0,0:0:0:0:
348,128,219576,5,0,0:0:0:0:
348,128,219691,1,0,0:0:0:0:
348,128,219807,1,0,0:0:0:0:
348,128,219922,1,0,0:0:0:0:
348,128,220038,5,0,0:0:0:0:
348,128,220153,1,0,0:0:0:0:
348,128,220269,1,0,0:0:0:0:
348,128,220384,1,0,0:0:0:0:
348,128,220615,5,0,0:0:0:0:
348,128,220730,1,0,0:0:0:0:
348,128,220846,1,0,0:0:0:0:
348,128,221077,5,0,0:0:0:0:
348,128,221192,1,0,0:0:0:0:
348,128,221538,5,0,0:0:0:0:
348,128,221653,1,0,0:0:0:0:
348,128,221769,1,0,0:0:0:0:
348,128,221884,1,0,0:0:0:0:
348,128,222000,5,0,0:0:0:0:
348,128,222115,1,0,0:0:0:0:
348,128,222231,1,0,0:0:0:0:
348,128,222346,1,0,0:0:0:0:
348,128,222461,5,0,0:0:0:0:
348,128,222576,1,0,0:0:0:0:
348,128,222692,1,0,0:0:0:0:
348,128,222807,1,0,0:0:0:0:
348,256,222923,5,0,0:0:0:0:
348,256,223038,1,0,0:0:0:0:
348,256,223154,1,0,0:0:0:0:
348,256,223269,1,0,0:0:0:0:
348,256,223326,1,0,0:0:0:0:
340,248,223384,1,0,0:0:0:0:
348,256,223442,1,0,0:0:0:0:
348,256,223500,1,0,0:0:0:0:
164,256,223730,5,0,0:0:0:0:
164,256,223846,1,0,0:0:0:0:
164,128,223961,5,0,0:0:0:0:
164,128,224076,1,0,0:0:0:0:
164,128,224192,1,0,0:0:0:0:
348,256,224307,5,0,0:0:0:0:
348,256,224422,1,0,0:0:0:0:
348,256,224538,1,0,0:0:0:0:
348,128,224769,5,0,0:0:0:0:
0,324,224884,1,0,0:0:0:0:
