osu file format v14

[General]
AudioFilename: audio.mp3
AudioLeadIn: 0
PreviewTime: -1
Countdown: 1
SampleSet: None
StackLeniency: 0.7
Mode: 0
LetterboxInBreaks: 0
WidescreenStoryboard: 0

[Editor]
Bookmarks: 1798
DistanceSpacing: 0.8
BeatDivisor: 4
GridSize: 4
TimelineZoom: 1

[Metadata]
Title:One Hell Of A Time
TitleUnicode:One Hell Of A Time
Artist:Kristofer Maddigan
ArtistUnicode:Kristofer Maddigan
Creator:Halfsmashed
Version:im not a fanatic
Source:Cuphead
Tags:
BeatmapID:1675568
BeatmapSetID:797886

[Difficulty]
HPDrainRate:5
CircleSize:5
OverallDifficulty:5
ApproachRate:5
SliderMultiplier:1.4
SliderTickRate:1

[Events]
//Background and Video events
//Break Periods
//Storyboard Layer 0 (Background)
//Storyboard Layer 1 (Fail)
//Storyboard Layer 2 (Pass)
//Storyboard Layer 3 (Foreground)
//Storyboard Sound Samples

[TimingPoints]
111,375,4,1,0,20,1,0
6111,-100,4,1,0,60,0,0
6173,-100,4,1,0,20,0,0

[HitObjects]
0,84,111,5,0,0:0:0:0:
0,112,204,1,0,0:0:0:0:
0,136,298,1,0,0:0:0:0:
0,160,392,1,0,0:0:0:0:
0,184,486,1,0,0:0:0:0:
0,212,579,1,0,0:0:0:0:
0,236,673,1,0,0:0:0:0:
36,232,767,1,0,0:0:0:0:
28,156,861,1,0,0:0:0:0:
60,164,954,1,0,0:0:0:0:
76,196,1048,1,0,0:0:0:0:
64,228,1142,1,0,0:0:0:0:
180,156,1236,1,0,0:0:0:0:
152,160,1329,1,0,0:0:0:0:
132,180,1423,1,0,0:0:0:0:
128,212,1517,1,0,0:0:0:0:
152,240,1611,1,0,0:0:0:0:
192,244,1704,1,0,0:0:0:0:
216,212,1798,1,0,0:0:0:0:
204,172,1892,1,0,0:0:0:0:
312,252,1986,1,0,0:0:0:0:
311,217,2079,1,0,0:0:0:0:
310,182,2173,1,0,0:0:0:0:
309,147,2267,1,0,0:0:0:0:
308,112,2361,1,0,0:0:0:0:
308,77,2454,1,0,0:0:0:0:
320,56,2548,1,0,0:0:0:0:
348,52,2642,1,0,0:0:0:0:
372,76,2736,1,0,0:0:0:0:
264,168,2829,1,0,0:0:0:0:
280,168,2923,1,0,0:0:0:0:
304,168,3017,1,0,0:0:0:0:
328,168,3111,1,0,0:0:0:0:
348,168,3204,1,0,0:0:0:0:
456,136,3298,1,0,0:0:0:0:
436,108,3392,1,0,0:0:0:0:
424,136,3486,1,0,0:0:0:0:
404,168,3579,1,0,0:0:0:0:
472,168,3673,1,0,0:0:0:0:
392,200,3767,1,0,0:0:0:0:
484,200,3861,1,0,0:0:0:0:
380,224,3954,1,0,0:0:0:0:
360,256,4048,1,0,0:0:0:0:
496,232,4142,1,0,0:0:0:0:
424,200,4236,1,0,0:0:0:0:
456,200,4329,1,0,0:0:0:0:
512,264,4423,1,0,0:0:0:0:
440,200,4517,1,0,0:0:0:0:
392,200,4611,1,0,0:0:0:0:
476,200,4704,1,0,0:0:0:0:
368,236,4798,1,0,0:0:0:0:
496,240,4892,1,0,0:0:0:0:
