osu file format v14

[General]
AudioFilename: audio.mp3
AudioLeadIn: 0
PreviewTime: 5948
Countdown: 1
SampleSet: Normal
StackLeniency: 0.7
Mode: 0
LetterboxInBreaks: 0
WidescreenStoryboard: 0

[Editor]
DistanceSpacing: 2.2
BeatDivisor: 4
GridSize: 8
TimelineZoom: 1

[Metadata]
Title:Botanic Panic
TitleUnicode:Botanic Panic
Artist:Kristofer Maddigan
ArtistUnicode:Kristofer Maddigan
Creator:Mini Gaunt
Version:Cup
Source:Cuphead
Tags:
BeatmapID:1478133
BeatmapSetID:697846

[Difficulty]
HPDrainRate:7
CircleSize:5
OverallDifficulty:8.5
ApproachRate:9.5
SliderMultiplier:1.4
SliderTickRate:1

[Events]
//Background and Video events
//Break Periods
//Storyboard Layer 0 (Background)
//Storyboard Layer 1 (Fail)
//Storyboard Layer 2 (Pass)
//Storyboard Layer 3 (Foreground)
//Storyboard Sound Samples

[TimingPoints]
42,375,4,1,0,100,1,0
8760,-100,4,1,1,5,0,0
8948,-100,4,1,0,100,0,0
11760,-100,4,1,1,5,0,0
11948,-100,4,1,0,100,0,0
13542,-66.6666666666667,4,1,0,100,0,0
14760,-100,4,1,1,5,0,0
14948,-100,4,1,0,100,0,0
17760,-100,4,1,1,5,0,0
17948,-100,4,1,0,100,0,0
18604,-66.6666666666667,4,1,0,100,0,0
20104,-50,4,1,0,100,0,0
20948,-100,4,1,0,100,0,0
23760,-100,4,1,1,5,0,0
23948,-100,4,1,1,100,0,0
34448,-66.6666666666667,4,1,1,100,0,0
34823,-100,4,1,1,100,0,0
36604,-66.6666666666667,4,1,1,100,0,0
38104,-50,4,1,1,100,0,0
39042,-80,4,1,1,100,0,0

[HitObjects]
43,167,42,6,0,B|37:101|87:39|87:39|174:150|174:150|257:39|257:39|310:104,1,490
109,240,1542,2,0,L|37:351,1,105
207,231,2292,2,0,L|179:281,1,35
190,261,2479,2,0,L|140:358,1,105
239,335,3042,6,0,P|361:231|482:358,1,350
304,331,4167,1,0,0:0:0:0:
360,295,4260,1,0,0:0:0:0:
415,330,4354,1,0,0:0:0:0:
109,240,4542,2,0,L|37:351,1,105
171,186,5292,5,0,0:0:0:0:
175,162,5385,1,0,0:0:0:0:
108,177,5479,1,0,0:0:0:0:
113,153,5573,1,0,0:0:0:0:
47,163,5667,1,0,0:0:0:0:
151,108,5760,1,0,0:0:0:0:
47,163,5854,1,0,0:0:0:0:
362,175,6042,5,0,0:0:0:0:
354,151,6135,1,0,0:0:0:0:
347,127,6229,1,0,0:0:0:0:
295,99,6323,1,0,0:0:0:0:
258,145,6417,1,0,0:0:0:0:
266,169,6510,1,0,0:0:0:0:
273,193,6604,1,0,0:0:0:0:
345,282,6792,2,0,P|278:324|169:308,1,175
109,240,7542,6,0,L|37:351,1,105
196,240,8292,2,0,L|124:351,2,105
362,175,9042,5,0,0:0:0:0:
354,151,9135,1,0,0:0:0:0:
347,127,9229,1,0,0:0:0:0:
295,99,9323,1,0,0:0:0:0:
258,145,9417,1,0,0:0:0:0:
266,169,9510,1,0,0:0:0:0:
273,193,9604,1,0,0:0:0:0:
337,260,9792,2,0,P|270:302|161:286,1,175
109,240,10542,6,0,L|37:351,1,105
196,240,11292,2,0,L|124:351,2,105
85,138,12042,5,0,0:0:0:0:
95,106,12135,1,0,0:0:0:0:
104,74,12229,1,0,0:0:0:0:
173,37,12323,1,0,0:0:0:0:
222,98,12417,1,0,0:0:0:0:
211,130,12510,1,0,0:0:0:0:
202,161,12604,1,0,0:0:0:0:
119,249,12792,2,0,P|207:304|341:291,1,210
385,173,13542,6,0,L|480:34,1,157.500006008148
316,144,14292,2,0,L|415:13,2,157.500006008148
362,175,15042,5,0,0:0:0:0:
354,151,15135,1,0,0:0:0:0:
347,127,15229,1,0,0:0:0:0:
295,99,15323,1,0,0:0:0:0:
258,145,15417,1,0,0:0:0:0:
266,169,15510,1,0,0:0:0:0:
273,193,15604,1,0,0:0:0:0:
337,260,15698,2,0,P|270:302|161:286,1,175
109,240,16542,6,0,L|37:351,1,105
196,240,17292,2,0,L|124:351,2,105
252,178,18042,5,0,0:0:0:0:
253,143,18135,1,0,0:0:0:0:
254,107,18229,1,0,0:0:0:0:
254,71,18323,1,0,0:0:0:0:
255,35,18417,1,0,0:0:0:0:
314,66,18510,1,0,0:0:0:0:
480,32,18698,6,0,L|424:80,1,52.5000020027161
434,126,18885,2,0,L|374:177,1,52.5000020027161
386,219,19073,2,0,L|325:272,1,52.5000020027161
333,311,19260,2,0,L|273:361,1,52.5000020027161
252,255,19542,5,0,0:0:0:0:
253,198,19635,1,0,0:0:0:0:
253,142,19729,1,0,0:0:0:0:
253,85,19823,1,0,0:0:0:0:
253,28,19917,1,0,0:0:0:0:
159,71,20010,1,0,0:0:0:0:
32,32,20198,6,0,L|88:80,1,70
98,127,20385,2,0,L|154:175,1,70
169,220,20573,2,0,L|225:268,1,70
240,314,20760,2,0,L|296:362,1,70
362,175,21042,5,0,0:0:0:0:
354,151,21135,1,0,0:0:0:0:
347,127,21229,1,0,0:0:0:0:
295,99,21323,1,0,0:0:0:0:
258,145,21417,1,0,0:0:0:0:
266,169,21510,1,0,0:0:0:0:
273,193,21604,1,0,0:0:0:0:
337,260,21698,2,0,P|270:302|161:286,1,175
109,240,22542,2,0,L|37:351,1,105
196,240,23292,2,0,L|124:351,2,105
362,175,24042,5,0,0:0:0:0:
378,119,24135,1,0,0:0:0:0:
419,161,24229,1,0,0:0:0:0:
310,95,24323,1,0,0:0:0:0:
250,135,24417,5,0,0:0:0:0:
211,179,24510,1,0,0:0:0:0:
271,190,24604,1,0,0:0:0:0:
337,260,24792,2,0,P|270:302|161:286,1,175
109,240,25542,2,0,L|37:351,1,105
164,299,26104,2,0,L|132:345,1,35
205,242,26292,2,0,L|128:350,1,105
362,175,27042,5,0,0:0:0:0:
378,119,27135,1,0,0:0:0:0:
419,161,27229,1,0,0:0:0:0:
310,95,27323,1,0,0:0:0:0:
250,135,27417,5,0,0:0:0:0:
211,179,27510,1,0,0:0:0:0:
271,190,27604,1,0,0:0:0:0:
337,260,27792,2,0,P|270:302|161:286,1,175
109,240,28542,2,0,L|37:351,1,105
164,299,29104,2,0,L|132:345,1,35
205,242,29292,2,0,L|128:350,1,105
386,172,30042,5,0,0:0:0:0:
381,134,30135,1,0,0:0:0:0:
414,153,30229,1,0,0:0:0:0:
314,122,30323,1,0,0:0:0:0:
251,144,30417,5,0,0:0:0:0:
233,177,30510,1,0,0:0:0:0:
271,174,30604,1,0,0:0:0:0:
337,260,30792,2,0,P|270:302|161:286,1,175
109,240,31542,2,0,L|37:351,1,105
205,242,32104,2,0,L|242:194,1,35
205,242,32292,2,0,L|128:350,1,105
362,175,33042,5,0,0:0:0:0:
378,119,33135,1,0,0:0:0:0:
419,161,33229,1,0,0:0:0:0:
310,95,33323,1,0,0:0:0:0:
250,135,33417,5,0,0:0:0:0:
211,179,33510,1,0,0:0:0:0:
271,190,33604,1,0,0:0:0:0:
337,260,33792,2,0,P|290:294|216:303,1,105
152,263,34167,1,0,0:0:0:0:
90,323,34354,1,0,0:0:0:0:
218,185,34542,2,0,L|151:265,1,105.000004005432
164,299,35104,2,0,L|132:345,1,35
205,242,35292,2,0,L|128:350,1,105
252,178,36042,5,0,0:0:0:0:
253,143,36135,1,0,0:0:0:0:
254,107,36229,1,0,0:0:0:0:
254,71,36323,1,0,0:0:0:0:
255,35,36417,1,0,0:0:0:0:
314,66,36510,1,0,0:0:0:0:
480,32,36698,6,0,L|424:80,1,52.5000020027161
434,126,36885,2,0,L|374:177,1,52.5000020027161
386,219,37073,2,0,L|325:272,1,52.5000020027161
333,311,37260,2,0,L|273:361,1,52.5000020027161
252,255,37542,5,0,0:0:0:0:
253,198,37635,1,0,0:0:0:0:
253,142,37729,1,0,0:0:0:0:
253,85,37823,1,0,0:0:0:0:
253,28,37917,1,0,0:0:0:0:
159,71,38010,1,0,0:0:0:0:
32,32,38198,6,0,L|88:80,1,70
98,127,38385,2,0,L|154:175,1,70
169,220,38573,2,0,L|225:268,1,70
240,314,38760,2,0,L|296:362,1,70
362,175,39042,5,0,0:0:0:0:
378,119,39135,1,0,0:0:0:0:
419,161,39229,1,0,0:0:0:0:
310,95,39323,1,0,0:0:0:0:
250,135,39417,5,0,0:0:0:0:
211,179,39510,1,0,0:0:0:0:
271,190,39604,1,0,0:0:0:0:
337,260,39792,2,0,P|270:302|161:286,1,175
403,108,40917,5,0,0:0:0:0:
473,38,41104,1,0,0:0:0:0:
401,36,41292,1,0,0:0:0:0:
378,35,41385,1,0,0:0:0:0:
232,109,41667,1,0,0:0:0:0:
27,115,42042,5,0,0:0:0:0:
27,167,42135,1,0,0:0:0:0:
97,74,42229,1,0,0:0:0:0:
97,74,42417,5,0,0:0:0:0:
97,74,42604,5,0,0:0:0:0:
97,126,42697,1,0,0:0:0:0:
167,33,42791,1,0,0:0:0:0:
167,33,42979,5,0,0:0:0:0:
166,167,43167,5,0,0:0:0:0:
166,219,43260,1,0,0:0:0:0:
236,126,43354,1,0,0:0:0:0:
236,126,43542,5,0,0:0:0:0:
236,126,43729,5,0,0:0:0:0:
236,178,43822,1,0,0:0:0:0:
306,85,43916,1,0,0:0:0:0:
306,85,44104,5,0,0:0:0:0:
306,220,44292,5,0,0:0:0:0:
306,272,44385,1,0,0:0:0:0:
376,179,44479,1,0,0:0:0:0:
376,179,44667,5,0,0:0:0:0:
376,179,44854,5,0,0:0:0:0:
376,231,44947,1,0,0:0:0:0:
446,138,45041,1,0,0:0:0:0:
446,138,45229,5,0,0:0:0:0:
380,47,45417,5,0,0:0:0:0:
380,47,45510,1,0,0:0:0:0:
212,51,45699,1,0,0:0:0:0:
212,51,45792,1,0,0:0:0:0:
331,127,45979,1,0,0:0:0:0:
331,127,46072,1,0,0:0:0:0:
158,126,46260,1,0,0:0:0:0:
158,126,46353,1,0,0:0:0:0:
283,197,46542,5,0,0:0:0:0:
283,197,46635,1,0,0:0:0:0:
115,201,46824,1,0,0:0:0:0:
115,201,46917,1,0,0:0:0:0:
234,277,47104,1,0,0:0:0:0:
234,277,47197,1,0,0:0:0:0:
61,276,47385,1,0,0:0:0:0:
61,276,47478,1,0,0:0:0:0:
185,351,47667,5,0,0:0:0:0:
185,351,47760,1,0,0:0:0:0:
145,232,47948,1,0,0:0:0:0:
145,232,48042,1,0,0:0:0:0:
28,106,48323,1,0,0:0:0:0:
131,39,48417,5,0,0:0:0:0:
117,61,48511,1,0,0:0:0:0:
117,87,48604,1,0,0:0:0:0:
131,117,48699,1,0,0:0:0:0:
195,133,48792,1,0,0:0:0:0:
209,155,48886,1,0,0:0:0:0:
209,181,48979,1,0,0:0:0:0:
195,211,49074,1,0,0:0:0:0:
155,268,49167,5,0,0:0:0:0:
177,282,49261,1,0,0:0:0:0:
203,282,49354,1,0,0:0:0:0:
233,268,49449,1,0,0:0:0:0:
265,211,49542,5,0,0:0:0:0:
279,189,49636,1,0,0:0:0:0:
279,163,49729,1,0,0:0:0:0:
265,133,49824,1,0,0:0:0:0:
367,131,49917,1,0,0:0:0:0:
381,153,50011,1,0,0:0:0:0:
381,179,50104,1,0,0:0:0:0:
367,209,50199,1,0,0:0:0:0:
328,263,50292,5,0,0:0:0:0:
350,277,50386,1,0,0:0:0:0:
376,277,50479,1,0,0:0:0:0:
406,263,50574,1,0,0:0:0:0:
303,247,50667,1,0,0:0:0:0:
281,233,50761,1,0,0:0:0:0:
255,233,50854,1,0,0:0:0:0:
225,247,50949,1,0,0:0:0:0:
