osu file format v14

[General]
AudioFilename: audio.mp3
AudioLeadIn: 0
PreviewTime: -1
Countdown: 1
SampleSet: Normal
StackLeniency: 0.7
Mode: 3
LetterboxInBreaks: 0
SpecialStyle: 0
WidescreenStoryboard: 0

[Editor]
DistanceSpacing: 0.5
BeatDivisor: 4
GridSize: 16
TimelineZoom: 1.7

[Metadata]
Title:Not Dummy
TitleUnicode:Not Dummy
Artist:Kristina Orsa feat. Mitya Fomin
ArtistUnicode:Kristina Orsa feat. Mitya Fomin
Creator:Mr_Pandaria
Version:MX
Source:
Tags:
BeatmapID:1743304
BeatmapSetID:832090

[Difficulty]
HPDrainRate:7
CircleSize:4
OverallDifficulty:7
ApproachRate:5
SliderMultiplier:1.4
SliderTickRate:1

[Events]
//Background and Video events
0,0,"63yzyJ-70Vc.jpg",0,0
//Break Periods
//Storyboard Layer 0 (Background)
//Storyboard Layer 1 (Fail)
//Storyboard Layer 2 (Pass)
//Storyboard Layer 3 (Foreground)
//Storyboard Sound Samples

[TimingPoints]
152,468.746337919235,4,1,1,64,1,0
7136,-100,4,1,1,64,0,0
7195,-333.333333333333,4,1,1,64,0,0
7312,-66.6666666666667,4,1,1,64,0,0
7429,-333.333333333333,4,1,1,64,0,0
7546,-66.6666666666667,4,1,1,64,0,0
7663,-100,4,1,1,64,0,0
21667,-100,4,1,1,64,0,0
21726,-333.333333333333,4,1,1,64,0,0
21784,-66.6666666666667,4,1,1,64,0,0
21843,-100,4,1,1,64,0,0
22136,-100,4,1,1,64,0,0
22195,-333.333333333333,4,1,1,64,0,0
22253,-66.6666666666667,4,1,1,64,0,0
22312,-100,4,1,1,64,0,0
36667,-100,4,1,1,64,0,0
36726,-200,4,1,1,64,0,0
36843,-100,4,1,1,64,0,0
37077,-200,4,1,1,64,0,0
37312,-66.6666666666667,4,1,1,64,0,0
37542,-100,4,1,1,64,0,0
66245,-333.333333333333,4,1,1,64,0,0
66303,-58.8235294117647,4,1,1,64,0,0
66362,-333.333333333333,4,1,1,64,0,0
66421,-58.8235294117647,4,1,1,64,0,0
66480,-333.333333333333,4,1,1,64,0,0
66538,-58.8235294117647,4,1,1,64,0,0
66597,-333.333333333333,4,1,1,64,0,0
66656,-58.8235294117647,4,1,1,64,0,0
66715,-333.333333333333,4,1,1,64,0,0
66773,-58.8235294117647,4,1,1,64,0,0
66832,-333.333333333333,4,1,1,64,0,0
66891,-58.8235294117647,4,1,1,64,0,0
66950,-333.333333333333,4,1,1,64,0,0
67008,-58.8235294117647,4,1,1,64,0,0
67067,-333.333333333333,4,1,1,64,0,0
67126,-58.8235294117647,4,1,1,64,0,0
67185,-333.333333333333,4,1,1,64,0,0
67243,-58.8235294117647,4,1,1,64,0,0
67302,-333.333333333333,4,1,1,64,0,0
67361,-58.8235294117647,4,1,1,64,0,0
67420,-333.333333333333,4,1,1,64,0,0
67478,-58.8235294117647,4,1,1,64,0,0
67537,-333.333333333333,4,1,1,64,0,0
67596,-58.8235294117647,4,1,1,64,0,0
67651,-100,4,1,1,64,0,0
67710,-200,4,1,1,64,0,0
73745,-100,4,1,1,64,0,0
75151,-200,4,1,1,64,0,0
81245,-100,4,1,1,64,0,0
156244,-333.333333333333,4,1,1,64,0,0
156303,-58.8235294117647,4,1,1,64,0,0
156361,-333.333333333333,4,1,1,64,0,0
156420,-58.8235294117647,4,1,1,64,0,0
156478,-333.333333333333,4,1,1,64,0,0
156537,-58.8235294117647,4,1,1,64,0,0
156596,-333.333333333333,4,1,1,64,0,0
156654,-58.8235294117647,4,1,1,64,0,0
156713,-333.333333333333,4,1,1,64,0,0
156771,-58.8235294117647,4,1,1,64,0,0
156830,-333.333333333333,4,1,1,64,0,0
156888,-58.8235294117647,4,1,1,64,0,0
156947,-333.333333333333,4,1,1,64,0,0
157005,-58.8235294117647,4,1,1,64,0,0
157064,-333.333333333333,4,1,1,64,0,0
157122,-58.8235294117647,4,1,1,64,0,0
157181,-333.333333333333,4,1,1,64,0,0
157239,-58.8235294117647,4,1,1,64,0,0
157298,-333.333333333333,4,1,1,64,0,0
157356,-58.8235294117647,4,1,1,64,0,0
157415,-333.333333333333,4,1,1,64,0,0
157473,-58.8235294117647,4,1,1,64,0,0
157532,-333.333333333333,4,1,1,64,0,0
157590,-58.8235294117647,4,1,1,64,0,0
157650,-10000,4,1,1,64,0,0
158588,-333.333333333333,4,1,1,64,0,0
158646,-58.8235294117647,4,1,1,64,0,0
158705,-333.333333333333,4,1,1,64,0,0
158764,-58.8235294117647,4,1,1,64,0,0
158822,-333.333333333333,4,1,1,64,0,0
158998,-333.333333333333,4,1,1,64,0,0
159057,-58.8235294117647,4,1,1,64,0,0
159115,-333.333333333333,4,1,1,64,0,0
159232,-333.333333333333,4,1,1,64,0,0
159291,-58.8235294117647,4,1,1,64,0,0
159349,-333.333333333333,4,1,1,64,0,0
159408,-100,4,1,1,64,0,0

[HitObjects]
192,192,152,128,0,1909:0:0:0:0:
448,192,620,128,0,1909:0:0:0:0:
320,192,855,128,0,1909:0:0:0:0:
320,192,2026,128,0,3784:0:0:0:0:
64,192,2466,128,0,3784:0:0:0:0:
192,192,2730,128,0,3784:0:0:0:0:
448,192,3901,128,0,6714:0:0:0:0:
192,192,4370,128,0,6714:0:0:0:0:
64,192,4605,128,0,6714:0:0:0:0:
320,192,7183,128,0,7417:0:0:0:0:
192,192,7417,128,0,7651:0:0:0:0:
320,192,7651,128,0,8120:0:0:0:0:
448,192,7651,1,0,0:0:0:0:
64,192,7651,1,0,0:0:0:0:
192,192,7886,1,0,0:0:0:0:
448,192,8120,128,0,8355:0:0:0:0:
64,192,8120,1,0,0:0:0:0:
64,192,8355,128,0,8940:0:0:0:0:
320,192,8355,1,0,0:0:0:0:
192,192,8355,1,0,0:0:0:0:
448,192,8589,1,0,0:0:0:0:
320,192,8706,1,0,0:0:0:0:
192,192,8823,1,0,0:0:0:0:
64,192,9058,128,0,9292:0:0:0:0:
448,192,9292,128,0,9526:0:0:0:0:
192,192,9526,128,0,9995:0:0:0:0:
320,192,9526,1,0,0:0:0:0:
64,192,9526,1,0,0:0:0:0:
448,192,9761,1,0,0:0:0:0:
320,192,9995,128,0,10230:0:0:0:0:
64,192,9995,1,0,0:0:0:0:
448,192,10230,128,0,10815:0:0:0:0:
192,192,10230,1,0,0:0:0:0:
64,192,10230,1,0,0:0:0:0:
64,192,10464,1,0,0:0:0:0:
192,192,10581,1,0,0:0:0:0:
320,192,10698,1,0,0:0:0:0:
448,192,10933,128,0,11167:0:0:0:0:
192,192,11167,128,0,11401:0:0:0:0:
320,192,11401,128,0,11636:0:0:0:0:
64,192,11401,1,0,0:0:0:0:
448,192,11401,1,0,0:0:0:0:
64,192,11636,128,0,12105:0:0:0:0:
192,192,11636,1,0,0:0:0:0:
320,192,11870,1,0,0:0:0:0:
448,192,12105,128,0,12808:0:0:0:0:
192,192,12105,1,0,0:0:0:0:
64,192,12339,1,0,0:0:0:0:
192,192,12456,1,0,0:0:0:0:
64,192,12573,1,0,0:0:0:0:
192,192,12808,1,0,0:0:0:0:
320,192,13042,1,0,0:0:0:0:
192,192,13276,1,0,0:0:0:0:
448,192,13276,1,0,0:0:0:0:
320,192,13511,1,0,0:0:0:0:
320,192,13628,1,0,0:0:0:0:
64,192,13745,1,0,0:0:0:0:
192,192,13745,1,0,0:0:0:0:
192,192,13980,1,0,0:0:0:0:
448,192,14097,1,0,0:0:0:0:
320,192,14097,1,0,0:0:0:0:
192,192,14214,1,0,0:0:0:0:
64,192,14331,1,0,0:0:0:0:
192,192,14448,1,0,0:0:0:0:
320,192,14448,1,0,0:0:0:0:
192,192,14683,128,0,14917:0:0:0:0:
448,192,14683,1,0,0:0:0:0:
320,192,14917,128,0,15151:0:0:0:0:
64,192,14917,1,0,0:0:0:0:
192,192,15151,128,0,15620:0:0:0:0:
64,192,15151,1,0,0:0:0:0:
448,192,15151,1,0,0:0:0:0:
320,192,15386,1,0,0:0:0:0:
64,192,15620,128,0,15855:0:0:0:0:
448,192,15620,1,0,0:0:0:0:
448,192,15855,128,0,16440:0:0:0:0:
320,192,15855,1,0,0:0:0:0:
192,192,15855,1,0,0:0:0:0:
320,192,16089,1,0,0:0:0:0:
320,192,16206,1,0,0:0:0:0:
64,192,16323,1,0,0:0:0:0:
192,192,16323,1,0,0:0:0:0:
448,192,16558,128,0,16792:0:0:0:0:
320,192,16792,128,0,17026:0:0:0:0:
192,192,17026,128,0,17495:0:0:0:0:
64,192,17026,1,0,0:0:0:0:
448,192,17026,1,0,0:0:0:0:
320,192,17261,1,0,0:0:0:0:
64,192,17495,128,0,17729:0:0:0:0:
448,192,17495,1,0,0:0:0:0:
320,192,17729,128,0,18315:0:0:0:0:
192,192,17729,1,0,0:0:0:0:
448,192,17729,1,0,0:0:0:0:
64,192,17964,1,0,0:0:0:0:
64,192,18081,1,0,0:0:0:0:
192,192,18198,1,0,0:0:0:0:
448,192,18198,1,0,0:0:0:0:
320,192,18433,128,0,18667:0:0:0:0:
448,192,18667,128,0,18901:0:0:0:0:
192,192,18901,128,0,19370:0:0:0:0:
320,192,18901,1,0,0:0:0:0:
64,192,18901,1,0,0:0:0:0:
320,192,19136,1,0,0:0:0:0:
64,192,19370,128,0,19604:0:0:0:0:
448,192,19370,1,0,0:0:0:0:
192,192,19604,128,0,20308:0:0:0:0:
320,192,19604,1,0,0:0:0:0:
448,192,19604,1,0,0:0:0:0:
448,192,19839,1,0,0:0:0:0:
448,192,19956,1,0,0:0:0:0:
320,192,20073,1,0,0:0:0:0:
64,192,20073,1,0,0:0:0:0:
320,192,20308,1,0,0:0:0:0:
448,192,20308,1,0,0:0:0:0:
320,192,20542,1,0,0:0:0:0:
192,192,20659,1,0,0:0:0:0:
64,192,20776,1,0,0:0:0:0:
320,192,20776,1,0,0:0:0:0:
192,192,21011,1,0,0:0:0:0:
320,192,21128,1,0,0:0:0:0:
192,192,21245,1,0,0:0:0:0:
448,192,21245,1,0,0:0:0:0:
192,192,21479,1,0,0:0:0:0:
64,192,21597,1,0,0:0:0:0:
192,192,21714,1,0,0:0:0:0:
320,192,21714,1,0,0:0:0:0:
448,192,21714,128,0,21831:0:0:0:0:
64,192,21831,1,0,0:0:0:0:
192,192,21948,1,0,0:0:0:0:
320,192,22065,1,0,0:0:0:0:
192,192,22183,128,0,22300:0:0:0:0:
64,192,22183,1,0,0:0:0:0:
448,192,22183,1,0,0:0:0:0:
320,192,22417,1,0,0:0:0:0:
192,192,22651,1,0,0:0:0:0:
448,192,22651,1,0,0:0:0:0:
64,192,22651,128,0,22769:0:0:0:0:
192,192,22886,1,0,0:0:0:0:
320,192,22886,128,0,23003:0:0:0:0:
64,192,23120,1,0,0:0:0:0:
192,192,23120,128,0,23237:0:0:0:0:
192,192,23354,1,0,0:0:0:0:
448,192,23354,128,0,23472:0:0:0:0:
192,192,23589,1,0,0:0:0:0:
64,192,23706,1,0,0:0:0:0:
192,192,23823,1,0,0:0:0:0:
320,192,23940,1,0,0:0:0:0:
192,192,24058,1,0,0:0:0:0:
448,192,24058,1,0,0:0:0:0:
320,192,24175,1,0,0:0:0:0:
192,192,24292,1,0,0:0:0:0:
448,192,24292,1,0,0:0:0:0:
64,192,24409,1,0,0:0:0:0:
320,192,24526,128,0,24643:0:0:0:0:
192,192,24526,1,0,0:0:0:0:
448,192,24526,1,0,0:0:0:0:
64,192,24761,1,0,0:0:0:0:
192,192,24761,128,0,24878:0:0:0:0:
192,192,24995,1,0,0:0:0:0:
448,192,24995,128,0,25112:0:0:0:0:
448,192,25229,1,0,0:0:0:0:
320,192,25229,128,0,25347:0:0:0:0:
448,192,25464,1,0,0:0:0:0:
192,192,25581,1,0,0:0:0:0:
320,192,25698,1,0,0:0:0:0:
192,192,25815,1,0,0:0:0:0:
64,192,25933,1,0,0:0:0:0:
320,192,25933,1,0,0:0:0:0:
192,192,26050,1,0,0:0:0:0:
64,192,26167,1,0,0:0:0:0:
320,192,26167,1,0,0:0:0:0:
448,192,26284,1,0,0:0:0:0:
64,192,26401,1,0,0:0:0:0:
448,192,26401,1,0,0:0:0:0:
192,192,26401,128,0,26518:0:0:0:0:
320,192,26636,1,0,0:0:0:0:
448,192,26636,128,0,26753:0:0:0:0:
64,192,26870,1,0,0:0:0:0:
192,192,26870,128,0,26987:0:0:0:0:
320,192,27104,1,0,0:0:0:0:
64,192,27104,128,0,27222:0:0:0:0:
448,192,27339,128,0,28276:0:0:0:0:
64,192,27339,1,0,0:0:0:0:
192,192,27456,1,0,0:0:0:0:
320,192,27573,1,0,0:0:0:0:
192,192,27690,1,0,0:0:0:0:
64,192,27808,1,0,0:0:0:0:
320,192,27808,1,0,0:0:0:0:
192,192,28042,1,0,0:0:0:0:
320,192,28042,1,0,0:0:0:0:
64,192,28276,128,0,28511:0:0:0:0:
320,192,28276,1,0,0:0:0:0:
448,192,28393,1,0,0:0:0:0:
192,192,28511,128,0,28745:0:0:0:0:
320,192,28511,1,0,0:0:0:0:
448,192,28628,1,0,0:0:0:0:
320,192,28745,128,0,28979:0:0:0:0:
64,192,28745,1,0,0:0:0:0:
448,192,28979,128,0,29214:0:0:0:0:
192,192,28979,1,0,0:0:0:0:
192,192,29214,128,0,29565:0:0:0:0:
320,192,29214,1,0,0:0:0:0:
320,192,29331,1,0,0:0:0:0:
64,192,29448,1,0,0:0:0:0:
192,192,29683,128,0,30034:0:0:0:0:
448,192,29683,1,0,0:0:0:0:
448,192,29800,1,0,0:0:0:0:
320,192,29917,1,0,0:0:0:0:
64,192,30151,128,0,30268:0:0:0:0:
320,192,30151,1,0,0:0:0:0:
448,192,30151,1,0,0:0:0:0:
192,192,30386,128,0,30503:0:0:0:0:
320,192,30386,1,0,0:0:0:0:
320,192,30620,128,0,30737:0:0:0:0:
64,192,30620,1,0,0:0:0:0:
448,192,30854,128,0,30972:0:0:0:0:
192,192,30854,1,0,0:0:0:0:
64,192,31089,1,0,0:0:0:0:
64,192,31206,1,0,0:0:0:0:
320,192,31323,1,0,0:0:0:0:
320,192,31440,1,0,0:0:0:0:
192,192,31558,1,0,0:0:0:0:
192,192,31675,1,0,0:0:0:0:
448,192,31792,1,0,0:0:0:0:
448,192,31909,1,0,0:0:0:0:
192,192,32026,128,0,32143:0:0:0:0:
64,192,32026,1,0,0:0:0:0:
320,192,32026,1,0,0:0:0:0:
448,192,32261,128,0,32378:0:0:0:0:
320,192,32261,1,0,0:0:0:0:
64,192,32495,1,0,0:0:0:0:
320,192,32495,128,0,32612:0:0:0:0:
320,192,32729,1,0,0:0:0:0:
192,192,32729,128,0,32847:0:0:0:0:
448,192,32964,1,0,0:0:0:0:
448,192,33081,1,0,0:0:0:0:
320,192,33198,1,0,0:0:0:0:
320,192,33315,1,0,0:0:0:0:
192,192,33432,1,0,0:0:0:0:
192,192,33550,1,0,0:0:0:0:
64,192,33667,1,0,0:0:0:0:
64,192,33784,1,0,0:0:0:0:
320,192,33901,128,0,34136:0:0:0:0:
448,192,33901,1,0,0:0:0:0:
448,192,34136,128,0,34370:0:0:0:0:
192,192,34136,1,0,0:0:0:0:
192,192,34370,128,0,34604:0:0:0:0:
64,192,34370,1,0,0:0:0:0:
320,192,34604,128,0,34839:0:0:0:0:
448,192,34604,1,0,0:0:0:0:
64,192,34839,128,0,36714:0:0:0:0:
192,192,34839,1,0,0:0:0:0:
448,192,34956,1,0,0:0:0:0:
320,192,35073,1,0,0:0:0:0:
192,192,35190,1,0,0:0:0:0:
320,192,35307,1,0,0:0:0:0:
448,192,35542,1,0,0:0:0:0:
192,192,35542,1,0,0:0:0:0:
320,192,35776,1,0,0:0:0:0:
448,192,35776,1,0,0:0:0:0:
192,192,36128,1,0,0:0:0:0:
320,192,36245,1,0,0:0:0:0:
448,192,36362,1,0,0:0:0:0:
320,192,36479,1,0,0:0:0:0:
320,192,36714,128,0,36831:0:0:0:0:
192,192,37182,128,0,37300:0:0:0:0:
448,192,37651,1,0,0:0:0:0:
320,192,37651,1,0,0:0:0:0:
192,192,37651,1,0,0:0:0:0:
64,192,37651,1,0,0:0:0:0:
192,192,37768,1,0,0:0:0:0:
64,192,37886,1,0,0:0:0:0:
320,192,37886,1,0,0:0:0:0:
448,192,38003,1,0,0:0:0:0:
192,192,38120,1,0,0:0:0:0:
448,192,38120,1,0,0:0:0:0:
64,192,38237,1,0,0:0:0:0:
192,192,38354,1,0,0:0:0:0:
320,192,38354,1,0,0:0:0:0:
448,192,38472,1,0,0:0:0:0:
64,192,38589,1,0,0:0:0:0:
320,192,38589,1,0,0:0:0:0:
192,192,38706,1,0,0:0:0:0:
64,192,38823,1,0,0:0:0:0:
320,192,38823,1,0,0:0:0:0:
64,192,38940,1,0,0:0:0:0:
320,192,39057,1,0,0:0:0:0:
448,192,39057,1,0,0:0:0:0:
192,192,39175,1,0,0:0:0:0:
64,192,39292,1,0,0:0:0:0:
320,192,39292,1,0,0:0:0:0:
320,192,39409,1,0,0:0:0:0:
192,192,39526,1,0,0:0:0:0:
448,192,39526,1,0,0:0:0:0:
64,192,39526,1,0,0:0:0:0:
320,192,39643,1,0,0:0:0:0:
192,192,39761,1,0,0:0:0:0:
320,192,39761,1,0,0:0:0:0:
448,192,39878,1,0,0:0:0:0:
64,192,39995,1,0,0:0:0:0:
320,192,39995,1,0,0:0:0:0:
192,192,40112,1,0,0:0:0:0:
192,192,40229,1,0,0:0:0:0:
448,192,40229,1,0,0:0:0:0:
64,192,40346,1,0,0:0:0:0:
192,192,40464,1,0,0:0:0:0:
320,192,40464,1,0,0:0:0:0:
448,192,40581,1,0,0:0:0:0:
64,192,40698,1,0,0:0:0:0:
448,192,40698,1,0,0:0:0:0:
192,192,40815,1,0,0:0:0:0:
320,192,40932,1,0,0:0:0:0:
448,192,40932,1,0,0:0:0:0:
64,192,41050,1,0,0:0:0:0:
192,192,41167,1,0,0:0:0:0:
320,192,41167,1,0,0:0:0:0:
320,192,41284,1,0,0:0:0:0:
64,192,41401,1,0,0:0:0:0:
192,192,41401,1,0,0:0:0:0:
448,192,41401,1,0,0:0:0:0:
320,192,41518,1,0,0:0:0:0:
192,192,41636,1,0,0:0:0:0:
448,192,41753,128,0,41870:0:0:0:0:
320,192,41753,1,0,0:0:0:0:
64,192,41870,1,0,0:0:0:0:
192,192,41987,1,0,0:0:0:0:
320,192,42104,128,0,42221:0:0:0:0:
448,192,42104,1,0,0:0:0:0:
192,192,42221,1,0,0:0:0:0:
64,192,42339,1,0,0:0:0:0:
448,192,42339,1,0,0:0:0:0:
192,192,42456,128,0,42573:0:0:0:0:
320,192,42456,1,0,0:0:0:0:
64,192,42573,1,0,0:0:0:0:
192,192,42690,1,0,0:0:0:0:
320,192,42807,128,0,42925:0:0:0:0:
448,192,42807,1,0,0:0:0:0:
64,192,42925,1,0,0:0:0:0:
192,192,43042,128,0,43159:0:0:0:0:
64,192,43276,128,0,43393:0:0:0:0:
320,192,43276,1,0,0:0:0:0:
448,192,43276,1,0,0:0:0:0:
192,192,43393,1,0,0:0:0:0:
320,192,43511,1,0,0:0:0:0:
64,192,43628,128,0,43745:0:0:0:0:
448,192,43628,1,0,0:0:0:0:
320,192,43745,1,0,0:0:0:0:
64,192,43862,1,0,0:0:0:0:
192,192,43979,128,0,44096:0:0:0:0:
320,192,43979,1,0,0:0:0:0:
448,192,44096,1,0,0:0:0:0:
64,192,44214,1,0,0:0:0:0:
448,192,44214,1,0,0:0:0:0:
320,192,44331,128,0,44448:0:0:0:0:
192,192,44331,1,0,0:0:0:0:
448,192,44448,1,0,0:0:0:0:
64,192,44565,1,0,0:0:0:0:
192,192,44682,128,0,44800:0:0:0:0:
320,192,44682,1,0,0:0:0:0:
448,192,44800,1,0,0:0:0:0:
320,192,44917,128,0,45034:0:0:0:0:
64,192,44917,1,0,0:0:0:0:
192,192,45034,1,0,0:0:0:0:
64,192,45151,1,0,0:0:0:0:
448,192,45151,1,0,0:0:0:0:
192,192,45151,1,0,0:0:0:0:
320,192,45268,1,0,0:0:0:0:
448,192,45386,1,0,0:0:0:0:
192,192,45386,1,0,0:0:0:0:
448,192,45503,1,0,0:0:0:0:
64,192,45620,1,0,0:0:0:0:
320,192,45620,1,0,0:0:0:0:
192,192,45737,1,0,0:0:0:0:
64,192,45854,1,0,0:0:0:0:
448,192,45854,1,0,0:0:0:0:
192,192,45971,1,0,0:0:0:0:
320,192,46089,1,0,0:0:0:0:
448,192,46089,1,0,0:0:0:0:
192,192,46206,1,0,0:0:0:0:
64,192,46323,1,0,0:0:0:0:
320,192,46323,1,0,0:0:0:0:
320,192,46440,1,0,0:0:0:0:
448,192,46557,1,0,0:0:0:0:
192,192,46557,1,0,0:0:0:0:
64,192,46675,1,0,0:0:0:0:
192,192,46792,1,0,0:0:0:0:
320,192,46792,1,0,0:0:0:0:
448,192,46909,1,0,0:0:0:0:
64,192,47026,1,0,0:0:0:0:
192,192,47026,1,0,0:0:0:0:
320,192,47026,1,0,0:0:0:0:
192,192,47143,1,0,0:0:0:0:
64,192,47261,1,0,0:0:0:0:
448,192,47261,1,0,0:0:0:0:
320,192,47378,1,0,0:0:0:0:
64,192,47495,1,0,0:0:0:0:
192,192,47495,1,0,0:0:0:0:
64,192,47612,1,0,0:0:0:0:
448,192,47729,1,0,0:0:0:0:
192,192,47729,1,0,0:0:0:0:
64,192,47846,1,0,0:0:0:0:
448,192,47964,1,0,0:0:0:0:
192,192,47964,1,0,0:0:0:0:
320,192,48081,1,0,0:0:0:0:
64,192,48198,1,0,0:0:0:0:
192,192,48198,1,0,0:0:0:0:
320,192,48315,1,0,0:0:0:0:
448,192,48432,1,0,0:0:0:0:
192,192,48432,1,0,0:0:0:0:
448,192,48550,1,0,0:0:0:0:
64,192,48667,1,0,0:0:0:0:
320,192,48667,1,0,0:0:0:0:
64,192,48784,1,0,0:0:0:0:
320,192,48901,1,0,0:0:0:0:
192,192,48901,1,0,0:0:0:0:
448,192,48901,1,0,0:0:0:0:
64,192,49018,1,0,0:0:0:0:
192,192,49135,1,0,0:0:0:0:
320,192,49253,128,0,49370:0:0:0:0:
448,192,49253,1,0,0:0:0:0:
192,192,49370,1,0,0:0:0:0:
64,192,49487,1,0,0:0:0:0:
192,192,49604,128,0,49721:0:0:0:0:
320,192,49604,1,0,0:0:0:0:
64,192,49721,1,0,0:0:0:0:
448,192,49839,1,0,0:0:0:0:
320,192,49839,1,0,0:0:0:0:
448,192,49956,128,0,50073:0:0:0:0:
64,192,49956,1,0,0:0:0:0:
320,192,50073,1,0,0:0:0:0:
192,192,50190,1,0,0:0:0:0:
192,192,50307,128,0,50425:0:0:0:0:
448,192,50307,1,0,0:0:0:0:
64,192,50425,1,0,0:0:0:0:
64,192,50542,128,0,50659:0:0:0:0:
320,192,50542,1,0,0:0:0:0:
448,192,50659,1,0,0:0:0:0:
192,192,50776,128,0,50893:0:0:0:0:
320,192,50776,1,0,0:0:0:0:
448,192,50776,1,0,0:0:0:0:
64,192,50893,1,0,0:0:0:0:
320,192,51010,1,0,0:0:0:0:
192,192,51128,128,0,51245:0:0:0:0:
64,192,51128,1,0,0:0:0:0:
448,192,51245,1,0,0:0:0:0:
448,192,51362,1,0,0:0:0:0:
320,192,51479,128,0,51596:0:0:0:0:
192,192,51479,1,0,0:0:0:0:
64,192,51596,1,0,0:0:0:0:
320,192,51714,1,0,0:0:0:0:
448,192,51714,1,0,0:0:0:0:
64,192,51831,128,0,51948:0:0:0:0:
192,192,51831,1,0,0:0:0:0:
448,192,51948,1,0,0:0:0:0:
64,192,52065,1,0,0:0:0:0:
320,192,52182,128,0,52300:0:0:0:0:
192,192,52182,1,0,0:0:0:0:
64,192,52300,1,0,0:0:0:0:
448,192,52417,128,0,52534:0:0:0:0:
192,192,52417,1,0,0:0:0:0:
320,192,52534,1,0,0:0:0:0:
64,192,52651,1,0,0:0:0:0:
192,192,52651,1,0,0:0:0:0:
320,192,52651,1,0,0:0:0:0:
192,192,52885,1,0,0:0:0:0:
320,192,52885,1,0,0:0:0:0:
448,192,52885,1,0,0:0:0:0:
64,192,53120,1,0,0:0:0:0:
320,192,53120,1,0,0:0:0:0:
448,192,53120,1,0,0:0:0:0:
192,192,53354,1,0,0:0:0:0:
320,192,53471,1,0,0:0:0:0:
64,192,53589,1,0,0:0:0:0:
192,192,53589,1,0,0:0:0:0:
448,192,53589,1,0,0:0:0:0:
320,192,53706,1,0,0:0:0:0:
192,192,53823,1,0,0:0:0:0:
448,192,53940,1,0,0:0:0:0:
64,192,54057,1,0,0:0:0:0:
320,192,54057,1,0,0:0:0:0:
192,192,54057,1,0,0:0:0:0:
448,192,54175,1,0,0:0:0:0:
192,192,54292,1,0,0:0:0:0:
448,192,54292,1,0,0:0:0:0:
64,192,54409,1,0,0:0:0:0:
320,192,54526,1,0,0:0:0:0:
448,192,54526,1,0,0:0:0:0:
192,192,54526,1,0,0:0:0:0:
64,192,54643,1,0,0:0:0:0:
192,192,54760,1,0,0:0:0:0:
448,192,54760,1,0,0:0:0:0:
320,192,54878,1,0,0:0:0:0:
64,192,54995,1,0,0:0:0:0:
448,192,54995,1,0,0:0:0:0:
192,192,55112,1,0,0:0:0:0:
320,192,55229,1,0,0:0:0:0:
64,192,55229,1,0,0:0:0:0:
448,192,55346,1,0,0:0:0:0:
448,192,55464,1,0,0:0:0:0:
192,192,55464,1,0,0:0:0:0:
320,192,55581,1,0,0:0:0:0:
192,192,55698,1,0,0:0:0:0:
448,192,55698,1,0,0:0:0:0:
64,192,55815,1,0,0:0:0:0:
448,192,55932,1,0,0:0:0:0:
192,192,55932,1,0,0:0:0:0:
320,192,56050,1,0,0:0:0:0:
192,192,56167,1,0,0:0:0:0:
320,192,56167,1,0,0:0:0:0:
64,192,56284,1,0,0:0:0:0:
320,192,56401,1,0,0:0:0:0:
192,192,56401,1,0,0:0:0:0:
448,192,56401,1,0,0:0:0:0:
192,192,56635,1,0,0:0:0:0:
64,192,56635,1,0,0:0:0:0:
448,192,56635,1,0,0:0:0:0:
448,192,56870,1,0,0:0:0:0:
64,192,56870,1,0,0:0:0:0:
320,192,56870,1,0,0:0:0:0:
64,192,57104,1,0,0:0:0:0:
192,192,57221,1,0,0:0:0:0:
320,192,57339,1,0,0:0:0:0:
448,192,57339,1,0,0:0:0:0:
64,192,57339,1,0,0:0:0:0:
320,192,57456,1,0,0:0:0:0:
448,192,57573,1,0,0:0:0:0:
192,192,57573,1,0,0:0:0:0:
64,192,57690,1,0,0:0:0:0:
192,192,57807,1,0,0:0:0:0:
320,192,57807,1,0,0:0:0:0:
448,192,57807,1,0,0:0:0:0:
64,192,57924,1,0,0:0:0:0:
192,192,58042,1,0,0:0:0:0:
448,192,58042,1,0,0:0:0:0:
320,192,58159,1,0,0:0:0:0:
448,192,58276,1,0,0:0:0:0:
64,192,58276,1,0,0:0:0:0:
192,192,58276,1,0,0:0:0:0:
448,192,58393,1,0,0:0:0:0:
320,192,58510,1,0,0:0:0:0:
64,192,58510,1,0,0:0:0:0:
192,192,58628,1,0,0:0:0:0:
448,192,58745,1,0,0:0:0:0:
64,192,58745,1,0,0:0:0:0:
320,192,58862,1,0,0:0:0:0:
192,192,58979,1,0,0:0:0:0:
448,192,58979,1,0,0:0:0:0:
64,192,59096,1,0,0:0:0:0:
64,192,59214,1,0,0:0:0:0:
320,192,59214,1,0,0:0:0:0:
192,192,59331,1,0,0:0:0:0:
320,192,59448,1,0,0:0:0:0:
448,192,59448,1,0,0:0:0:0:
448,192,59565,1,0,0:0:0:0:
64,192,59682,1,0,0:0:0:0:
320,192,59682,1,0,0:0:0:0:
192,192,59799,1,0,0:0:0:0:
320,192,59917,1,0,0:0:0:0:
64,192,59917,1,0,0:0:0:0:
448,192,60034,1,0,0:0:0:0:
64,192,60151,1,0,0:0:0:0:
320,192,60151,1,0,0:0:0:0:
192,192,60151,1,0,0:0:0:0:
192,192,60385,1,0,0:0:0:0:
448,192,60385,1,0,0:0:0:0:
320,192,60620,1,0,0:0:0:0:
192,192,60620,1,0,0:0:0:0:
64,192,60620,1,0,0:0:0:0:
320,192,60854,1,0,0:0:0:0:
192,192,60971,1,0,0:0:0:0:
64,192,61089,1,0,0:0:0:0:
320,192,61089,1,0,0:0:0:0:
448,192,61089,1,0,0:0:0:0:
320,192,61323,1,0,0:0:0:0:
192,192,61323,1,0,0:0:0:0:
320,192,61557,1,0,0:0:0:0:
192,192,61557,1,0,0:0:0:0:
448,192,61557,1,0,0:0:0:0:
64,192,61792,1,0,0:0:0:0:
192,192,61909,1,0,0:0:0:0:
64,192,62026,1,0,0:0:0:0:
320,192,62026,1,0,0:0:0:0:
448,192,62026,1,0,0:0:0:0:
448,192,62260,1,0,0:0:0:0:
192,192,62260,1,0,0:0:0:0:
64,192,62495,1,0,0:0:0:0:
320,192,62495,1,0,0:0:0:0:
192,192,62495,1,0,0:0:0:0:
64,192,62729,1,0,0:0:0:0:
320,192,62729,1,0,0:0:0:0:
448,192,62729,1,0,0:0:0:0:
192,192,62846,1,0,0:0:0:0:
64,192,62964,1,0,0:0:0:0:
320,192,62964,1,0,0:0:0:0:
448,192,62964,1,0,0:0:0:0:
192,192,63198,1,0,0:0:0:0:
64,192,63198,1,0,0:0:0:0:
192,192,63432,1,0,0:0:0:0:
448,192,63432,1,0,0:0:0:0:
320,192,63432,1,0,0:0:0:0:
64,192,63667,1,0,0:0:0:0:
320,192,63667,1,0,0:0:0:0:
448,192,63667,1,0,0:0:0:0:
192,192,63901,1,0,0:0:0:0:
320,192,63901,1,0,0:0:0:0:
64,192,64018,1,0,0:0:0:0:
192,192,64135,1,0,0:0:0:0:
448,192,64135,1,0,0:0:0:0:
448,192,64253,1,0,0:0:0:0:
64,192,64370,1,0,0:0:0:0:
320,192,64370,1,0,0:0:0:0:
192,192,64487,1,0,0:0:0:0:
64,192,64604,1,0,0:0:0:0:
192,192,64721,1,0,0:0:0:0:
320,192,64838,1,0,0:0:0:0:
448,192,64838,1,0,0:0:0:0:
192,192,64956,1,0,0:0:0:0:
64,192,65073,1,0,0:0:0:0:
320,192,65073,1,0,0:0:0:0:
64,192,65190,1,0,0:0:0:0:
192,192,65307,1,0,0:0:0:0:
320,192,65307,1,0,0:0:0:0:
448,192,65424,1,0,0:0:0:0:
64,192,65542,1,0,0:0:0:0:
320,192,65542,1,0,0:0:0:0:
192,192,65659,1,0,0:0:0:0:
64,192,65776,1,0,0:0:0:0:
448,192,65776,1,0,0:0:0:0:
320,192,65776,1,0,0:0:0:0:
192,192,65893,1,0,0:0:0:0:
448,192,66010,1,0,0:0:0:0:
320,192,66010,1,0,0:0:0:0:
192,192,66128,1,0,0:0:0:0:
64,192,66245,1,0,0:0:0:0:
448,192,66245,1,0,0:0:0:0:
320,192,66245,1,0,0:0:0:0:
320,192,66362,1,0,0:0:0:0:
448,192,66479,1,0,0:0:0:0:
192,192,66479,1,0,0:0:0:0:
64,192,66596,1,0,0:0:0:0:
448,192,66713,1,0,0:0:0:0:
192,192,66713,1,0,0:0:0:0:
320,192,66713,1,0,0:0:0:0:
320,192,66831,1,0,0:0:0:0:
64,192,66948,1,0,0:0:0:0:
448,192,66948,1,0,0:0:0:0:
192,192,66948,1,0,0:0:0:0:
192,192,67065,1,0,0:0:0:0:
64,192,67182,1,0,0:0:0:0:
320,192,67182,1,0,0:0:0:0:
448,192,67182,1,0,0:0:0:0:
448,192,67299,1,0,0:0:0:0:
64,192,67417,1,0,0:0:0:0:
320,192,67417,1,0,0:0:0:0:
192,192,67417,1,0,0:0:0:0:
64,192,67534,1,0,0:0:0:0:
448,192,67651,128,0,69292:0:0:0:0:
192,192,67885,128,0,69292:0:0:0:0:
64,192,68061,128,0,69292:0:0:0:0:
320,192,68325,128,0,69292:0:0:0:0:
192,192,69526,128,0,71167:0:0:0:0:
320,192,69760,128,0,71167:0:0:0:0:
448,192,69965,128,0,71167:0:0:0:0:
64,192,70229,128,0,71167:0:0:0:0:
320,192,71401,128,0,73042:0:0:0:0:
192,192,71635,128,0,73042:0:0:0:0:
448,192,71870,128,0,73042:0:0:0:0:
64,192,72104,128,0,73042:0:0:0:0:
64,192,73745,1,0,0:0:0:0:
192,192,73745,1,0,0:0:0:0:
192,192,73979,1,0,0:0:0:0:
448,192,73979,1,0,0:0:0:0:
192,192,74213,1,0,0:0:0:0:
320,192,74213,1,0,0:0:0:0:
64,192,74448,1,0,0:0:0:0:
448,192,74448,1,0,0:0:0:0:
448,192,74682,1,0,0:0:0:0:
320,192,74682,1,0,0:0:0:0:
192,192,74917,1,0,0:0:0:0:
64,192,74917,1,0,0:0:0:0:
64,192,75151,128,0,76792:0:0:0:0:
320,192,75385,128,0,76792:0:0:0:0:
448,192,75561,128,0,76792:0:0:0:0:
192,192,75825,128,0,76792:0:0:0:0:
320,192,77026,128,0,78667:0:0:0:0:
192,192,77260,128,0,78667:0:0:0:0:
64,192,77465,128,0,78667:0:0:0:0:
448,192,77729,128,0,78667:0:0:0:0:
192,192,78901,128,0,80541:0:0:0:0:
320,192,79135,128,0,80541:0:0:0:0:
64,192,79370,128,0,80541:0:0:0:0:
448,192,79604,128,0,80541:0:0:0:0:
64,192,81245,1,0,0:0:0:0:
320,192,81245,1,0,0:0:0:0:
192,192,81479,1,0,0:0:0:0:
320,192,81479,1,0,0:0:0:0:
192,192,81713,1,0,0:0:0:0:
448,192,81713,1,0,0:0:0:0:
320,192,81948,1,0,0:0:0:0:
64,192,81948,1,0,0:0:0:0:
64,192,82182,1,0,0:0:0:0:
192,192,82182,1,0,0:0:0:0:
448,192,82416,1,0,0:0:0:0:
320,192,82416,1,0,0:0:0:0:
64,192,82651,1,0,0:0:0:0:
448,192,82651,1,0,0:0:0:0:
192,192,82651,1,0,0:0:0:0:
320,192,82768,1,0,0:0:0:0:
192,192,82885,1,0,0:0:0:0:
64,192,83002,1,0,0:0:0:0:
192,192,83120,1,0,0:0:0:0:
320,192,83120,1,0,0:0:0:0:
448,192,83120,1,0,0:0:0:0:
64,192,83237,1,0,0:0:0:0:
192,192,83354,1,0,0:0:0:0:
448,192,83471,1,0,0:0:0:0:
192,192,83588,1,0,0:0:0:0:
64,192,83588,1,0,0:0:0:0:
320,192,83588,1,0,0:0:0:0:
448,192,83706,1,0,0:0:0:0:
320,192,83823,1,0,0:0:0:0:
192,192,83940,1,0,0:0:0:0:
448,192,84057,1,0,0:0:0:0:
320,192,84057,1,0,0:0:0:0:
64,192,84057,1,0,0:0:0:0:
192,192,84174,1,0,0:0:0:0:
448,192,84291,1,0,0:0:0:0:
320,192,84409,1,0,0:0:0:0:
64,192,84526,1,0,0:0:0:0:
448,192,84526,1,0,0:0:0:0:
192,192,84526,1,0,0:0:0:0:
320,192,84643,1,0,0:0:0:0:
192,192,84760,1,0,0:0:0:0:
64,192,84877,1,0,0:0:0:0:
192,192,84995,1,0,0:0:0:0:
320,192,84995,1,0,0:0:0:0:
448,192,84995,1,0,0:0:0:0:
64,192,85112,1,0,0:0:0:0:
320,192,85229,1,0,0:0:0:0:
448,192,85346,1,0,0:0:0:0:
192,192,85463,1,0,0:0:0:0:
64,192,85463,1,0,0:0:0:0:
320,192,85463,1,0,0:0:0:0:
448,192,85581,1,0,0:0:0:0:
320,192,85698,1,0,0:0:0:0:
192,192,85815,1,0,0:0:0:0:
448,192,85932,1,0,0:0:0:0:
320,192,85932,1,0,0:0:0:0:
64,192,85932,1,0,0:0:0:0:
192,192,86049,1,0,0:0:0:0:
448,192,86166,1,0,0:0:0:0:
320,192,86284,1,0,0:0:0:0:
192,192,86401,1,0,0:0:0:0:
448,192,86401,1,0,0:0:0:0:
64,192,86401,1,0,0:0:0:0:
320,192,86518,1,0,0:0:0:0:
192,192,86635,1,0,0:0:0:0:
64,192,86752,1,0,0:0:0:0:
448,192,86870,1,0,0:0:0:0:
320,192,86870,1,0,0:0:0:0:
192,192,86870,1,0,0:0:0:0:
64,192,86987,1,0,0:0:0:0:
192,192,87104,1,0,0:0:0:0:
448,192,87221,1,0,0:0:0:0:
320,192,87338,1,0,0:0:0:0:
64,192,87338,1,0,0:0:0:0:
192,192,87338,1,0,0:0:0:0:
448,192,87456,1,0,0:0:0:0:
320,192,87573,1,0,0:0:0:0:
192,192,87690,1,0,0:0:0:0:
64,192,87807,1,0,0:0:0:0:
320,192,87807,1,0,0:0:0:0:
448,192,87807,1,0,0:0:0:0:
192,192,87924,1,0,0:0:0:0:
448,192,88041,1,0,0:0:0:0:
320,192,88159,1,0,0:0:0:0:
64,192,88276,1,0,0:0:0:0:
448,192,88276,1,0,0:0:0:0:
192,192,88276,1,0,0:0:0:0:
320,192,88393,1,0,0:0:0:0:
192,192,88510,1,0,0:0:0:0:
64,192,88627,1,0,0:0:0:0:
192,192,88745,1,0,0:0:0:0:
320,192,88745,1,0,0:0:0:0:
448,192,88745,1,0,0:0:0:0:
64,192,88862,1,0,0:0:0:0:
320,192,88979,1,0,0:0:0:0:
448,192,89096,1,0,0:0:0:0:
192,192,89213,1,0,0:0:0:0:
64,192,89213,1,0,0:0:0:0:
320,192,89213,1,0,0:0:0:0:
448,192,89330,1,0,0:0:0:0:
320,192,89448,1,0,0:0:0:0:
192,192,89565,1,0,0:0:0:0:
448,192,89682,1,0,0:0:0:0:
320,192,89682,1,0,0:0:0:0:
64,192,89682,1,0,0:0:0:0:
192,192,89799,1,0,0:0:0:0:
320,192,89916,1,0,0:0:0:0:
448,192,90034,1,0,0:0:0:0:
64,192,90151,1,0,0:0:0:0:
192,192,90151,1,0,0:0:0:0:
320,192,90268,1,0,0:0:0:0:
64,192,90385,1,0,0:0:0:0:
192,192,90385,1,0,0:0:0:0:
448,192,90502,1,0,0:0:0:0:
64,192,90620,1,0,0:0:0:0:
192,192,90620,1,0,0:0:0:0:
320,192,90737,1,0,0:0:0:0:
64,192,90854,1,0,0:0:0:0:
192,192,90854,1,0,0:0:0:0:
448,192,90971,1,0,0:0:0:0:
64,192,91088,1,0,0:0:0:0:
192,192,91088,1,0,0:0:0:0:
320,192,91205,1,0,0:0:0:0:
64,192,91323,1,0,0:0:0:0:
192,192,91323,1,0,0:0:0:0:
448,192,91440,1,0,0:0:0:0:
64,192,91557,1,0,0:0:0:0:
192,192,91557,1,0,0:0:0:0:
320,192,91674,1,0,0:0:0:0:
64,192,91791,1,0,0:0:0:0:
448,192,91791,1,0,0:0:0:0:
192,192,91909,1,0,0:0:0:0:
448,192,92026,1,0,0:0:0:0:
320,192,92026,1,0,0:0:0:0:
192,192,92143,1,0,0:0:0:0:
448,192,92260,1,0,0:0:0:0:
320,192,92260,1,0,0:0:0:0:
64,192,92377,1,0,0:0:0:0:
448,192,92495,1,0,0:0:0:0:
320,192,92495,1,0,0:0:0:0:
192,192,92612,1,0,0:0:0:0:
448,192,92729,1,0,0:0:0:0:
320,192,92729,1,0,0:0:0:0:
64,192,92846,1,0,0:0:0:0:
448,192,92963,1,0,0:0:0:0:
320,192,92963,1,0,0:0:0:0:
192,192,93080,1,0,0:0:0:0:
448,192,93198,1,0,0:0:0:0:
320,192,93198,1,0,0:0:0:0:
64,192,93315,1,0,0:0:0:0:
448,192,93432,1,0,0:0:0:0:
320,192,93432,1,0,0:0:0:0:
192,192,93549,1,0,0:0:0:0:
448,192,93666,1,0,0:0:0:0:
64,192,93666,1,0,0:0:0:0:
320,192,93784,1,0,0:0:0:0:
64,192,93901,1,0,0:0:0:0:
192,192,94018,1,0,0:0:0:0:
320,192,94135,1,0,0:0:0:0:
448,192,94252,1,0,0:0:0:0:
64,192,94370,1,0,0:0:0:0:
320,192,94370,1,0,0:0:0:0:
192,192,94487,1,0,0:0:0:0:
320,192,94604,1,0,0:0:0:0:
448,192,94721,1,0,0:0:0:0:
64,192,94838,1,0,0:0:0:0:
192,192,94955,1,0,0:0:0:0:
320,192,95073,1,0,0:0:0:0:
448,192,95190,1,0,0:0:0:0:
64,192,95307,1,0,0:0:0:0:
320,192,95307,1,0,0:0:0:0:
192,192,95424,1,0,0:0:0:0:
320,192,95541,1,0,0:0:0:0:
448,192,95659,1,0,0:0:0:0:
448,192,95776,1,0,0:0:0:0:
320,192,95893,1,0,0:0:0:0:
192,192,96010,1,0,0:0:0:0:
64,192,96127,1,0,0:0:0:0:
448,192,96244,128,0,96713:0:0:0:0:
192,192,96244,1,0,0:0:0:0:
320,192,96362,1,0,0:0:0:0:
192,192,96479,1,0,0:0:0:0:
64,192,96596,1,0,0:0:0:0:
192,192,96713,128,0,96948:0:0:0:0:
320,192,96713,1,0,0:0:0:0:
64,192,96830,1,0,0:0:0:0:
320,192,96948,128,0,97416:0:0:0:0:
448,192,96948,1,0,0:0:0:0:
64,192,97065,1,0,0:0:0:0:
192,192,97182,1,0,0:0:0:0:
448,192,97299,1,0,0:0:0:0:
64,192,97416,128,0,97651:0:0:0:0:
192,192,97416,1,0,0:0:0:0:
320,192,97534,1,0,0:0:0:0:
192,192,97651,1,0,0:0:0:0:
448,192,97651,1,0,0:0:0:0:
320,192,97651,1,0,0:0:0:0:
192,192,97885,1,0,0:0:0:0:
320,192,97885,1,0,0:0:0:0:
448,192,98119,128,0,98588:0:0:0:0:
64,192,98119,1,0,0:0:0:0:
320,192,98119,1,0,0:0:0:0:
192,192,98354,1,0,0:0:0:0:
320,192,98354,1,0,0:0:0:0:
320,192,98588,128,0,98823:0:0:0:0:
64,192,98588,1,0,0:0:0:0:
192,192,98588,1,0,0:0:0:0:
448,192,98823,128,0,99291:0:0:0:0:
192,192,98823,1,0,0:0:0:0:
64,192,99057,1,0,0:0:0:0:
192,192,99057,1,0,0:0:0:0:
192,192,99291,128,0,99877:0:0:0:0:
320,192,99291,1,0,0:0:0:0:
64,192,99526,1,0,0:0:0:0:
448,192,99526,1,0,0:0:0:0:
320,192,99760,1,0,0:0:0:0:
448,192,99760,1,0,0:0:0:0:
192,192,99994,128,0,100463:0:0:0:0:
64,192,99994,1,0,0:0:0:0:
320,192,99994,1,0,0:0:0:0:
320,192,100229,1,0,0:0:0:0:
448,192,100229,1,0,0:0:0:0:
64,192,100463,128,0,100698:0:0:0:0:
320,192,100463,1,0,0:0:0:0:
448,192,100698,1,0,0:0:0:0:
192,192,100698,128,0,101166:0:0:0:0:
64,192,100932,1,0,0:0:0:0:
320,192,100932,1,0,0:0:0:0:
320,192,101166,128,0,101869:0:0:0:0:
448,192,101166,1,0,0:0:0:0:
64,192,101166,1,0,0:0:0:0:
192,192,101401,1,0,0:0:0:0:
448,192,101401,1,0,0:0:0:0:
64,192,101635,1,0,0:0:0:0:
192,192,101635,1,0,0:0:0:0:
448,192,101869,128,0,102104:0:0:0:0:
192,192,101869,1,0,0:0:0:0:
320,192,102104,128,0,102455:0:0:0:0:
64,192,102104,1,0,0:0:0:0:
192,192,102104,1,0,0:0:0:0:
192,192,102338,1,0,0:0:0:0:
448,192,102338,1,0,0:0:0:0:
320,192,102573,128,0,102807:0:0:0:0:
64,192,102573,1,0,0:0:0:0:
192,192,102573,1,0,0:0:0:0:
192,192,102807,128,0,103276:0:0:0:0:
448,192,102807,1,0,0:0:0:0:
448,192,103041,1,0,0:0:0:0:
320,192,103041,1,0,0:0:0:0:
64,192,103276,1,0,0:0:0:0:
320,192,103276,1,0,0:0:0:0:
448,192,103276,1,0,0:0:0:0:
192,192,103510,1,0,0:0:0:0:
320,192,103510,1,0,0:0:0:0:
64,192,103744,128,0,104213:0:0:0:0:
448,192,103744,1,0,0:0:0:0:
192,192,103744,1,0,0:0:0:0:
320,192,103979,1,0,0:0:0:0:
192,192,103979,1,0,0:0:0:0:
192,192,104213,128,0,104448:0:0:0:0:
448,192,104213,1,0,0:0:0:0:
320,192,104213,1,0,0:0:0:0:
64,192,104448,128,0,104916:0:0:0:0:
320,192,104448,1,0,0:0:0:0:
448,192,104682,1,0,0:0:0:0:
320,192,104682,1,0,0:0:0:0:
320,192,104916,128,0,105502:0:0:0:0:
192,192,104916,1,0,0:0:0:0:
448,192,105151,1,0,0:0:0:0:
64,192,105151,1,0,0:0:0:0:
192,192,105385,1,0,0:0:0:0:
64,192,105385,1,0,0:0:0:0:
320,192,105619,128,0,106088:0:0:0:0:
448,192,105619,1,0,0:0:0:0:
192,192,105619,1,0,0:0:0:0:
192,192,105854,1,0,0:0:0:0:
64,192,105854,1,0,0:0:0:0:
448,192,106088,128,0,106323:0:0:0:0:
192,192,106088,1,0,0:0:0:0:
64,192,106323,1,0,0:0:0:0:
320,192,106323,128,0,106791:0:0:0:0:
192,192,106323,1,0,0:0:0:0:
448,192,106557,1,0,0:0:0:0:
192,192,106557,1,0,0:0:0:0:
192,192,106791,128,0,107494:0:0:0:0:
64,192,106791,1,0,0:0:0:0:
448,192,106791,1,0,0:0:0:0:
320,192,107026,1,0,0:0:0:0:
64,192,107026,1,0,0:0:0:0:
448,192,107260,1,0,0:0:0:0:
320,192,107260,1,0,0:0:0:0:
64,192,107494,128,0,107729:0:0:0:0:
320,192,107494,1,0,0:0:0:0:
192,192,107729,128,0,107963:0:0:0:0:
448,192,107729,1,0,0:0:0:0:
320,192,107729,1,0,0:0:0:0:
320,192,107963,1,0,0:0:0:0:
64,192,107963,1,0,0:0:0:0:
192,192,108198,1,0,0:0:0:0:
320,192,108198,1,0,0:0:0:0:
320,192,108432,128,0,108666:0:0:0:0:
448,192,108432,1,0,0:0:0:0:
192,192,108666,1,0,0:0:0:0:
64,192,108666,128,0,108901:0:0:0:0:
448,192,108901,1,0,0:0:0:0:
192,192,108901,1,0,0:0:0:0:
192,192,109018,1,0,0:0:0:0:
320,192,109135,1,0,0:0:0:0:
448,192,109135,1,0,0:0:0:0:
64,192,109252,1,0,0:0:0:0:
192,192,109369,1,0,0:0:0:0:
320,192,109369,1,0,0:0:0:0:
448,192,109487,1,0,0:0:0:0:
64,192,109604,1,0,0:0:0:0:
320,192,109604,1,0,0:0:0:0:
192,192,109721,1,0,0:0:0:0:
320,192,109838,1,0,0:0:0:0:
448,192,109838,1,0,0:0:0:0:
192,192,109955,1,0,0:0:0:0:
64,192,110073,1,0,0:0:0:0:
320,192,110073,1,0,0:0:0:0:
448,192,110190,1,0,0:0:0:0:
192,192,110307,1,0,0:0:0:0:
320,192,110307,1,0,0:0:0:0:
64,192,110424,1,0,0:0:0:0:
192,192,110541,1,0,0:0:0:0:
320,192,110541,1,0,0:0:0:0:
448,192,110658,1,0,0:0:0:0:
64,192,110776,1,0,0:0:0:0:
320,192,110776,1,0,0:0:0:0:
192,192,110893,1,0,0:0:0:0:
320,192,111010,1,0,0:0:0:0:
448,192,111010,1,0,0:0:0:0:
320,192,111127,1,0,0:0:0:0:
64,192,111244,1,0,0:0:0:0:
192,192,111244,1,0,0:0:0:0:
448,192,111362,1,0,0:0:0:0:
64,192,111479,1,0,0:0:0:0:
320,192,111479,1,0,0:0:0:0:
192,192,111596,1,0,0:0:0:0:
192,192,111713,1,0,0:0:0:0:
448,192,111713,1,0,0:0:0:0:
320,192,111830,1,0,0:0:0:0:
64,192,111948,1,0,0:0:0:0:
192,192,111948,1,0,0:0:0:0:
448,192,112065,1,0,0:0:0:0:
320,192,112182,1,0,0:0:0:0:
192,192,112182,1,0,0:0:0:0:
320,192,112299,1,0,0:0:0:0:
64,192,112416,1,0,0:0:0:0:
448,192,112416,1,0,0:0:0:0:
192,192,112533,1,0,0:0:0:0:
64,192,112651,1,0,0:0:0:0:
320,192,112651,1,0,0:0:0:0:
448,192,112651,1,0,0:0:0:0:
320,192,112768,1,0,0:0:0:0:
448,192,112885,1,0,0:0:0:0:
192,192,112885,1,0,0:0:0:0:
64,192,113002,1,0,0:0:0:0:
320,192,113119,1,0,0:0:0:0:
64,192,113119,1,0,0:0:0:0:
448,192,113237,1,0,0:0:0:0:
320,192,113354,1,0,0:0:0:0:
192,192,113354,1,0,0:0:0:0:
64,192,113471,1,0,0:0:0:0:
448,192,113588,1,0,0:0:0:0:
192,192,113588,1,0,0:0:0:0:
320,192,113705,1,0,0:0:0:0:
448,192,113822,1,0,0:0:0:0:
192,192,113822,1,0,0:0:0:0:
448,192,113940,1,0,0:0:0:0:
192,192,114057,1,0,0:0:0:0:
64,192,114057,1,0,0:0:0:0:
320,192,114174,1,0,0:0:0:0:
448,192,114291,1,0,0:0:0:0:
192,192,114291,1,0,0:0:0:0:
192,192,114408,1,0,0:0:0:0:
320,192,114526,1,0,0:0:0:0:
64,192,114526,1,0,0:0:0:0:
448,192,114526,1,0,0:0:0:0:
192,192,114643,1,0,0:0:0:0:
320,192,114760,1,0,0:0:0:0:
192,192,114760,1,0,0:0:0:0:
64,192,114877,1,0,0:0:0:0:
448,192,114994,1,0,0:0:0:0:
192,192,114994,1,0,0:0:0:0:
320,192,115112,1,0,0:0:0:0:
320,192,115229,1,0,0:0:0:0:
64,192,115229,1,0,0:0:0:0:
448,192,115346,1,0,0:0:0:0:
320,192,115463,1,0,0:0:0:0:
192,192,115463,1,0,0:0:0:0:
64,192,115580,1,0,0:0:0:0:
448,192,115697,1,0,0:0:0:0:
64,192,115697,1,0,0:0:0:0:
320,192,115815,1,0,0:0:0:0:
192,192,115932,1,0,0:0:0:0:
64,192,115932,1,0,0:0:0:0:
448,192,116049,1,0,0:0:0:0:
320,192,116166,1,0,0:0:0:0:
192,192,116166,1,0,0:0:0:0:
192,192,116283,1,0,0:0:0:0:
448,192,116401,1,0,0:0:0:0:
320,192,116401,1,0,0:0:0:0:
64,192,116401,1,0,0:0:0:0:
192,192,116518,1,0,0:0:0:0:
320,192,116635,1,0,0:0:0:0:
64,192,116752,128,0,116869:0:0:0:0:
192,192,116752,1,0,0:0:0:0:
448,192,116869,1,0,0:0:0:0:
320,192,116987,1,0,0:0:0:0:
192,192,117104,128,0,117221:0:0:0:0:
64,192,117104,1,0,0:0:0:0:
320,192,117221,1,0,0:0:0:0:
448,192,117338,1,0,0:0:0:0:
64,192,117338,1,0,0:0:0:0:
320,192,117455,128,0,117572:0:0:0:0:
192,192,117455,1,0,0:0:0:0:
448,192,117572,1,0,0:0:0:0:
320,192,117690,1,0,0:0:0:0:
192,192,117807,128,0,117924:0:0:0:0:
64,192,117807,1,0,0:0:0:0:
448,192,117924,1,0,0:0:0:0:
320,192,118041,128,0,118158:0:0:0:0:
448,192,118276,128,0,118393:0:0:0:0:
192,192,118276,1,0,0:0:0:0:
64,192,118276,1,0,0:0:0:0:
320,192,118393,1,0,0:0:0:0:
192,192,118510,1,0,0:0:0:0:
448,192,118627,128,0,118744:0:0:0:0:
64,192,118627,1,0,0:0:0:0:
192,192,118744,1,0,0:0:0:0:
448,192,118862,1,0,0:0:0:0:
320,192,118979,128,0,119096:0:0:0:0:
192,192,118979,1,0,0:0:0:0:
64,192,119096,1,0,0:0:0:0:
448,192,119213,1,0,0:0:0:0:
64,192,119213,1,0,0:0:0:0:
192,192,119330,128,0,119447:0:0:0:0:
320,192,119330,1,0,0:0:0:0:
64,192,119447,1,0,0:0:0:0:
448,192,119565,1,0,0:0:0:0:
320,192,119682,128,0,119799:0:0:0:0:
192,192,119682,1,0,0:0:0:0:
64,192,119799,1,0,0:0:0:0:
192,192,119916,128,0,120033:0:0:0:0:
448,192,119916,1,0,0:0:0:0:
320,192,120033,1,0,0:0:0:0:
448,192,120151,1,0,0:0:0:0:
64,192,120151,1,0,0:0:0:0:
320,192,120151,1,0,0:0:0:0:
192,192,120268,1,0,0:0:0:0:
64,192,120385,1,0,0:0:0:0:
320,192,120385,1,0,0:0:0:0:
64,192,120502,1,0,0:0:0:0:
448,192,120619,1,0,0:0:0:0:
192,192,120619,1,0,0:0:0:0:
320,192,120736,1,0,0:0:0:0:
448,192,120854,1,0,0:0:0:0:
64,192,120854,1,0,0:0:0:0:
320,192,120971,1,0,0:0:0:0:
192,192,121088,1,0,0:0:0:0:
64,192,121088,1,0,0:0:0:0:
320,192,121205,1,0,0:0:0:0:
448,192,121322,1,0,0:0:0:0:
192,192,121322,1,0,0:0:0:0:
192,192,121440,1,0,0:0:0:0:
64,192,121557,1,0,0:0:0:0:
320,192,121557,1,0,0:0:0:0:
448,192,121674,1,0,0:0:0:0:
320,192,121791,1,0,0:0:0:0:
192,192,121791,1,0,0:0:0:0:
64,192,121908,1,0,0:0:0:0:
448,192,122026,1,0,0:0:0:0:
320,192,122026,1,0,0:0:0:0:
192,192,122026,1,0,0:0:0:0:
320,192,122143,1,0,0:0:0:0:
448,192,122260,1,0,0:0:0:0:
64,192,122260,1,0,0:0:0:0:
192,192,122377,1,0,0:0:0:0:
448,192,122494,1,0,0:0:0:0:
320,192,122494,1,0,0:0:0:0:
448,192,122611,1,0,0:0:0:0:
64,192,122729,1,0,0:0:0:0:
320,192,122729,1,0,0:0:0:0:
448,192,122846,1,0,0:0:0:0:
64,192,122963,1,0,0:0:0:0:
320,192,122963,1,0,0:0:0:0:
192,192,123080,1,0,0:0:0:0:
448,192,123197,1,0,0:0:0:0:
320,192,123197,1,0,0:0:0:0:
192,192,123315,1,0,0:0:0:0:
64,192,123432,1,0,0:0:0:0:
320,192,123432,1,0,0:0:0:0:
64,192,123549,1,0,0:0:0:0:
448,192,123666,1,0,0:0:0:0:
192,192,123666,1,0,0:0:0:0:
448,192,123783,1,0,0:0:0:0:
192,192,123901,1,0,0:0:0:0:
320,192,123901,1,0,0:0:0:0:
64,192,123901,1,0,0:0:0:0:
448,192,124018,1,0,0:0:0:0:
320,192,124135,1,0,0:0:0:0:
192,192,124252,128,0,124369:0:0:0:0:
64,192,124252,1,0,0:0:0:0:
320,192,124369,1,0,0:0:0:0:
448,192,124486,1,0,0:0:0:0:
320,192,124604,128,0,124721:0:0:0:0:
192,192,124604,1,0,0:0:0:0:
448,192,124721,1,0,0:0:0:0:
64,192,124838,1,0,0:0:0:0:
192,192,124838,1,0,0:0:0:0:
64,192,124955,128,0,125072:0:0:0:0:
448,192,124955,1,0,0:0:0:0:
192,192,125072,1,0,0:0:0:0:
320,192,125190,1,0,0:0:0:0:
320,192,125307,128,0,125424:0:0:0:0:
64,192,125307,1,0,0:0:0:0:
448,192,125424,1,0,0:0:0:0:
448,192,125541,128,0,125658:0:0:0:0:
192,192,125541,1,0,0:0:0:0:
64,192,125658,1,0,0:0:0:0:
320,192,125776,128,0,125893:0:0:0:0:
192,192,125776,1,0,0:0:0:0:
64,192,125776,1,0,0:0:0:0:
448,192,125893,1,0,0:0:0:0:
192,192,126010,1,0,0:0:0:0:
320,192,126127,128,0,126244:0:0:0:0:
448,192,126127,1,0,0:0:0:0:
64,192,126244,1,0,0:0:0:0:
64,192,126361,1,0,0:0:0:0:
192,192,126479,128,0,126596:0:0:0:0:
320,192,126479,1,0,0:0:0:0:
448,192,126596,1,0,0:0:0:0:
192,192,126713,1,0,0:0:0:0:
64,192,126713,1,0,0:0:0:0:
448,192,126830,128,0,126947:0:0:0:0:
320,192,126830,1,0,0:0:0:0:
64,192,126947,1,0,0:0:0:0:
448,192,127065,1,0,0:0:0:0:
192,192,127182,128,0,127299:0:0:0:0:
320,192,127182,1,0,0:0:0:0:
448,192,127299,1,0,0:0:0:0:
64,192,127416,128,0,127533:0:0:0:0:
320,192,127416,1,0,0:0:0:0:
192,192,127533,1,0,0:0:0:0:
320,192,127651,128,0,128119:0:0:0:0:
64,192,127651,1,0,0:0:0:0:
448,192,127651,1,0,0:0:0:0:
192,192,127885,1,0,0:0:0:0:
64,192,128002,1,0,0:0:0:0:
448,192,128119,128,0,128354:0:0:0:0:
192,192,128119,1,0,0:0:0:0:
64,192,128236,1,0,0:0:0:0:
192,192,128354,128,0,128940:0:0:0:0:
320,192,128354,1,0,0:0:0:0:
448,192,128471,1,0,0:0:0:0:
320,192,128588,1,0,0:0:0:0:
64,192,128705,1,0,0:0:0:0:
320,192,128822,1,0,0:0:0:0:
448,192,128940,1,0,0:0:0:0:
192,192,129057,128,0,129291:0:0:0:0:
64,192,129057,1,0,0:0:0:0:
320,192,129057,1,0,0:0:0:0:
64,192,129291,128,0,129525:0:0:0:0:
320,192,129291,1,0,0:0:0:0:
448,192,129291,1,0,0:0:0:0:
320,192,129525,128,0,129994:0:0:0:0:
192,192,129525,1,0,0:0:0:0:
448,192,129525,1,0,0:0:0:0:
64,192,129760,1,0,0:0:0:0:
192,192,129877,1,0,0:0:0:0:
448,192,129994,128,0,130229:0:0:0:0:
64,192,129994,1,0,0:0:0:0:
192,192,130111,1,0,0:0:0:0:
64,192,130229,128,0,130815:0:0:0:0:
320,192,130229,1,0,0:0:0:0:
448,192,130346,1,0,0:0:0:0:
192,192,130463,1,0,0:0:0:0:
448,192,130580,1,0,0:0:0:0:
320,192,130697,1,0,0:0:0:0:
192,192,130815,1,0,0:0:0:0:
64,192,130932,128,0,131166:0:0:0:0:
320,192,130932,1,0,0:0:0:0:
192,192,130932,1,0,0:0:0:0:
192,192,131166,128,0,131400:0:0:0:0:
320,192,131166,1,0,0:0:0:0:
448,192,131166,1,0,0:0:0:0:
320,192,131400,128,0,131635:0:0:0:0:
64,192,131400,1,0,0:0:0:0:
448,192,131400,1,0,0:0:0:0:
192,192,131635,128,0,132104:0:0:0:0:
448,192,131635,1,0,0:0:0:0:
64,192,131752,1,0,0:0:0:0:
320,192,131869,1,0,0:0:0:0:
448,192,131986,1,0,0:0:0:0:
448,192,132104,128,0,132572:0:0:0:0:
320,192,132104,1,0,0:0:0:0:
64,192,132221,1,0,0:0:0:0:
192,192,132338,1,0,0:0:0:0:
320,192,132455,1,0,0:0:0:0:
192,192,132572,1,0,0:0:0:0:
64,192,132690,1,0,0:0:0:0:
192,192,132807,1,0,0:0:0:0:
448,192,132807,1,0,0:0:0:0:
192,192,133041,1,0,0:0:0:0:
320,192,133041,1,0,0:0:0:0:
64,192,133041,1,0,0:0:0:0:
448,192,133275,1,0,0:0:0:0:
320,192,133275,1,0,0:0:0:0:
192,192,133393,1,0,0:0:0:0:
64,192,133510,1,0,0:0:0:0:
320,192,133510,1,0,0:0:0:0:
192,192,133627,1,0,0:0:0:0:
448,192,133627,1,0,0:0:0:0:
320,192,133744,1,0,0:0:0:0:
192,192,133861,1,0,0:0:0:0:
64,192,133979,1,0,0:0:0:0:
320,192,133979,1,0,0:0:0:0:
320,192,134096,1,0,0:0:0:0:
192,192,134096,1,0,0:0:0:0:
448,192,134213,1,0,0:0:0:0:
320,192,134330,1,0,0:0:0:0:
64,192,134330,1,0,0:0:0:0:
448,192,134447,1,0,0:0:0:0:
320,192,134565,1,0,0:0:0:0:
192,192,134682,1,0,0:0:0:0:
448,192,134682,1,0,0:0:0:0:
320,192,134799,1,0,0:0:0:0:
64,192,134916,1,0,0:0:0:0:
192,192,134916,1,0,0:0:0:0:
320,192,135033,1,0,0:0:0:0:
192,192,135150,128,0,135619:0:0:0:0:
448,192,135150,1,0,0:0:0:0:
64,192,135150,1,0,0:0:0:0:
320,192,135385,1,0,0:0:0:0:
448,192,135502,1,0,0:0:0:0:
64,192,135619,128,0,135854:0:0:0:0:
320,192,135619,1,0,0:0:0:0:
448,192,135736,1,0,0:0:0:0:
320,192,135854,128,0,136439:0:0:0:0:
192,192,135854,1,0,0:0:0:0:
64,192,135971,1,0,0:0:0:0:
192,192,136088,1,0,0:0:0:0:
448,192,136205,1,0,0:0:0:0:
192,192,136322,1,0,0:0:0:0:
64,192,136439,1,0,0:0:0:0:
320,192,136557,128,0,136791:0:0:0:0:
448,192,136557,1,0,0:0:0:0:
192,192,136557,1,0,0:0:0:0:
448,192,136791,128,0,137025:0:0:0:0:
192,192,136791,1,0,0:0:0:0:
64,192,136791,1,0,0:0:0:0:
192,192,137025,128,0,137494:0:0:0:0:
320,192,137025,1,0,0:0:0:0:
64,192,137025,1,0,0:0:0:0:
448,192,137260,1,0,0:0:0:0:
320,192,137377,1,0,0:0:0:0:
64,192,137494,128,0,137729:0:0:0:0:
448,192,137494,1,0,0:0:0:0:
320,192,137611,1,0,0:0:0:0:
448,192,137729,128,0,138314:0:0:0:0:
192,192,137729,1,0,0:0:0:0:
64,192,137846,1,0,0:0:0:0:
320,192,137963,1,0,0:0:0:0:
64,192,138080,1,0,0:0:0:0:
192,192,138197,1,0,0:0:0:0:
320,192,138314,1,0,0:0:0:0:
448,192,138432,128,0,138666:0:0:0:0:
192,192,138432,1,0,0:0:0:0:
320,192,138432,1,0,0:0:0:0:
320,192,138666,128,0,138900:0:0:0:0:
192,192,138666,1,0,0:0:0:0:
64,192,138666,1,0,0:0:0:0:
192,192,138900,128,0,139135:0:0:0:0:
448,192,138900,1,0,0:0:0:0:
64,192,138900,1,0,0:0:0:0:
320,192,139135,128,0,139604:0:0:0:0:
64,192,139135,1,0,0:0:0:0:
448,192,139252,1,0,0:0:0:0:
192,192,139369,1,0,0:0:0:0:
64,192,139486,1,0,0:0:0:0:
64,192,139604,128,0,140072:0:0:0:0:
192,192,139604,1,0,0:0:0:0:
448,192,139721,1,0,0:0:0:0:
320,192,139838,1,0,0:0:0:0:
192,192,139955,1,0,0:0:0:0:
320,192,140072,1,0,0:0:0:0:
448,192,140189,1,0,0:0:0:0:
320,192,140307,1,0,0:0:0:0:
64,192,140307,1,0,0:0:0:0:
320,192,140541,1,0,0:0:0:0:
192,192,140541,1,0,0:0:0:0:
448,192,140541,1,0,0:0:0:0:
64,192,140775,1,0,0:0:0:0:
192,192,140775,1,0,0:0:0:0:
320,192,140893,1,0,0:0:0:0:
448,192,141010,1,0,0:0:0:0:
192,192,141010,1,0,0:0:0:0:
320,192,141127,1,0,0:0:0:0:
64,192,141127,1,0,0:0:0:0:
192,192,141244,1,0,0:0:0:0:
320,192,141361,1,0,0:0:0:0:
448,192,141479,1,0,0:0:0:0:
192,192,141479,1,0,0:0:0:0:
192,192,141596,1,0,0:0:0:0:
320,192,141596,1,0,0:0:0:0:
64,192,141713,1,0,0:0:0:0:
192,192,141830,1,0,0:0:0:0:
448,192,141830,1,0,0:0:0:0:
64,192,141947,1,0,0:0:0:0:
192,192,142064,1,0,0:0:0:0:
320,192,142182,1,0,0:0:0:0:
64,192,142182,1,0,0:0:0:0:
192,192,142299,1,0,0:0:0:0:
448,192,142416,1,0,0:0:0:0:
320,192,142416,1,0,0:0:0:0:
192,192,142533,1,0,0:0:0:0:
64,192,142650,128,0,142885:0:0:0:0:
320,192,142650,1,0,0:0:0:0:
448,192,142650,1,0,0:0:0:0:
320,192,142885,128,0,143354:0:0:0:0:
192,192,142885,1,0,0:0:0:0:
448,192,143002,1,0,0:0:0:0:
192,192,143119,1,0,0:0:0:0:
64,192,143236,1,0,0:0:0:0:
192,192,143354,128,0,143939:0:0:0:0:
448,192,143354,1,0,0:0:0:0:
320,192,143471,1,0,0:0:0:0:
64,192,143588,1,0,0:0:0:0:
320,192,143705,1,0,0:0:0:0:
448,192,143822,1,0,0:0:0:0:
320,192,143939,1,0,0:0:0:0:
192,192,144057,128,0,144291:0:0:0:0:
64,192,144057,1,0,0:0:0:0:
448,192,144057,1,0,0:0:0:0:
64,192,144291,128,0,144525:0:0:0:0:
320,192,144291,1,0,0:0:0:0:
448,192,144291,1,0,0:0:0:0:
448,192,144525,128,0,144760:0:0:0:0:
192,192,144525,1,0,0:0:0:0:
320,192,144525,1,0,0:0:0:0:
192,192,144760,128,0,145228:0:0:0:0:
64,192,144760,1,0,0:0:0:0:
320,192,144877,1,0,0:0:0:0:
448,192,144994,1,0,0:0:0:0:
320,192,145111,1,0,0:0:0:0:
320,192,145228,128,0,145814:0:0:0:0:
64,192,145228,1,0,0:0:0:0:
192,192,145346,1,0,0:0:0:0:
448,192,145463,1,0,0:0:0:0:
192,192,145580,1,0,0:0:0:0:
64,192,145697,1,0,0:0:0:0:
448,192,145814,1,0,0:0:0:0:
320,192,145932,128,0,146166:0:0:0:0:
192,192,145932,1,0,0:0:0:0:
448,192,145932,1,0,0:0:0:0:
448,192,146166,128,0,146400:0:0:0:0:
192,192,146166,1,0,0:0:0:0:
64,192,146166,1,0,0:0:0:0:
320,192,146400,128,0,146869:0:0:0:0:
64,192,146400,1,0,0:0:0:0:
192,192,146400,1,0,0:0:0:0:
192,192,146635,1,0,0:0:0:0:
448,192,146752,1,0,0:0:0:0:
64,192,146869,128,0,147103:0:0:0:0:
192,192,146869,1,0,0:0:0:0:
320,192,146986,1,0,0:0:0:0:
192,192,147103,128,0,147807:0:0:0:0:
448,192,147103,1,0,0:0:0:0:
320,192,147221,1,0,0:0:0:0:
64,192,147338,1,0,0:0:0:0:
320,192,147455,1,0,0:0:0:0:
448,192,147572,1,0,0:0:0:0:
320,192,147689,1,0,0:0:0:0:
64,192,147807,1,0,0:0:0:0:
448,192,147807,1,0,0:0:0:0:
320,192,148041,1,0,0:0:0:0:
192,192,148041,1,0,0:0:0:0:
64,192,148041,1,0,0:0:0:0:
192,192,148275,1,0,0:0:0:0:
320,192,148275,1,0,0:0:0:0:
64,192,148393,1,0,0:0:0:0:
192,192,148510,1,0,0:0:0:0:
448,192,148510,1,0,0:0:0:0:
320,192,148627,1,0,0:0:0:0:
448,192,148627,1,0,0:0:0:0:
192,192,148744,1,0,0:0:0:0:
64,192,148861,1,0,0:0:0:0:
192,192,148978,1,0,0:0:0:0:
448,192,148978,1,0,0:0:0:0:
320,192,149096,1,0,0:0:0:0:
192,192,149096,1,0,0:0:0:0:
448,192,149213,1,0,0:0:0:0:
64,192,149330,1,0,0:0:0:0:
320,192,149330,1,0,0:0:0:0:
192,192,149447,1,0,0:0:0:0:
320,192,149564,1,0,0:0:0:0:
192,192,149682,1,0,0:0:0:0:
448,192,149682,1,0,0:0:0:0:
64,192,149799,1,0,0:0:0:0:
192,192,149916,1,0,0:0:0:0:
320,192,149916,1,0,0:0:0:0:
448,192,150033,1,0,0:0:0:0:
64,192,150150,128,0,150502:0:0:0:0:
192,192,150150,1,0,0:0:0:0:
320,192,150150,1,0,0:0:0:0:
320,192,150385,1,0,0:0:0:0:
192,192,150502,128,0,150853:0:0:0:0:
448,192,150502,1,0,0:0:0:0:
320,192,150619,1,0,0:0:0:0:
64,192,150736,1,0,0:0:0:0:
448,192,150853,128,0,151322:0:0:0:0:
320,192,150853,1,0,0:0:0:0:
192,192,150971,1,0,0:0:0:0:
64,192,151088,1,0,0:0:0:0:
192,192,151205,1,0,0:0:0:0:
320,192,151322,1,0,0:0:0:0:
192,192,151439,1,0,0:0:0:0:
448,192,151557,128,0,151791:0:0:0:0:
64,192,151557,1,0,0:0:0:0:
320,192,151557,1,0,0:0:0:0:
320,192,151791,128,0,152025:0:0:0:0:
192,192,151791,1,0,0:0:0:0:
64,192,151791,1,0,0:0:0:0:
448,192,152025,128,0,152494:0:0:0:0:
64,192,152025,1,0,0:0:0:0:
192,192,152025,1,0,0:0:0:0:
64,192,152260,1,0,0:0:0:0:
192,192,152377,1,0,0:0:0:0:
320,192,152494,128,0,152728:0:0:0:0:
64,192,152494,1,0,0:0:0:0:
448,192,152611,1,0,0:0:0:0:
64,192,152728,128,0,153432:0:0:0:0:
192,192,152728,1,0,0:0:0:0:
320,192,152846,1,0,0:0:0:0:
448,192,152963,1,0,0:0:0:0:
320,192,153080,1,0,0:0:0:0:
192,192,153197,1,0,0:0:0:0:
320,192,153314,1,0,0:0:0:0:
320,192,153432,128,0,153666:0:0:0:0:
192,192,153432,1,0,0:0:0:0:
448,192,153432,1,0,0:0:0:0:
448,192,153666,1,0,0:0:0:0:
64,192,153666,1,0,0:0:0:0:
192,192,153666,128,0,153900:0:0:0:0:
320,192,153900,128,0,153900:0:0:0:0:
448,192,153900,1,0,0:0:0:0:
64,192,154017,1,0,0:0:0:0:
192,192,154135,1,0,0:0:0:0:
448,192,154135,1,0,0:0:0:0:
320,192,154252,1,0,0:0:0:0:
448,192,154252,1,0,0:0:0:0:
192,192,154369,1,0,0:0:0:0:
64,192,154486,1,0,0:0:0:0:
192,192,154603,1,0,0:0:0:0:
448,192,154603,1,0,0:0:0:0:
320,192,154721,1,0,0:0:0:0:
192,192,154721,1,0,0:0:0:0:
448,192,154838,1,0,0:0:0:0:
64,192,154955,1,0,0:0:0:0:
320,192,154955,1,0,0:0:0:0:
192,192,155072,1,0,0:0:0:0:
320,192,155189,1,0,0:0:0:0:
192,192,155307,1,0,0:0:0:0:
448,192,155307,1,0,0:0:0:0:
64,192,155424,1,0,0:0:0:0:
192,192,155541,1,0,0:0:0:0:
320,192,155541,1,0,0:0:0:0:
448,192,155658,1,0,0:0:0:0:
448,192,155775,1,0,0:0:0:0:
64,192,155775,1,0,0:0:0:0:
192,192,155775,1,0,0:0:0:0:
320,192,155892,1,0,0:0:0:0:
64,192,156010,1,0,0:0:0:0:
192,192,156010,1,0,0:0:0:0:
320,192,156127,1,0,0:0:0:0:
448,192,156244,1,0,0:0:0:0:
64,192,156244,1,0,0:0:0:0:
192,192,156244,1,0,0:0:0:0:
192,192,156361,1,0,0:0:0:0:
64,192,156478,1,0,0:0:0:0:
320,192,156478,1,0,0:0:0:0:
448,192,156596,1,0,0:0:0:0:
64,192,156713,1,0,0:0:0:0:
320,192,156713,1,0,0:0:0:0:
192,192,156713,1,0,0:0:0:0:
192,192,156830,1,0,0:0:0:0:
448,192,156947,1,0,0:0:0:0:
64,192,156947,1,0,0:0:0:0:
320,192,156947,1,0,0:0:0:0:
320,192,157064,1,0,0:0:0:0:
448,192,157182,1,0,0:0:0:0:
192,192,157182,1,0,0:0:0:0:
64,192,157182,1,0,0:0:0:0:
64,192,157299,1,0,0:0:0:0:
448,192,157416,1,0,0:0:0:0:
192,192,157416,1,0,0:0:0:0:
320,192,157416,1,0,0:0:0:0:
448,192,157533,1,0,0:0:0:0:
64,192,157650,128,0,159525:0:0:0:0:
192,192,159525,1,0,0:0:0:0:
320,192,159525,1,0,0:0:0:0:
448,192,159525,1,0,0:0:0:0:
64,192,159642,1,0,0:0:0:0:
192,192,159760,1,0,0:0:0:0:
320,192,159760,1,0,0:0:0:0:
448,192,159877,1,0,0:0:0:0:
64,192,159994,1,0,0:0:0:0:
320,192,159994,1,0,0:0:0:0:
192,192,160111,1,0,0:0:0:0:
320,192,160228,1,0,0:0:0:0:
448,192,160228,1,0,0:0:0:0:
448,192,160346,1,0,0:0:0:0:
64,192,160463,1,0,0:0:0:0:
192,192,160463,1,0,0:0:0:0:
320,192,160580,1,0,0:0:0:0:
192,192,160697,1,0,0:0:0:0:
448,192,160697,1,0,0:0:0:0:
192,192,160814,1,0,0:0:0:0:
64,192,160931,1,0,0:0:0:0:
448,192,160931,1,0,0:0:0:0:
192,192,161049,1,0,0:0:0:0:
320,192,161166,1,0,0:0:0:0:
448,192,161166,1,0,0:0:0:0:
192,192,161283,1,0,0:0:0:0:
64,192,161400,1,0,0:0:0:0:
320,192,161400,1,0,0:0:0:0:
448,192,161400,1,0,0:0:0:0:
192,192,161517,1,0,0:0:0:0:
320,192,161635,1,0,0:0:0:0:
64,192,161635,1,0,0:0:0:0:
448,192,161752,1,0,0:0:0:0:
320,192,161869,1,0,0:0:0:0:
64,192,161869,1,0,0:0:0:0:
192,192,161986,1,0,0:0:0:0:
320,192,162103,1,0,0:0:0:0:
64,192,162103,1,0,0:0:0:0:
320,192,162221,1,0,0:0:0:0:
192,192,162338,1,0,0:0:0:0:
448,192,162338,1,0,0:0:0:0:
64,192,162455,1,0,0:0:0:0:
192,192,162572,1,0,0:0:0:0:
320,192,162572,1,0,0:0:0:0:
448,192,162689,1,0,0:0:0:0:
64,192,162806,1,0,0:0:0:0:
448,192,162806,1,0,0:0:0:0:
320,192,162924,1,0,0:0:0:0:
192,192,163041,1,0,0:0:0:0:
448,192,163041,1,0,0:0:0:0:
320,192,163158,1,0,0:0:0:0:
64,192,163275,1,0,0:0:0:0:
192,192,163275,1,0,0:0:0:0:
448,192,163275,1,0,0:0:0:0:
192,192,163392,1,0,0:0:0:0:
320,192,163510,1,0,0:0:0:0:
64,192,163510,1,0,0:0:0:0:
448,192,163627,1,0,0:0:0:0:
192,192,163744,1,0,0:0:0:0:
320,192,163744,1,0,0:0:0:0:
64,192,163861,1,0,0:0:0:0:
64,192,163978,1,0,0:0:0:0:
320,192,163978,1,0,0:0:0:0:
448,192,164096,1,0,0:0:0:0:
192,192,164213,1,0,0:0:0:0:
320,192,164213,1,0,0:0:0:0:
64,192,164330,1,0,0:0:0:0:
192,192,164447,1,0,0:0:0:0:
448,192,164447,1,0,0:0:0:0:
320,192,164564,1,0,0:0:0:0:
64,192,164681,1,0,0:0:0:0:
320,192,164681,1,0,0:0:0:0:
448,192,164799,1,0,0:0:0:0:
192,192,164916,1,0,0:0:0:0:
64,192,164916,1,0,0:0:0:0:
320,192,165033,1,0,0:0:0:0:
64,192,165150,1,0,0:0:0:0:
448,192,165150,1,0,0:0:0:0:
192,192,165150,1,0,0:0:0:0:
64,192,165267,1,0,0:0:0:0:
192,192,165385,1,0,0:0:0:0:
320,192,165385,1,0,0:0:0:0:
448,192,165502,1,0,0:0:0:0:
64,192,165619,1,0,0:0:0:0:
320,192,165619,1,0,0:0:0:0:
192,192,165736,1,0,0:0:0:0:
192,192,165853,1,0,0:0:0:0:
448,192,165853,1,0,0:0:0:0:
320,192,165971,1,0,0:0:0:0:
64,192,166088,1,0,0:0:0:0:
448,192,166088,1,0,0:0:0:0:
448,192,166205,1,0,0:0:0:0:
320,192,166322,1,0,0:0:0:0:
64,192,166322,1,0,0:0:0:0:
192,192,166439,1,0,0:0:0:0:
64,192,166556,1,0,0:0:0:0:
320,192,166556,1,0,0:0:0:0:
64,192,166674,1,0,0:0:0:0:
192,192,166791,1,0,0:0:0:0:
448,192,166791,1,0,0:0:0:0:
320,192,166908,1,0,0:0:0:0:
64,192,167025,1,0,0:0:0:0:
192,192,167025,1,0,0:0:0:0:
320,192,167025,1,0,0:0:0:0:
448,192,167142,1,0,0:0:0:0:
192,192,167260,1,0,0:0:0:0:
320,192,167260,1,0,0:0:0:0:
64,192,167377,1,0,0:0:0:0:
192,192,167494,1,0,0:0:0:0:
448,192,167494,1,0,0:0:0:0:
320,192,167611,1,0,0:0:0:0:
64,192,167728,1,0,0:0:0:0:
192,192,167728,1,0,0:0:0:0:
64,192,167846,1,0,0:0:0:0:
320,192,167963,1,0,0:0:0:0:
448,192,167963,1,0,0:0:0:0:
192,192,168080,1,0,0:0:0:0:
64,192,168197,1,0,0:0:0:0:
320,192,168197,1,0,0:0:0:0:
320,192,168314,1,0,0:0:0:0:
64,192,168431,1,0,0:0:0:0:
448,192,168431,1,0,0:0:0:0:
320,192,168549,1,0,0:0:0:0:
64,192,168666,1,0,0:0:0:0:
192,192,168666,1,0,0:0:0:0:
320,192,168783,1,0,0:0:0:0:
64,192,168900,1,0,0:0:0:0:
192,192,168900,1,0,0:0:0:0:
448,192,168900,1,0,0:0:0:0:
320,192,169017,1,0,0:0:0:0:
448,192,169135,1,0,0:0:0:0:
192,192,169135,1,0,0:0:0:0:
64,192,169252,1,0,0:0:0:0:
448,192,169369,1,0,0:0:0:0:
192,192,169369,1,0,0:0:0:0:
320,192,169486,1,0,0:0:0:0:
448,192,169603,1,0,0:0:0:0:
192,192,169603,1,0,0:0:0:0:
192,192,169720,1,0,0:0:0:0:
64,192,169838,1,0,0:0:0:0:
320,192,169838,1,0,0:0:0:0:
448,192,169955,1,0,0:0:0:0:
192,192,170072,1,0,0:0:0:0:
320,192,170072,1,0,0:0:0:0:
64,192,170189,1,0,0:0:0:0:
64,192,170306,1,0,0:0:0:0:
448,192,170306,1,0,0:0:0:0:
192,192,170424,1,0,0:0:0:0:
64,192,170541,1,0,0:0:0:0:
320,192,170541,1,0,0:0:0:0:
192,192,170658,1,0,0:0:0:0:
64,192,170775,1,0,0:0:0:0:
320,192,170775,1,0,0:0:0:0:
448,192,170775,1,0,0:0:0:0:
320,192,170892,1,0,0:0:0:0:
448,192,171010,1,0,0:0:0:0:
192,192,171010,1,0,0:0:0:0:
64,192,171127,1,0,0:0:0:0:
192,192,171244,1,0,0:0:0:0:
320,192,171244,1,0,0:0:0:0:
448,192,171361,1,0,0:0:0:0:
192,192,171478,1,0,0:0:0:0:
448,192,171478,1,0,0:0:0:0:
64,192,171595,1,0,0:0:0:0:
192,192,171713,1,0,0:0:0:0:
320,192,171713,1,0,0:0:0:0:
448,192,171830,1,0,0:0:0:0:
64,192,171947,1,0,0:0:0:0:
320,192,171947,1,0,0:0:0:0:
192,192,172064,1,0,0:0:0:0:
192,192,172181,1,0,0:0:0:0:
448,192,172181,1,0,0:0:0:0:
64,192,172299,1,0,0:0:0:0:
448,192,172416,1,0,0:0:0:0:
320,192,172416,1,0,0:0:0:0:
192,192,172533,1,0,0:0:0:0:
320,192,172650,1,0,0:0:0:0:
64,192,172650,1,0,0:0:0:0:
448,192,172650,1,0,0:0:0:0:
448,192,172767,1,0,0:0:0:0:
192,192,172885,1,0,0:0:0:0:
320,192,172885,1,0,0:0:0:0:
64,192,173002,1,0,0:0:0:0:
192,192,173119,1,0,0:0:0:0:
448,192,173119,1,0,0:0:0:0:
320,192,173236,1,0,0:0:0:0:
64,192,173353,1,0,0:0:0:0:
320,192,173353,1,0,0:0:0:0:
192,192,173470,1,0,0:0:0:0:
64,192,173588,1,0,0:0:0:0:
448,192,173588,1,0,0:0:0:0:
64,192,173705,1,0,0:0:0:0:
448,192,173822,1,0,0:0:0:0:
192,192,173822,1,0,0:0:0:0:
320,192,173939,1,0,0:0:0:0:
192,192,174056,1,0,0:0:0:0:
448,192,174056,1,0,0:0:0:0:
448,192,174174,1,0,0:0:0:0:
64,192,174291,1,0,0:0:0:0:
320,192,174291,1,0,0:0:0:0:
192,192,174408,1,0,0:0:0:0:
64,192,174525,1,0,0:0:0:0:
320,192,174525,1,0,0:0:0:0:
448,192,174525,1,0,0:0:0:0:
192,192,174642,1,0,0:0:0:0:
320,192,174760,1,0,0:0:0:0:
448,192,174760,1,0,0:0:0:0:
448,192,174877,1,0,0:0:0:0:
64,192,174994,1,0,0:0:0:0:
320,192,174994,1,0,0:0:0:0:
192,192,175111,1,0,0:0:0:0:
64,192,175228,1,0,0:0:0:0:
448,192,175228,1,0,0:0:0:0:
320,192,175345,1,0,0:0:0:0:
192,192,175463,1,0,0:0:0:0:
320,192,175463,1,0,0:0:0:0:
64,192,175580,1,0,0:0:0:0:
192,192,175697,1,0,0:0:0:0:
448,192,175697,1,0,0:0:0:0:
320,192,175814,1,0,0:0:0:0:
64,192,175931,1,0,0:0:0:0:
192,192,175931,1,0,0:0:0:0:
64,192,176049,1,0,0:0:0:0:
192,192,176166,1,0,0:0:0:0:
320,192,176166,1,0,0:0:0:0:
448,192,176283,1,0,0:0:0:0:
448,192,176400,1,0,0:0:0:0:
192,192,176400,1,0,0:0:0:0:
320,192,176400,1,0,0:0:0:0:
64,192,176517,1,0,0:0:0:0:
192,192,176634,1,0,0:0:0:0:
320,192,176634,1,0,0:0:0:0:
448,192,176752,1,0,0:0:0:0:
64,192,176869,1,0,0:0:0:0:
192,192,176869,1,0,0:0:0:0:
320,192,176986,1,0,0:0:0:0:
64,192,177103,1,0,0:0:0:0:
192,192,177103,1,0,0:0:0:0:
192,192,177220,1,0,0:0:0:0:
448,192,177338,1,0,0:0:0:0:
64,192,177338,1,0,0:0:0:0:
320,192,177455,1,0,0:0:0:0:
64,192,177572,1,0,0:0:0:0:
448,192,177572,1,0,0:0:0:0:
192,192,177689,1,0,0:0:0:0:
320,192,177806,1,0,0:0:0:0:
192,192,177806,1,0,0:0:0:0:
64,192,177924,1,0,0:0:0:0:
192,192,178041,1,0,0:0:0:0:
320,192,178041,1,0,0:0:0:0:
448,192,178158,1,0,0:0:0:0:
64,192,178275,1,0,0:0:0:0:
320,192,178275,1,0,0:0:0:0:
192,192,178275,1,0,0:0:0:0:
448,192,178392,1,0,0:0:0:0:
192,192,178509,1,0,0:0:0:0:
320,192,178509,1,0,0:0:0:0:
64,192,178627,1,0,0:0:0:0:
192,192,178744,1,0,0:0:0:0:
448,192,178744,1,0,0:0:0:0:
320,192,178861,1,0,0:0:0:0:
64,192,178978,1,0,0:0:0:0:
192,192,178978,1,0,0:0:0:0:
320,192,179095,1,0,0:0:0:0:
448,192,179213,1,0,0:0:0:0:
320,192,179213,1,0,0:0:0:0:
192,192,179330,1,0,0:0:0:0:
64,192,179447,1,0,0:0:0:0:
320,192,179447,1,0,0:0:0:0:
448,192,179564,1,0,0:0:0:0:
64,192,179681,1,0,0:0:0:0:
192,192,179681,1,0,0:0:0:0:
64,192,179799,1,0,0:0:0:0:
192,192,179916,1,0,0:0:0:0:
320,192,179916,1,0,0:0:0:0:
448,192,180033,1,0,0:0:0:0:
64,192,180150,1,0,0:0:0:0:
192,192,180150,1,0,0:0:0:0:
448,192,180150,1,0,0:0:0:0:
320,192,180267,1,0,0:0:0:0:
192,192,180384,1,0,0:0:0:0:
64,192,180384,1,0,0:0:0:0:
320,192,180502,1,0,0:0:0:0:
192,192,180619,1,0,0:0:0:0:
448,192,180619,1,0,0:0:0:0:
448,192,180736,1,0,0:0:0:0:
64,192,180853,1,0,0:0:0:0:
192,192,180853,1,0,0:0:0:0:
320,192,180970,1,0,0:0:0:0:
320,192,181088,1,0,0:0:0:0:
448,192,181088,1,0,0:0:0:0:
192,192,181205,1,0,0:0:0:0:
64,192,181205,1,0,0:0:0:0:
320,192,181322,1,0,0:0:0:0:
192,192,181439,1,0,0:0:0:0:
448,192,181439,1,0,0:0:0:0:
64,192,181556,1,0,0:0:0:0:
64,192,181674,1,0,0:0:0:0:
320,192,181791,1,0,0:0:0:0:
448,192,181791,1,0,0:0:0:0:
192,192,181908,1,0,0:0:0:0:
448,192,182025,1,0,0:1:0:0:
192,192,182025,1,0,0:1:0:0:
64,192,182025,1,0,0:1:0:0:
320,192,182142,1,0,0:1:0:0:
192,192,182259,1,0,0:1:0:0:
64,192,182259,1,0,0:1:0:0:
64,192,182377,1,0,0:1:0:0:
448,192,182494,1,0,0:1:0:0:
192,192,182494,1,0,0:1:0:0:
320,192,182611,1,0,0:1:0:0:
448,192,182728,1,0,0:1:0:0:
64,192,182728,1,0,0:1:0:0:
192,192,182845,1,0,0:1:0:0:
320,192,182963,1,0,0:1:0:0:
192,192,182963,1,0,0:1:0:0:
448,192,183080,1,0,0:1:0:0:
320,192,183197,1,0,0:1:0:0:
64,192,183197,1,0,0:1:0:0:
192,192,183314,1,0,0:1:0:0:
448,192,183431,1,0,0:1:0:0:
320,192,183431,1,0,0:1:0:0:
448,192,183549,1,0,0:1:0:0:
320,192,183666,1,0,0:1:0:0:
192,192,183666,1,0,0:1:0:0:
64,192,183783,1,0,0:1:0:0:
64,192,183900,1,0,0:1:0:0:
320,192,183900,1,0,0:1:0:0:
192,192,183900,1,0,0:1:0:0:
448,192,184017,1,0,0:1:0:0:
320,192,184134,1,0,0:1:0:0:
192,192,184134,1,0,0:1:0:0:
64,192,184252,1,0,0:1:0:0:
448,192,184369,1,0,0:1:0:0:
320,192,184369,1,0,0:1:0:0:
192,192,184486,1,0,0:1:0:0:
448,192,184603,1,0,0:1:0:0:
320,192,184603,1,0,0:1:0:0:
320,192,184720,1,0,0:1:0:0:
64,192,184838,1,0,0:1:0:0:
448,192,184838,1,0,0:1:0:0:
192,192,184955,1,0,0:1:0:0:
448,192,185072,1,0,0:1:0:0:
64,192,185072,1,0,0:1:0:0:
320,192,185189,1,0,0:1:0:0:
192,192,185306,1,0,0:1:0:0:
320,192,185306,1,0,0:1:0:0:
448,192,185423,1,0,0:1:0:0:
320,192,185541,1,0,0:1:0:0:
192,192,185541,1,0,0:1:0:0:
64,192,185658,1,0,0:1:0:0:
448,192,185775,1,0,0:1:0:0:
192,192,185775,1,0,0:1:0:0:
320,192,185775,1,0,0:1:0:0:
64,192,185892,1,0,0:1:0:0:
320,192,186009,1,0,0:1:0:0:
192,192,186009,1,0,0:1:0:0:
448,192,186127,1,0,0:1:0:0:
320,192,186244,1,0,0:1:0:0:
64,192,186244,1,0,0:1:0:0:
192,192,186361,1,0,0:1:0:0:
448,192,186478,1,0,0:1:0:0:
320,192,186478,1,0,0:1:0:0:
192,192,186595,1,0,0:1:0:0:
64,192,186713,1,0,0:1:0:0:
192,192,186713,1,0,0:1:0:0:
320,192,186830,1,0,0:1:0:0:
448,192,186947,1,0,0:1:0:0:
192,192,186947,1,0,0:1:0:0:
64,192,187064,1,0,0:1:0:0:
448,192,187181,1,0,0:1:0:0:
320,192,187181,1,0,0:1:0:0:
448,192,187298,1,0,0:1:0:0:
320,192,187416,1,0,0:1:0:0:
192,192,187416,1,0,0:1:0:0:
64,192,187533,1,0,0:1:0:0:
448,192,187650,1,0,0:1:0:0:
320,192,187650,1,0,0:1:0:0:
64,192,187650,1,0,0:1:0:0:
192,192,187767,1,0,0:1:0:0:
320,192,187884,1,0,0:1:0:0:
448,192,187884,1,0,0:1:0:0:
192,192,188002,1,0,0:1:0:0:
64,192,188119,1,0,0:1:0:0:
320,192,188119,128,0,188588:0:0:0:0:
448,192,188119,1,0,0:0:0:0:
192,192,188236,1,0,0:1:0:0:
448,192,188353,1,0,0:1:0:0:
64,192,188353,1,0,0:1:0:0:
192,192,188470,1,0,0:0:0:0:
448,192,188588,1,0,0:1:0:0:
64,192,188588,128,0,188822:0:0:0:0:
192,192,188705,1,0,0:1:0:0:
192,192,188822,128,0,189291:0:0:0:0:
320,192,188822,1,0,0:0:0:0:
448,192,188939,1,0,0:1:0:0:
320,192,189056,1,0,0:1:0:0:
64,192,189056,1,0,0:0:0:0:
448,192,189173,1,0,0:1:0:0:
64,192,189291,1,0,0:1:0:0:
448,192,189291,128,0,189525:0:0:0:0:
320,192,189408,1,0,0:0:0:0:
192,192,189525,128,0,191283:0:0:0:0:
448,192,189994,128,0,191283:0:0:0:0:
320,192,190228,128,0,191283:0:0:0:0:
320,192,191400,128,0,193158:0:0:0:0:
64,192,191839,128,0,193158:0:0:0:0:
192,192,192103,128,0,193158:0:0:0:0:
448,192,193275,128,0,197025:0:0:0:0:
64,192,193275,128,0,196791:0:0:0:0:
192,192,193275,128,0,196869:0:0:0:0:
320,192,193275,128,0,196947:0:0:0:0:
