osu file format v14

[General]
AudioFilename: audio.mp3
AudioLeadIn: 0
PreviewTime: 33177
Countdown: 0
SampleSet: Soft
StackLeniency: 0.3
Mode: 0
LetterboxInBreaks: 0
WidescreenStoryboard: 1

[Editor]
Bookmarks: 160,16711,31884,33263,44297,55332,66366,77401,88435,96711,99470,110504,121539,124297,127056
DistanceSpacing: 0.9
BeatDivisor: 4
GridSize: 32
TimelineZoom: 1.7

[Metadata]
Title:Gravity Hole
TitleUnicode:Gravity Hole
Artist:Krimek feat. dokxid
ArtistUnicode:Krimek feat. dokxid
Creator:Nytrocide_
Version:Normal
Source:
Tags:nytro ganyumymommy pishifat pishi -sylvari krimek daycore electronic instrumental featured artist fa atmospheric breakcore GALAXY OF MIND/MINE MIND/E MIND MINE
BeatmapID:4119361
BeatmapSetID:1983505

[Difficulty]
HPDrainRate:4
CircleSize:3.8
OverallDifficulty:5
ApproachRate:5.6
SliderMultiplier:1
SliderTickRate:1

[Events]
//Background and Video events
0,0,"breaker corer.jpg",0,0
//Break Periods
2,55532,65166
2,96911,98360
//Storyboard Layer 0 (Background)
//Storyboard Layer 1 (Fail)
//Storyboard Layer 2 (Pass)
//Storyboard Layer 3 (Foreground)
//Storyboard Layer 4 (Overlay)
//Storyboard Sound Samples

[TimingPoints]
160,344.827586206897,4,2,1,50,1,0
160,-100,4,2,1,50,0,0
16711,-100,4,2,1,50,0,0
31884,-100,4,2,1,60,0,0
32573,-100,4,2,1,76,0,0
32746,-100,4,2,1,10,0,0
32832,-100,4,2,2,20,0,0
32918,-100,4,2,1,30,0,0
33004,-100,4,2,2,40,0,0
33091,-100,4,2,1,50,0,0
33177,-100,4,2,2,65,0,0
33263,-100,4,2,1,80,0,0
44297,-100,4,2,1,80,0,0
55332,-100,4,2,1,50,0,0
66366,-100,4,2,1,50,0,0
77401,-100,4,2,1,50,0,0
88435,-100,4,2,1,50,0,0
96711,-100,4,2,1,60,0,0
99470,-100,4,2,1,80,0,0
110504,-100,4,2,1,80,0,0
121539,-100,4,2,1,60,0,0

[Colours]
Combo1 : 110,100,160
Combo2 : 200,80,130

[HitObjects]
51,88,16711,6,0,P|88:152|112:223,1,150,2|2,0:0|0:0,0:0:0:0:
72,306,17573,1,2,0:0:0:0:
72,306,17746,2,0,P|87:351|136:361,2,100,2|2|2,0:0|0:0|0:0,0:0:0:0:
138,245,18780,2,0,L|254:225,1,100,2|2,0:0|0:0,0:0:0:0:
279,243,19297,1,2,0:0:0:0:
279,243,19470,2,0,B|315:209|315:209|341:96,1,150,2|0,0:0|0:0,0:0:0:0:
313,72,20160,1,0,0:0:0:0:
391,27,20504,2,0,P|450:22|481:101,1,150,2|0,0:0|0:0,0:0:0:0:
451,128,21194,1,2,0:0:0:0:
486,210,21539,2,0,L|544:225,2,50,2|2|2,0:0|0:0|0:0,0:0:0:0:
421,273,22228,6,0,P|358:293|295:350,1,150,2|2,0:0|0:0,0:0:0:0:
227,298,23091,1,2,0:0:0:0:
227,298,23263,2,0,P|187:289|171:218,1,100,2|2,0:0|0:0,0:0:0:0:
190,202,23780,1,2,0:0:0:0:
190,202,23953,2,0,L|250:185,2,50,2|2|2,0:0|0:0|0:0,0:0:0:0:
117,149,24642,2,0,L|100:77,1,50,2|2,0:0|0:0,0:0:0:0:
124,59,24987,2,0,B|141:30|141:30|263:1,1,150,2|2,0:0|0:0,0:0:0:0:
296,19,25677,1,2,0:0:0:0:
270,105,26022,2,0,L|283:169,1,50,2|0,0:0|0:0,0:0:0:0:
318,177,26366,2,0,L|279:334,1,150,2|0,0:0|0:0,0:0:0:0:
302,362,27056,2,0,L|349:376,2,50,2|2|2,0:0|0:0|0:0,0:0:0:0:
213,384,27746,6,0,B|186:359|149:362|149:362|149:357|149:357|102:360|74:322,1,150,2|2,0:0|0:0,0:0:0:0:
5,293,28608,1,2,0:0:0:0:
5,293,28780,2,0,L|19:225,1,50,2|2,0:0|0:0,0:0:0:0:
48,214,29125,2,0,P|43:171|-7:149,2,100,2|2|2,0:0|0:0|0:0,0:0:0:0:
129,253,30160,2,0,P|140:245|178:232,1,50,2|2,0:0|0:0,0:0:0:0:
217,244,30504,2,0,P|279:231|272:150,1,150,2|0,0:0|0:0,0:0:0:0:
238,134,31194,1,2,0:0:0:0:
270,49,31539,2,0,B|275:41|275:41|380:24,1,100,2|0,0:0|3:0,0:0:0:0:
487,218,33263,5,6,3:2:0:0:
487,218,33435,1,2,3:2:0:0:
453,180,33608,2,0,P|399:166|352:126,1,100,8|2,0:0|3:0,0:0:0:0:
313,144,34125,1,2,3:2:0:0:
252,223,34470,2,0,P|208:238|191:294,1,100,8|0,0:0|3:0,0:0:0:0:
218,326,34987,1,8,0:0:0:0:
138,384,35332,1,0,3:2:0:0:
138,384,35504,2,0,L|24:355,1,100,8|0,0:0|3:0,0:0:0:0:
16,315,36022,6,0,L|32:252,1,50,0|0,3:0|3:0,0:0:0:0:
68,237,36366,2,0,L|41:131,1,100,8|2,0:0|0:0,0:0:0:0:
0,114,36884,1,0,3:0:0:0:
52,29,37228,2,0,B|100:11|100:11|102:14|102:14|146:36,1,100,8|2,0:0|0:0,0:0:0:0:
168,77,37746,2,0,B|188:87|188:87|189:88|189:88|213:79,1,50,8|2,0:0|0:0,0:0:0:0:
248,43,38091,1,0,3:0:0:0:
248,43,38263,1,8,0:0:0:0:
335,101,38608,5,0,3:0:0:0:
335,101,38780,2,0,L|351:157,1,50,0|0,3:0|3:0,0:0:0:0:
322,191,39125,2,0,P|259:198|238:244,1,100,8|2,0:0|0:0,0:0:0:0:
239,275,39642,1,2,3:2:0:0:
313,341,39987,2,0,P|362:312|412:299,1,100,8|0,0:0|3:0,0:0:0:0:
454,318,40504,1,8,0:0:0:0:
454,318,40677,2,0,L|478:387,2,50,8|0|8,0:0|3:2|0:0,0:0:0:0:
501,231,41366,5,0,3:0:0:0:
501,231,41539,2,0,L|515:169,1,50,0|0,3:2|3:0,0:0:0:0:
474,148,41884,2,0,B|452:50,1,100,8|2,0:0|0:0,0:0:0:0:
407,27,42401,1,2,3:2:0:0:
332,93,42746,2,0,B|284:105|284:105|283:109|283:109|224:124,1,100,8|2,0:0|0:0,0:0:0:0:
204,158,43263,2,0,B|181:153|181:153|181:151|181:151|157:145,1,50,8|2,0:0|0:0,0:0:0:0:
131,102,43608,1,2,3:2:0:0:
131,102,43780,1,8,0:0:0:0:
54,164,44125,5,2,3:2:0:0:
54,164,44297,2,0,L|70:224,1,50,6|2,3:2|3:2,0:0:0:0:
103,247,44642,2,0,P|164:256|181:288,1,100,8|2,0:0|3:0,0:0:0:0:
172,335,45160,1,2,3:2:0:0:
260,380,45504,2,0,P|294:386|329:326,1,100,8|0,0:0|3:0,0:0:0:0:
316,291,46022,1,8,0:0:0:0:
403,240,46366,1,0,3:2:0:0:
403,240,46539,2,0,P|418:188|447:134,1,100,8|0,0:0|3:0,0:0:0:0:
476,114,47056,6,0,L|464:59,1,50,0|0,3:0|3:0,0:0:0:0:
426,33,47401,2,0,L|328:54,1,100,8|2,0:0|0:0,0:0:0:0:
284,28,47918,1,0,3:0:0:0:
243,119,48263,2,0,B|203:126|206:131|197:207,1,100,8|2,0:0|0:0,0:0:0:0:
234,230,48780,2,0,B|254:233|252:235|257:273,1,50,8|2,0:0|0:0,0:0:0:0:
237,316,49125,1,0,3:0:0:0:
237,316,49297,1,8,0:0:0:0:
141,319,49642,5,0,3:0:0:0:
141,319,49815,2,0,P|109:328|91:354,1,50,0|0,3:0|3:0,0:0:0:0:
74,384,50160,2,0,P|20:370|10:317,1,100,8|2,0:0|0:0,0:0:0:0:
14,282,50677,1,2,3:2:0:0:
82,208,51022,2,0,P|79:200|58:100,1,100,8|0,0:0|3:0,0:0:0:0:
20,78,51539,1,8,0:0:0:0:
82,0,51884,1,0,3:2:0:0:
82,0,52056,2,0,P|111:-10|159:39,1,100,8|0,0:0|3:0,0:0:0:0:
189,77,52573,1,0,3:2:0:0:
189,77,52746,2,0,L|171:135,2,50,0|8|2,3:0|0:0|0:0,0:0:0:0:
269,17,53435,6,0,L|327:35,1,50,2|2,3:2|0:0,0:0:0:0:
364,16,53780,2,0,B|385:13|385:13|400:103,1,100,8|2,0:0|0:0,0:0:0:0:
361,125,54297,2,0,B|350:123|350:123|343:168,1,50,8|2,0:0|0:0,0:0:0:0:
365,211,54642,1,2,3:2:0:0:
365,211,54815,1,8,0:0:0:0:
456,253,55160,2,0,L|521:231,1,50,2|2,3:2|0:0,0:0:0:0:
386,181,66366,5,2,0:0:0:0:
386,181,66538,2,0,P|339:196|330:299,1,150,0|2,0:0|0:0,0:0:0:0:
265,357,67401,1,2,0:0:0:0:
265,357,67573,2,0,L|159:381,1,100,2|2,0:0|3:2,0:0:0:0:
130,352,68091,2,0,L|32:329,1,100,8|2,0:0|0:0,0:0:0:0:
0,246,68780,1,2,0:0:0:0:
74,194,69125,5,2,3:2:0:0:
74,194,69297,2,0,P|85:172|98:91,1,100,2|2,0:2|0:0,0:0:0:0:
120,58,69815,2,0,P|116:33|3:21,2,150,2|2|8,0:0|0:0|0:0,0:0:0:0:
204,90,71194,2,0,P|227:78|260:68,2,50,2|8|2,0:0|0:0|0:0,0:0:0:0:
169,175,71884,5,2,0:0:0:0:
169,175,72056,2,0,P|153:217|224:285,1,150,0|2,0:0|0:0,0:0:0:0:
304,252,72918,1,2,0:0:0:0:
304,252,73091,2,0,L|319:350,1,100,2|2,0:0|3:2,0:0:0:0:
356,377,73608,2,0,L|454:361,1,100,8|2,0:0|0:0,0:0:0:0:
512,288,74297,1,2,0:0:0:0:
441,241,74642,5,2,3:2:0:0:
441,241,74815,2,0,P|420:201|459:152,1,100,2|2,0:2|0:0,0:0:0:0:
486,137,75332,2,0,P|494:82|521:-9,2,150,2|2|8,0:0|0:0|0:0,0:0:0:0:
401,160,76711,1,2,0:0:0:0:
401,160,76884,2,0,P|383:145|335:132,1,50,8|2,0:0|0:0,0:0:0:0:
276,170,77401,6,0,L|263:218,2,50,2|0|8,0:0|0:0|0:0,0:0:0:0:
246,84,78091,2,0,P|247:57|190:27,1,100,2|2,0:0|0:0,0:0:0:0:
104,0,78780,1,2,3:2:0:0:
70,84,79125,2,0,B|66:76|66:76|-3:66|-3:66|-24:36,2,100,8|2|2,0:0|0:0|0:0,0:0:0:0:
53,175,80160,5,2,3:2:0:0:
53,175,80332,2,0,B|45:186|45:186|76:246|76:246|94:247,1,100,2|2,0:2|0:0,0:0:0:0:
128,277,80849,2,0,B|239:313|239:313|266:294,2,150,2|2|8,0:0|0:0|0:0,0:0:0:0:
160,193,82228,2,0,L|129:128,2,50,2|8|2,0:0|0:0|0:0,0:0:0:0:
241,153,82918,6,0,L|254:85,2,50,2|0|8,0:0|0:0|0:0,0:0:0:0:
304,216,83608,2,0,P|342:215|369:273,1,100,2|2,0:0|0:0,0:0:0:0:
313,333,84297,2,0,L|253:341,2,50,2|2|8,3:2|3:2|0:0,0:0:0:0:
389,383,84987,2,0,P|427:384|454:326,1,100,2|2,0:0|0:0,0:0:0:0:
504,260,85677,5,2,3:2:0:0:
504,260,85849,2,0,B|525:237|525:237|505:154,1,100,2|2,0:2|0:0,0:0:0:0:
480,135,86366,2,0,B|471:102|471:102|525:46|525:46|513:0,2,150,2|2|8,0:0|0:0|0:0,0:0:0:0:
400,177,87746,2,0,L|416:239,2,50,2|8|2,0:0|0:0|0:0,0:0:0:0:
341,108,88435,6,0,P|354:72|390:68,2,50,2|0|8,0:0|0:0|0:0,0:0:0:0:
259,147,89125,2,0,P|247:123|173:125,1,100,2|2,0:0|0:0,0:0:0:0:
161,158,89642,2,0,P|149:182|75:180,1,100,2|2,0:0|3:2,0:0:0:0:
46,160,90160,2,0,L|28:61,2,100,8|2|2,0:0|0:0|0:0,0:0:0:0:
0,239,91194,5,2,0:0:0:0:
0,239,91366,2,0,B|-20:269|-20:269|-3:347,1,100,0|2,0:0|0:0,0:0:0:0:
28,361,91884,1,2,0:0:0:0:
102,309,92228,1,2,0:0:0:0:
102,309,92401,2,0,L|211:286,1,100,2|2,0:0|3:2,0:0:0:0:
231,256,92918,2,0,P|234:222|181:191,2,100,8|2|2,0:0|0:0|0:0,0:0:0:0:
289,325,93953,6,0,L|301:376,2,50,2|0|8,0:0|0:0|0:0,0:0:0:0:
361,271,94642,2,0,B|407:280|407:280|410:277|410:277|473:289,1,100,2|2,0:0|0:0,0:0:0:0:
497,264,95160,2,0,B|506:218|506:218|503:215|503:215|515:152,1,100,2|2,0:0|3:2,0:0:0:0:
490,127,95677,2,0,P|488:87|545:66,2,100,8|2|2,0:0|0:0|0:0,0:0:0:0:
419,183,96711,5,0,3:2:0:0:
179,148,99470,5,6,3:2:0:0:
179,148,99642,1,2,3:2:0:0:
131,132,99815,2,0,P|79:153|85:221,1,100,8|2,0:0|3:0,0:0:0:0:
49,237,100332,1,2,3:2:0:0:
120,307,100677,2,0,P|183:277|245:265,1,100,8|0,0:0|3:0,0:0:0:0:
259,284,101194,2,0,L|274:331,1,50,8|2,0:0|0:0,0:0:0:0:
324,353,101539,1,0,3:2:0:0:
324,353,101711,1,8,0:0:0:0:
382,273,102056,5,0,3:0:0:0:
382,273,102228,2,0,L|361:209,1,50,0|0,3:0|3:0,0:0:0:0:
325,196,102573,2,0,L|360:66,1,100,8|2,0:0|0:0,0:0:0:0:
389,66,103091,1,0,3:0:0:0:
312,2,103435,2,0,B|305:-5|305:-5|271:-14|271:-14|214:19,1,100,8|2,0:0|0:0,0:0:0:0:
208,61,103953,2,0,B|205:65|205:65|191:75|191:75|158:69,1,50,8|2,0:0|0:0,0:0:0:0:
130,40,104297,1,0,3:0:0:0:
130,40,104470,1,8,0:0:0:0:
52,102,104815,5,0,3:0:0:0:
52,102,104987,2,0,L|30:185,1,50,0|0,3:0|3:0,0:0:0:0:
72,187,105332,2,0,L|98:287,1,100,8|2,0:0|0:0,0:0:0:0:
76,329,105849,1,2,3:2:0:0:
160,384,106194,2,0,B|203:374|203:374|207:368|207:368|276:351,1,100,8|0,0:0|3:0,0:0:0:0:
290,322,106711,2,0,L|364:340,2,50,8|8|0,0:0|0:0|3:2,0:0:0:0:
267,277,107228,1,8,0:0:0:0:
301,185,107573,5,0,3:0:0:0:
301,185,107746,2,0,L|281:129,1,50,0|0,3:2|3:0,0:0:0:0:
246,105,108091,2,0,P|256:51|314:37,1,100,8|2,0:0|0:0,0:0:0:0:
338,55,108608,1,2,3:2:0:0:
422,1,108953,2,0,B|472:-9|472:-9|512:37,1,100,8|2,0:0|0:0,0:0:0:0:
509,77,109470,2,0,B|514:102|514:102|491:122,1,50,8|2,0:0|0:0,0:0:0:0:
452,140,109815,1,2,3:2:0:0:
452,140,109987,1,8,0:0:0:0:
490,237,110332,5,2,3:2:0:0:
490,237,110504,2,0,P|490:266|473:306,1,50,6|2,3:2|3:2,0:0:0:0:
446,319,110849,2,0,P|408:329|357:260,1,100,8|2,0:0|3:0,0:0:0:0:
346,248,111366,1,2,3:2:0:0:
255,291,111711,2,0,L|124:271,1,100,8|0,0:0|3:0,0:0:0:0:
121,240,112228,2,0,B|114:215|114:215|134:190,1,50,8|2,0:0|0:0,0:0:0:0:
177,178,112573,1,0,3:2:0:0:
177,178,112746,1,8,0:0:0:0:
202,83,113091,5,0,3:0:0:0:
202,83,113263,2,0,L|184:14,1,50,0|0,3:0|3:0,0:0:0:0:
145,10,113608,2,0,L|35:36,1,100,8|2,0:0|0:0,0:0:0:0:
24,77,114125,1,0,3:0:0:0:
59,170,114470,2,0,P|15:205|14:247,1,100,8|2,0:0|0:0,0:0:0:0:
48,281,114987,2,0,P|59:306|79:312,1,50,8|2,0:0|0:0,0:0:0:0:
130,299,115332,1,0,3:0:0:0:
130,299,115504,1,8,0:0:0:0:
196,380,115849,5,0,3:0:0:0:
196,380,116022,2,0,L|260:370,1,50,0|0,3:0|3:0,0:0:0:0:
278,335,116366,2,0,L|259:224,1,100,8|2,0:0|0:0,0:0:0:0:
220,206,116884,1,2,3:2:0:0:
262,115,117228,2,0,P|329:138|394:140,1,100,8|0,0:0|3:0,0:0:0:0:
393,105,117746,2,0,P|402:68|465:55,1,100,8|0,0:0|3:2,0:0:0:0:
495,82,118263,1,8,0:0:0:0:
512,185,118608,5,0,3:0:0:0:
512,185,118780,2,0,L|499:249,1,50,0|0,3:2|3:0,0:0:0:0:
466,269,119125,2,0,L|352:297,1,100,8|2,0:0|0:0,0:0:0:0:
324,269,119642,1,2,3:2:0:0:
255,342,119987,2,0,B|242:341|242:341|201:276|201:276|190:274,1,100,8|2,0:0|0:0,0:0:0:0:
158,236,120504,2,0,B|153:239|153:239|116:230|116:230|111:234,1,50,8|2,0:0|0:0,0:0:0:0:
71,262,120849,1,2,3:2:0:0:
71,262,121022,1,8,0:0:0:0:
0,192,121366,2,0,L|14:144,1,50,2|0,3:2|3:0,0:0:0:0:
