osu file format v14

[General]
AudioFilename: audio.mp3
AudioLeadIn: 0
PreviewTime: 33177
Countdown: 0
SampleSet: Soft
StackLeniency: 0.3
Mode: 0
LetterboxInBreaks: 0
WidescreenStoryboard: 0

[Editor]
Bookmarks: 160,16711,31884,33263,44297,55332,66366,77401,88435,96711,99470,110504,121539,124297
DistanceSpacing: 0.9
BeatDivisor: 4
GridSize: 32
TimelineZoom: 3.099999

[Metadata]
Title:Gravity Hole
TitleUnicode:Gravity Hole
Artist:Krimek feat. dokxid
ArtistUnicode:Krimek feat. dokxid
Creator:Nytrocide_
Version:Interstellar
Source:
Tags:nytro ganyumymommy pishifat pishi -sylvari krimek daycore electronic instrumental featured artist fa atmospheric breakcore GALAXY OF MIND/MINE MIND/E MIND MINE
BeatmapID:4119360
BeatmapSetID:1983505

[Difficulty]
HPDrainRate:4
CircleSize:6
OverallDifficulty:9
ApproachRate:8
SliderMultiplier:1.6
SliderTickRate:1

[Events]
//Background and Video events
0,0,"breaker corer.jpg",0,0
//Break Periods
//Storyboard Layer 0 (Background)
//Storyboard Layer 1 (Fail)
//Storyboard Layer 2 (Pass)
//Storyboard Layer 3 (Foreground)
//Storyboard Layer 4 (Overlay)
//Storyboard Sound Samples

[TimingPoints]
160,344.827586206897,4,2,1,50,1,0
160,-200,4,2,1,50,0,0
1194,-166.666666666667,4,2,1,50,0,0
2573,-200,4,2,1,50,0,0
4297,-1000,4,2,1,50,0,0
4987,-200,4,2,1,50,0,0
5677,-200,4,2,1,50,0,0
6711,-166.666666666667,4,2,1,50,0,0
8435,-200,4,2,1,50,0,0
11194,-153.846153846154,4,2,1,50,0,0
12228,-133.333333333333,4,2,1,50,0,0
13608,-153.846153846153,4,2,1,50,0,0
15332,-666.666666666667,4,2,1,50,0,0
16022,-153.846153846154,4,2,1,50,0,0
16711,-153.846153846154,4,2,1,50,0,0
21884,-181.818181818182,4,2,1,50,0,0
22228,-153.846153846154,4,2,1,50,0,0
24987,-153.846153846154,4,2,1,50,0,0
26022,-175.438596491228,4,2,1,50,0,0
26366,-666.666666666671,4,2,1,50,0,0
27056,-153.846153846154,4,2,1,50,0,0
27746,-153.846153846154,4,2,1,50,0,0
31884,-100,4,2,1,60,0,0
32573,-117.647058823529,4,2,1,76,0,0
32746,-117.647058823529,4,2,1,76,0,0
32832,-117.647058823529,4,2,2,20,0,0
32918,-117.647058823529,4,2,1,30,0,0
33004,-117.647058823529,4,2,2,40,0,0
33091,-117.647058823529,4,2,1,50,0,0
33177,-117.647058823529,4,2,2,65,0,0
33220,-117.647058823529,4,2,2,5,0,0
33263,-100,4,2,1,80,0,0
44297,-90.9090909090909,4,2,1,80,0,0
55332,-133.333333333333,4,2,1,50,0,0
66366,-133.333333333333,4,2,1,50,0,0
77401,-133.333333333333,4,2,1,50,0,0
88435,-133.333333333333,4,2,1,50,0,0
96711,-153.846153846153,4,2,1,60,0,0
98780,-153.846153846153,4,2,1,60,0,0
99427,-153.846153846153,4,2,1,5,0,0
99470,-100,4,2,1,80,0,0
110504,-100,4,2,1,80,0,0
121539,-133.333333333333,4,2,1,60,0,0
124297,-1000,4,2,1,60,0,0

[Colours]
Combo1 : 110,100,160
Combo2 : 200,80,130

[HitObjects]
229,27,160,6,0,P|249:57|263:104,1,80,2|0,0:0|0:0,0:0:0:0:
368,147,677,2,0,P|334:157|322:187,1,60,2|0,0:0|0:0,0:0:0:0:
289,225,1022,2,0,L|278:220,2,10,2|0|0,0:0|0:0|0:0,0:0:0:0:
295,235,1194,6,0,P|304:160|322:107,1,120,2|0,0:0|0:0,0:0:0:0:
354,73,1711,5,2,0:0:0:0:
183,151,1884,5,2,0:0:0:0:
239,170,2056,1,2,0:0:0:0:
336,286,2228,5,2,0:0:0:0:
392,305,2400,1,2,0:0:0:0:
329,295,2573,6,0,L|298:306,1,20,2|0,0:0|0:0,0:0:0:0:
215,372,2746,1,2,0:0:0:0:
114,333,2918,6,0,B|159:346|159:346|160:348|160:348|223:367,1,100,2|0,0:0|0:0,0:0:0:0:
259,330,3435,5,2,0:0:0:0:
60,379,3608,2,0,B|57:377|57:377|41:310,1,70,2|0,0:0|0:0,0:0:0:0:
41,312,3953,6,0,B|18:332|18:332|40:298,1,60,2|0,0:0|0:0,0:0:0:0:
72,259,4297,6,0,L|66:230,1,28,2|0,0:0|0:0,0:0:0:0:
70,222,4987,5,2,0:0:0:0:
0,252,5160,1,2,0:0:0:0:
138,239,5332,6,0,B|146:252|146:252|159:244|159:244|151:230|151:230|138:239,1,60,2|0,0:0|0:0,0:0:0:0:
131,237,5677,6,0,P|180:251|218:270,1,80,2|0,0:0|0:0,0:0:0:0:
283,362,6194,2,0,P|313:341|305:308,1,60,2|0,0:0|0:0,0:0:0:0:
279,267,6539,2,0,L|282:254,2,10,2|0|0,0:0|0:0|0:0,0:0:0:0:
270,275,6711,5,2,0:0:0:0:
366,368,6884,1,2,0:0:0:0:
375,379,7056,6,0,P|411:363|450:352,1,71.9999978027344,2|0,0:0|0:0,0:0:0:0:
483,308,7401,2,0,P|456:286|460:252,1,71.9999978027344,2|0,0:0|0:0,0:0:0:0:
494,251,7746,6,0,L|456:244,1,23.9999992675781,2|0,0:0|0:0,0:0:0:0:
328,210,7918,1,2,0:0:0:0:
419,131,8091,5,2,0:0:0:0:
423,142,8263,1,2,0:0:0:0:
478,118,8435,6,0,P|442:170|425:220,1,100,2|0,0:0|0:0,0:0:0:0:
415,266,8953,1,2,0:0:0:0:
325,46,9125,1,2,0:0:0:0:
478,118,9470,6,0,P|442:170|425:220,1,100,2|0,0:0|0:0,0:0:0:0:
415,266,9987,1,2,0:0:0:0:
325,46,10159,1,2,0:0:0:0:
478,118,10504,5,2,0:0:0:0:
383,33,10677,1,2,0:0:0:0:
385,25,10763,1,2,0:0:0:0:
391,20,10849,2,0,P|413:55|424:89,1,70,2|0,0:0|0:0,0:0:0:0:
422,81,11194,6,0,P|377:60|307:43,1,103.999995239258,2|0,0:0|0:0,0:0:0:0:
236,155,11711,2,0,P|228:187|173:186,1,77.9999964294435,2|0,0:0|0:0,0:0:0:0:
169,126,12056,2,0,L|155:124,2,12.9999994049073,2|0|0,0:0|0:0|0:0,0:0:0:0:
179,133,12228,6,0,P|218:202|247:282,1,150.000005722046,2|0,0:0|0:0,0:0:0:0:
251,327,12746,5,2,0:0:0:0:
58,199,12918,5,2,0:0:0:0:
122,184,13091,1,2,0:0:0:0:
204,73,13263,5,2,0:0:0:0:
268,88,13436,1,2,0:0:0:0:
198,63,13608,6,0,L|160:73,1,25.9999988098145,2|0,0:0|0:0,0:0:0:0:
24,95,13780,1,2,0:0:0:0:
156,124,13953,6,0,B|150:127|150:127|41:86|41:86|34:88,1,129.999994049073,2|0,0:0|0:0,0:0:0:0:
0,34,14470,5,2,0:0:0:0:
163,0,14642,2,0,B|176:2|176:2|198:63,1,77.9999964294435,2|0,0:0|0:0,0:0:0:0:
198,63,14987,6,0,B|225:42|225:42|230:44|230:44|198:79,1,77.9999964294435,2|0,0:0|0:0,0:0:0:0:
164,117,15332,6,0,L|179:160,1,41.9999987182618,2|0,0:0|0:0,0:0:0:0:
186,163,16022,5,2,0:0:0:0:
101,162,16194,1,2,0:0:0:0:
253,108,16366,6,0,B|257:94|257:94|284:104|284:104|279:117|279:117|253:108,1,77.9999964294435,2|0,0:0|0:0,0:0:0:0:
240,112,16711,6,0,B|285:129|285:129|291:127|291:127|346:146,1,103.999995239258,2|0,0:0|0:0,0:0:0:0:
489,39,17228,6,0,B|454:51|454:51|450:50|450:50|415:62,1,77.9999964294435,2|0,0:0|0:0,0:0:0:0:
344,154,17573,1,2,0:0:0:0:
417,0,17746,5,2,0:0:0:0:
405,59,17918,1,2,0:0:0:0:
393,119,18091,5,2,0:0:0:0:
450,247,18435,1,2,0:0:0:0:
507,375,18780,1,2,0:0:0:0:
417,0,19125,5,2,0:0:0:0:
405,59,19297,1,2,0:0:0:0:
393,119,19470,6,0,P|332:141|254:192,1,155.999992858887,2|0,0:0|0:0,0:0:0:0:
190,291,20160,1,0,0:0:0:0:
393,119,20504,6,0,P|332:141|254:192,1,155.999992858887,2|0,0:0|0:0,0:0:0:0:
190,291,21194,1,2,0:0:0:0:
393,119,21539,5,2,0:0:0:0:
287,252,21711,1,2,0:0:0:0:
271,254,21797,1,2,0:0:0:0:
259,248,21884,2,0,P|279:279|290:323,1,77.0000023498536,2|0,0:0|0:0,0:0:0:0:
289,317,22228,6,0,B|241:306|241:306|237:302|237:302|190:291,1,103.999995239258,2|0,0:0|0:0,0:0:0:0:
0,341,22746,6,0,B|35:333|35:333|38:329|38:329|91:317,1,77.9999964294435,2|0,0:0|0:0,0:0:0:0:
183,283,23091,1,2,0:0:0:0:
67,384,23263,5,2,0:0:0:0:
85,326,23435,1,0,0:0:0:0:
190,210,23608,5,2,0:0:0:0:
172,152,23780,1,2,0:0:0:0:
332,118,23953,6,0,L|345:75,1,25.9999988098145,2|0,0:0|0:0,0:0:0:0:
358,37,24125,1,2,0:0:0:0:
512,58,24297,5,2,0:0:0:0:
494,0,24469,1,2,0:0:0:0:
358,37,24642,6,0,L|344:79,1,25.9999988098145,2|0,0:0|0:0,0:0:0:0:
332,118,24814,1,2,0:0:0:0:
261,0,24987,6,0,P|298:46|324:119,1,129.999994049073,2|0,0:0|0:0,0:0:0:0:
296,175,25504,2,0,P|271:180|257:209,1,51.999997619629,2|2,0:0|0:0,0:0:0:0:
261,0,26022,6,0,P|280:20|309:67,1,68.3999991650391,2|0,0:0|0:0,0:0:0:0:
322,111,26366,2,0,P|341:103|366:97,1,41.9999987182618,2|0,0:0|0:0,0:0:0:0:
373,97,27056,5,2,0:0:0:0:
196,21,27228,1,2,0:0:0:0:
246,107,27401,6,0,B|241:95|241:95|232:92|232:92|221:97|221:97|218:105|218:105|223:116|223:116|231:120|231:120|242:115|242:115|246:107,1,77.9999964294435,2|0,0:0|0:0,0:0:0:0:
257,116,27746,6,0,B|211:100|211:100|208:94|208:94|153:73,1,103.999995239258,2|0,0:0|0:0,0:0:0:0:
0,176,28263,6,0,B|34:164|34:164|36:160|36:160|77:144,1,77.9999964294435,2|0,0:0|0:0,0:0:0:0:
153,69,28608,1,2,0:0:0:0:
65,211,28780,5,2,0:0:0:0:
81,152,28953,1,2,0:0:0:0:
97,93,29125,5,2,0:0:0:0:
210,292,29470,1,2,0:0:0:0:
0,384,29815,1,2,0:0:0:0:
65,211,30160,5,2,0:0:0:0:
81,152,30333,1,2,0:0:0:0:
97,93,30504,6,0,P|181:81|258:53,1,155.999992858887,2|0,0:0|0:0,0:0:0:0:
353,0,31194,1,2,0:0:0:0:
97,93,31539,6,0,P|158:86|194:78,1,77.9999964294435,2|0,0:0|0:0,0:0:0:0:
247,57,31884,5,0,3:0:0:0:
249,53,31927,1,0,3:0:0:0:
304,145,32056,5,0,3:0:0:0:
302,141,32099,1,0,3:0:0:0:
204,231,32228,5,8,0:0:0:0:
207,228,32271,1,8,0:0:0:0:
358,319,32401,5,0,3:0:0:0:
355,316,32444,1,0,3:0:0:0:
171,376,32573,5,4,3:0:0:0:
280,355,32746,6,0,B|299:370|313:352|306:325|275:298|255:339|233:357|254:375|221:401|185:391|171:376,1,187.000003566742,2|0,0:0|0:0,0:0:0:0:
171,376,33263,6,0,P|159:360|130:351,1,40,6|0,3:2|0:0,0:0:0:0:
476,271,33435,2,0,P|479:251|491:235,1,40,2|0,3:2|0:0,0:0:0:0:
294,232,33608,5,8,0:0:0:0:
439,333,33780,5,2,0:0:0:0:
479,339,33866,1,8,0:0:0:0:
504,356,33953,1,2,3:0:0:0:
512,374,34039,1,8,0:0:0:0:
511,384,34125,2,0,P|492:353|461:255,1,120,2|0,3:2|0:0,0:0:0:0:
484,167,34470,5,8,0:0:0:0:
429,61,34642,5,2,0:0:0:0:
387,18,34728,1,8,0:0:0:0:
435,53,34815,2,0,P|457:55|480:24,1,40,0|0,3:0|0:0,0:0:0:0:
512,0,34987,2,0,P|494:25|463:123,1,120,8|8,0:0|0:0,0:0:0:0:
484,167,35332,1,0,3:2:0:0:
347,193,35504,6,0,P|382:201|400:238,1,80,8|2,0:0|0:0,0:0:0:0:
373,292,35763,1,0,0:0:0:0:
409,245,35849,5,0,3:0:0:0:
276,215,36022,1,0,3:0:0:0:
143,185,36194,1,0,3:0:0:0:
364,133,36366,6,0,P|377:120|408:110,1,40,8|0,0:0|0:0,0:0:0:0:
276,29,36539,5,2,0:0:0:0:
252,23,36625,1,0,0:0:0:0:
225,57,36711,2,0,P|236:71|244:102,1,40,2|0,0:0|0:0,0:0:0:0:
276,215,36884,2,0,P|285:165|311:99,1,120,0|0,3:0|0:0,0:0:0:0:
375,0,37228,5,8,0:0:0:0:
180,100,37401,5,2,0:0:0:0:
177,111,37487,1,8,0:0:0:0:
152,125,37573,1,2,0:0:0:0:
117,112,37660,1,8,0:0:0:0:
124,68,37746,2,0,P|136:56|140:24,1,40,8|0,0:0|0:0,0:0:0:0:
27,160,37918,5,2,0:0:0:0:
16,165,38004,1,8,0:0:0:0:
0,197,38091,2,0,P|12:209|16:241,1,40,0|0,3:0|0:0,0:0:0:0:
118,256,38263,6,0,P|73:272|72:307,1,80,8|2,0:0|0:0,0:0:0:0:
36,354,38522,1,8,0:0:0:0:
40,364,38608,2,0,P|51:374|79:372,1,40,0|0,3:0|0:0,0:0:0:0:
392,291,38780,6,0,P|404:276|423:271,1,40,0|0,3:0|0:0,0:0:0:0:
166,146,38953,2,0,P|177:129|178:110,1,40,0|0,3:0|0:0,0:0:0:0:
326,149,39125,5,8,0:0:0:0:
200,34,39297,5,2,0:0:0:0:
159,41,39384,1,8,0:0:0:0:
148,11,39470,1,2,0:0:0:0:
128,8,39556,1,8,0:0:0:0:
127,0,39642,2,0,P|157:33|187:106,1,120,2|0,3:2|0:0,0:0:0:0:
181,232,39987,5,8,0:0:0:0:
241,337,40160,5,2,0:0:0:0:
292,363,40246,1,8,0:0:0:0:
236,347,40332,2,0,P|211:347|187:360,1,40,0|0,3:0|0:0,0:0:0:0:
111,384,40504,5,8,0:0:0:0:
181,232,40677,1,8,0:0:0:0:
70,20,40849,1,0,3:2:0:0:
0,86,41022,6,0,P|17:73|46:67,1,40,8|0,0:0|0:0,0:0:0:0:
200,34,41194,5,2,0:0:0:0:
208,26,41280,1,8,0:0:0:0:
186,0,41366,1,0,3:0:0:0:
77,170,41539,1,0,3:2:0:0:
142,331,41711,1,0,3:0:0:0:
111,384,41884,6,0,P|95:371|76:365,1,40,8|0,0:0|0:0,0:0:0:0:
0,234,42056,5,2,0:0:0:0:
11,230,42142,1,8,0:0:0:0:
32,241,42228,1,2,0:0:0:0:
42,275,42315,1,8,0:0:0:0:
9,310,42401,2,0,P|36:295|135:264,1,120,2|0,3:2|0:0,0:0:0:0:
355,267,42746,5,8,0:0:0:0:
279,363,42918,5,2,0:0:0:0:
292,317,43004,1,8,0:0:0:0:
255,301,43091,1,2,0:0:0:0:
244,280,43177,1,8,0:0:0:0:
247,268,43263,2,0,P|256:246|250:215,1,40,8|0,0:0|0:0,0:0:0:0:
353,83,43435,5,2,0:0:0:0:
361,81,43522,1,8,0:0:0:0:
407,95,43608,2,0,P|416:116|410:148,1,40,2|0,3:2|0:0,0:0:0:0:
310,184,43780,6,0,P|284:161|224:146,1,80,8|2,0:0|0:0,0:0:0:0:
183,163,44039,1,8,0:0:0:0:
187,174,44125,1,2,3:2:0:0:
141,355,44297,6,0,P|129:365|137:352,1,44.0000013427735,6|0,3:2|0:0,0:0:0:0:
431,261,44470,2,0,P|443:251|428:257,1,44.0000013427735,2|0,3:2|0:0,0:0:0:0:
315,384,44642,5,8,0:0:0:0:
199,329,44815,5,2,0:0:0:0:
206,285,44901,1,8,0:0:0:0:
237,273,44987,1,2,3:0:0:0:
257,282,45073,1,8,0:0:0:0:
262,292,45160,2,0,P|211:303|144:347,1,132.00000402832,2|0,3:2|0:0,0:0:0:0:
0,301,45504,5,8,0:0:0:0:
105,220,45677,5,2,0:0:0:0:
169,235,45763,1,8,0:0:0:0:
107,210,45849,2,0,P|88:194|85:164,1,44.0000013427735,0|0,3:0|0:0,0:0:0:0:
4,136,46022,6,0,P|42:131|61:67,1,88.000002685547,8|2,0:0|0:0,0:0:0:0:
125,74,46280,1,8,0:0:0:0:
131,65,46366,2,0,P|126:44|91:29,1,44.0000013427735,0|0,3:2|0:0,0:0:0:0:
40,0,46539,1,8,0:0:0:0:
202,178,46711,5,2,0:0:0:0:
212,186,46797,1,0,0:0:0:0:
250,164,46884,1,0,3:0:0:0:
169,235,47056,1,0,3:0:0:0:
224,384,47228,1,0,3:0:0:0:
267,341,47401,6,0,P|284:330|307:326,1,44.0000013427735,8|0,0:0|0:0,0:0:0:0:
403,384,47573,5,2,0:0:0:0:
445,368,47660,1,0,0:0:0:0:
453,338,47746,1,2,0:0:0:0:
443,323,47832,1,0,0:0:0:0:
433,319,47918,2,0,P|407:313|386:252,1,88.000002685547,0|2,3:0|0:0,0:0:0:0:
476,143,48263,5,8,0:0:0:0:
346,188,48435,5,2,0:0:0:0:
345,195,48478,5,2,0:0:0:0:
344,202,48522,6,0,P|327:210|312:237,2,44.0000013427735,2|2|2,0:0|0:0|0:0,0:0:0:0:
512,309,48780,1,8,0:0:0:0:
306,83,48953,5,2,0:0:0:0:
294,87,49039,1,8,0:0:0:0:
274,116,49125,2,0,P|276:136|297:154,1,44.0000013427735,0|0,3:0|0:0,0:0:0:0:
429,204,49297,6,0,P|402:147|394:97,1,88.000002685547,8|2,0:0|0:0,0:0:0:0:
423,67,49556,1,8,0:0:0:0:
411,63,49642,1,0,3:0:0:0:
224,49,49815,6,0,P|212:39|222:52,1,44.0000013427735,0|0,3:0|0:0,0:0:0:0:
499,188,49987,2,0,P|514:182|501:191,1,44.0000013427735,0|0,3:0|0:0,0:0:0:0:
303,234,50160,5,8,0:0:0:0:
214,110,50332,5,2,0:0:0:0:
171,92,50418,1,8,0:0:0:0:
148,116,50504,1,2,0:0:0:0:
127,111,50591,1,8,0:0:0:0:
119,119,50677,2,0,P|195:87|246:37,1,132.00000402832,2|0,3:2|0:0,0:0:0:0:
397,123,51022,5,8,0:0:0:0:
85,173,51194,5,2,0:0:0:0:
29,207,51280,1,8,0:0:0:0:
89,181,51366,2,0,P|116:186|140:205,1,44.0000013427735,0|0,3:0|0:0,0:0:0:0:
222,208,51539,6,0,P|186:225|185:283,1,88.000002685547,8|8,0:0|0:0,0:0:0:0:
143,320,51797,1,0,0:0:0:0:
136,328,51883,2,0,P|142:346|177:359,1,44.0000013427735,0|0,3:2|0:0,0:0:0:0:
237,367,52056,1,8,0:0:0:0:
48,312,52228,5,2,0:0:0:0:
38,304,52314,1,8,0:0:0:0:
0,326,52401,1,0,3:0:0:0:
89,262,52573,1,0,3:2:0:0:
69,70,52746,1,0,3:0:0:0:
23,28,52918,6,0,P|1:25|-16:12,1,44.0000013427735,8|0,0:0|0:0,0:0:0:0:
131,47,53091,5,2,0:0:0:0:
154,85,53177,1,8,0:0:0:0:
147,114,53263,1,2,0:0:0:0:
132,123,53349,1,8,0:0:0:0:
120,121,53435,2,0,P|175:98|256:82,1,132.00000402832,2|0,3:2|0:0,0:0:0:0:
467,148,53780,5,8,0:0:0:0:
341,0,53953,5,2,0:0:0:0:
321,44,54039,1,8,0:0:0:0:
351,69,54125,1,2,0:0:0:0:
358,94,54211,1,8,0:0:0:0:
351,100,54297,2,0,P|340:112|331:147,1,44.0000013427735,8|0,0:0|0:0,0:0:0:0:
258,300,54470,5,2,0:0:0:0:
250,302,54557,1,8,0:0:0:0:
204,288,54642,2,0,P|193:276|184:241,1,44.0000013427735,2|0,3:2|0:0,0:0:0:0:
282,187,54815,6,0,P|339:214|389:222,1,88.000002685547,8|2,0:0|0:0,0:0:0:0:
419,193,55074,1,8,0:0:0:0:
423,205,55160,1,2,3:2:0:0:
269,372,55332,5,2,0:0:0:0:
150,324,55504,1,0,0:0:0:0:
271,384,55677,1,8,0:0:0:0:
390,285,55849,5,2,0:0:0:0:
389,290,55935,1,8,0:0:0:0:
388,295,56022,1,2,0:0:0:0:
387,300,56108,1,8,0:0:0:0:
386,305,56195,1,8,0:0:0:0:
448,358,56366,5,2,0:0:0:0:
447,353,56453,1,8,0:0:0:0:
446,348,56539,1,2,0:0:0:0:
445,343,56626,1,8,0:0:0:0:
444,338,56711,2,0,L|457:273,1,60.0000022888184,2|2,3:2|3:2,0:0:0:0:
351,80,57056,1,8,0:0:0:0:
478,186,57228,5,2,0:0:0:0:
483,185,57315,1,8,0:0:0:0:
488,184,57401,1,2,0:0:0:0:
493,183,57488,1,8,0:0:0:0:
498,182,57574,1,8,0:0:0:0:
351,141,57746,5,2,0:0:0:0:
346,140,57833,1,8,0:0:0:0:
341,139,57919,1,2,0:0:0:0:
336,138,58004,1,8,0:0:0:0:
331,137,58091,1,2,3:2:0:0:
208,193,58263,1,2,0:2:0:0:
232,139,58435,1,8,0:0:0:0:
123,0,58608,5,2,0:0:0:0:
118,1,58695,1,8,0:0:0:0:
113,2,58781,1,2,0:0:0:0:
108,3,58866,1,8,0:0:0:0:
103,4,58954,1,8,0:0:0:0:
156,58,59125,5,2,0:0:0:0:
161,59,59210,1,8,0:0:0:0:
166,60,59297,1,2,0:0:0:0:
171,61,59384,1,8,0:0:0:0:
176,62,59470,1,2,3:2:0:0:
232,139,59642,1,2,3:2:0:0:
208,193,59814,1,8,0:0:0:0:
285,240,59987,5,2,0:0:0:0:
286,245,60073,1,8,0:0:0:0:
287,250,60160,1,2,0:0:0:0:
288,255,60246,1,8,0:0:0:0:
289,260,60333,1,8,0:0:0:0:
229,384,60505,5,2,0:0:0:0:
230,379,60591,1,8,0:0:0:0:
231,374,60677,2,0,L|243:321,1,30.0000011444092,2|8,0:0|0:0,0:0:0:0:
194,303,60849,6,0,B|177:309|177:309|164:357,2,60.0000022888184,2|0|8,0:0|0:0|0:0,0:0:0:0:
64,196,61366,5,2,0:0:0:0:
59,197,61452,1,8,0:0:0:0:
54,198,61539,1,2,0:0:0:0:
49,199,61625,1,8,0:0:0:0:
44,200,61712,1,8,0:0:0:0:
20,265,61883,5,2,0:0:0:0:
25,266,61970,1,8,0:0:0:0:
30,267,62056,1,2,0:0:0:0:
35,268,62143,1,8,0:0:0:0:
40,269,62228,2,0,L|105:256,1,60.0000022888184,2|2,3:2|3:2,0:0:0:0:
367,356,62573,1,8,0:0:0:0:
304,382,62746,5,2,0:0:0:0:
303,377,62832,1,8,0:0:0:0:
302,372,62919,1,2,0:0:0:0:
301,367,63005,1,8,0:0:0:0:
300,362,63092,1,8,0:0:0:0:
434,350,63263,5,2,0:0:0:0:
433,345,63350,1,8,0:0:0:0:
432,340,63436,1,2,0:0:0:0:
431,335,63523,1,8,0:0:0:0:
430,330,63609,1,2,3:2:0:0:
332,199,63780,1,2,0:2:0:0:
388,218,63953,1,8,0:0:0:0:
508,72,64125,5,2,0:0:0:0:
509,67,64212,1,8,0:0:0:0:
510,62,64298,1,2,0:0:0:0:
511,57,64385,1,8,0:0:0:0:
512,52,64471,1,8,0:0:0:0:
452,119,64642,5,2,0:0:0:0:
453,124,64729,1,8,0:0:0:0:
454,129,64815,1,2,0:0:0:0:
455,134,64902,1,8,0:0:0:0:
456,139,64988,1,2,3:2:0:0:
388,218,65160,1,2,3:2:0:0:
332,199,65333,1,8,0:0:0:0:
430,330,65504,5,2,0:0:0:0:
435,329,65591,1,8,0:0:0:0:
440,328,65677,1,2,0:0:0:0:
445,327,65764,1,8,0:0:0:0:
450,326,65850,1,8,0:0:0:0:
300,362,66022,5,2,0:0:0:0:
295,361,66109,1,8,0:0:0:0:
290,360,66194,2,0,L|301:310,1,30.0000011444092,2|8,0:0|0:0,0:0:0:0:
169,176,66366,5,2,0:0:0:0:
91,222,66539,2,0,L|120:215,1,30.0000011444092
84,214,66711,2,0,L|113:207,1,30.0000011444092,8|0,0:0|0:0,0:0:0:0:
235,267,66884,5,2,0:0:0:0:
230,266,66971,1,8,0:0:0:0:
225,265,67057,1,2,0:0:0:0:
220,264,67142,1,8,0:0:0:0:
215,263,67228,1,8,0:0:0:0:
24,345,67401,5,2,0:0:0:0:
0,336,67487,1,8,0:0:0:0:
24,331,67573,1,2,0:0:0:0:
8,349,67660,1,8,0:0:0:0:
11,326,67746,2,0,L|24:387,1,60.0000022888184,2|2,3:2|3:2,0:0:0:0:
84,214,68091,1,8,0:0:0:0:
27,145,68263,6,0,L|34:116,1,30.0000011444092,2|8,0:0|0:0,0:0:0:0:
79,67,68435,1,2,0:0:0:0:
78,62,68522,1,8,0:0:0:0:
77,57,68608,1,8,0:0:0:0:
234,188,68780,5,2,0:0:0:0:
239,187,68867,1,8,0:0:0:0:
244,186,68953,1,2,0:0:0:0:
249,185,69039,1,8,0:0:0:0:
254,184,69125,1,2,3:2:0:0:
332,230,69297,2,0,L|303:223,1,30.0000011444092,2|0,0:2|0:0,0:0:0:0:
339,222,69469,2,0,L|310:215,1,30.0000011444092,8|0,0:0|0:0,0:0:0:0:
177,111,69642,5,2,0:0:0:0:
178,106,69728,1,8,0:0:0:0:
179,101,69814,1,2,0:0:0:0:
180,96,69900,1,8,0:0:0:0:
181,91,69987,1,8,0:0:0:0:
332,39,70160,5,2,0:0:0:0:
356,48,70246,1,8,0:0:0:0:
332,53,70332,1,2,0:0:0:0:
348,35,70419,1,8,0:0:0:0:
345,58,70505,2,0,L|332:-3,1,60.0000022888184,2|2,3:2|3:2,0:0:0:0:
463,121,70848,1,8,0:0:0:0:
423,202,71021,6,0,L|416:231,1,30.0000011444092,2|8,0:0|0:0,0:0:0:0:
461,281,71194,1,2,0:0:0:0:
462,286,71280,1,8,0:0:0:0:
463,291,71366,1,8,0:0:0:0:
261,343,71539,5,2,0:0:0:0:
256,344,71625,1,8,0:0:0:0:
251,345,71711,2,0,L|203:352,1,30.0000011444092,2|8,0:0|0:0,0:0:0:0:
303,297,71884,5,2,0:0:0:0:
355,370,72056,2,0,L|348:341,1,30.0000011444092
347,377,72228,2,0,L|340:348,1,30.0000011444092,8|0,0:0|0:0,0:0:0:0:
182,296,72400,5,2,0:0:0:0:
177,295,72486,1,8,0:0:0:0:
172,294,72573,1,2,0:0:0:0:
167,293,72659,1,8,0:0:0:0:
161,292,72746,1,8,0:0:0:0:
416,231,72917,5,2,0:0:0:0:
407,255,73003,1,8,0:0:0:0:
402,231,73091,1,2,0:0:0:0:
420,247,73177,1,8,0:0:0:0:
397,244,73263,2,0,L|458:231,1,60.0000022888184,2|2,3:2|3:2,0:0:0:0:
347,377,73608,1,8,0:0:0:0:
318,227,73780,6,0,L|325:198,1,30.0000011444092,2|8,0:0|0:0,0:0:0:0:
370,149,73952,1,2,0:0:0:0:
369,144,74039,1,8,0:0:0:0:
368,139,74125,1,8,0:0:0:0:
236,0,74297,5,2,0:0:0:0:
237,5,74384,1,8,0:0:0:0:
238,10,74470,1,2,0:0:0:0:
239,15,74557,1,8,0:0:0:0:
240,20,74643,1,2,3:2:0:0:
167,72,74815,2,0,L|196:65,1,30.0000011444092,2|0,0:2|0:0,0:0:0:0:
160,64,74987,2,0,L|189:57,1,30.0000011444092,8|0,0:0|0:0,0:0:0:0:
341,10,75160,5,2,0:0:0:0:
346,11,75247,1,8,0:0:0:0:
351,12,75333,1,2,0:0:0:0:
356,13,75418,1,8,0:0:0:0:
361,14,75504,1,8,0:0:0:0:
117,136,75677,5,2,0:0:0:0:
126,160,75763,1,8,0:0:0:0:
131,136,75849,1,2,0:0:0:0:
113,152,75936,1,8,0:0:0:0:
136,149,76022,2,0,L|75:136,1,60.0000022888184,2|2,3:2|3:2,0:0:0:0:
211,256,76366,1,8,0:0:0:0:
62,295,76539,6,0,L|55:324,1,30.0000011444092,2|8,0:0|0:0,0:0:0:0:
100,374,76712,1,2,0:0:0:0:
101,379,76798,1,8,0:0:0:0:
102,384,76884,1,8,0:0:0:0:
278,255,77056,5,2,0:0:0:0:
277,250,77142,1,8,0:0:0:0:
276,245,77229,1,2,0:0:0:0:
275,240,77315,1,8,0:0:0:0:
274,235,77401,1,2,0:0:0:0:
257,367,77573,1,0,0:0:0:0:
203,335,77746,1,8,0:0:0:0:
305,324,77918,6,0,L|335:315,1,30.0000011444092,2|8,0:0|0:0,0:0:0:0:
299,318,78091,2,0,B|382:294|382:294|396:309|413:311,1,120.000004577637,2|2,0:0|0:0,0:0:0:0:
512,366,78522,5,8,0:0:0:0:
500,370,78608,1,2,0:0:0:0:
504,362,78694,1,8,0:0:0:0:
508,374,78780,2,0,B|506:363|506:363|522:308,1,60.0000022888184,2|2,3:2|3:2,0:0:0:0:
427,249,79125,1,8,0:0:0:0:
467,175,79297,5,2,0:0:0:0:
475,171,79384,1,8,0:0:0:0:
483,158,79470,1,2,0:0:0:0:
474,135,79556,1,8,0:0:0:0:
445,124,79642,2,0,P|439:119|431:87,1,30.0000011444092,8|0,0:0|0:0,0:0:0:0:
471,39,79815,5,2,0:0:0:0:
479,36,79901,1,8,0:0:0:0:
487,34,79987,1,2,0:0:0:0:
495,32,80073,1,8,0:0:0:0:
503,29,80159,1,2,3:2:0:0:
312,0,80332,1,2,0:2:0:0:
360,40,80504,1,8,0:0:0:0:
252,22,80677,6,0,L|214:11,1,30.0000011444092,2|8,0:0|0:0,0:0:0:0:
257,32,80849,2,0,B|199:15|199:15|165:7|141:33,1,120.000004577637,2|2,0:0|0:0,0:0:0:0:
29,49,81281,5,8,0:0:0:0:
41,53,81366,1,2,0:0:0:0:
37,45,81453,1,8,0:0:0:0:
32,57,81539,2,0,B|34:46|34:46|20:0,1,60.0000022888184,2|2,3:2|3:2,0:0:0:0:
0,119,81885,1,8,0:0:0:0:
202,204,82056,5,2,0:0:0:0:
204,211,82142,1,8,0:0:0:0:
215,221,82228,1,2,0:0:0:0:
213,245,82315,1,8,0:0:0:0:
192,267,82401,2,0,P|175:273|150:261,1,30.0000011444092,8|0,0:0|0:0,0:0:0:0:
116,224,82573,5,2,0:0:0:0:
118,216,82659,1,8,0:0:0:0:
120,208,82745,1,2,0:0:0:0:
122,200,82832,1,8,0:0:0:0:
124,192,82918,1,2,0:0:0:0:
152,384,83091,1,0,0:0:0:0:
209,356,83264,1,8,0:0:0:0:
109,340,83435,6,0,L|70:332,1,30.0000011444092,2|8,0:0|0:0,0:0:0:0:
103,347,83608,2,0,B|66:339|66:339|40:299|40:299|60:244,1,120.000004577637,2|2,0:0|0:0,0:0:0:0:
49,146,84039,5,8,0:0:0:0:
53,158,84124,1,2,0:0:0:0:
45,154,84211,1,8,0:0:0:0:
57,149,84297,2,0,B|46:151|46:151|0:137,1,60.0000022888184,2|2,3:2|3:2,0:0:0:0:
168,89,84642,1,8,0:0:0:0:
261,254,84815,5,2,0:0:0:0:
270,258,84901,1,8,0:0:0:0:
277,272,84987,1,2,0:0:0:0:
255,265,85073,1,8,0:0:0:0:
244,235,85160,2,0,P|248:214|268:201,1,30.0000011444092,8|0,0:0|0:0,0:0:0:0:
320,173,85332,5,2,0:0:0:0:
328,175,85418,1,8,0:0:0:0:
336,177,85504,1,2,0:0:0:0:
344,179,85591,1,8,0:0:0:0:
352,181,85677,1,2,3:2:0:0:
212,43,85849,1,2,0:2:0:0:
168,89,86022,1,8,0:0:0:0:
269,72,86194,6,0,L|298:78,1,30.0000011444092,2|8,0:0|0:0,0:0:0:0:
273,64,86367,2,0,B|309:71|309:71|336:112|336:112|369:120,1,120.000004577637,2|2,0:0|0:0,0:0:0:0:
463,46,86797,5,8,0:0:0:0:
459,58,86884,1,2,0:0:0:0:
467,54,86970,1,8,0:0:0:0:
455,49,87056,2,0,B|466:51|466:51|512:37,1,60.0000022888184,2|2,3:2|3:2,0:0:0:0:
341,0,87401,1,8,0:0:0:0:
447,181,87573,5,2,0:0:0:0:
455,184,87660,1,8,0:0:0:0:
466,174,87746,1,2,0:0:0:0:
442,171,87832,1,8,0:0:0:0:
420,194,87918,2,0,P|408:213|410:235,1,30.0000011444092,8|0,0:0|0:0,0:0:0:0:
459,276,88091,5,2,0:0:0:0:
461,284,88177,1,8,0:0:0:0:
463,292,88263,1,2,0:0:0:0:
465,300,88350,1,8,0:0:0:0:
467,308,88436,1,2,0:0:0:0:
331,384,88608,5,0,0:0:0:0:
363,333,88780,1,8,0:0:0:0:
321,289,88953,6,0,L|273:276,1,30.0000011444092,2|8,0:0|0:0,0:0:0:0:
315,296,89125,2,0,B|257:280|257:280|269:234|269:234|231:223,1,120.000004577637,2|2,0:0|0:0,0:0:0:0:
127,281,89556,5,8,0:0:0:0:
131,269,89641,1,2,0:0:0:0:
123,273,89728,1,8,0:0:0:0:
135,278,89814,2,0,B|124:276|124:276|78:290,1,60.0000022888184,2|2,3:2|3:2,0:0:0:0:
277,153,90160,1,8,0:0:0:0:
154,91,90332,5,2,0:0:0:0:
158,83,90418,1,8,0:0:0:0:
146,73,90504,1,2,0:0:0:0:
165,58,90591,1,8,0:0:0:0:
136,49,90677,2,0,L|181:40,1,30.0000011444092,8|0,0:0|0:0,0:0:0:0:
227,0,90849,5,2,0:0:0:0:
235,2,90935,1,8,0:0:0:0:
243,4,91021,1,2,0:0:0:0:
251,6,91108,1,8,0:0:0:0:
259,8,91194,1,2,0:0:0:0:
86,126,91366,5,0,0:0:0:0:
116,177,91539,1,8,0:0:0:0:
69,214,91711,6,0,L|56:254,1,30.0000011444092,2|8,0:0|0:0,0:0:0:0:
62,206,91884,2,0,B|38:277|38:277|45:284|45:284|65:225,1,120.000004577637,2|2,0:0|0:0,0:0:0:0:
9,95,92315,5,8,0:0:0:0:
21,99,92400,1,2,0:0:0:0:
17,91,92487,1,8,0:0:0:0:
12,103,92573,2,0,B|14:92|14:92|0:46,1,60.0000022888184,2|2,3:2|3:2,0:0:0:0:
199,181,92918,1,8,0:0:0:0:
107,300,93091,5,2,0:0:0:0:
103,308,93177,1,8,0:0:0:0:
110,321,93263,1,2,0:0:0:0:
130,309,93349,1,8,0:0:0:0:
155,328,93435,2,0,L|146:363,1,30.0000011444092,8|0,0:0|0:0,0:0:0:0:
256,384,93608,5,2,0:0:0:0:
254,376,93694,1,8,0:0:0:0:
252,368,93780,1,2,0:0:0:0:
250,360,93867,1,8,0:0:0:0:
248,352,93953,1,2,0:0:0:0:
377,276,94125,5,0,0:0:0:0:
360,334,94297,1,8,0:0:0:0:
416,357,94470,6,0,L|461:347,1,30.0000011444092,2|8,0:0|0:0,0:0:0:0:
418,349,94642,2,0,B|492:328|492:328|505:304|505:304|495:279,1,120.000004577637,2|2,0:0|0:0,0:0:0:0:
416,177,95073,5,8,0:0:0:0:
404,181,95160,1,2,0:0:0:0:
408,173,95246,1,8,0:0:0:0:
413,185,95332,2,0,B|411:174|411:174|425:128,1,60.0000022888184,2|2,3:2|3:2,0:0:0:0:
244,286,95677,1,8,0:0:0:0:
276,117,95849,5,2,0:0:0:0:
267,121,95935,1,8,0:0:0:0:
254,111,96022,1,2,0:0:0:0:
276,102,96108,1,8,0:0:0:0:
254,80,96194,2,0,L|203:100,1,30.0000011444092,8|0,0:0|0:0,0:0:0:0:
190,319,96366,5,2,0:0:0:0:
181,317,96452,1,8,0:0:0:0:
172,314,96539,2,0,L|119:298,1,30.0000011444092,2|8,0:0|0:0,0:0:0:0:
78,224,96711,5,0,3:2:0:0:
434,164,96884,1,0,3:0:0:0:
433,159,96970,1,0,3:0:0:0:
432,154,97056,1,8,0:0:0:0:
149,211,97228,5,2,0:0:0:0:
363,177,97401,1,0,3:0:0:0:
362,172,97487,1,0,3:0:0:0:
361,167,97573,1,8,0:0:0:0:
221,199,97746,5,2,0:0:0:0:
292,186,97918,1,0,3:0:0:0:
38,163,98091,5,0,3:0:0:0:
473,220,98263,1,2,0:0:0:0:
291,36,98435,5,8,0:0:0:0:
220,347,98608,1,2,0:0:0:0:
256,192,98780,6,0,B|239:167|196:165|177:193|154:247|208:258|242:247|212:271|254:241|203:243|263:269|250:241|275:272|276:277,1,194.999991073609,8|0,0:0|0:0,0:0:0:0:
272,271,99470,6,0,P|247:279|242:305,1,40,6|0,3:2|0:0,0:0:0:0:
362,354,99642,2,0,P|367:328|347:311,1,40,2|0,3:2|0:0,0:0:0:0:
293,338,99814,5,8,0:0:0:0:
512,161,99987,5,2,0:0:0:0:
482,113,100073,1,8,0:0:0:0:
438,104,100160,1,2,3:0:0:0:
413,124,100246,1,8,0:0:0:0:
408,134,100332,6,0,B|409:201|470:159|472:241,1,120,2|0,3:2|0:0,0:0:0:0:
496,283,100677,6,0,B|501:292|513:294|513:294|506:288|502:279,1,40,8|0,0:0|0:0,0:0:0:0:
425,192,100849,5,2,0:0:0:0:
374,220,100935,1,8,0:0:0:0:
366,218,101022,2,0,P|352:203|366:164,1,40,0|0,3:0|0:0,0:0:0:0:
300,117,101194,2,0,P|333:102|335:33,1,80,8|2,0:0|0:0,0:0:0:0:
332,0,101453,5,8,0:0:0:0:
355,54,101539,1,0,3:2:0:0:
207,148,101711,5,8,0:0:0:0:
164,106,101884,1,2,0:0:0:0:
156,108,101970,1,0,0:0:0:0:
148,110,102056,1,0,3:0:0:0:
215,150,102228,5,0,3:0:0:0:
70,102,102401,1,0,3:0:0:0:
11,38,102573,6,0,L|0:0,1,40,8|0,0:0|0:0,0:0:0:0:
52,161,102746,6,0,L|46:180,1,20,2|2,0:0|0:0,0:0:0:0:
47,187,102832,6,0,L|41:206,1,20,2|2,0:0|0:0,0:0:0:0:
42,213,102918,6,0,L|95:196,1,40,2|0,0:0|0:0,0:0:0:0:
223,152,103091,5,0,3:0:0:0:
19,279,103263,1,2,0:0:0:0:
325,370,103435,1,8,0:0:0:0:
238,384,103608,5,2,0:0:0:0:
227,379,103694,1,8,0:0:0:0:
219,352,103780,1,2,0:0:0:0:
246,323,103866,1,8,0:0:0:0:
253,313,103953,2,0,P|254:304|226:268,1,40,8|0,0:0|0:0,0:0:0:0:
309,96,104125,5,2,0:0:0:0:
321,93,104211,1,8,0:0:0:0:
350,126,104297,2,0,P|351:135|323:171,1,40,0|0,3:0|3:0,0:0:0:0:
277,209,104470,6,0,P|315:218|351:240,1,80,8|2,0:0|0:0,0:0:0:0:
385,291,104728,1,8,0:0:0:0:
360,236,104815,1,0,3:0:0:0:
512,120,104987,6,0,P|523:110|509:114,1,40,0|0,3:0|0:0,0:0:0:0:
317,25,105160,2,0,P|311:11|311:26,1,40,0|0,3:0|0:0,0:0:0:0:
446,11,105332,5,8,0:0:0:0:
223,152,105504,5,2,0:0:0:0:
167,164,105591,1,8,0:0:0:0:
143,127,105677,1,2,0:0:0:0:
158,100,105763,1,8,0:0:0:0:
169,95,105849,6,0,B|102:88|140:33|71:28,1,120,2|0,3:2|0:0,0:0:0:0:
34,72,106194,6,0,B|29:81|17:83|17:83|24:77|28:68,1,40,8|0,0:0|0:0,0:0:0:0:
137,42,106366,5,2,0:0:0:0:
178,0,106452,1,8,0:0:0:0:
186,2,106539,2,0,P|206:10|219:42,1,40,0|0,3:0|0:0,0:0:0:0:
277,209,106711,5,8,0:0:0:0:
184,256,106884,1,8,0:0:0:0:
0,0,107056,1,0,3:2:0:0:
269,211,107228,5,8,0:0:0:0:
320,167,107401,1,2,0:0:0:0:
328,169,107487,1,8,0:0:0:0:
336,171,107573,1,0,3:0:0:0:
261,213,107746,5,0,3:2:0:0:
468,152,107918,1,0,3:0:0:0:
511,76,108091,6,0,L|522:37,1,40,8|0,0:0|0:0,0:0:0:0:
489,214,108263,6,0,L|495:233,1,20,2|2,0:0|0:0,0:0:0:0:
494,240,108349,6,0,L|500:259,1,20,8|2,0:0|0:0,0:0:0:0:
499,266,108435,6,0,L|446:249,1,40,2|8,0:0|0:0,0:0:0:0:
253,215,108608,5,2,3:2:0:0:
392,115,108780,1,2,0:0:0:0:
62,0,108953,1,8,0:0:0:0:
113,71,109125,5,2,0:0:0:0:
115,79,109211,1,8,0:0:0:0:
102,103,109297,1,2,0:0:0:0:
65,103,109384,1,8,0:0:0:0:
57,94,109470,2,0,P|44:82|9:83,1,40,8|0,0:0|0:0,0:0:0:0:
160,212,109642,5,2,0:0:0:0:
157,201,109728,1,8,0:0:0:0:
173,160,109815,2,0,P|186:148|221:149,1,40,2|0,3:2|0:0,0:0:0:0:
282,160,109987,6,0,P|263:124|252:86,1,80,8|2,0:0|0:0,0:0:0:0:
271,26,110246,1,8,0:0:0:0:
245,80,110332,1,2,3:2:0:0:
384,250,110504,6,0,P|409:258|414:284,1,40,6|0,3:2|0:0,0:0:0:0:
294,333,110676,2,0,P|289:307|309:290,1,40,2|0,3:2|0:0,0:0:0:0:
363,317,110848,5,8,0:0:0:0:
216,384,111022,5,2,0:0:0:0:
161,374,111108,1,8,0:0:0:0:
142,333,111194,1,2,3:0:0:0:
110,325,111280,1,8,0:0:0:0:
100,332,111366,6,0,P|151:321|218:286,1,120,2|0,3:2|0:0,0:0:0:0:
245,235,111711,5,8,0:0:0:0:
40,306,111884,1,2,0:0:0:0:
32,315,111970,1,8,0:0:0:0:
34,327,112056,1,0,3:0:0:0:
252,229,112228,5,8,0:0:0:0:
293,16,112401,1,2,0:0:0:0:
289,5,112487,1,8,0:0:0:0:
277,0,112573,1,0,3:2:0:0:
254,238,112746,5,8,0:0:0:0:
416,379,112919,1,2,0:0:0:0:
428,381,113005,1,0,0:0:0:0:
438,373,113091,2,0,P|447:360|435:324,1,40,0|0,3:0|0:0,0:0:0:0:
393,297,113263,5,0,3:0:0:0:
441,83,113435,1,0,3:0:0:0:
511,147,113608,6,0,P|495:136|477:129,1,40,8|0,0:0|0:0,0:0:0:0:
285,298,113780,5,2,0:0:0:0:
273,300,113866,1,0,0:0:0:0:
246,281,113953,1,2,0:0:0:0:
254,238,114039,1,0,0:0:0:0:
301,208,114125,2,0,P|311:194|293:150,1,40,0|0,3:0|0:0,0:0:0:0:
233,54,114297,5,2,0:0:0:0:
277,0,114470,6,0,L|315:-12,1,40,8|0,0:0|0:0,0:0:0:0:
81,109,114642,6,0,L|62:103,1,20,2|2,0:0|0:0,0:0:0:0:
55,104,114728,6,0,L|36:98,1,20,2|2,0:0|0:0,0:0:0:0:
29,99,114814,6,0,L|46:152,1,40,2|2,0:0|0:0,0:0:0:0:
142,168,114987,5,8,0:0:0:0:
184,211,115160,1,2,0:0:0:0:
182,219,115246,1,8,0:0:0:0:
180,227,115332,1,0,3:0:0:0:
140,160,115504,5,8,0:0:0:0:
0,256,115677,1,2,0:0:0:0:
4,267,115763,1,8,0:0:0:0:
32,281,115849,2,0,P|47:289|52:320,1,40,0|0,3:0|0:0,0:0:0:0:
29,370,116022,6,0,P|23:384|23:369,1,40,0|0,3:0|0:0,0:0:0:0:
224,275,116194,2,0,P|235:285|221:281,1,40,0|0,3:0|0:0,0:0:0:0:
158,384,116367,5,8,0:0:0:0:
236,113,116539,5,2,0:0:0:0:
284,84,116625,1,8,0:0:0:0:
322,104,116711,1,2,0:0:0:0:
316,135,116797,1,8,0:0:0:0:
305,141,116884,6,0,B|293:76|243:113|233:52,1,120,2|0,3:2|0:0,0:0:0:0:
270,0,117228,5,8,0:0:0:0:
452,118,117401,1,2,0:0:0:0:
464,113,117487,1,8,0:0:0:0:
468,102,117573,1,0,3:0:0:0:
415,59,117746,5,8,0:0:0:0:
180,227,117919,1,8,0:0:0:0:
168,222,118005,1,0,0:0:0:0:
164,211,118091,1,0,3:2:0:0:
217,168,118263,5,8,0:0:0:0:
481,364,118436,1,2,0:0:0:0:
493,359,118522,1,8,0:0:0:0:
497,348,118608,2,0,P|475:333|469:312,1,40,0|0,3:0|0:0,0:0:0:0:
512,270,118780,5,0,3:2:0:0:
351,130,118953,1,0,3:0:0:0:
415,59,119126,6,0,P|403:75|396:93,1,40,8|0,0:0|0:0,0:0:0:0:
265,267,119297,5,2,0:0:0:0:
277,270,119384,1,8,0:0:0:0:
293,297,119470,1,2,0:0:0:0:
279,339,119556,1,8,0:0:0:0:
327,367,119642,2,0,P|346:362|359:348,1,40,2|0,3:2|0:0,0:0:0:0:
208,157,119815,5,2,0:0:0:0:
164,211,119988,6,0,L|126:223,1,40,8|0,0:0|0:0,0:0:0:0:
401,189,120160,6,0,L|420:195,1,20,2|2,0:0|0:0,0:0:0:0:
427,194,120246,6,0,L|446:200,1,20,8|2,0:0|0:0,0:0:0:0:
453,199,120332,6,0,L|436:146,1,40,2|8,0:0|0:0,0:0:0:0:
470,0,120504,5,8,0:0:0:0:
512,43,120677,1,2,0:0:0:0:
510,51,120763,1,8,0:0:0:0:
508,59,120849,1,2,3:2:0:0:
335,226,121022,5,8,0:0:0:0:
330,215,121108,2,0,P|291:198|299:144,1,80,0|8,0:0|0:0,0:0:0:0:
320,108,121366,5,2,3:2:0:0:
316,96,121453,1,0,0:0:0:0:
312,84,121539,2,0,B|297:79|297:79|284:29,2,60.0000022888184,0|0|8,3:0|3:0|0:0,0:0:0:0:
421,84,122056,5,8,0:0:0:0:
426,85,122142,1,0,3:0:0:0:
431,86,122228,1,8,0:0:0:0:
436,87,122315,1,0,3:0:0:0:
441,88,122401,1,8,0:0:0:0:
285,164,122573,5,8,0:0:0:0:
280,165,122660,1,0,3:0:0:0:
275,166,122746,1,8,0:0:0:0:
270,167,122832,1,0,3:0:0:0:
265,168,122918,2,0,B|254:187|254:187|201:195,2,60.0000022888184,0|0|8,3:0|3:0|0:0,0:0:0:0:
445,288,123435,5,8,0:0:0:0:
444,293,123522,1,0,3:0:0:0:
443,298,123608,1,8,0:0:0:0:
442,303,123694,1,0,3:0:0:0:
441,308,123780,1,8,0:0:0:0:
359,347,123953,5,8,0:0:0:0:
358,342,124039,1,0,3:0:0:0:
357,337,124125,1,8,0:0:0:0:
356,332,124211,1,0,3:0:0:0:
355,327,124297,1,8,0:0:0:0:
