osu file format v14

[General]
AudioFilename: audio.mp3
AudioLeadIn: 0
PreviewTime: 42994
Countdown: 0
SampleSet: Soft
StackLeniency: 0.4
Mode: 0
LetterboxInBreaks: 0
WidescreenStoryboard: 1

[Editor]
Bookmarks: 16348,21682,43015,64348,75015,85682,96348,107015,128348,139015,149682,160348
DistanceSpacing: 1.1
BeatDivisor: 4
GridSize: 8
TimelineZoom: 2.899999

[Metadata]
Title:Idyllic World
TitleUnicode:Idyllic World
Artist:Krimek
ArtistUnicode:Krimek
Creator:Krimek
Version:milr_'s Hard
Source:
Tags:FA Featured Artist electronic instrumental atmospheric hardcore breakcore crossbreed GALAXY OF MIND/MINE MIND/E MIND MINE -Tynamo [BH]Lithium Nozuchi milr_ nytrocide_ nytro ganyumymommy Sylvarus Dignan
BeatmapID:4135593
BeatmapSetID:1978614

[Difficulty]
HPDrainRate:4.5
CircleSize:3.5
OverallDifficulty:6
ApproachRate:8
SliderMultiplier:1.5
SliderTickRate:1

[Events]
//Background and Video events
0,0,"background by krimek.jpg",0,0
//Break Periods
2,128548,135598
//Storyboard Layer 0 (Background)
//Storyboard Layer 1 (Fail)
//Storyboard Layer 2 (Pass)
//Storyboard Layer 3 (Foreground)
//Storyboard Layer 4 (Overlay)
//Storyboard Sound Samples

[TimingPoints]
349,333.333333333333,4,2,1,40,1,0
17015,-100,4,2,1,42,0,0
17682,-100,4,2,1,45,0,0
18348,-100,4,2,1,47,0,0
19015,-100,4,2,1,50,0,0
19682,-100,4,2,1,52,0,0
20348,-100,4,2,1,55,0,0
21015,-100,4,2,1,57,0,0
21348,-100,4,2,1,50,0,0
21515,-100,4,2,1,60,0,0
41682,-100,4,2,1,65,0,0
43015,-100,4,2,1,70,0,1
64348,-117.647058823529,4,1,1,60,0,0
75015,-100,4,1,1,65,0,0
80348,-100,4,1,1,70,0,0
85682,-100,4,2,1,80,0,0
107015,-100,4,2,1,80,0,1
128348,-100,4,2,1,70,0,0
139015,-100,4,2,1,75,0,0
149682,-117.647058823529,4,2,1,60,0,0
160348,-117.647058823529,4,2,1,50,0,0

[Colours]
Combo1 : 255,21,138
Combo2 : 191,223,255
Combo3 : 255,128,192
Combo4 : 72,95,153

[HitObjects]
256,192,16348,12,0,21015,0:0:0:0:
312,132,21682,6,0,P|296:79|201:73,1,150,6|8,3:1|3:2,0:0:0:0:
141,109,22182,1,2,0:2:0:0:
141,109,22348,2,0,P|155:160|166:203,1,75,2|2,3:2|0:2,0:0:0:0:
233,221,22682,2,0,P|220:271|209:316,1,75,8|2,3:2|0:2,0:0:0:0:
191,373,23015,5,2,3:2:0:0:
19,277,23348,1,8,3:2:0:0:
117,131,23682,2,0,P|169:145|204:155,1,75,2|2,3:2|0:2,0:0:0:0:
233,221,24015,2,0,P|284:207|318:197,1,75,8|2,3:2|0:2,0:0:0:0:
383,173,24348,5,2,3:2:0:0:
254,27,24682,1,8,3:2:0:0:
185,71,24848,1,2,0:2:0:0:
231,136,25015,2,0,P|242:180|254:226,1,75,2|2,3:2|0:2,0:0:0:0:
178,250,25348,2,0,P|168:294|156:342,1,75,8|2,3:2|0:2,0:0:0:0:
229,380,25682,5,0,3:2:0:0:
229,380,25848,1,2,0:2:0:0:
286,325,26015,2,0,B|360:309|325:381|428:349,1,150,8|0,3:2|3:2,0:0:0:0:
456,273,26515,2,0,P|496:283|542:294,2,75,2|8|2,0:2|3:2|0:2,0:0:0:0:
416,204,27015,5,2,3:2:0:0:
416,204,27182,1,2,0:2:0:0:
342,236,27348,1,8,3:2:0:0:
342,236,27515,1,2,0:2:0:0:
265,266,27682,2,0,P|252:213|240:165,1,75,2|2,3:2|0:2,0:0:0:0:
307,135,28015,2,0,P|294:82|282:34,1,75,8|2,3:2|0:2,0:0:0:0:
218,18,28348,5,2,3:2:0:0:
171,86,28515,1,2,0:2:0:0:
96,50,28682,1,8,3:2:0:0:
12,225,29015,1,0,3:2:0:0:
85,262,29182,2,0,P|73:312|63:354,2,75,2|8|2,0:2|3:2|0:2,0:0:0:0:
155,219,29682,6,0,P|140:161|133:131,1,75,2|2,3:2|0:2,0:0:0:0:
59,115,30015,2,0,P|70:66|77:32,1,75,8|2,3:2|0:2,0:0:0:0:
147,0,30348,2,0,P|194:11|234:22,1,75,2|2,3:2|0:2,0:0:0:0:
272,82,30682,2,0,P|319:93|359:104,1,75,8|2,3:2|0:2,0:0:0:0:
415,56,31015,5,2,3:2:0:0:
504,229,31348,1,8,3:2:0:0:
504,229,31515,1,2,0:2:0:0:
435,182,31682,2,0,P|393:193|356:202,1,75,2|2,3:2|0:2,0:0:0:0:
314,267,32015,2,0,P|328:313|341:359,1,75,8|2,3:2|0:2,0:0:0:0:
410,384,32348,5,6,3:2:0:0:
410,384,32515,1,2,0:2:0:0:
474,332,32682,1,8,3:2:0:0:
474,332,32848,1,2,0:2:0:0:
416,273,33015,2,0,P|428:220|438:185,1,75,2|2,3:2|0:2,0:0:0:0:
498,149,33348,2,0,P|499:115|460:94,1,75,8|2,3:2|0:2,0:0:0:0:
412,31,33682,6,0,P|361:45|317:58,1,75,2|0,3:2|0:0,0:0:0:0:
303,125,34015,2,0,P|247:141|198:152,1,75,8|0,3:2|0:0,0:0:0:0:
166,92,34348,2,0,P|164:51|118:34,1,75,2|2,3:2|0:2,0:0:0:0:
59,7,34682,2,0,P|17:18|6:53,1,75,8|2,3:2|0:2,0:0:0:0:
52,118,35015,5,2,3:2:0:0:
52,118,35182,1,2,0:2:0:0:
103,182,35348,1,8,3:2:0:0:
103,182,35515,1,2,0:2:0:0:
37,232,35682,2,0,P|25:284|14:331,1,75,2|2,3:2|0:2,0:0:0:0:
79,362,36015,2,0,P|136:343|174:330,1,75,8|2,3:2|0:2,0:0:0:0:
200,273,36348,6,0,P|264:288|304:297,1,75,2|2,3:2|0:2,0:0:0:0:
325,354,36682,1,8,3:2:0:0:
400,320,36848,1,2,0:2:0:0:
370,242,37015,2,0,P|379:205|391:152,1,75,2|2,3:2|0:2,0:0:0:0:
459,128,37348,1,8,3:2:0:0:
481,207,37515,1,2,0:2:0:0:
502,286,37682,6,0,P|445:300|400:313,1,75,2|2,3:2|0:2,0:0:0:0:
383,373,38015,2,0,P|332:360|290:348,1,75,8|2,3:2|0:2,0:0:0:0:
247,301,38348,1,2,3:2:0:0:
247,301,38515,1,2,0:2:0:0:
200,369,38682,1,8,3:2:0:0:
124,336,38848,1,2,0:2:0:0:
52,294,39015,6,0,P|34:352|24:384,2,75,2|2|8,3:2|0:2|3:2,0:0:0:0:
107,91,39682,2,0,P|91:35|81:2,2,75,2|2|8,3:2|0:2|3:2,0:0:0:0:
183,122,40182,1,2,0:2:0:0:
151,199,40348,5,2,3:2:0:0:
151,199,40515,1,2,0:2:0:0:
74,167,40682,1,8,3:2:0:0:
74,167,40848,1,2,0:2:0:0:
24,233,41015,2,0,P|43:294|54:332,1,75,2|2,3:2|0:2,0:0:0:0:
108,358,41348,2,0,P|153:352|161:317,1,75,8|2,3:2|0:2,0:0:0:0:
226,275,41682,5,2,3:2:0:0:
303,303,41848,1,2,0:3:0:0:
340,229,42015,1,8,3:3:0:0:
261,202,42182,1,2,0:3:0:0:
184,171,42348,2,0,P|175:141|147:52,1,112.5,2|0,3:3|0:0,0:0:0:0:
179,32,42682,2,0,P|207:24|230:16,3,37.5,8|2|2|2,3:2|0:3|0:3|0:3,0:0:0:0:
247,46,43015,5,14,3:1:0:0:
325,70,43182,1,2,0:2:0:0:
404,89,43348,1,2,3:2:0:0:
469,38,43515,2,0,P|449:119|430:208,1,150,10|2,3:1|0:3,0:0:0:0:
366,230,44015,1,10,3:1:0:0:
366,230,44182,1,8,0:3:0:0:
416,294,44348,6,0,P|459:283|500:273,2,75,2|2|8,3:1|3:2|0:3,0:0:0:0:
366,360,44848,1,0,3:0:0:0:
292,323,45015,1,8,3:3:0:0:
236,384,45182,1,2,2:3:0:0:
161,348,45348,2,0,P|150:300|186:279,1,75,0|8,3:0|0:3,0:0:0:0:
225,227,45682,6,0,P|207:156|183:65,1,150,10|2,3:1|3:2,0:0:0:0:
120,32,46182,2,0,P|66:42|45:125,1,150,10|2,3:1|0:3,0:0:0:0:
109,185,46682,1,10,3:1:0:0:
109,185,46848,1,8,0:3:0:0:
36,224,47015,6,0,P|27:263|17:312,1,75,2|2,3:1|3:2,0:0:0:0:
87,344,47348,2,0,P|95:375|99:398,2,37.5,8|0|0,3:3|3:2|3:0,0:0:0:0:
149,289,47682,2,0,B|212:278|178:337|258:339,1,112.5,8|0,3:1|0:0,0:0:0:0:
279,319,48015,1,0,3:0:0:0:
279,319,48182,1,8,0:1:0:0:
349,361,48348,5,10,3:1:0:0:
405,300,48515,1,2,0:2:0:0:
457,235,48682,1,2,3:2:0:0:
401,174,48848,2,0,P|349:188|239:216,1,150,10|2,3:1|0:3,0:0:0:0:
215,285,49348,1,10,3:1:0:0:
215,285,49515,1,8,0:3:0:0:
141,247,49682,6,0,P|98:236|58:228,2,75,10|8|10,3:1|3:1|0:1,0:0:0:0:
164,167,50182,1,8,3:1:0:0:
242,190,50348,1,10,3:1:0:0:
322,210,50515,1,10,2:1:0:0:
348,131,50682,2,0,P|401:145|440:155,1,75,10|8,3:3|0:3,0:0:0:0:
490,193,51015,6,0,P|479:254|460:348,1,150,10|2,3:1|0:1,0:0:0:0:
386,374,51515,1,10,3:1:0:0:
341,304,51682,2,0,P|303:314|258:325,1,75,8|8,0:3|0:3,0:0:0:0:
197,365,52015,2,0,P|166:357|138:349,3,37.5,10|2|2|2,3:1|0:3|0:1|0:3,0:0:0:0:
132,325,52348,5,2,3:1:0:0:
55,355,52515,1,8,0:3:0:0:
1,292,52682,2,0,P|0:252|54:235,1,75,10|8,3:3|0:3,0:0:0:0:
91,182,53015,2,0,P|155:198|229:213,1,112.5,10|0,3:1|0:0,0:0:0:0:
234,239,53348,1,6,3:2:0:0:
234,239,53515,1,2,0:2:0:0:
304,195,53682,5,14,3:1:0:0:
265,122,53848,1,2,0:2:0:0:
223,50,54015,1,2,3:2:0:0:
295,9,54182,2,0,P|372:26|463:45,1,150,10|2,3:1|0:3,0:0:0:0:
498,108,54682,1,10,3:1:0:0:
498,108,54848,1,8,0:3:0:0:
445,171,55015,6,0,P|458:219|469:259,2,75,2|2|8,3:1|3:2|0:3,0:0:0:0:
366,144,55515,1,0,3:0:0:0:
287,117,55682,1,8,3:3:0:0:
242,185,55848,1,2,2:3:0:0:
166,152,56015,2,0,P|126:136|130:86,1,75,0|8,3:0|0:3,0:0:0:0:
168,41,56348,6,0,P|248:23|321:6,1,150,10|2,3:1|3:2,0:0:0:0:
376,61,56848,2,0,P|363:123|341:220,1,150,10|2,3:1|0:3,0:0:0:0:
280,259,57348,1,10,3:1:0:0:
280,259,57515,1,8,0:3:0:0:
216,206,57682,6,0,P|166:194|128:184,1,75,2|2,3:1|3:2,0:0:0:0:
88,249,58015,2,0,P|63:256|35:262,2,37.5,8|0|0,3:3|3:2|3:0,0:0:0:0:
152,300,58348,2,0,P|168:352|240:345,1,112.5,8|0,3:1|0:0,0:0:0:0:
255,338,58682,1,0,3:0:0:0:
255,338,58848,1,8,0:1:0:0:
336,354,59015,5,10,3:1:0:0:
312,274,59182,1,2,0:2:0:0:
287,195,59348,1,2,3:2:0:0:
208,220,59515,2,0,P|149:233|40:257,1,150,10|2,3:1|0:3,0:0:0:0:
6,197,60015,1,10,3:1:0:0:
6,197,60182,1,8,0:3:0:0:
69,144,60348,6,0,P|58:98|50:61,2,75,10|8|10,3:1|3:1|0:1,0:0:0:0:
146,173,60848,1,8,3:1:0:0:
223,201,61015,1,10,3:1:0:0:
278,140,61182,1,10,2:1:0:0:
355,166,61348,2,0,P|345:221|335:266,1,75,10|8,3:3|0:3,0:0:0:0:
269,281,61682,6,0,P|286:335|298:376,1,75,10|2,3:1|0:1,0:0:0:0:
369,379,62015,2,0,P|422:363|460:353,1,75,2|10,0:1|3:1,0:0:0:0:
499,299,62348,1,8,0:3:0:0:
392,120,62682,2,0,P|382:153|373:183,2,50,10|0|0,3:1|0:0|0:0,0:0:0:0:
439,93,63015,5,2,3:1:0:0:
509,49,63182,1,8,3:3:0:0:
439,5,63348,1,10,3:3:0:0:
368,48,63515,1,8,3:3:0:0:
292,13,63682,6,0,P|268:20|247:26,3,37.5,10|0|2|0,3:1|0:0|3:3|0:0,0:0:0:0:
229,54,64015,2,0,P|238:85|246:112,3,37.5,6|0|2|0,3:2|0:0|3:2|0:0,0:0:0:0:
271,115,64348,5,14,3:1:0:0:
15,195,64848,1,10,2:3:0:0:
205,383,65348,2,0,P|215:328|225:283,1,95.6250018239022,10|8,2:2|2:2,0:0:0:0:
187,260,65682,5,2,3:2:0:0:
443,184,66182,1,10,2:3:0:0:
235,14,66682,2,0,P|195:33|218:93,1,95.6250018239022,10|8,3:1|2:2,0:0:0:0:
223,114,67015,6,0,P|304:134|321:235,1,191.250003647804,10|10,3:1|2:3,0:0:0:0:
94,368,68015,1,10,2:2:0:0:
31,249,68265,1,8,2:2:0:0:
31,249,68348,6,0,P|141:220|236:193,1,191.250003647804,2|10,3:2|2:3,0:0:0:0:
281,258,69015,1,10,2:1:0:0:
281,258,69182,1,10,2:1:0:0:
220,313,69348,1,2,3:1:0:0:
386,377,69682,5,10,3:1:0:0:
306,121,70182,1,10,2:3:0:0:
48,195,70682,2,0,P|12:154|45:112,1,95.6250018239022,10|8,2:2|2:2,0:0:0:0:
61,94,71015,5,2,3:2:0:0:
287,237,71515,1,10,2:3:0:0:
461,33,72015,2,0,P|397:20|355:12,1,95.6250018239022,10|8,3:1|2:2,0:0:0:0:
333,43,72348,6,0,P|359:147|381:237,1,191.250003647804,10|10,3:1|2:3,0:0:0:0:
150,368,73348,1,10,2:2:0:0:
196,244,73598,1,8,2:2:0:0:
196,244,73682,6,0,P|273:267|324:282,1,127.50000243187,10|10,3:1|3:1,0:0:0:0:
477,200,74348,1,10,2:1:0:0:
411,246,74515,1,10,2:1:0:0:
411,246,74598,1,8,2:1:0:0:
411,246,74682,1,2,3:1:0:0:
462,310,74848,1,10,2:1:0:0:
396,360,75015,6,0,P|340:344|236:313,1,150,10|10,3:1|3:1,0:0:0:0:
96,374,75682,2,0,P|39:343|39:260,1,150,2|10,3:2|3:1,0:0:0:0:
104,161,76265,1,8,2:2:0:0:
104,161,76348,6,0,P|187:141|255:124,1,150,10|10,3:1|3:1,0:0:0:0:
408,172,77015,1,2,3:2:0:0:
344,324,77348,1,10,3:1:0:0:
234,266,77598,1,8,2:2:0:0:
234,266,77682,6,0,P|216:196|193:107,1,150,10|10,3:1|3:1,0:0:0:0:
318,10,78348,2,0,P|384:9|421:88,1,150,2|10,3:2|3:1,0:0:0:0:
503,169,78932,1,8,2:2:0:0:
503,169,79015,6,0,P|486:241|467:328,2,150,10|10|2,3:1|3:1|3:2,0:0:0:0:
345,220,80015,1,2,3:1:0:0:
188,271,80348,6,0,P|204:324|213:358,1,75,10|2,3:1|3:3,0:0:0:0:
283,380,80682,2,0,P|325:367|360:359,1,75,10|10,3:1|3:3,0:0:0:0:
406,295,81015,1,10,3:1:0:0:
406,295,81182,1,10,3:3:0:0:
334,253,81348,2,0,P|324:212|314:173,1,75,10|10,3:1|3:3,0:0:0:0:
327,170,81598,1,8,2:2:0:0:
336,158,81682,6,0,P|390:172|424:183,1,75,10|2,3:1|3:3,0:0:0:0:
476,131,82015,2,0,P|461:73|453:45,1,75,10|10,3:1|3:3,0:0:0:0:
385,17,82348,1,10,3:1:0:0:
385,17,82515,1,10,3:3:0:0:
325,74,82682,2,0,P|274:87|195:105,1,112.5,10|8,3:1|2:2,0:0:0:0:
182,124,83015,5,10,3:1:0:0:
17,18,83348,1,10,3:1:0:0:
17,18,83515,1,10,3:1:0:0:
73,77,83682,2,0,P|63:123|53:165,1,75,10|10,3:1|3:1,0:0:0:0:
3,213,84015,1,10,3:1:0:0:
49,281,84182,1,10,3:1:0:0:
123,246,84348,1,10,3:1:0:0:
256,192,84515,12,0,85348,0:0:0:0:
381,192,85682,6,0,P|399:134|342:48,1,150,6|10,2:1|2:2,0:0:0:0:
292,10,86182,1,2,2:2:0:0:
292,10,86348,2,0,P|242:22|133:47,1,150,2|10,2:2|2:2,0:0:0:0:
167,208,87015,6,0,P|110:195|1:168,2,150,2|10|2,2:2|2:2|2:2,0:0:0:0:
266,340,88015,1,10,2:2:0:0:
266,340,88182,1,10,2:3:0:0:
341,307,88348,6,0,P|351:258|359:223,2,75,2|2|10,2:2|2:2|2:2,0:0:0:0:
392,378,88848,1,2,2:2:0:0:
392,378,89015,2,0,P|447:330|428:257,1,150,2|10,2:2|2:2,0:0:0:0:
336,126,89682,6,0,P|269:142|179:163,1,150,2|10,2:2|2:2,0:0:0:0:
121,113,90182,1,2,2:3:0:0:
121,113,90348,2,0,P|65:100|28:91,1,75,2|10,2:2|2:3,0:0:0:0:
0,164,90682,1,10,2:2:0:0:
126,269,91015,6,0,P|170:224|261:231,1,150,2|10,2:2|2:2,0:0:0:0:
323,278,91515,1,2,2:3:0:0:
323,278,91682,2,0,P|395:293|493:312,1,150,2|10,2:2|2:2,0:0:0:0:
504,146,92348,6,0,P|481:59|467:1,2,150,2|10|2,2:2|2:2|2:2,0:0:0:0:
347,199,93348,1,10,2:2:0:0:
347,199,93515,1,10,2:3:0:0:
406,255,93682,6,0,P|397:295|387:335,2,75,10|2|10,2:1|2:3|2:2,0:0:0:0:
480,219,94182,2,0,P|459:133|446:70,1,150,10|10,2:1|2:3,0:0:0:0:
375,29,94682,2,0,P|332:40|293:50,1,75,10|10,2:1|2:3,0:0:0:0:
245,108,95015,5,2,2:2:0:0:
245,108,95182,2,0,P|195:144|229:236,1,150,10|2,2:1|2:3,0:0:0:0:
274,273,95682,2,0,P|349:283|392:208,1,150,10|14,3:1|2:2,0:0:0:0:
271,76,96348,6,0,P|217:58|182:45,1,75,6|2,3:2|2:2,0:0:0:0:
129,8,96682,1,10,2:3:0:0:
84,76,96848,1,2,2:2:0:0:
37,144,97015,2,0,P|52:198|82:311,1,150,2|10,3:2|2:3,0:0:0:0:
160,310,97515,1,10,3:3:0:0:
160,310,97682,6,0,P|147:362|138:405,2,75,2|2|10,3:2|2:3|2:3,0:0:0:0:
232,269,98182,1,2,2:3:0:0:
304,230,98348,2,0,P|393:252|481:273,1,150,2|10,3:2|2:3,0:0:0:0:
485,74,99015,5,2,3:2:0:0:
485,74,99182,1,2,2:2:0:0:
417,118,99348,1,10,2:3:0:0:
417,118,99515,1,2,2:2:0:0:
368,50,99682,2,0,P|349:17|244:17,1,150,2|10,3:2|2:3,0:0:0:0:
179,59,100182,1,10,3:3:0:0:
179,59,100348,6,0,P|203:153|220:228,1,150,2|10,3:2|2:3,0:0:0:0:
290,238,100848,1,2,2:3:0:0:
242,305,101015,2,0,P|196:316|151:328,1,75,2|10,3:2|2:3,0:0:0:0:
105,376,101348,2,0,P|70:364|65:316,1,75,10|10,2:3|3:3,0:0:0:0:
5,267,101682,5,6,3:2:0:0:
99,131,102015,1,10,3:3:0:0:
233,226,102348,2,0,P|245:272|254:306,1,75,2|10,3:2|3:3,0:0:0:0:
311,356,102682,2,0,P|361:341|388:334,1,75,10|10,3:3|3:3,0:0:0:0:
453,291,103015,6,0,P|489:267|483:232,1,75,2|2,3:2|3:3,0:0:0:0:
441,170,103348,1,10,3:3:0:0:
366,206,103515,1,2,3:3:0:0:
294,164,103682,2,0,P|281:110|273:76,1,75,2|10,3:2|3:3,0:0:0:0:
201,125,104015,2,0,P|188:71|180:37,1,75,10|10,3:3|3:3,0:0:0:0:
247,0,104348,6,0,P|337:21|423:39,1,150,10|10,3:1|2:2,0:0:0:0:
446,96,104848,2,0,P|495:112|495:204,1,150,10|10,3:1|2:3,0:0:0:0:
440,256,105348,1,10,3:1:0:0:
323,213,105598,1,8,2:3:0:0:
323,213,105682,6,0,P|277:225|236:237,1,75,2|10,3:2|3:1,0:0:0:0:
219,309,106015,2,0,P|156:293|120:281,1,75,10|2,3:2|3:3,0:0:0:0:
78,242,106348,1,10,3:1:0:0:
120,82,106682,1,14,3:2:0:0:
280,120,107015,6,0,P|350:101|437:80,1,150,14|2,3:1|3:2,0:0:0:0:
492,131,107515,1,10,3:1:0:0:
492,131,107682,2,0,P|478:183|468:227,1,75,8|2,0:3|0:3,0:0:0:0:
400,243,108015,1,10,3:1:0:0:
400,243,108182,1,8,0:3:0:0:
451,307,108348,6,0,P|496:319|531:329,2,75,2|2|8,3:1|3:2|0:3,0:0:0:0:
390,363,108848,1,0,3:0:0:0:
390,363,109015,2,0,P|339:365|328:332,1,75,8|2,3:3|2:3,0:0:0:0:
253,315,109348,2,0,P|227:279|248:246,1,75,0|8,3:0|0:3,0:0:0:0:
309,213,109682,6,0,P|316:176|324:132,2,75,10|10|2,3:1|3:1|3:2,0:0:0:0:
237,254,110182,1,10,3:1:0:0:
237,254,110348,2,0,P|191:244|150:233,1,75,8|2,3:3|0:3,0:0:0:0:
116,168,110682,2,0,P|61:181|-5:195,1,112.5,10|8,3:1|2:3,0:0:0:0:
17,232,111015,5,2,3:1:0:0:
17,232,111182,1,2,3:2:0:0:
69,295,111348,2,0,P|62:329|57:352,2,37.5,8|0|0,3:3|3:2|3:0,0:0:0:0:
143,257,111682,2,0,P|194:269|230:278,1,75,8|2,3:1|2:3,0:0:0:0:
242,313,111932,1,8,2:3:0:0:
242,313,112015,2,0,P|300:298|346:288,1,75,0|8,3:0|0:1,0:0:0:0:
382,247,112348,6,0,P|422:217|400:114,1,150,10|2,3:1|3:2,0:0:0:0:
354,67,112848,1,10,3:1:0:0:
354,67,113015,2,0,P|304:73|292:114,1,75,8|2,0:3|0:3,0:0:0:0:
220,131,113348,1,10,3:1:0:0:
220,131,113515,1,8,0:3:0:0:
273,193,113682,6,0,P|321:179|354:171,2,75,10|8|10,3:1|3:1|0:1,0:0:0:0:
208,244,114182,1,8,3:1:0:0:
208,244,114348,2,0,P|159:231|117:223,1,75,10|10,3:1|2:1,0:0:0:0:
76,167,114682,2,0,P|31:159|15:118,1,75,10|8,3:3|0:3,0:0:0:0:
64,69,115015,6,0,P|86:32|135:38,2,75,10|2|2,3:1|0:1|0:1,0:0:0:0:
140,112,115515,1,10,3:1:0:0:
140,112,115682,2,0,P|187:121|237:133,1,75,8|8,0:3|0:3,0:0:0:0:
271,68,116015,2,0,P|328:55|407:34,1,112.5,10|2,3:1|0:3,0:0:0:0:
413,66,116348,5,2,3:1:0:0:
413,66,116515,1,8,0:3:0:0:
376,140,116682,2,0,P|341:131|313:124,2,37.5,10|0|8,3:3|2:0|0:3,0:0:0:0:
438,193,117015,6,0,P|426:253|418:297,1,75,10|2,3:1|0:3,0:0:0:0:
454,294,117265,1,8,2:3:0:0:
454,294,117348,2,0,P|444:349|435:395,1,75,6|2,3:2|0:2,0:0:0:0:
357,378,117682,6,0,P|299:364|203:339,1,150,14|2,3:1|3:2,0:0:0:0:
134,372,118182,1,10,3:1:0:0:
134,372,118348,2,0,P|92:336|109:297,1,75,8|2,0:3|0:3,0:0:0:0:
132,248,118682,1,10,3:1:0:0:
132,248,118848,1,8,0:3:0:0:
209,275,119015,6,0,P|220:321|231:365,2,75,2|2|8,3:1|3:2|0:3,0:0:0:0:
271,221,119515,1,0,3:0:0:0:
271,221,119682,2,0,P|282:164|288:131,1,75,8|2,3:3|2:3,0:0:0:0:
222,93,120015,2,0,P|183:102|132:115,1,75,0|8,3:0|0:3,0:0:0:0:
89,167,120348,6,0,P|46:155|2:144,2,75,10|10|2,3:1|3:1|3:2,0:0:0:0:
131,243,120848,1,10,3:1:0:0:
131,243,121015,2,0,P|144:282|182:285,1,75,8|2,3:3|0:3,0:0:0:0:
245,247,121348,2,0,P|279:233|278:160,1,112.5,10|8,3:1|2:3,0:0:0:0:
248,140,121682,6,0,P|200:155|154:168,1,75,2|2,3:1|3:2,0:0:0:0:
104,120,122015,1,8,3:3:0:0:
104,120,122098,1,0,3:2:0:0:
104,120,122182,1,0,3:0:0:0:
44,177,122348,2,0,P|58:220|70:263,1,75,8|2,3:1|2:3,0:0:0:0:
103,267,122598,1,8,2:3:0:0:
103,267,122682,2,0,P|89:318|80:357,1,75,0|8,3:0|0:1,0:0:0:0:
160,370,123015,6,0,P|210:372|269:287,1,150,10|2,3:1|3:2,0:0:0:0:
327,241,123515,1,10,3:1:0:0:
327,241,123682,2,0,P|375:252|421:260,1,75,8|2,0:3|0:3,0:0:0:0:
476,288,124015,1,10,3:1:0:0:
512,214,124182,1,8,0:3:0:0:
438,177,124348,6,0,P|427:139|413:92,2,75,10|8|10,3:1|3:1|0:1,0:0:0:0:
374,229,124848,1,8,3:1:0:0:
374,229,125015,2,0,P|364:283|356:324,1,75,10|10,3:1|2:1,0:0:0:0:
409,369,125348,2,0,P|341:355|271:341,1,112.5,10|8,3:3|2:3,0:0:0:0:
268,317,125682,6,0,P|219:333|180:342,1,75,10|2,3:1|0:1,0:0:0:0:
124,379,126015,1,2,0:1:0:0:
46,349,126182,1,10,3:1:0:0:
20,270,126348,2,0,P|35:218|43:188,1,75,8|8,0:3|0:3,0:0:0:0:
111,154,126682,1,10,3:1:0:0:
149,226,126848,1,2,0:1:0:0:
223,190,127015,1,6,3:2:0:0:
256,192,127098,12,6,128348,3:1:0:0:
256,192,136348,12,2,138348,3:2:0:0:
396,201,138848,5,2,3:3:0:0:
396,201,139015,6,0,P|437:163|410:65,1,150,6|10,3:2|3:2,0:0:0:0:
274,5,139682,2,0,P|209:20|121:39,1,150,2|10,3:2|3:2,0:0:0:0:
50,8,140182,1,10,3:3:0:0:
10,83,140348,5,2,3:2:0:0:
10,83,140515,1,2,2:3:0:0:
10,83,140682,2,0,P|28:147|37:178,1,75,10|2,3:2|2:3,0:0:0:0:
107,186,141015,1,2,3:2:0:0:
36,367,141348,2,0,P|99:349|164:330,1,112.5,10|8,3:2|2:3,0:0:0:0:
171,304,141682,5,2,3:2:0:0:
326,359,142015,1,10,3:2:0:0:
399,321,142182,1,2,2:3:0:0:
466,367,142348,2,0,P|479:308|488:271,1,75,2|10,3:2|2:3,0:0:0:0:
430,228,142682,2,0,P|386:216|336:203,1,75,10|10,3:2|3:3,0:0:0:0:
294,261,143015,6,0,P|271:302|171:295,1,150,2|10,3:2|0:2,0:0:0:0:
17,189,143682,1,2,0:2:0:0:
116,21,144015,1,10,0:2:0:0:
116,21,144182,1,10,3:3:0:0:
116,21,144348,6,0,P|171:31|213:39,1,75,2|2,3:2|3:3,0:0:0:0:
254,87,144682,2,0,P|244:132|235:171,1,75,10|2,3:2|3:3,0:0:0:0:
171,209,145015,2,0,P|112:222|77:231,1,75,2|10,3:2|3:3,0:0:0:0:
36,281,145348,2,0,L|58:365,1,75,10|10,3:2|3:3,0:0:0:0:
138,380,145682,5,2,3:2:0:0:
138,380,145848,1,2,3:3:0:0:
175,306,146015,1,10,3:2:0:0:
175,306,146182,1,2,3:3:0:0:
251,335,146348,2,0,P|289:358|328:335,1,75,2|10,3:2|3:3,0:0:0:0:
387,307,146682,2,0,P|400:285|386:235,1,75,10|10,3:2|3:3,0:0:0:0:
331,179,147015,6,0,P|304:185|278:191,7,37.5,2|0|2|0|10|0|2|0,3:2|3:0|3:3|3:0|3:2|3:0|3:3|3:0,0:0:0:0:
271,221,147682,2,0,P|234:211|208:204,7,37.5,2|0|10|8|10|0|10|8,3:2|3:0|3:3|3:3|3:2|3:0|3:3|3:3,0:0:0:0:
202,185,148348,6,0,P|207:155|213:126,3,37.5,2|0|2|0,3:2|3:0|3:3|3:0,0:0:0:0:
179,117,148682,2,0,P|147:109|122:103,3,37.5,10|0|2|0,3:2|3:0|3:3|3:0,0:0:0:0:
110,134,149015,2,0,P|53:139|39:284,1,225,2|10,3:2|3:3,0:0:0:0:
101,324,149682,5,6,2:1:0:0:
273,369,150015,2,0,P|282:313|291:255,1,95.6250018239022,10|0,2:2|2:0,0:0:0:0:
213,238,150432,2,0,P|201:182|191:141,1,95.6250018239022,0|10,2:0|2:2,0:0:0:0:
318,18,151015,5,2,2:2:0:0:
490,65,151348,2,0,P|502:109|461:147,1,95.6250018239022,10|0,2:2|2:0,0:0:0:0:
395,113,151765,2,0,P|355:141|376:198,1,95.6250018239022,0|10,2:0|2:2,0:0:0:0:
276,345,152348,5,2,2:2:0:0:
122,255,152682,2,0,P|71:268|20:281,1,95.6250018239022,10|0,2:2|2:0,0:0:0:0:
66,354,153098,2,0,P|110:363|139:370,1,63.7500012159348,0|8,2:0|2:3,0:0:0:0:
140,361,153348,1,10,2:2:0:0:
273,233,153682,5,2,2:2:0:0:
113,151,154015,2,0,P|127:93|138:47,1,95.6250018239022,10|0,2:2|2:0,0:0:0:0:
210,21,154432,2,0,P|239:30|243:68,1,63.7500012159348,0|8,2:0|2:3,0:0:0:0:
238,70,154682,1,10,2:2:0:0:
413,39,155015,5,2,2:2:0:0:
492,199,155348,2,0,P|496:247|460:272,1,95.6250018239022,10|0,2:2|2:0,0:0:0:0:
383,243,155765,2,0,P|372:198|360:143,1,95.6250018239022,0|10,2:0|2:2,0:0:0:0:
186,186,156348,5,2,2:2:0:0:
33,93,156682,2,0,P|22:145|11:196,1,95.6250018239022,10|0,2:2|2:0,0:0:0:0:
68,248,157098,2,0,P|57:302|48:349,1,95.6250018239022,0|10,2:0|2:2,0:0:0:0:
186,382,157682,6,0,B|260:359|220:348|298:326,1,127.50000243187,2|10,2:2|2:2,0:0:0:0:
413,375,158265,2,0,P|453:350|449:323,1,63.7500012159348,0|0,2:0|2:0,0:0:0:0:
447,327,158515,1,10,2:3:0:0:
393,264,158682,1,10,2:2:0:0:
496,119,159015,6,0,P|506:76|428:25,1,127.50000243187,2|10,2:2|2:2,0:0:0:0:
330,54,159598,2,0,P|322:83|312:120,1,63.7500012159348,0|2,2:0|2:3,0:0:0:0:
322,125,159848,1,10,2:3:0:0:
396,162,160015,1,10,2:2:0:0:
285,303,160348,1,6,2:2:0:0:
