osu file format v14

[General]
AudioFilename: audio.mp3
AudioLeadIn: 0
PreviewTime: 42994
Countdown: 0
SampleSet: Soft
StackLeniency: 0.4
Mode: 0
LetterboxInBreaks: 0
WidescreenStoryboard: 0

[Editor]
Bookmarks: 43015,85682
DistanceSpacing: 1.5
BeatDivisor: 8
GridSize: 32
TimelineZoom: 4.199997

[Metadata]
Title:Idyllic World
TitleUnicode:Idyllic World
Artist:Krimek
ArtistUnicode:Krimek
Creator:Krimek
Version:Utopia
Source:
Tags:FA Featured Artist electronic instrumental atmospheric hardcore breakcore crossbreed GALAXY OF MIND/MINE MIND/E MIND MINE -Tynamo [BH]Lithium Nozuchi milr_ nytrocide_ nytro ganyumymommy Sylvarus Dignan
BeatmapID:4107794
BeatmapSetID:1978614

[Difficulty]
HPDrainRate:6
CircleSize:4.4
OverallDifficulty:9
ApproachRate:9.6
SliderMultiplier:2
SliderTickRate:0.5

[Events]
//Background and Video events
0,0,"background by krimek.jpg",0,0
//Break Periods
//Storyboard Layer 0 (Background)
//Storyboard Layer 1 (Fail)
//Storyboard Layer 2 (Pass)
//Storyboard Layer 3 (Foreground)
//Storyboard Layer 4 (Overlay)
//Storyboard Sound Samples

[TimingPoints]
349,333.333333333333,4,2,1,40,1,0
349,-100,4,2,1,40,0,0
16348,-100,4,2,1,40,0,0
17015,-100,4,2,1,42,0,0
17682,-100,4,2,1,45,0,0
18348,-100,4,2,1,47,0,0
19015,-100,4,2,1,50,0,0
19682,-100,4,2,1,52,0,0
20348,-100,4,2,1,55,0,0
21015,-100,4,2,1,57,0,0
21348,-100,4,2,1,50,0,0
21515,-100,4,2,1,60,0,0
21682,-133.333333333333,4,2,1,60,0,0
27015,-100,4,2,1,60,0,0
27098,-100,4,2,1,5,0,0
27182,-100,4,2,1,60,0,0
27265,-100,4,2,1,5,0,0
27348,-100,4,2,1,60,0,0
27431,-100,4,2,1,5,0,0
27515,-100,4,2,1,60,0,0
27598,-100,4,2,1,5,0,0
27682,-100,4,2,1,60,0,0
27765,-100,4,2,1,5,0,0
27848,-100,4,2,1,60,0,0
27931,-100,4,2,1,5,0,0
28015,-100,4,2,1,60,0,0
28098,-100,4,2,1,5,0,0
28182,-100,4,2,1,60,0,0
28265,-100,4,2,1,5,0,0
28348,-100,4,2,1,60,0,0
29348,-133.333333333333,4,2,1,60,0,0
37682,-100,4,2,1,60,0,0
37765,-100,4,2,1,5,0,0
37849,-100,4,2,1,60,0,0
37932,-100,4,2,1,5,0,0
38015,-100,4,2,1,60,0,0
38098,-100,4,2,1,5,0,0
38182,-100,4,2,1,60,0,0
38265,-100,4,2,1,5,0,0
38349,-100,4,2,1,60,0,0
38432,-100,4,2,1,5,0,0
38515,-100,4,2,1,60,0,0
38598,-100,4,2,1,5,0,0
38682,-100,4,2,1,60,0,0
38765,-100,4,2,1,5,0,0
38849,-100,4,2,1,60,0,0
38932,-100,4,2,1,5,0,0
39015,-100,4,2,1,60,0,0
40015,-133.333333333333,4,2,1,60,0,0
41682,-100,4,2,1,65,0,0
43015,-66.6666666666667,4,2,1,70,0,1
43098,-66.6666666666667,4,2,1,5,0,1
43182,-100,4,2,1,70,0,1
43265,-100,4,2,1,5,0,1
43348,-100,4,2,1,70,0,1
43431,-100,4,2,1,5,0,1
43515,-66.6666666666667,4,2,1,70,0,1
44015,-66.6666666666667,4,2,1,70,0,1
44098,-66.6666666666667,4,2,1,5,0,1
44182,-100,4,2,1,70,0,1
44265,-100,4,2,1,5,0,1
44348,-100,4,2,1,70,0,1
44431,-100,4,2,1,5,0,1
44515,-50,4,2,1,70,0,1
44765,-50,4,2,1,5,0,1
44848,-50,4,2,1,70,0,1
45015,-57.1428571428571,4,2,1,70,0,1
45098,-57.1428571428571,4,2,1,5,0,1
45182,-57.1428571428571,4,2,1,70,0,1
45348,-66.6666666666667,4,2,1,70,0,1
45432,-66.6666666666667,4,2,1,5,0,1
45515,-66.6666666666667,4,2,1,70,0,1
45599,-66.6666666666667,4,2,1,5,0,1
45682,-66.6666666666667,4,2,1,70,0,1
45766,-66.6666666666667,4,2,1,5,0,1
45848,-66.6666666666667,4,2,1,70,0,1
45932,-66.6666666666667,4,2,1,5,0,1
46015,-66.6666666666667,4,2,1,70,0,1
46099,-66.6666666666667,4,2,1,5,0,1
46182,-133.333333333333,4,2,1,70,0,1
46682,-50,4,2,1,70,0,1
46932,-50,4,2,1,5,0,1
47015,-50,4,2,1,70,0,1
48182,-66.6666666666667,4,2,1,70,0,1
48265,-66.6666666666667,4,2,1,5,0,1
48348,-66.6666666666667,4,2,1,70,0,1
48431,-66.6666666666667,4,2,1,5,0,1
48515,-100,4,2,1,70,0,1
48598,-100,4,2,1,5,0,1
48682,-100,4,2,1,70,0,1
48765,-100,4,2,1,5,0,1
48848,-66.6666666666667,4,2,1,70,0,1
49348,-50,4,2,1,70,0,1
49598,-50,4,2,1,5,0,1
49682,-133.333333333333,4,2,1,70,0,1
49765,-133.333333333333,4,2,1,5,0,1
49848,-133.333333333333,4,2,1,70,0,1
49931,-133.333333333333,4,2,1,5,0,1
50015,-100,4,2,1,70,0,1
50098,-100,4,2,1,5,0,1
50182,-100,4,2,1,70,0,1
50265,-100,4,2,1,5,0,1
50348,-80,4,2,1,70,0,1
50432,-80,4,2,1,5,0,1
50515,-80,4,2,1,70,0,1
50599,-80,4,2,1,5,0,1
50682,-66.6666666666667,4,2,1,70,0,1
51015,-50,4,2,1,70,0,1
51848,-80,4,2,1,70,0,1
52015,-40,4,2,1,70,0,1
52057,-40,4,2,1,5,0,1
52098,-40,4,2,1,70,0,1
52140,-40,4,2,1,5,0,1
52182,-40,4,2,1,70,0,1
52224,-40,4,2,1,5,0,1
52265,-40,4,2,1,70,0,1
52307,-40,4,2,1,5,0,1
52348,-66.6666666666667,4,2,1,70,0,1
52432,-66.6666666666667,4,2,1,5,0,1
52515,-66.6666666666667,4,2,1,70,0,1
52599,-66.6666666666667,4,2,1,5,0,1
52682,-100,4,2,1,70,0,1
52765,-100,4,2,1,5,0,1
52848,-100,4,2,1,70,0,1
52932,-100,4,2,1,5,0,1
53015,-50,4,2,1,70,0,1
53265,-50,4,2,1,5,0,1
53348,-50,4,2,1,70,0,1
53682,-66.6666666666667,4,2,1,70,0,1
53765,-66.6666666666667,4,2,1,5,0,1
53848,-100,4,2,1,70,0,1
53932,-100,4,2,1,5,0,1
54015,-100,4,2,1,70,0,1
54098,-100,4,2,1,5,0,1
54181,-66.6666666666667,4,2,1,70,0,1
54681,-66.6666666666667,4,2,1,70,0,1
54765,-66.6666666666667,4,2,1,5,0,1
54848,-100,4,2,1,70,0,1
54932,-100,4,2,1,5,0,1
55015,-100,4,2,1,70,0,1
55099,-100,4,2,1,5,0,1
55181,-50,4,2,1,70,0,1
55432,-50,4,2,1,5,0,1
55515,-50,4,2,1,70,0,1
55682,-57.1428571428571,4,2,1,70,0,1
55765,-57.1428571428571,4,2,1,5,0,1
55848,-57.1428571428571,4,2,1,70,0,1
56014,-66.6666666666667,4,2,1,70,0,1
56098,-66.6666666666667,4,2,1,5,0,1
56182,-66.6666666666667,4,2,1,70,0,1
56266,-66.6666666666667,4,2,1,5,0,1
56348,-66.6666666666667,4,2,1,70,0,1
56432,-66.6666666666667,4,2,1,5,0,1
56515,-66.6666666666667,4,2,1,70,0,1
56599,-66.6666666666667,4,2,1,5,0,1
56682,-66.6666666666667,4,2,1,70,0,1
56766,-66.6666666666667,4,2,1,5,0,1
56848,-133.333333333333,4,2,1,70,0,1
57348,-50,4,2,1,70,0,1
58848,-66.6666666666667,4,2,1,70,0,1
58932,-66.6666666666667,4,2,1,5,0,1
59015,-66.6666666666667,4,2,1,70,0,1
59099,-66.6666666666667,4,2,1,5,0,1
59181,-100,4,2,1,70,0,1
59265,-100,4,2,1,5,0,1
59348,-100,4,2,1,70,0,1
59432,-100,4,2,1,5,0,1
59514,-66.6666666666667,4,2,1,70,0,1
60014,-50,4,2,1,70,0,1
60265,-50,4,2,1,5,0,1
60348,-133.333333333333,4,2,1,70,0,1
60432,-133.333333333333,4,2,1,5,0,1
60515,-133.333333333333,4,2,1,70,0,1
60598,-133.333333333333,4,2,1,5,0,1
60681,-100,4,2,1,70,0,1
60765,-100,4,2,1,5,0,1
60849,-100,4,2,1,70,0,1
60932,-100,4,2,1,5,0,1
61014,-80,4,2,1,70,0,1
61099,-80,4,2,1,5,0,1
61182,-80,4,2,1,70,0,1
61266,-80,4,2,1,5,0,1
61348,-66.6666666666667,4,2,1,70,0,1
61681,-50,4,2,1,70,0,1
61765,-50,4,2,1,5,0,1
61848,-66.6666666666667,4,2,1,70,0,1
61932,-66.6666666666667,4,2,1,5,0,1
62015,-50,4,2,1,70,0,1
62098,-50,4,2,1,5,0,1
62182,-66.6666666666667,4,2,1,70,0,1
62265,-66.6666666666667,4,2,1,5,0,1
62348,-80,4,2,1,70,0,1
62432,-80,4,2,1,5,0,1
62682,-50,4,2,1,70,0,1
62765,-50,4,2,1,5,0,1
62848,-66.6666666666667,4,2,1,70,0,1
62932,-66.6666666666667,4,2,1,5,0,1
63014,-66.6666666666667,4,2,1,70,0,1
63348,-100,4,2,1,70,0,1
63681,-50,4,2,1,70,0,1
64348,-66.6666666666667,4,1,1,60,0,0
66765,-66.6666666666667,4,1,1,5,0,0
66849,-66.6666666666667,4,1,1,60,0,0
69098,-66.6666666666667,4,1,1,5,0,0
69182,-66.6666666666667,4,1,1,60,0,0
69265,-66.6666666666667,4,1,1,5,0,0
69349,-66.6666666666667,4,1,1,60,0,0
72098,-66.6666666666667,4,1,1,5,0,0
72182,-66.6666666666667,4,1,1,60,0,0
73932,-66.6666666666667,4,1,1,5,0,0
74016,-66.6666666666667,4,1,1,60,0,0
74265,-66.6666666666667,4,1,1,5,0,0
74349,-66.6666666666667,4,1,1,60,0,0
74432,-66.6666666666667,4,1,1,5,0,0
74516,-66.6666666666667,4,1,1,60,0,0
74765,-66.6666666666667,4,1,1,5,0,0
74849,-66.6666666666667,4,1,1,60,0,0
74932,-66.6666666666667,4,1,1,5,0,0
75015,-66.6666666666667,4,1,1,65,0,0
75765,-66.6666666666667,4,1,1,5,0,0
75848,-66.6666666666667,4,1,1,65,0,0
75932,-66.6666666666667,4,1,1,5,0,0
76015,-66.6666666666667,4,1,1,65,0,0
76098,-66.6666666666667,4,1,1,5,0,0
76181,-66.6666666666667,4,1,1,65,0,0
77098,-66.6666666666667,4,1,1,5,0,0
77181,-66.6666666666667,4,1,1,65,0,0
77265,-66.6666666666667,4,1,1,5,0,0
77348,-66.6666666666667,4,1,1,65,0,0
77432,-66.6666666666667,4,1,1,5,0,0
77515,-66.6666666666667,4,1,1,65,0,0
78432,-66.6666666666667,4,1,1,5,0,0
78515,-66.6666666666667,4,1,1,65,0,0
78598,-66.6666666666667,4,1,1,5,0,0
78681,-66.6666666666667,4,1,1,65,0,0
78765,-66.6666666666667,4,1,1,5,0,0
78848,-66.6666666666667,4,1,1,65,0,0
79765,-66.6666666666667,4,1,1,5,0,0
79848,-66.6666666666667,4,1,1,65,0,0
79932,-66.6666666666667,4,1,1,5,0,0
80015,-66.6666666666667,4,1,1,65,0,0
80265,-66.6666666666667,4,1,1,5,0,0
80348,-66.6666666666667,4,1,1,70,0,0
80598,-66.6666666666667,4,1,1,5,0,0
80682,-100,4,1,1,70,0,0
81015,-80,4,1,1,70,0,0
81348,-66.6666666666667,4,1,1,70,0,0
81932,-66.6666666666667,4,1,1,5,0,0
82015,-100,4,1,1,70,0,0
82348,-80,4,1,1,70,0,0
82681,-66.6666666666667,4,1,1,70,0,0
83265,-66.6666666666667,4,1,1,5,0,0
83348,-100,4,1,1,70,0,0
83681,-80,4,1,1,70,0,0
84014,-66.6666666666667,4,1,1,70,0,0
84349,-50,4,1,1,70,0,0
85682,-80,4,2,1,80,0,0
86098,-80,4,2,1,5,0,0
86182,-80,4,2,1,80,0,0
86598,-80,4,2,1,5,0,0
86682,-80,4,2,1,80,0,0
87432,-80,4,2,1,5,0,0
87516,-80,4,2,1,80,0,0
87932,-80,4,2,1,5,0,0
88016,-80,4,2,1,80,0,0
88432,-80,4,2,1,5,0,0
88516,-80,4,2,1,80,0,0
88598,-80,4,2,1,5,0,0
88682,-80,4,2,1,80,0,0
88765,-80,4,2,1,5,0,0
88849,-80,4,2,1,80,0,0
88932,-80,4,2,1,5,0,0
89016,-80,4,2,1,80,0,0
90098,-80,4,2,1,5,0,0
90182,-80,4,2,1,80,0,0
90598,-80,4,2,1,5,0,0
90682,-80,4,2,1,80,0,0
91432,-80,4,2,1,5,0,0
91516,-80,4,2,1,80,0,0
91932,-80,4,2,1,5,0,0
92016,-80,4,2,1,80,0,0
92765,-80,4,2,1,5,0,0
92849,-80,4,2,1,80,0,0
93265,-80,4,2,1,5,0,0
93349,-80,4,2,1,80,0,0
93682,-59.8802395209581,4,2,1,80,0,0
93932,-59.8802395209581,4,2,1,5,0,0
94015,-59.8802395209581,4,2,1,80,0,0
94098,-59.8802395209581,4,2,1,5,0,0
94181,-59.8802395209581,4,2,1,80,0,0
94432,-59.8802395209581,4,2,1,5,0,0
94515,-59.8802395209581,4,2,1,80,0,0
94598,-59.8802395209581,4,2,1,5,0,0
94681,-59.8802395209581,4,2,1,80,0,0
94932,-59.8802395209581,4,2,1,5,0,0
95015,-59.8802395209581,4,2,1,80,0,0
95098,-59.8802395209581,4,2,1,5,0,0
95181,-59.8802395209581,4,2,1,80,0,0
95432,-59.8802395209581,4,2,1,5,0,0
95515,-59.8802395209581,4,2,1,80,0,0
95598,-59.8802395209581,4,2,1,5,0,0
95682,-50,4,2,1,80,0,0
96265,-50,4,2,1,5,0,0
96348,-80,4,2,1,80,0,0
96765,-80,4,2,1,5,0,0
96849,-80,4,2,1,80,0,0
96932,-80,4,2,1,5,0,0
97016,-80,4,2,1,80,0,0
98098,-80,4,2,1,5,0,0
98182,-80,4,2,1,80,0,0
98598,-80,4,2,1,5,0,0
98682,-80,4,2,1,80,0,0
99098,-80,4,2,1,5,0,0
99182,-80,4,2,1,80,0,0
99265,-80,4,2,1,5,0,0
99349,-80,4,2,1,80,0,0
99432,-80,4,2,1,5,0,0
99516,-80,4,2,1,80,0,0
99598,-80,4,2,1,5,0,0
99682,-80,4,2,1,80,0,0
100765,-80,4,2,1,5,0,0
100849,-80,4,2,1,80,0,0
101265,-80,4,2,1,5,0,0
101349,-80,4,2,1,80,0,0
101765,-80,4,2,1,5,0,0
101849,-80,4,2,1,80,0,0
101932,-80,4,2,1,5,0,0
102016,-80,4,2,1,80,0,0
102098,-80,4,2,1,5,0,0
102182,-80,4,2,1,80,0,0
102265,-80,4,2,1,5,0,0
102349,-80,4,2,1,80,0,0
102432,-80,4,2,1,5,0,0
102516,-80,4,2,1,80,0,0
102598,-80,4,2,1,5,0,0
102682,-80,4,2,1,80,0,0
102765,-80,4,2,1,5,0,0
102849,-80,4,2,1,80,0,0
103098,-80,4,2,1,5,0,0
103182,-80,4,2,1,80,0,0
103265,-80,4,2,1,5,0,0
103349,-80,4,2,1,80,0,0
103432,-80,4,2,1,5,0,0
103516,-80,4,2,1,80,0,0
103598,-80,4,2,1,5,0,0
103682,-80,4,2,1,80,0,0
103765,-80,4,2,1,5,0,0
103849,-80,4,2,1,80,0,0
103932,-80,4,2,1,5,0,0
104016,-80,4,2,1,80,0,0
104098,-80,4,2,1,5,0,0
104182,-80,4,2,1,80,0,0
104348,-59.8802395209581,4,2,1,80,0,0
104598,-59.8802395209581,4,2,1,5,0,0
104681,-59.8802395209581,4,2,1,80,0,0
104764,-59.8802395209581,4,2,1,5,0,0
104847,-59.8802395209581,4,2,1,80,0,0
105098,-59.8802395209581,4,2,1,5,0,0
105181,-59.8802395209581,4,2,1,80,0,0
105264,-59.8802395209581,4,2,1,5,0,0
105347,-59.8802395209581,4,2,1,80,0,0
105598,-59.8802395209581,4,2,1,5,0,0
105681,-38.9105058365759,4,2,1,80,0,0
106932,-38.9105058365759,4,2,1,5,0,0
107015,-66.6666666666667,4,2,1,80,0,1
107098,-66.6666666666667,4,2,1,5,0,1
107182,-100,4,2,1,80,0,1
107265,-100,4,2,1,5,0,1
107348,-100,4,2,1,80,0,1
107431,-100,4,2,1,5,0,1
107515,-66.6666666666667,4,2,1,80,0,1
107598,-66.6666666666667,4,2,1,5,0,1
107682,-100,4,2,1,80,0,1
107765,-100,4,2,1,5,0,1
107848,-100,4,2,1,80,0,1
107931,-100,4,2,1,5,0,1
108015,-66.6666666666667,4,2,1,80,0,1
108098,-66.6666666666667,4,2,1,5,0,1
108182,-100,4,2,1,80,0,1
108265,-100,4,2,1,5,0,1
108348,-100,4,2,1,80,0,1
108515,-50,4,2,1,80,0,1
108765,-50,4,2,1,5,0,1
108848,-50,4,2,1,80,0,1
109015,-57.1428571428571,4,2,1,80,0,1
109098,-57.1428571428571,4,2,1,5,0,1
109182,-57.1428571428571,4,2,1,80,0,1
109348,-66.6666666666667,4,2,1,80,0,1
109432,-66.6666666666667,4,2,1,5,0,1
109515,-66.6666666666667,4,2,1,80,0,1
109599,-66.6666666666667,4,2,1,5,0,1
109682,-66.6666666666667,4,2,1,80,0,1
109766,-66.6666666666667,4,2,1,5,0,1
109848,-66.6666666666667,4,2,1,80,0,1
109932,-66.6666666666667,4,2,1,5,0,1
110015,-66.6666666666667,4,2,1,80,0,1
110098,-66.6666666666667,4,2,1,5,0,1
110182,-66.6666666666667,4,2,1,80,0,1
110265,-66.6666666666667,4,2,1,5,0,1
110348,-80,4,2,1,80,0,1
110432,-80,4,2,1,5,0,1
110515,-80,4,2,1,80,0,1
110599,-80,4,2,1,5,0,1
110682,-50,4,2,1,80,0,1
110932,-50,4,2,1,5,0,1
111015,-50,4,2,1,80,0,1
112182,-66.6666666666667,4,2,1,80,0,1
112265,-66.6666666666667,4,2,1,5,0,1
112348,-66.6666666666667,4,2,1,80,0,1
112431,-66.6666666666667,4,2,1,5,0,1
112515,-100,4,2,1,80,0,1
112598,-100,4,2,1,5,0,1
112682,-66.6666666666667,4,2,1,80,0,1
112765,-66.6666666666667,4,2,1,5,0,1
112848,-57.1428571428571,4,2,1,80,0,1
112932,-50,4,2,1,5,0,1
113015,-66.6666666666667,4,2,1,80,0,1
113682,-133.333333333333,4,2,1,80,0,1
113765,-133.333333333333,4,2,1,5,0,1
113848,-133.333333333333,4,2,1,80,0,1
113931,-133.333333333333,4,2,1,5,0,1
114015,-100,4,2,1,80,0,1
114098,-100,4,2,1,5,0,1
114182,-100,4,2,1,80,0,1
114265,-100,4,2,1,5,0,1
114348,-80,4,2,1,80,0,1
114432,-80,4,2,1,5,0,1
114515,-80,4,2,1,80,0,1
114599,-80,4,2,1,5,0,1
114682,-66.6666666666667,4,2,1,80,0,1
115015,-44.4444444444445,4,2,1,80,0,1
115348,-50,4,2,1,80,0,1
115432,-50,4,2,1,5,0,1
115515,-50,4,2,1,80,0,1
115599,-50,4,2,1,5,0,1
115682,-44.4444444444445,4,2,1,80,0,1
116015,-50,4,2,1,80,0,1
116098,-50,4,2,1,5,0,1
116182,-50,4,2,1,80,0,1
116266,-50,4,2,1,5,0,1
116348,-66.6666666666667,4,2,1,80,0,1
116432,-66.6666666666667,4,2,1,5,0,1
116515,-66.6666666666667,4,2,1,80,0,1
116599,-66.6666666666667,4,2,1,5,0,1
116682,-100,4,2,1,80,0,1
116765,-100,4,2,1,5,0,1
116848,-100,4,2,1,80,0,1
116932,-100,4,2,1,5,0,1
117015,-50,4,2,1,80,0,1
117265,-50,4,2,1,5,0,1
117348,-50,4,2,1,80,0,1
117598,-50,4,2,1,5,0,1
117682,-66.6666666666667,4,2,1,80,0,1
117765,-66.6666666666667,4,2,1,5,0,1
117849,-100,4,2,1,80,0,1
117932,-100,4,2,1,5,0,1
118015,-100,4,2,1,80,0,1
118098,-100,4,2,1,5,0,1
118182,-66.6666666666667,4,2,1,80,0,1
118265,-66.6666666666667,4,2,1,5,0,1
118349,-100,4,2,1,80,0,1
118432,-100,4,2,1,5,0,1
118515,-100,4,2,1,80,0,1
118598,-100,4,2,1,5,0,1
118681,-66.6666666666667,4,2,1,80,0,1
118764,-66.6666666666667,4,2,1,5,0,1
118848,-100,4,2,1,80,0,1
118931,-100,4,2,1,5,0,1
119015,-100,4,2,1,80,0,1
119182,-50,4,2,1,80,0,1
119432,-50,4,2,1,5,0,1
119515,-50,4,2,1,80,0,1
119682,-57.1428571428571,4,2,1,80,0,1
119765,-57.1428571428571,4,2,1,5,0,1
119849,-57.1428571428571,4,2,1,80,0,1
120015,-66.6666666666667,4,2,1,80,0,1
120099,-66.6666666666667,4,2,1,5,0,1
120182,-66.6666666666667,4,2,1,80,0,1
120266,-66.6666666666667,4,2,1,5,0,1
120349,-66.6666666666667,4,2,1,80,0,1
120433,-66.6666666666667,4,2,1,5,0,1
120515,-66.6666666666667,4,2,1,80,0,1
120599,-66.6666666666667,4,2,1,5,0,1
120682,-66.6666666666667,4,2,1,80,0,1
120765,-66.6666666666667,4,2,1,5,0,1
120849,-66.6666666666667,4,2,1,80,0,1
120932,-66.6666666666667,4,2,1,5,0,1
121015,-80,4,2,1,80,0,1
121099,-80,4,2,1,5,0,1
121182,-80,4,2,1,80,0,1
121266,-80,4,2,1,5,0,1
121348,-50,4,2,1,80,0,1
121599,-50,4,2,1,5,0,1
121682,-50,4,2,1,80,0,1
122848,-66.6666666666667,4,2,1,80,0,1
122932,-66.6666666666667,4,2,1,5,0,1
123015,-66.6666666666667,4,2,1,80,0,1
123098,-66.6666666666667,4,2,1,5,0,1
123182,-100,4,2,1,80,0,1
123265,-100,4,2,1,5,0,1
123349,-66.6666666666667,4,2,1,80,0,1
123432,-66.6666666666667,4,2,1,5,0,1
123515,-57.1428571428571,4,2,1,80,0,1
123599,-50,4,2,1,5,0,1
123682,-66.6666666666667,4,2,1,80,0,1
124348,-133.333333333333,4,2,1,80,0,1
124432,-133.333333333333,4,2,1,5,0,1
124515,-133.333333333333,4,2,1,80,0,1
124598,-133.333333333333,4,2,1,5,0,1
124682,-100,4,2,1,80,0,1
124765,-100,4,2,1,5,0,1
124849,-100,4,2,1,80,0,1
124932,-100,4,2,1,5,0,1
125015,-80,4,2,1,80,0,1
125099,-80,4,2,1,5,0,1
125182,-80,4,2,1,80,0,1
125266,-80,4,2,1,5,0,1
125348,-66.6666666666667,4,2,1,80,0,1
125682,-50,4,2,1,80,0,1
125764,-50,4,2,1,5,0,1
125848,-66.6666666666667,4,2,1,80,0,1
125932,-66.6666666666667,4,2,1,5,0,1
126015,-50,4,2,1,80,0,1
126098,-50,4,2,1,5,0,1
126182,-66.6666666666667,4,2,1,80,0,1
126265,-66.6666666666667,4,2,1,5,0,1
126348,-80,4,2,1,80,0,1
126432,-80,4,2,1,5,0,1
126682,-50,4,2,1,80,0,1
126765,-50,4,2,1,5,0,1
126848,-66.6666666666667,4,2,1,80,0,1
126932,-66.6666666666667,4,2,1,5,0,1
127015,-38.9105058365759,4,2,1,80,0,1
128266,-38.9105058365759,4,2,1,5,0,1
128348,-66.6666666666667,4,2,1,80,0,0
138348,-72.992700729927,4,2,1,80,0,0
138848,-66.6666666666667,4,2,1,80,0,0
139015,-66.6666666666667,4,2,1,75,0,0
149682,-66.6666666666667,4,2,1,60,0,0
149932,-66.6666666666667,4,2,1,5,0,0
150015,-100,4,2,1,60,0,0
152348,-114.942528735632,4,2,1,60,0,0
155015,-133.333333333333,4,2,1,60,0,0
157682,-161.290322580645,4,2,1,60,0,0
160348,-100,4,2,1,50,0,0
171015,-100,4,2,1,50,0,0

[Colours]
Combo1 : 255,21,138
Combo2 : 191,223,255
Combo3 : 255,128,192
Combo4 : 72,95,153

[HitObjects]
256,192,16348,12,0,21348,0:0:0:0:
168,236,21515,5,0,0:0:0:0:
104,172,21682,6,0,P|70:155|33:150,1,75.0000028610231,6|2,3:1|0:2,0:0:0:0:
216,124,22015,2,0,P|253:119|286:102,1,75.0000028610231,8|2,3:2|0:2,0:0:0:0:
357,24,22348,1,2,3:2:0:0:
338,193,22515,1,2,0:2:0:0:
452,67,22682,1,8,3:2:0:0:
286,102,22848,1,2,0:2:0:0:
442,172,23015,6,0,P|479:176|512:193,1,75.0000028610231,2|0,3:2|0:0,0:0:0:0:
267,214,23348,2,0,P|304:209|337:192,1,75.0000028610231,8|0,3:2|0:0,0:0:0:0:
286,102,23682,2,0,L|302:10,1,75.0000028610231,2|2,3:2|0:2,0:0:0:0:
184,192,24015,2,0,L|200:284,1,75.0000028610231,8|2,3:2|0:2,0:0:0:0:
75,138,24348,6,0,L|94:28,1,112.500004291535,2|0,3:2|0:0,0:0:0:0:
12,68,24682,1,8,3:2:0:0:
157,98,24848,1,2,0:2:0:0:
100,236,25015,2,0,P|66:252|29:257,1,75.0000028610231,2|2,3:2|0:2,0:0:0:0:
204,296,25348,1,8,3:2:0:0:
264,216,25515,2,0,P|230:199|193:194,1,75.0000028610231,2|0,0:2|3:2,0:0:0:0:
300,339,25848,5,2,0:2:0:0:
371,154,26015,1,8,3:2:0:0:
434,236,26182,2,0,P|400:252|363:257,1,75.0000028610231,2|0,0:2|3:2,0:0:0:0:
512,272,26515,5,2,0:2:0:0:
493,175,26681,1,8,3:2:0:0:
474,79,26848,1,2,0:2:0:0:
371,154,27015,6,0,L|311:166,1,50,2|0,3:2|0:0,0:0:0:0:
401,70,27182,2,0,L|352:80,1,50,2|0,0:2|0:0,0:0:0:0:
252,16,27348,2,0,L|192:4,1,50,8|0,3:2|0:0,0:0:0:0:
282,99,27515,2,0,L|232:89,1,50,2|0,0:2|0:0,0:0:0:0:
160,224,27682,6,0,P|148:246|131:264,1,50,2|0,3:2|0:0,0:0:0:0:
83,119,27848,2,0,P|79:94|82:69,1,50,2|0,0:2|0:0,0:0:0:0:
207,159,28015,2,0,P|224:176|236:198,1,50,8|0,3:2|0:0,0:0:0:0:
83,199,28182,2,0,P|58:194|35:184,1,50,2|0,0:2|0:0,0:0:0:0:
160,94,28348,1,2,3:2:0:0:
160,224,28515,1,2,0:2:0:0:
53,279,28682,6,0,B|108:272|131:309|135:315|139:323|143:330|147:337|168:376|220:368,1,200,8|0,3:2|3:2,0:0:0:0:
212,292,29182,1,2,0:2:0:0:
70,356,29348,2,0,P|33:359|0:376,1,75.0000028610231,8|2,3:2|0:2,0:0:0:0:
212,292,29682,6,0,P|248:298|280:317,1,75.0000028610231,2|2,3:2|0:2,0:0:0:0:
332,244,30015,1,8,3:2:0:0:
360,368,30182,1,2,0:2:0:0:
400,219,30348,6,0,P|364:225|332:244,1,75.0000028610231,2|2,3:2|0:2,0:0:0:0:
464,296,30681,1,8,3:2:0:0:
492,172,30848,1,2,0:2:0:0:
388,296,31015,5,2,3:2:0:0:
300,172,31348,5,8,3:2:0:0:
423,144,31515,1,2,0:2:0:0:
480,100,31682,5,2,3:2:0:0:
357,72,31848,1,2,0:2:0:0:
300,28,32015,5,8,3:2:0:0:
423,0,32182,1,2,0:2:0:0:
288,100,32348,6,0,P|254:116|217:121,1,75.0000028610231,6|2,3:2|0:2,0:0:0:0:
89,202,32681,2,0,P|126:206|159:223,1,75.0000028610231,8|2,3:2|0:2,0:0:0:0:
244,371,33015,1,2,3:2:0:0:
264,204,33182,1,2,0:2:0:0:
149,328,33349,1,8,3:2:0:0:
315,293,33515,1,2,0:2:0:0:
159,223,33682,5,2,3:2:0:0:
140,212,33848,1,0,0:0:0:0:
296,305,34015,5,8,3:2:0:0:
315,293,34181,1,0,0:0:0:0:
264,204,34348,2,0,L|251:130,1,75.0000028610231,2|2,3:2|0:2,0:0:0:0:
416,276,34681,2,0,L|403:349,1,75.0000028610231,8|2,3:2|0:2,0:0:0:0:
360,220,35015,5,2,3:2:0:0:
456,204,35182,1,2,0:2:0:0:
347,147,35348,2,0,L|360:220,1,75.0000028610231,8|2,3:2|0:2,0:0:0:0:
402,90,35682,5,2,3:2:0:0:
306,74,35849,1,2,0:2:0:0:
264,204,36015,1,8,3:2:0:0:
168,220,36182,1,2,0:2:0:0:
126,90,36348,5,2,3:2:0:0:
116,69,36514,1,2,0:2:0:0:
227,282,36682,5,8,3:2:0:0:
217,303,36848,1,2,0:2:0:0:
416,276,37015,2,0,P|449:258|486:254,1,75.0000028610231,2|2,3:2|0:2,0:0:0:0:
320,149,37348,2,0,P|282:144|249:127,1,75.0000028610231,8|2,3:2|0:2,0:0:0:0:
164,162,37682,6,0,L|115:172,1,50,2|0,3:2|0:0,0:0:0:0:
134,246,37849,2,0,L|85:256,1,50,2|0,0:2|0:0,0:0:0:0:
283,319,38015,2,0,L|234:310,1,50,8|0,3:2|0:0,0:0:0:0:
254,237,38182,2,0,L|204:227,1,50,2|0,0:2|0:0,0:0:0:0:
326,102,38349,6,0,P|338:80|355:62,1,50,2|0,3:2|0:0,0:0:0:0:
403,207,38515,2,0,P|407:232|404:257,1,50,2|0,0:2|0:0,0:0:0:0:
279,167,38682,2,0,P|262:150|250:128,1,50,8|0,3:2|0:0,0:0:0:0:
403,127,38849,2,0,P|428:132|451:142,1,50,2|0,0:2|0:0,0:0:0:0:
326,232,39015,1,2,3:2:0:0:
326,102,39182,1,2,0:2:0:0:
479,233,39348,6,0,B|404:256|404:256|387:299|387:299|314:320,1,200,8|2,3:2|3:2,0:0:0:0:
234,310,39848,1,2,0:2:0:0:
360,384,40015,2,0,L|452:359,1,75.0000028610231,8|2,3:2|0:2,0:0:0:0:
479,233,40348,5,2,3:2:0:0:
500,153,40515,1,2,0:2:0:0:
420,131,40681,1,8,3:2:0:0:
399,211,40848,1,2,0:2:0:0:
293,249,41015,5,2,3:2:0:0:
317,339,41182,1,2,0:2:0:0:
226,363,41348,1,8,3:2:0:0:
202,273,41515,1,2,0:2:0:0:
152,131,41682,6,0,L|103:120,1,50,2|0,3:2|0:0,0:0:0:0:
108,195,41848,2,0,L|59:184,1,50,2|0,0:3|0:0,0:0:0:0:
12,83,42015,2,0,P|41:43|87:24,1,100,8|2,3:3|0:3,0:0:0:0:
167,61,42265,1,2,0:3:0:0:
195,66,42348,6,0,L|243:76,1,50,2|0,3:3|0:0,0:0:0:0:
151,130,42514,2,0,L|199:140,1,50,8|0,0:3|0:0,0:0:0:0:
194,251,42682,5,8,3:2:0:0:
248,237,42765,1,2,0:3:0:0:
284,196,42848,1,2,0:3:0:0:
290,141,42932,1,2,0:3:0:0:
264,92,43015,2,0,P|232:72|195:67,1,75.0000028610231,14|0,3:1|0:0,0:0:0:0:
420,108,43182,6,0,P|411:131|397:151,1,50,2|0,0:2|0:0,0:0:0:0:
328,47,43349,2,0,P|338:69|343:94,1,50,2|0,3:2|0:0,0:0:0:0:
381,230,43515,6,0,B|419:235|451:207|451:207|412:280|433:357|433:357|476:352|492:324,1,300.000011444092,10|2,3:1|0:3,0:0:0:0:
326,170,44015,6,0,P|359:154|396:152,1,75.0000028610231,10|0,3:1|0:0,0:0:0:0:
170,174,44182,6,0,P|176:198|188:219,1,50,8|0,0:3|0:0,0:0:0:0:
267,121,44349,2,0,P|254:142|247:166,1,50,2|0,3:1|0:0,0:0:0:0:
264,356,44515,5,2,3:2:0:0:
272,344,44682,2,0,L|256:176,1,100,8|0,0:3|0:0,0:0:0:0:
381,230,44848,5,0,3:0:0:0:
389,242,45015,2,0,L|373:410,1,87.500000834465,8|0,3:3|0:0,0:0:0:0:
498,356,45181,5,2,2:3:0:0:
506,344,45348,2,0,L|492:200,1,75.0000028610231,0|0,3:0|0:0,0:0:0:0:
490,194,45515,2,0,L|476:50,1,75.0000028610231,8|0,0:3|0:0,0:0:0:0:
512,24,45682,6,0,P|480:43|443:48,1,75.0000028610231,10|0,3:1|0:0,0:0:0:0:
328,104,45848,2,0,P|365:107|398:124,1,75.0000028610231,10|0,3:1|0:0,0:0:0:0:
504,196,46015,2,0,L|490:52,1,75.0000028610231,2|0,3:2|0:0,0:0:0:0:
255,169,46182,6,0,L|269:313,1,75.0000028610231,10|8,3:1|3:3,0:0:0:0:
156,16,46682,6,0,B|156:80|136:128|136:128|184:184|184:184|196:300,1,300,10|0,3:1|0:0,0:0:0:0:
100,320,47015,5,2,3:1:0:0:
208,368,47182,1,2,3:2:0:0:
312,271,47348,5,8,3:3:0:0:
314,295,47431,1,0,3:2:0:0:
316,320,47514,1,0,3:0:0:0:
319,345,47598,1,2,0:3:0:0:
383,382,47682,6,0,B|395:370|395:370|375:182|375:182|371:145|397:118|428:116|428:116|381:82|391:14,1,400,8|0,3:1|3:0,0:0:0:0:
484,172,48182,2,0,P|460:212|464:288,1,75.0000028610231,8|0,0:1|0:0,0:0:0:0:
458,327,48348,6,0,P|421:321|389:302,1,75.0000028610231,10|0,3:1|0:0,0:0:0:0:
260,227,48515,2,0,L|267:145,1,50,2|0,0:2|0:0,0:0:0:0:
319,345,48682,2,0,L|312:263,1,50,2|0,3:2|0:0,0:0:0:0:
313,121,48848,6,0,B|370:72|370:72|380:220|380:220|457:240,1,300.000011444092,10|2,3:1|0:3,0:0:0:0:
512,316,49348,6,0,B|503:267|503:267|261:203,1,300,10|0,3:1|0:0,0:0:0:0:
101,130,49682,6,0,L|64:120,1,37.5000014305115,10|0,3:1|0:0,0:0:0:0:
84,202,49848,2,0,L|47:192,1,37.5000014305115,8|0,3:1|0:0,0:0:0:0:
205,70,50015,6,0,L|156:82,1,50,10|0,0:1|0:0,0:0:0:0:
221,141,50182,2,0,L|172:153,1,50,8|2,3:1|0:3,0:0:0:0:
353,136,50348,6,0,L|292:120,1,62.5,10|2,3:1|0:3,0:0:0:0:
337,206,50515,2,0,L|276:190,1,62.5,10|0,2:1|0:0,0:0:0:0:
439,44,50682,6,0,L|326:73,1,75.0000028610231,10|0,3:3|0:0,0:0:0:0:
459,258,51015,6,0,B|522:273|523:339|489:380|428:387|383:372|355:328|326:284|319:270|269:257|223:273,1,400,10|2,3:1|0:1,0:0:0:0:
86,233,51515,2,0,P|128:338|170:312,1,200,10|8,3:1|0:3,0:0:0:0:
180,187,51848,6,0,P|163:213|160:244,1,62.5,8|8,0:3|0:3,0:0:0:0:
239,172,52015,6,0,P|208:172|180:186,1,62.5,10|0,3:1|0:0,0:0:0:0:
256,175,52098,2,0,P|228:159|198:158,1,62.5,2|0,0:3|0:0,0:0:0:0:
269,186,52182,2,0,P|253:159|226:142,1,62.5,2|0,0:1|0:0,0:0:0:0:
275,203,52265,2,0,P|274:172|260:144,1,62.5,2|0,0:3|0:0,0:0:0:0:
271,219,52348,6,0,P|290:194|296:140,1,75.0000028610231,2|0,3:1|0:0,0:0:0:0:
252,340,52515,2,0,P|233:315|227:261,1,75.0000028610231,8|0,0:3|0:0,0:0:0:0:
350,259,52682,6,0,P|330:274|307:284,1,50,10|0,3:3|0:0,0:0:0:0:
439,250,52848,2,0,P|429:273|414:293,1,50,8|0,0:3|0:0,0:0:0:0:
474,71,53015,6,0,L|496:370,1,300,10|0,3:1|0:0,0:0:0:0:
317,173,53348,5,6,3:2:0:0:
423,363,53515,1,2,0:2:0:0:
225,272,53682,6,0,P|193:291|156:296,1,75.0000028610231,14|0,3:1|0:0,0:0:0:0:
350,259,53848,6,0,P|326:250|301:248,1,50,2|0,0:2|0:0,0:0:0:0:
219,377,54015,2,0,P|238:361|252:340,1,50,2|0,3:2|0:0,0:0:0:0:
153,174,54182,6,0,B|159:98|159:98|239:140|239:140|225:272,1,300.000011444092,10|2,3:1|0:3,0:0:0:0:
85,218,54682,6,0,L|73:143,1,75.0000028610231,10|0,3:1|0:0,0:0:0:0:
148,345,54848,6,0,L|159:270,1,50,8|0,0:3|0:0,0:0:0:0:
16,249,55015,2,0,L|4:174,1,50,2|0,3:1|0:0,0:0:0:0:
161,20,55182,5,2,3:2:0:0:
168,31,55349,2,0,P|179:80|177:130,1,100,8|0,0:3|0:0,0:0:0:0:
290,81,55515,5,0,3:0:0:0:
291,96,55682,2,0,P|275:143|249:183,1,87.500000834465,8|0,3:3|0:0,0:0:0:0:
372,200,55848,5,2,2:3:0:0:
365,211,56015,2,0,P|338:238|306:257,1,75.0000028610231,0|0,3:0|0:0,0:0:0:0:
287,344,56182,2,0,P|254:325|218:315,1,75.0000028610231,8|0,0:3|0:0,0:0:0:0:
89,289,56348,2,0,L|103:433,1,75.0000028610231,10|0,3:1|0:0,0:0:0:0:
169,204,56515,2,0,L|177:130,1,75.0000028610231,10|0,3:1|0:0,0:0:0:0:
105,22,56681,2,0,P|103:59|112:95,1,75.0000028610231,2|0,3:2|0:0,0:0:0:0:
257,226,56848,6,0,P|258:188|249:152,1,75.0000028610231,10|8,3:1|3:3,0:0:0:0:
173,365,57348,6,0,B|185:295|185:295|578:350,1,400,10|2,3:1|3:1,0:0:0:0:
355,241,57848,1,2,3:2:0:0:
451,232,58015,5,8,3:3:0:0:
453,256,58098,1,0,3:2:0:0:
455,281,58181,1,0,3:0:0:0:
257,226,58348,6,0,B|30:258|30:258|16:173|16:173|125:159,1,400,8|0,3:1|3:0,0:0:0:0:
340,170,58848,6,0,P|356:203|355:241,1,75.0000028610231,8|0,0:1|0:0,0:0:0:0:
252,72,59015,6,0,P|289:78|321:97,1,75.0000028610231,10|0,3:1|0:0,0:0:0:0:
427,204,59182,2,0,P|427:242|414:284,1,50,2|0,0:2|0:0,0:0:0:0:
396,64,59348,2,0,P|396:102|409:144,1,50,2|0,3:2|0:0,0:0:0:0:
474,331,59515,6,0,B|509:262|511:168|474:90|474:90|508:84|520:69,1,300.000011444092,10|2,3:1|0:3,0:0:0:0:
287,356,60015,2,0,P|231:218|251:71,1,300,10|0,3:1|0:0,0:0:0:0:
396,64,60349,6,0,L|406:27,1,37.5000014305115,10|0,3:1|0:0,0:0:0:0:
324,47,60515,2,0,L|334:10,1,37.5000014305115,8|0,3:1|0:0,0:0:0:0:
416,186,60682,6,0,L|404:137,1,50,10|0,0:1|0:0,0:0:0:0:
345,202,60849,2,0,L|333:153,1,50,8|2,3:1|0:3,0:0:0:0:
380,350,61015,6,0,L|396:289,1,62.5,10|2,3:1|0:3,0:0:0:0:
310,334,61182,2,0,L|326:273,1,62.5,10|0,2:1|0:0,0:0:0:0:
493,311,61349,6,0,L|512:384,1,75.0000028610231,10|0,3:3|0:0,0:0:0:0:
216,151,61682,6,0,P|172:127|122:121,1,100,10|2,3:1|0:3,0:0:0:0:
204,248,61848,2,0,P|240:243|272:223,1,75.0000028610231,2|0,0:1|0:0,0:0:0:0:
374,95,62015,6,0,P|397:51|403:1,1,100,2|0,0:1|0:0,0:0:0:0:
277,83,62182,2,0,P|281:119|301:151,1,75.0000028610231,10|2,3:1|0:3,0:0:0:0:
238,17,62348,6,0,P|214:37|203:66,1,62.5,8|0,0:3|0:0,0:0:0:0:
463,342,62682,6,0,L|481:212,1,100,10|2,3:1|0:3,0:0:0:0:
386,204,62848,2,0,L|397:279,1,75.0000028610231,2|2,0:1|0:3,0:0:0:0:
492,164,63015,5,2,3:1:0:0:
377,127,63182,1,8,3:3:0:0:
323,257,63348,5,10,3:3:0:0:
208,294,63515,1,8,3:3:0:0:
35,240,63682,5,10,3:1:0:0:
84,208,63765,1,0,0:0:0:0:
87,183,63848,1,2,3:3:0:0:
90,158,63932,1,0,0:0:0:0:
93,133,64015,1,6,3:2:0:0:
96,109,64098,1,0,0:0:0:0:
100,84,64182,1,2,3:2:0:0:
103,59,64265,1,0,0:0:0:0:
106,33,64348,6,0,P|106:71|122:105,1,75.0000028610231,14|2,3:1|2:3,0:0:0:0:
173,169,64515,6,0,L|220:185,6,37.5000014305115,2|0|2|0|10|0|2,2:3|0:0|2:3|0:0|2:3|0:0|2:3,0:0:0:0:
220,255,64848,2,0,L|267:239,6,37.5000014305115,10|0|2|0|2|0|0,2:3|0:0|2:3|0:0|2:2|0:0|2:0,0:0:0:0:
284,313,65182,1,10,2:3:0:0:
448,263,65348,5,10,2:2:0:0:
386,220,65598,5,8,2:2:0:0:
376,280,65682,2,0,L|365:340,10,37.5000014305115,2|0|2|0|2|0|2|0|10|0|2,3:2|0:0|2:3|0:0|2:3|0:0|2:3|0:0|2:3|0:0|2:3,0:0:0:0:
455,190,66182,2,0,L|448:153,10,37.5000014305115,10|0|2|0|2|0|0|0|10|0|8,2:3|0:0|2:3|0:0|2:2|0:0|2:0|0:0|2:3|0:0|2:3,0:0:0:0:
389,53,66682,6,0,L|367:174,1,75.0000028610231,10|0,3:1|2:0,0:0:0:0:
260,222,66932,1,8,2:2:0:0:
317,240,67015,2,0,L|295:119,1,75.0000028610231,10|2,3:1|2:3,0:0:0:0:
383,261,67182,6,0,L|419:274,6,37.5000014305115,2|0|2|0|10|0|2,2:3|0:0|2:3|0:0|2:3|0:0|2:3,0:0:0:0:
264,301,67515,2,0,L|217:317,6,37.5000014305115,10|0|2|0|2|0|0,2:3|0:0|2:3|0:0|2:2|0:0|2:0,0:0:0:0:
96,272,67849,1,10,2:3:0:0:
260,222,68015,5,10,2:2:0:0:
198,179,68265,5,8,2:2:0:0:
188,239,68349,2,0,L|177:299,10,37.5000014305115,2|0|2|0|2|0|2|0|10|0|2,3:2|0:0|2:3|0:0|2:3|0:0|2:3|0:0|2:3|0:0|2:3,0:0:0:0:
138,139,68848,2,0,L|127:79,2,37.5000014305115,10|0|2,2:3|0:0|2:3,0:0:0:0:
194,63,69015,6,0,L|268:77,1,75.0000028610231,10|0,2:1|2:0,0:0:0:0:
84,45,69182,2,0,L|10:31,1,75.0000028610231,10|8,2:1|2:3,0:0:0:0:
212,146,69348,5,2,3:1:0:0:
325,117,69515,1,10,2:3:0:0:
429,176,69682,6,0,P|412:143|409:106,1,75.0000028610231,10|2,3:1|2:3,0:0:0:0:
349,19,69848,1,2,2:3:0:0:
381,33,69932,1,2,2:3:0:0:
419,35,70015,2,0,L|403:-12,2,37.5000014305115,10|0|2,2:3|0:0|2:3,0:0:0:0:
490,122,70182,2,0,L|506:75,6,37.5000014305115,10|0|2|0|2|0|0,2:3|0:0|2:3|0:0|2:2|0:0|2:0,0:0:0:0:
510,203,70515,1,10,2:3:0:0:
346,253,70681,5,10,2:2:0:0:
408,296,70931,5,8,2:2:0:0:
418,236,71015,2,0,L|429:176,10,37.5000014305115,2|0|2|0|2|0|2|0|10|0|2,3:2|0:0|2:3|0:0|2:3|0:0|2:3|0:0|2:3|0:0|2:3,0:0:0:0:
469,348,71515,2,0,L|462:384,10,37.5000014305115,10|0|2|0|2|0|0|0|10|0|8,2:3|0:0|2:3|0:0|2:2|0:0|2:0|0:0|2:3|0:0|2:3,0:0:0:0:
394,369,72015,6,0,L|416:248,1,75.0000028610231,10|0,3:1|2:0,0:0:0:0:
320,186,72265,1,8,2:2:0:0:
263,168,72348,2,0,L|285:289,1,75.0000028610231,10|2,3:1|2:3,0:0:0:0:
326,319,72515,6,0,L|279:335,6,37.5000014305115,2|0|2|0|10|0|2,2:3|0:0|2:3|0:0|2:3|0:0|2:3,0:0:0:0:
223,297,72848,2,0,L|176:313,6,37.5000014305115,10|0|2|0|2|0|0,2:3|0:0|2:3|0:0|2:2|0:0|2:0,0:0:0:0:
120,275,73182,1,10,2:3:0:0:
0,366,73348,5,10,2:2:0:0:
66,384,73598,5,8,2:2:0:0:
56,324,73682,2,0,B|47:279|47:279|26:270|26:270|8:184|8:184|73:208,1,225.000008583069,10|2,3:1|2:3,0:0:0:0:
183,236,74015,2,0,B|191:191|191:191|213:182|213:182|231:96|231:96|166:120,1,225.000008583069,10|2,3:1|2:3,0:0:0:0:
97,138,74348,6,0,L|5:106,1,75.0000028610231,10|0,2:1|2:0,0:0:0:0:
156,329,74515,5,10,2:1:0:0:
211,329,74598,1,8,2:1:0:0:
257,299,74682,2,0,P|275:266|279:229,1,75.0000028610231,2|0,3:1|2:0,0:0:0:0:
75,315,74848,2,0,P|79:351|97:384,1,75.0000028610231,10|8,2:1|2:2,0:0:0:0:
269,372,75015,6,0,L|316:388,6,37.5000014305115,10|0|2|0|2|0|2,3:1|0:0|2:3|0:0|2:3|0:0|2:3,0:0:0:0:
359,295,75348,2,0,P|392:278|429:275,1,75.0000028610231,10|2,3:1|2:3,0:0:0:0:
183,236,75515,1,10,2:3:0:0:
236,290,75682,6,0,P|204:309|167:310,1,75.0000028610231,2|0,3:2|2:0,0:0:0:0:
203,159,75848,2,0,P|235:178|254:211,1,75.0000028610231,10|8,2:3|2:3,0:0:0:0:
106,254,76015,2,0,P|107:217|126:185,1,75.0000028610231,10|0,3:1|0:0,0:0:0:0:
130,19,76265,5,8,2:2:0:0:
140,79,76349,2,0,L|151:139,6,37.5000014305115,10|0|2|0|2|0|2,3:1|0:0|2:3|0:0|2:3|0:0|2:3,0:0:0:0:
72,60,76682,2,0,L|0:41,1,75.0000028610231,10|2,3:1|2:3,0:0:0:0:
200,36,76848,1,10,2:3:0:0:
202,159,77015,6,0,L|274:140,1,75.0000028610231,2|0,3:2|2:0,0:0:0:0:
344,72,77182,2,0,L|271:53,1,75.0000028610231,10|8,2:3|2:3,0:0:0:0:
260,218,77348,2,0,L|332:199,1,75.0000028610231,10|0,3:1|2:0,0:0:0:0:
496,98,77598,5,8,2:2:0:0:
506,38,77682,2,0,L|512:1,6,37.5000014305115,10|0|2|0|2|0|2,3:1|0:0|2:3|0:0|2:3|0:0|2:3,0:0:0:0:
416,82,78015,2,0,P|418:119|435:152,1,75.0000028610231,10|2,3:1|2:3,0:0:0:0:
512,263,78182,1,10,2:3:0:0:
332,199,78348,6,0,P|360:223|395:235,1,75.0000028610231,2|0,3:2|2:0,0:0:0:0:
495,264,78515,2,0,P|459:275|431:300,1,75.0000028610231,10|8,2:3|2:3,0:0:0:0:
372,375,78682,2,0,L|356:301,1,75.0000028610231,10|0,3:1|0:0,0:0:0:0:
350,128,78932,5,8,2:2:0:0:
290,138,79015,2,0,L|301:78,6,37.5000014305115,10|0|2|0|2|0|2,3:1|0:0|2:3|0:0|2:3|0:0|2:3,0:0:0:0:
271,244,79348,2,0,L|255:317,1,75.0000028610231,10|2,3:1|2:3,0:0:0:0:
230,148,79515,1,10,2:3:0:0:
352,203,79682,6,0,P|387:191|415:166,1,75.0000028610231,2|0,3:2|2:0,0:0:0:0:
228,73,79848,2,0,P|192:84|164:109,1,75.0000028610231,10|8,2:3|2:3,0:0:0:0:
70,327,80015,6,0,B|60:345|71:385|113:399|155:379|171:339|164:300|148:278|121:258,1,225.000008583069,2|0,3:1|0:0,0:0:0:0:
163,180,80348,2,0,B|172:161|161:121|119:107|77:127|61:167|68:206|84:228|111:248,1,225.000008583069,10|2,3:1|2:3,0:0:0:0:
225,302,80682,6,0,P|220:277|210:254,1,50,10|2,3:1|2:3,0:0:0:0:
255,177,80848,1,10,3:3:0:0:
323,156,81015,6,0,P|325:180|310:221,1,62.5,10|0,3:1|2:0,0:0:0:0:
383,271,81182,1,10,3:3:0:0:
445,303,81348,6,0,P|453:267|441:231,1,75.0000028610231,10|0,3:1|2:0,0:0:0:0:
494,147,81515,1,10,3:3:0:0:
424,111,81682,6,0,B|395:162|430:198|436:203|442:209|448:215|453:221|488:255|458:318,1,225.000008583069,10|2,3:1|2:3,0:0:0:0:
405,367,82015,6,0,L|356:374,1,50,10|2,3:1|2:3,0:0:0:0:
318,236,82182,1,10,3:3:0:0:
358,165,82348,6,0,L|280:155,1,62.5,10|0,3:1|2:0,0:0:0:0:
241,277,82515,1,10,3:3:0:0:
290,341,82681,6,0,L|212:351,1,75.0000028610231,10|0,3:1|2:0,0:0:0:0:
192,213,82848,1,10,3:3:0:0:
42,316,83015,6,0,B|27:364|27:364|59:350|59:350|86:256|86:256|124:239,1,225.000008583069,10|2,3:1|3:3,0:0:0:0:
149,311,83348,6,0,L|128:385,1,50,10|2,3:1|3:3,0:0:0:0:
26,203,83515,2,0,L|5:277,1,50,10|2,3:1|3:3,0:0:0:0:
192,213,83682,6,0,L|208:273,1,62.5,10|0,3:1|3:0,0:0:0:0:
315,104,83848,2,0,L|331:164,1,62.5,10|8,3:1|3:3,0:0:0:0:
154,100,84015,6,0,L|134:173,1,75.0000028610231,10|0,3:1|3:0,0:0:0:0:
29,0,84182,2,0,L|8:72,1,75.0000028610231,10|8,3:1|3:2,0:0:0:0:
214,58,84348,5,10,3:1:0:0:
256,192,84432,12,0,85515,0:0:0:0:
128,192,85682,6,0,P|74:160|13:156,1,125,6|2,2:1|2:2,0:0:0:0:
204,225,86015,2,0,P|208:194|204:163,1,62.5,10|0,2:2|2:0,0:0:0:0:
233,66,86182,2,0,P|179:97|118:101,1,125,2|2,2:2|2:2,0:0:0:0:
309,33,86515,2,0,P|313:63|309:94,1,62.5,10|8,2:3|2:3,0:0:0:0:
319,200,86682,2,0,P|265:168|204:163,1,125,10|10,2:2|2:3,0:0:0:0:
233,66,86932,1,8,2:3:0:0:
309,94,87015,6,0,P|370:90|423:58,1,125,2|2,2:2|2:3,0:0:0:0:
512,0,87348,2,0,L|501:61,1,62.5,10|0,2:2|2:0,0:0:0:0:
432,72,87515,2,0,P|378:103|317:107,1,125,2|2,2:3|2:2,0:0:0:0:
233,66,87848,2,0,L|171:55,1,62.5,10|8,2:3|2:3,0:0:0:0:
100,60,88015,2,0,L|224:80,1,125,10|10,2:2|2:3,0:0:0:0:
248,152,88265,1,8,2:3:0:0:
272,224,88348,6,0,P|241:228|211:218,1,62.5,2|0,2:2|2:0,0:0:0:0:
341,161,88515,2,0,P|322:136|315:106,1,62.5,2|0,2:2|2:0,0:0:0:0:
199,206,88682,2,0,P|180:181|173:151,1,62.5,10|0,2:2|2:0,0:0:0:0:
320,88,88849,2,0,P|331:59|355:38,1,62.5,2|0,2:2|2:0,0:0:0:0:
354,244,89015,1,2,2:2:0:0:
248,152,89182,1,10,2:3:0:0:
366,259,89348,2,0,P|398:313|402:374,1,125,10|10,2:2|2:3,0:0:0:0:
498,345,89598,1,8,2:3:0:0:
470,269,89681,6,0,P|474:208|506:155,1,125,2|2,2:2|2:3,0:0:0:0:
414,171,90015,2,0,P|427:142|446:118,1,62.5,10|0,2:2|2:0,0:0:0:0:
327,366,90182,2,0,P|293:315|238:285,1,125,2|2,2:3|2:2,0:0:0:0:
326,253,90516,2,0,P|300:235|271:223,1,62.5,10|8,2:3|2:3,0:0:0:0:
176,359,90682,1,10,2:2:0:0:
202,221,90849,1,10,2:2:0:0:
96,320,91015,6,0,L|76:196,1,125,2|2,2:2|2:3,0:0:0:0:
176,146,91348,2,0,L|187:208,1,62.5,10|0,2:2|2:0,0:0:0:0:
111,333,91515,2,0,L|91:209,1,125,2|2,2:3|2:2,0:0:0:0:
190,158,91848,2,0,L|201:220,1,62.5,10|8,2:3|2:3,0:0:0:0:
121,89,92015,2,0,B|156:90|179:109|179:109|191:83|223:66,1,125,10|10,2:2|2:3,0:0:0:0:
293,39,92265,1,8,2:3:0:0:
218,52,92348,6,0,B|184:51|160:29|160:29|150:58|119:73,1,125,2|2,2:2|2:3,0:0:0:0:
26,162,92682,2,0,P|47:184|75:196,1,62.5,10|0,2:2|2:0,0:0:0:0:
122,143,92848,2,0,B|156:142|180:120|180:120|190:149|221:164,1,125,2|2,2:3|2:2,0:0:0:0:
314,253,93182,2,0,P|292:275|264:287,1,62.5,10|8,2:3|2:3,0:0:0:0:
218,234,93348,2,0,B|184:233|160:211|160:211|150:240|119:255,1,125,10|10,2:2|2:3,0:0:0:0:
29,349,93682,6,0,P|50:371|116:253,1,250,10|0,2:1|2:0,0:0:0:0:
75,196,94015,2,0,P|35:208|6:237,1,83.4999973880769,10|0,2:2|2:0,0:0:0:0:
228,164,94182,6,0,B|148:192|148:192|119:114|119:114|198:85,1,250.499992164231,10|0,2:1|2:0,0:0:0:0:
188,1,94515,2,0,L|289:41,1,83.4999973880769,10|8,2:3|2:3,0:0:0:0:
421,144,94682,6,0,B|402:143|402:143|325:213|325:213|290:113|290:113|272:104,1,250.499992164231,10|8,2:1|2:3,0:0:0:0:
345,64,95015,2,0,P|369:39|378:72,1,83.4999973880769,2|0,2:2|2:0,0:0:0:0:
489,101,95182,6,0,B|528:160|485:204|479:209|473:215|467:221|462:227|418:271|454:330,1,250.499992164231,10|0,2:1|2:0,0:0:0:0:
376,260,95515,2,0,B|369:288|375:314|375:314|356:299|356:291,1,83.4999973880769,2|0,2:3|2:0,0:0:0:0:
280,216,95682,6,0,B|264:220|264:220|258:229|258:229|247:216|247:216|243:234|243:234|231:220|231:220|227:238|227:238|216:224|216:224|212:242|212:242|200:228|200:228|197:246|197:246|185:233|185:233|181:250|181:250|169:237|169:237|166:254|166:254|154:241|154:241|150:258|150:258|138:245|138:245|135:263|135:263|125:257|125:257|109:261|109:261|86:267|43:261|22:214|41:162|41:162|102:163|134:204|122:293|122:293|61:313,1,700,10|10,3:1|2:3,0:0:0:0:
66,380,96348,6,0,L|186:347,1,125,6|2,3:2|2:2,0:0:0:0:
300,298,96682,2,0,L|289:359,1,62.5,10|0,2:3|2:0,0:0:0:0:
326,200,96848,2,0,L|337:139,1,62.5,2|0,2:2|2:0,0:0:0:0:
253,233,97015,2,0,L|373:265,1,125,2|10,3:2|2:3,0:0:0:0:
400,355,97348,1,10,2:3:0:0:
436,195,97515,1,10,3:3:0:0:
300,298,97682,6,0,P|243:321|183:305,1,125,2|2,3:2|2:3,0:0:0:0:
236,230,98015,2,0,P|209:215|187:194,1,62.5,10|0,2:3|2:0,0:0:0:0:
12,220,98182,2,0,P|20:159|64:116,1,125,2|2,2:3|3:2,0:0:0:0:
123,255,98515,2,0,P|107:228|99:199,1,62.5,10|8,2:3|2:3,0:0:0:0:
256,153,98682,1,10,2:3:0:0:
216,307,98848,5,10,3:3:0:0:
236,230,98932,1,8,2:3:0:0:
309,207,99015,2,0,P|337:218|358:241,1,62.5,2|0,3:2|2:0,0:0:0:0:
426,216,99182,2,0,P|430:247|421:276,1,62.5,2|0,2:2|2:0,0:0:0:0:
396,140,99348,2,0,P|414:164|421:194,1,62.5,10|0,2:3|2:0,0:0:0:0:
512,296,99515,2,0,P|501:324|477:345,1,62.5,2|0,2:2|2:0,0:0:0:0:
385,353,99682,2,0,L|265:321,1,125,2|10,3:2|2:3,0:0:0:0:
236,230,100015,1,10,2:3:0:0:
196,384,100182,1,10,3:3:0:0:
173,163,100348,6,0,P|229:139|289:155,1,125,2|2,3:2|2:3,0:0:0:0:
89,107,100681,2,0,P|109:83|135:66,1,62.5,10|0,2:3|2:0,0:0:0:0:
64,206,100848,2,0,P|126:202|173:163,1,125,2|2,2:3|3:2,0:0:0:0:
11,289,101182,2,0,P|39:301|70:306,1,62.5,10|8,2:3|2:3,0:0:0:0:
213,317,101348,1,10,2:3:0:0:
173,163,101514,5,10,3:3:0:0:
193,240,101598,1,8,2:3:0:0:
266,262,101681,2,0,P|294:250|315:227,1,62.5,6|0,3:2|2:0,0:0:0:0:
372,285,101848,2,0,P|390:260|396:230,1,62.5,2|2,3:2|2:3,0:0:0:0:
222,127,102015,2,0,P|194:139|173:162,1,62.5,10|0,3:3|2:0,0:0:0:0:
116,104,102182,2,0,P|97:128|91:158,1,62.5,2|0,3:2|2:0,0:0:0:0:
70,306,102348,6,0,L|80:372,1,62.5,2|0,3:2|2:0,0:0:0:0:
141,264,102515,2,0,L|151:326,1,62.5,10|8,3:3|2:3,0:0:0:0:
222,127,102682,2,0,L|232:61,1,62.5,10|0,3:3|2:0,0:0:0:0:
293,168,102849,5,10,3:3:0:0:
297,137,102932,1,8,2:3:0:0:
302,106,103015,2,0,P|330:92|361:87,1,62.5,2|0,3:2|2:0,0:0:0:0:
237,36,103182,2,0,P|206:31|178:17,1,62.5,2|0,3:3|2:0,0:0:0:0:
348,2,103348,2,0,P|379:4|408:15,1,62.5,10|0,3:3|2:0,0:0:0:0:
448,94,103515,2,0,L|460:155,1,62.5,2|0,3:3|2:0,0:0:0:0:
389,232,103682,6,0,L|377:171,1,62.5,2|0,3:2|2:0,0:0:0:0:
435,298,103848,2,0,L|494:318,1,62.5,10|8,3:3|2:3,0:0:0:0:
355,304,104014,2,0,L|307:345,1,62.5,10|0,3:3|2:0,0:0:0:0:
289,198,104182,5,10,3:3:0:0:
288,166,104265,1,8,2:3:0:0:
297,136,104348,2,0,B|321:97|361:87|361:87|289:104|238:72|238:72|226:34,1,250.499992164231,10|0,3:1|2:0,0:0:0:0:
151,35,104682,2,0,L|182:130,1,83.4999973880769,10|0,2:2|2:0,0:0:0:0:
170,283,104848,6,0,B|153:335|153:335|88:314|88:314|127:193,1,250.499992164231,10|0,3:1|2:0,0:0:0:0:
67,148,105182,2,0,L|40:227,1,83.4999973880769,10|8,2:3|2:3,0:0:0:0:
226,357,105348,6,0,B|294:356|308:296|310:289|313:280|315:272|315:264|331:204|401:206,1,250.499992164231,10|8,3:1|2:3,0:0:0:0:
478,140,105682,6,2,B|476:144|471:145|471:145|467:146|463:144|463:144|461:142|459:140|459:140|458:136|461:133|461:133|463:130|467:130|467:130|472:131|473:134|473:134|469:132|464:130|464:130|465:136|459:138|459:138|455:140|451:139|451:139|447:138|446:134|446:134|445:130|447:127|447:127|450:124|453:124|453:124|457:124|460:128|460:128|455:127|451:125|451:125|451:130|445:133|445:133|443:135|439:134|439:134|435:133|432:130|432:130|431:127|433:123|433:123|435:120|438:119|438:119|443:119|445:123|445:123|441:121|436:120|436:120|437:127|431:130|431:130|428:132|423:131|423:131|420:129|418:126|418:126|418:123|418:120|418:120|420:118|423:116|423:116|427:115|431:119|431:119|427:118|423:117|423:117|423:123|419:126|419:126|415:129|411:128|411:128|407:128|405:124|405:124|403:121|405:117|405:117|406:116|408:114|408:114|413:113|416:116|416:116|412:116|408:114|408:114|409:121|404:125|404:125|400:128|396:127|396:127|392:127|390:123|390:123|389:122|389:118|389:118|391:115|393:113|393:113|398:112|402:115|402:115|396:114|392:115|392:115|394:120|390:124|390:124|387:128|383:128|383:128|380:128|376:125|376:125|375:122|375:118|375:118|376:115|380:113|380:113|384:112|387:115|387:115|382:115|376:115|376:115|379:120|376:125|376:125|373:129|369:130|369:130|365:130|362:127|362:127|360:125|360:121|360:121|361:117|364:116|364:116|368:114|371:116|371:116|367:116|361:117|361:117|365:123|361:127|361:127|359:131|355:133|355:133|352:134|349:131|349:131|345:129|346:125|346:125|346:121|349:119|349:119|353:117|356:118|356:118|352:119|348:121|348:121|351:125|349:130|349:130|348:134|344:136|344:136|340:137|336:136|336:136|333:133|332:129|332:129|332:127|335:124|335:124|338:122|342:122|342:122|337:124|333:125|333:125|338:130|335:136|335:136|333:139|330:141|330:141|326:143|322:141|322:141|319:139|318:136|318:136|319:132|321:130|321:130|324:127|328:127|328:127|323:129|319:131|319:131|323:135|322:141|322:141|321:145|318:148|318:148|314:150|311:148|311:148|307:147|306:143|306:143|305:140|307:137|307:137|310:134|314:134|314:134|309:136|306:138|306:138|310:142|310:147|310:147|310:153|305:156|305:156|302:156|300:156|300:156|296:156|294:152|294:152|293:148|295:145|295:145|297:142|301:142|301:142|298:144|294:147|294:147|299:150|299:155|299:155|298:161|294:164|294:164|292:165|289:165|289:165|284:164|283:161|283:161|281:158|283:154|283:154|286:151|290:151|290:151|286:153|283:156|283:156|287:159|288:166|288:166|288:170|285:172|285:172|282:175|278:175|278:175|274:175|273:171|273:171|271:168|272:165|272:165|275:161|278:160|278:160|275:163|272:167|272:167|277:169|277:175|277:175|278:179|276:182|276:182|273:185|270:186|270:186|265:186|263:183|263:183|261:179|262:176|262:176|264:173|267:171|267:171|264:175|262:178|262:178|266:179|268:184|268:184|269:188|268:192|268:192|266:196|261:197|261:197|257:198|254:194|254:194|259:181|259:181|258:183|256:186|258:184|258:184|259:181|258:183|256:186|256:186|262:172|262:172|259:169|255:169|255:169|250:170|248:174|248:174|247:178|247:182|247:182|249:187|254:188|254:188|251:192|248:195|248:195|252:194|253:190|253:190|254:187|253:183|253:183|250:181|246:181|246:181|242:181|240:184|240:184|237:188|238:191|238:191|238:197|244:199|244:199|241:203|237:206|237:206|241:205|243:202|243:202|245:198|243:195|243:195|241:192|237:192|237:192|234:191|230:194|230:194|228:197|228:201|228:201|228:207|233:210|233:210|230:214|226:215|226:215|230:216|232:212|232:212|235:209|233:205|233:205|231:202|227:201|227:201|224:202|222:202|222:202|217:205|217:211|217:211|217:216|222:219|222:219|217:222|214:224|214:224|218:224|221:222|221:222|222:218|221:214|221:214|220:211|216:211|216:211|213:210|210:211|210:211|206:214|205:219|205:219|205:224|209:228|209:228|206:230|202:232|202:232|206:232|208:229|208:229|211:226|210:223|210:223|208:219|205:218|205:218|201:217|198:218|198:218|194:221|193:225|193:225|192:231|196:235|196:235|193:237|188:239|188:239|192:239|194:236|194:236|197:234|197:231|197:231|197:227|193:225|193:225|190:223|186:225|186:225|182:227|181:230|181:230|178:236|182:241|182:241|178:242|174:244|174:244|178:244|180:243|180:243|184:240|183:237|183:237|182:233|180:230|180:230|176:229|172:230|172:230|168:232|167:236|167:236|165:242|168:245|168:245|164:247|159:248|159:248|162:249|166:248|166:248|170:245|170:242|170:242|170:238|167:235|167:235|164:233|160:234|160:234|156:235|154:239|154:239|151:244|154:249|154:249|148:250|144:250|144:250|148:253|151:251|151:251|154:249|156:246|156:246|156:242|153:239|153:239|151:237|146:236|146:236|143:237|139:241|139:241|136:246|139:251|139:251|133:252|128:252|128:252|132:254|136:253|136:253|139:251|141:248|141:248|141:244|139:241|139:241|136:239|133:238|133:238|131:240|125:242|125:242|122:247|123:252|123:252|119:252|114:252|114:252|117:254|122:253|122:253|125:251|126:248|126:248|127:245|125:243|125:243|124:239|119:239|119:239|115:238|112:241|112:241|106:245|108:252|108:252|103:251|99:251|99:251|103:253|108:252|108:252|110:250|110:249|110:249|113:246|111:242|111:242|109:238|105:238|105:238|101:237|97:240|97:240|93:243|93:249|93:249|89:249|84:248|84:248|88:251|93:250|93:250|96:248|97:246|97:246|98:244|97:241|97:241|95:237|92:236|92:236|88:235|84:236|84:236|79:240|79:247|79:247|75:246|70:243|70:243|73:247|77:247|77:247|81:246|82:243|82:243|85:239|83:237|83:237|80:233|77:232|77:232|73:232|70:233|70:233|65:236|65:242|65:242|60:239|56:238|56:238|59:242|63:242|63:242|66:242|68:240|68:240|71:236|70:232|70:232|68:229|65:227|65:227|60:226|57:228|57:228|51:230|51:236|51:236|47:234|42:232|42:232|44:236|48:236|48:236|52:236|55:233|55:233|57:230|56:226|56:226|55:224|53:223|53:223|49:220|45:221|45:221|39:222|39:227,1,1926.50754824808,2|10,3:2|2:3,0:0:0:0:
80,136,107015,6,0,P|43:126|6:132,1,75.0000028610231,14|0,3:1|2:0,0:0:0:0:
231,105,107182,6,0,P|229:129|221:152,1,50,2|2,0:2|2:3,0:0:0:0:
125,73,107349,2,0,P|140:91|153:113,1,50,2|0,3:2|2:0,0:0:0:0:
291,189,107515,6,0,P|266:217|232:233,1,75.0000028610231,10|0,3:1|2:0,0:0:0:0:
435,128,107682,6,0,P|419:108|400:93,1,50,8|0,0:3|2:0,0:0:0:0:
365,214,107849,2,0,P|368:190|365:164,1,50,2|8,0:3|2:3,0:0:0:0:
302,40,108015,6,0,P|298:76|310:111,1,75.0000028610231,10|0,3:1|2:0,0:0:0:0:
451,174,108182,2,0,P|445:150|435:128,1,50,8|8,0:3|2:3,0:0:0:0:
512,99,108348,2,0,P|497:78|480:60,1,50,2|0,3:1|2:0,0:0:0:0:
413,38,108515,5,2,3:2:0:0:
401,30,108682,2,0,L|233:46,1,100,8|0,0:3|2:0,0:0:0:0:
291,189,108848,5,0,3:0:0:0:
279,197,109015,2,0,L|111:181,1,87.500000834465,8|0,3:3|2:0,0:0:0:0:
74,97,109181,5,2,2:3:0:0:
86,89,109348,2,0,L|230:103,1,75.0000028610231,0|0,3:0|2:0,0:0:0:0:
236,105,109515,2,0,L|310:112,1,75.0000028610231,8|8,0:3|2:3,0:0:0:0:
482,104,109682,6,0,P|463:136|458:173,1,75.0000028610231,10|0,3:1|2:0,0:0:0:0:
402,288,109848,2,0,P|399:251|382:218,1,75.0000028610231,10|2,3:1|2:3,0:0:0:0:
311,112,110015,6,0,L|455:126,1,75.0000028610231,2|0,3:2|2:0,0:0:0:0:
337,362,110182,2,0,L|193:348,1,75.0000028610231,10|0,3:1|2:0,0:0:0:0:
229,167,110348,6,0,L|236:105,1,62.5,8|0,3:3|2:0,0:0:0:0:
305,194,110515,2,0,L|311:256,1,62.5,2|8,0:3|2:3,0:0:0:0:
187,346,110682,6,0,B|188:267|111:230|111:230|152:196|152:196|161:98,1,300,10|8,3:1|2:3,0:0:0:0:
86,89,111015,5,2,3:1:0:0:
205,39,111182,1,2,3:2:0:0:
312,136,111348,5,8,3:3:0:0:
310,112,111431,1,0,3:2:0:0:
308,87,111514,1,0,3:0:0:0:
305,62,111598,1,2,0:3:0:0:
377,59,111682,6,0,B|386:139|386:139|387:166|372:194|342:209|322:212|322:212|342:229|342:229|331:350|331:350|341:299|433:258,1,400,8|0,3:1|3:0,0:0:0:0:
451,199,112182,2,0,P|462:163|461:126,1,75.0000028610231,8|8,0:1|2:3,0:0:0:0:
312,136,112348,6,0,P|281:115|244:112,1,75.0000028610231,10|0,3:1|2:0,0:0:0:0:
392,47,112515,2,0,P|422:26|455:24,1,50,2|2,0:2|2:3,0:0:0:0:
256,185,112682,6,0,P|225:205|188:208,1,75.0000028610231,2|0,3:2|2:0,0:0:0:0:
374,208,112848,2,0,L|367:296,1,87.500000834465,10|0,3:1|2:0,0:0:0:0:
312,136,113015,5,8,0:3:0:0:
160,78,113182,1,2,0:3:0:0:
96,226,113348,1,10,3:1:0:0:
247,283,113515,1,8,0:3:0:0:
113,298,113682,6,0,L|76:308,1,37.5000014305115,10|0,3:1|2:0,0:0:0:0:
96,226,113848,2,0,L|59:236,1,37.5000014305115,8|2,3:1|2:3,0:0:0:0:
231,354,114015,6,0,L|182:342,1,50,10|0,0:1|2:0,0:0:0:0:
247,283,114182,2,0,L|198:271,1,50,8|0,3:1|2:0,0:0:0:0:
390,282,114348,6,0,L|329:298,1,62.5,10|0,3:1|2:0,0:0:0:0:
374,212,114515,2,0,L|313:228,1,62.5,10|8,2:1|2:3,0:0:0:0:
512,384,114682,6,0,L|399:355,1,75.0000028610231,10|0,3:3|2:0,0:0:0:0:
198,271,115015,6,0,B|210:202|168:178|161:174|154:169|146:165|139:162|96:136|111:79,1,225.000008583069,10|2,3:1|0:1,0:0:0:0:
113,245,115348,2,0,P|77:262|88:224,1,100,2|0,0:1|2:0,0:0:0:0:
195,104,115515,2,0,P|231:87|220:125,1,100,10|2,3:1|0:3,0:0:0:0:
212,283,115682,6,0,B|230:242|207:196|207:196|251:255|329:243,1,225.000008583069,8|8,0:3|0:3,0:0:0:0:
479,181,116015,2,0,B|489:161|489:161|413:179,1,100,10|2,3:1|0:3,0:0:0:0:
389,338,116182,2,0,B|378:357|378:357|454:339,1,100,2|2,0:1|0:3,0:0:0:0:
340,169,116348,6,0,P|355:135|384:112,1,75.0000028610231,2|0,3:1|2:0,0:0:0:0:
359,41,116515,2,0,P|397:38|432:51,1,75.0000028610231,8|2,0:3|2:3,0:0:0:0:
294,97,116682,6,0,P|269:93|246:83,1,50,10|0,3:3|2:0,0:0:0:0:
214,149,116848,2,0,P|194:133|178:114,1,50,8|0,0:3|2:0,0:0:0:0:
22,96,117015,6,0,B|-7:71|-3:30|31:-3|68:-9|125:22|142:91|82:163,1,300,10|8,3:1|2:3,0:0:0:0:
39,222,117348,2,0,B|45:183|83:166|130:180|153:209|154:274|103:323|10:308,1,300,6|8,3:2|2:3,0:0:0:0:
66,362,117682,6,0,L|139:377,1,75.0000028610231,14|0,3:1|2:0,0:0:0:0:
267,302,117849,6,0,L|250:249,1,50,2|2,0:2|2:3,0:0:0:0:
204,340,118015,2,0,L|187:287,1,50,2|0,3:2|2:0,0:0:0:0:
327,204,118182,6,0,L|400:189,1,75.0000028610231,10|0,3:1|2:0,0:0:0:0:
199,129,118349,6,0,L|216:76,1,50,8|0,0:3|2:0,0:0:0:0:
262,167,118515,2,0,L|279:114,1,50,2|8,0:3|2:3,0:0:0:0:
384,114,118682,6,0,L|369:41,1,75.0000028610231,10|0,3:1|2:0,0:0:0:0:
466,15,118848,6,0,L|456:64,1,50,8|8,0:3|2:3,0:0:0:0:
484,134,119015,2,0,L|473:182,1,50,2|0,3:1|2:0,0:0:0:0:
389,300,119182,5,2,3:2:0:0:
382,287,119349,2,0,L|412:121,1,100,8|0,0:3|2:0,0:0:0:0:
311,357,119515,5,0,3:0:0:0:
298,349,119682,2,0,L|264:254,1,87.500000834465,8|0,3:3|2:0,0:0:0:0:
188,292,119848,5,2,2:3:0:0:
173,296,120015,2,0,L|37:245,1,75.0000028610231,0|0,3:0|2:0,0:0:0:0:
184,196,120182,2,0,L|113:169,1,75.0000028610231,8|8,0:3|2:3,0:0:0:0:
25,211,120349,6,0,P|22:173|5:140,1,75.0000028610231,10|0,3:1|2:0,0:0:0:0:
105,27,120515,2,0,P|86:59|81:95,1,75.0000028610231,10|2,3:1|2:3,0:0:0:0:
178,92,120682,6,0,L|252:84,1,75.0000028610231,2|0,3:2|2:0,0:0:0:0:
325,195,120848,2,0,L|399:187,1,75.0000028610231,10|0,3:1|2:0,0:0:0:0:
413,39,121015,6,0,L|474:47,1,62.5,8|0,3:3|2:0,0:0:0:0:
384,114,121182,2,0,L|321:118,1,62.5,2|8,0:3|2:3,0:0:0:0:
422,27,121348,6,0,B|493:36|493:36|478:138|478:138|484:150|484:150|468:261,1,300,10|8,3:1|2:3,0:0:0:0:
508,337,121682,5,2,3:1:0:0:
389,287,121849,1,2,3:2:0:0:
282,384,122015,5,8,3:3:0:0:
284,360,122098,1,0,3:2:0:0:
286,335,122181,1,0,3:0:0:0:
289,310,122265,1,2,0:3:0:0:
221,269,122348,6,0,B|211:361|211:361|183:332|183:332|102:342|102:342|91:350|91:350|40:357|40:357|19:359|-4:355|-22:324|-8:288|19:281,1,400,8|0,3:1|3:0,0:0:0:0:
296,235,122848,2,0,L|289:310,1,75.0000028610231,8|8,0:1|2:3,0:0:0:0:
285,150,123015,6,0,P|322:154|353:175,1,75.0000028610231,10|0,3:1|2:0,0:0:0:0:
409,261,123182,2,0,P|385:268|366:284,1,50,2|2,0:2|2:3,0:0:0:0:
227,101,123349,6,0,P|258:81|295:78,1,75.0000028610231,2|0,3:2|2:0,0:0:0:0:
452,88,123515,2,0,L|445:176,1,87.500000834465,10|0,3:1|2:0,0:0:0:0:
420,337,123682,5,8,0:3:0:0:
259,310,123849,1,2,0:3:0:0:
285,150,124015,1,10,3:1:0:0:
445,176,124182,1,8,0:3:0:0:
331,293,124348,6,0,L|341:330,1,37.5000014305115,10|0,3:1|2:0,0:0:0:0:
259,310,124515,2,0,L|269:347,1,37.5000014305115,8|2,3:1|2:3,0:0:0:0:
374,160,124682,6,0,L|362:209,1,50,10|0,0:1|2:0,0:0:0:0:
445,176,124848,2,0,L|433:225,1,50,8|2,3:1|0:3,0:0:0:0:
320,33,125015,6,0,L|336:94,1,62.5,10|2,3:1|0:3,0:0:0:0:
250,49,125182,2,0,L|266:110,1,62.5,10|8,2:1|2:3,0:0:0:0:
433,72,125348,6,0,L|452:-1,1,75.0000028610231,10|0,3:3|0:0,0:0:0:0:
136,171,125682,6,0,P|92:195|42:201,1,100,10|2,3:1|0:3,0:0:0:0:
124,74,125848,2,0,P|160:79|192:99,1,75.0000028610231,2|2,0:1|2:3,0:0:0:0:
294,227,126015,6,0,P|317:271|323:321,1,100,2|0,0:1|2:0,0:0:0:0:
197,239,126182,2,0,P|201:203|221:171,1,75.0000028610231,10|2,3:1|0:3,0:0:0:0:
158,305,126348,6,0,P|134:285|123:256,1,62.5,8|0,0:3|0:0,0:0:0:0:
469,366,126682,6,0,L|487:236,1,100,10|2,3:1|0:3,0:0:0:0:
445,176,126848,2,0,L|456:101,1,75.0000028610231,2|2,0:1|0:3,0:0:0:0:
428,16,127015,6,2,B|429:14|426:19|426:19|424:22|420:24|420:24|417:24|414:24|414:24|410:21|410:17|410:17|410:14|413:11|413:11|417:8|420:9|420:9|415:11|410:13|410:13|415:16|413:22|413:22|411:26|408:29|408:29|404:31|401:29|401:29|397:26|396:23|396:23|396:19|398:16|398:16|401:14|406:14|406:14|402:17|398:19|398:19|401:22|399:29|399:29|399:31|396:33|396:33|392:36|388:36|388:36|385:34|384:30|384:30|383:26|384:24|384:24|388:20|392:21|392:21|388:23|384:26|384:26|389:30|387:36|387:36|386:40|382:43|382:43|379:43|375:43|375:43|373:41|371:38|371:38|371:36|372:32|372:32|374:29|379:29|379:29|376:31|372:33|372:33|377:37|376:42|376:42|375:47|372:49|372:49|369:52|364:50|364:50|361:50|360:45|360:45|360:44|360:41|360:41|362:37|367:37|367:37|364:40|360:41|360:41|365:45|364:52|364:52|364:57|360:59|360:59|357:62|353:60|353:60|352:60|349:57|349:57|348:54|348:51|348:51|351:47|356:46|356:46|351:50|349:53|349:53|354:55|354:61|354:61|355:66|352:69|352:69|350:71|345:72|345:72|342:70|339:67|339:67|338:65|339:60|339:60|341:57|345:57|345:57|342:60|338:65|338:65|343:66|345:72|345:72|345:77|343:80|343:80|340:83|336:83|336:83|333:83|331:80|331:80|328:77|330:74|330:74|331:70|335:69|335:69|332:72|328:77|328:77|335:78|335:84|335:84|337:88|335:92|335:92|334:95|330:95|330:95|326:96|323:93|323:93|321:90|321:86|321:86|323:82|326:81|326:81|323:84|322:89|322:89|327:89|329:94|329:94|331:98|330:102|330:102|328:106|324:108|324:108|320:108|316:106|316:106|315:104|315:100|315:100|316:96|319:94|319:94|316:99|314:102|314:102|321:102|323:108|323:108|324:112|323:115|323:115|322:120|318:121|318:121|314:122|311:120|311:120|309:117|309:114|309:114|309:110|312:107|312:107|310:112|309:116|309:116|314:116|318:121|318:121|320:125|320:129|320:129|319:133|315:134|315:134|311:136|308:134|308:134|305:132|304:129|304:129|304:125|307:122|307:122|305:127|304:130|304:130|310:130|314:134|314:134|318:138|316:144|316:144|314:146|313:147|313:147|310:150|306:149|306:149|302:147|302:143|302:143|301:140|304:137|304:137|303:140|302:145|302:145|308:144|311:147|311:147|315:152|314:157|314:157|314:159|311:161|311:161|307:164|304:163|304:163|301:162|299:158|299:158|299:154|302:151|302:151|301:155|301:159|301:159|306:159|311:163|311:163|314:166|314:169|314:169|314:173|311:176|311:176|308:179|304:177|304:177|301:176|299:173|299:173|299:169|300:166|300:166|300:170|301:175|301:175|306:173|310:177|310:177|314:179|314:183|314:183|314:187|313:190|313:190|309:193|306:193|306:193|302:191|300:188|300:188|299:185|300:181|300:181|301:186|302:190|302:190|305:188|310:190|310:190|314:192|316:195|316:195|317:200|314:204|314:204|312:207|307:207|307:207|302:194|302:194|302:196|303:200|303:197|303:197|302:194|302:196|303:200|303:200|297:185|297:185|293:185|290:188|290:188|287:193|289:197|289:197|291:200|294:203|294:203|299:205|303:202|303:202|304:207|304:212|304:212|306:208|304:205|304:205|302:202|299:200|299:200|295:200|292:203|292:203|290:206|290:210|290:210|291:214|294:216|294:216|298:220|304:217|304:217|304:222|304:227|304:227|306:224|305:220|305:220|304:216|300:215|300:215|297:214|294:217|294:217|291:219|290:224|290:224|291:227|294:230|294:230|298:234|304:233|304:233|304:238|302:241|302:241|306:239|304:235|304:235|304:231|300:229|300:229|297:229|293:231|293:231|292:234|290:235|290:235|289:241|293:245|293:245|297:248|302:247|302:247|301:253|300:256|300:256|303:253|304:250|304:250|302:246|298:244|298:244|295:243|292:246|292:246|290:247|288:250|288:250|287:255|290:259|290:259|294:263|299:263|299:263|299:266|297:270|297:270|300:268|299:264|299:264|299:260|297:258|297:258|292:257|290:258|290:258|286:260|285:263|285:263|284:268|286:272|286:272|290:277|295:277|295:277|294:280|292:285|292:285|295:282|294:279|294:279|295:275|293:273|293:273|290:270|286:272|286:272|282:272|281:277|281:277|280:281|281:284|281:284|283:290|290:291|290:291|287:294|286:299|286:299|289:296|290:294|290:294|290:289|287:287|287:287|284:285|280:284|280:284|277:287|275:290|275:290|273:294|275:298|275:298|278:304|282:304|282:304|281:308|278:312|278:312|281:311|283:307|283:307|284:302|282:300|282:300|279:297|275:297|275:297|271:298|269:301|269:301|267:305|268:309|268:309|270:315|275:316|275:316|272:321|269:324|269:324|274:323|275:320|275:320|275:316|275:313|275:313|272:310|268:310|268:310|265:310|261:313|261:313|259:316|259:321|259:321|261:327|266:328|266:328|263:333|259:337|259:337|263:335|265:332|265:332|266:328|265:325|265:325|263:322|259:321|259:321|256:322|253:323|253:323|253:326|250:332|250:332|251:338|256:340|256:340|253:343|249:347|249:347|253:346|256:342|256:342|256:338|255:335|255:335|253:333|251:333|251:333|247:330|244:334|244:334|240:336|240:340|240:340|239:347|245:351|245:351|241:354|238:357|238:357|242:355|245:351|245:351|245:348|244:347|244:347|244:343|240:342|240:342|236:340|233:343|233:343|229:345|229:350|229:350|228:355|232:359|232:359|229:362|225:365|225:365|230:364|233:360|233:360|234:357|233:354|233:354|232:352|229:351|229:351|225:350|222:351|222:351|219:353|217:357|217:357|216:363|221:368|221:368|217:370|212:371|212:371|217:372|220:369|220:369|222:366|220:363|220:363|220:358|217:358|217:358|212:357|209:359|209:359|206:362|205:364|205:364|203:370|208:374|208:374|202:376|198:378|198:378|203:379|206:376|206:376|208:374|208:371|208:371|208:366|204:364|204:364|200:363|197:364|197:364|193:367|192:370|192:370|189:376|193:380|193:380|189:381|184:383|184:383|188:385|191:382|191:382|194:379|194:375|194:375|193:371|190:369|190:369|188:369|186:369|186:369|181:370|179:374|179:374|175:379|178:374,1,1926.50754824808,6|8,3:2|2:3,0:0:0:0:
87,378,128348,5,6,3:1:0:0:
60,330,128431,1,0,2:0:0:0:
65,276,128514,1,2,2:3:0:0:
100,234,128597,1,0,2:0:0:0:
152,219,128682,1,2,3:2:0:0:
184,202,128765,1,0,2:0:0:0:
209,173,128848,1,2,2:3:0:0:
220,138,128931,1,0,2:0:0:0:
217,101,129015,5,2,3:2:0:0:
234,171,129098,1,0,2:0:0:0:
294,213,129181,1,2,2:3:0:0:
367,205,129264,1,0,2:0:0:0:
416,151,129349,2,0,P|435:118|442:82,1,75.0000028610231,2|0,3:2|2:0,0:0:0:0:
339,272,129515,2,0,P|341:307|357:342,1,75.0000028610231,2|0,3:3|2:0,0:0:0:0:
346,134,129681,6,0,P|321:104|288:87,1,75.0000028610231,2|0,3:2|2:0,0:0:0:0:
412,266,129849,2,0,P|447:273|484:269,1,75.0000028610231,2|0,2:3|2:0,0:0:0:0:
278,16,130015,1,2,3:2:0:0:
247,34,130098,1,0,2:0:0:0:
224,66,130181,1,2,2:3:0:0:
217,101,130264,1,0,2:0:0:0:
222,138,130349,5,2,3:2:0:0:
197,68,130432,1,0,2:0:0:0:
133,32,130515,1,2,2:3:0:0:
62,48,130598,1,0,2:0:0:0:
18,107,130682,1,2,3:2:0:0:
25,180,130765,1,0,2:0:0:0:
78,230,130849,1,2,0:3:0:0:
151,233,130932,1,0,2:0:0:0:
219,207,131015,5,2,3:2:0:0:
217,261,131098,1,0,2:0:0:0:
247,306,131181,1,2,2:3:0:0:
299,325,131264,1,0,2:0:0:0:
351,313,131349,1,2,3:2:0:0:
388,312,131432,1,0,2:0:0:0:
424,326,131515,1,2,2:3:0:0:
450,351,131598,1,0,2:0:0:0:
466,384,131682,5,2,3:2:0:0:
395,368,131765,1,0,2:0:0:0:
351,313,131848,1,2,2:3:0:0:
351,239,131932,1,0,2:0:0:0:
396,183,132015,2,0,L|487:169,1,75.0000028610231,2|0,3:2|2:0,0:0:0:0:
290,273,132182,2,0,L|217:261,1,75.0000028610231,2|0,3:3|2:0,0:0:0:0:
17,185,132348,5,2,3:2:0:0:
69,168,132431,1,0,2:0:0:0:
121,187,132514,1,2,2:3:0:0:
151,233,132598,1,0,2:0:0:0:
147,289,132682,1,2,3:2:0:0:
101,264,132765,1,0,2:0:0:0:
73,220,132848,1,2,2:3:0:0:
69,168,132932,1,0,2:0:0:0:
90,121,133015,5,2,3:2:0:0:
153,84,133098,1,0,2:0:0:0:
226,94,133181,1,2,2:3:0:0:
277,148,133265,1,0,2:0:0:0:
283,221,133348,1,2,3:2:0:0:
289,294,133431,1,0,2:0:0:0:
340,347,133515,1,2,0:3:0:0:
413,358,133598,1,0,2:0:0:0:
476,321,133682,5,2,3:2:0:0:
491,269,133765,1,0,2:0:0:0:
474,217,133848,1,2,2:3:0:0:
428,185,133931,1,0,2:0:0:0:
375,184,134016,1,2,3:2:0:0:
339,175,134099,1,0,2:0:0:0:
307,152,134182,1,2,2:3:0:0:
289,121,134265,1,0,2:0:0:0:
282,86,134349,5,2,3:2:0:0:
347,119,134432,1,0,2:0:0:0:
375,184,134515,1,2,2:3:0:0:
356,255,134599,1,0,2:0:0:0:
298,298,134682,2,0,L|206:282,1,75.0000028610231,2|0,3:2|2:0,0:0:0:0:
427,237,134848,2,0,L|519:221,1,75.0000028610231,2|0,3:3|2:0,0:0:0:0:
272,216,135015,5,2,3:2:0:0:
233,180,135098,1,0,2:0:0:0:
210,133,135181,1,2,2:3:0:0:
205,81,135265,1,0,2:0:0:0:
217,31,135348,1,2,3:2:0:0:
205,81,135431,1,0,2:0:0:0:
176,125,135514,1,2,2:3:0:0:
134,155,135598,1,0,2:0:0:0:
83,167,135682,6,0,P|46:177|9:176,1,75.0000028610231,2|0,3:2|2:0,0:0:0:0:
112,78,135848,2,0,P|75:68|44:48,1,75.0000028610231,2|0,2:3|2:0,0:0:0:0:
198,206,136015,2,0,P|235:206|272:216,1,75.0000028610231,2|0,3:2|2:0,0:0:0:0:
232,333,136181,2,0,P|263:313|300:305,1,75.0000028610231,2|0,0:3|2:0,0:0:0:0:
354,381,136348,5,2,3:2:0:0:
386,340,136431,1,0,2:0:0:0:
391,288,136514,1,2,2:3:0:0:
368,242,136598,1,0,2:0:0:0:
323,215,136681,1,2,3:2:0:0:
280,156,136765,1,0,2:0:0:0:
287,83,136848,1,2,2:3:0:0:
342,33,136932,1,0,2:0:0:0:
415,38,137015,5,2,3:2:0:0:
468,87,137098,1,0,2:0:0:0:
478,159,137182,1,2,2:3:0:0:
438,222,137265,1,0,2:0:0:0:
368,242,137348,2,0,L|293:251,1,75.0000028610231,2|0,3:2|2:0,0:0:0:0:
240,106,137515,2,0,L|165:115,1,75.0000028610231,2|0,3:3|2:0,0:0:0:0:
119,305,137682,6,0,P|107:340|114:378,1,75.0000028610231,2|0,3:2|2:0,0:0:0:0:
265,179,137848,2,0,P|295:156|311:121,1,75.0000028610231,2|0,2:3|2:0,0:0:0:0:
73,189,138015,2,0,P|35:189|2:207,1,75.0000028610231,2|0,3:2|2:0,0:0:0:0:
237,296,138182,2,0,P|267:317|305:322,1,75.0000028610231,2|0,2:3|2:0,0:0:0:0:
165,114,138348,6,0,B|162:88|147:66|126:53|126:53|150:41|166:20|173:-3|173:-3|191:16|216:25|240:23|240:23|226:46|226:73|235:96|235:96|216:93|190:96|170:110,1,342.50000966835,2|0,3:2|2:0,0:0:0:0:
91,116,138848,2,0,P|53:116|20:98,1,75.0000028610231,2|0,3:3|2:0,0:0:0:0:
161,195,139015,5,6,3:2:0:0:
211,171,139098,1,0,2:0:0:0:
265,179,139181,1,2,2:3:0:0:
305,216,139264,1,2,2:3:0:0:
317,268,139349,1,10,3:2:0:0:
332,301,139432,1,0,2:0:0:0:
360,328,139515,1,2,2:3:0:0:
394,341,139598,1,0,2:0:0:0:
431,339,139682,5,2,3:2:0:0:
468,275,139765,1,0,2:0:0:0:
458,202,139848,1,10,2:3:0:0:
404,152,139932,1,8,2:3:0:0:
331,146,140015,2,0,P|295:157|265:179,1,75.0000028610231,10|0,3:2|2:0,0:0:0:0:
467,114,140182,2,0,P|489:84|501:48,1,75.0000028610231,10|8,3:3|2:3,0:0:0:0:
375,219,140349,6,0,P|374:256|385:291,1,75.0000028610231,2|0,3:2|2:0,0:0:0:0:
387,82,140515,2,0,P|365:51|335:29,1,75.0000028610231,2|0,2:3|2:0,0:0:0:0:
234,91,140682,1,10,3:2:0:0:
203,109,140765,1,0,2:0:0:0:
180,141,140848,1,2,2:3:0:0:
173,176,140931,1,0,2:0:0:0:
176,217,141015,5,2,3:2:0:0:
227,164,141098,1,0,2:0:0:0:
234,91,141181,1,10,2:3:0:0:
194,29,141265,1,8,2:3:0:0:
124,7,141348,1,10,3:2:0:0:
55,32,141431,1,0,2:0:0:0:
17,95,141515,1,10,0:3:0:0:
27,168,141598,1,8,2:3:0:0:
81,218,141682,5,2,3:2:0:0:
109,263,141765,1,0,2:0:0:0:
106,317,141848,1,2,2:3:0:0:
70,360,141931,1,0,2:0:0:0:
16,375,142015,1,10,3:2:0:0:
24,337,142098,1,0,2:0:0:0:
44,303,142181,1,2,2:3:0:0:
73,278,142265,1,0,2:0:0:0:
109,263,142348,5,2,3:2:0:0:
183,272,142431,1,0,2:0:0:0:
257,282,142514,1,10,2:3:0:0:
331,292,142598,1,8,2:3:0:0:
406,302,142682,2,0,L|480:311,1,75.0000028610231,10|0,3:2|2:0,0:0:0:0:
285,359,142848,2,0,L|210:368,1,75.0000028610231,10|8,3:3|2:3,0:0:0:0:
28,333,143015,5,2,3:2:0:0:
39,279,143098,1,0,2:0:0:0:
81,243,143181,1,2,2:3:0:0:
136,240,143265,1,0,2:0:0:0:
183,272,143349,1,10,0:2:0:0:
138,299,143432,1,0,2:0:0:0:
86,302,143515,1,2,2:3:0:0:
39,279,143599,1,0,2:0:0:0:
9,237,143682,5,2,0:2:0:0:
8,164,143765,1,0,2:0:0:0:
53,106,143848,1,10,2:3:0:0:
125,89,143932,1,8,2:3:0:0:
192,120,144015,1,10,0:2:0:0:
258,151,144098,1,0,2:0:0:0:
329,134,144182,1,10,3:3:0:0:
375,76,144265,1,8,2:3:0:0:
375,3,144348,6,0,L|300:-3,1,75.0000028610231,2|0,3:2|2:0,0:0:0:0:
401,146,144515,2,0,L|475:152,1,75.0000028610231,2|0,3:3|2:0,0:0:0:0:
304,66,144682,6,0,L|229:59,1,75.0000028610231,10|0,3:2|2:0,0:0:0:0:
330,209,144849,2,0,L|404:215,1,75.0000028610231,2|0,3:3|2:0,0:0:0:0:
184,152,145015,6,0,L|258:145,1,75.0000028610231,2|0,3:2|2:0,0:0:0:0:
158,295,145182,2,0,L|83:301,1,75.0000028610231,10|8,3:3|2:3,0:0:0:0:
255,215,145349,6,0,L|329:208,1,75.0000028610231,10|0,3:2|2:0,0:0:0:0:
229,358,145516,2,0,L|154:364,1,75.0000028610231,10|8,3:3|2:3,0:0:0:0:
113,214,145682,6,0,P|80:194|44:186,1,75.0000028610231,2|0,3:2|2:0,0:0:0:0:
73,101,145848,2,0,P|35:100|0:111,1,75.0000028610231,2|0,3:3|2:0,0:0:0:0:
297,31,146015,6,0,P|264:50|228:58,1,75.0000028610231,10|0,3:2|2:0,0:0:0:0:
257,144,146182,2,0,P|219:144|183:133,1,75.0000028610231,2|0,3:3|2:0,0:0:0:0:
481,214,146349,6,0,P|448:194|412:186,1,75.0000028610231,2|0,3:2|2:0,0:0:0:0:
441,101,146516,2,0,P|403:100|367:111,1,75.0000028610231,10|8,3:3|2:3,0:0:0:0:
330,209,146682,2,0,L|309:307,1,75.0000028610231,10|0,3:2|2:0,0:0:0:0:
229,358,146848,1,10,3:3:0:0:
237,321,146931,1,8,2:3:0:0:
245,285,147015,5,2,3:2:0:0:
253,234,147098,1,0,3:0:0:0:
240,182,147181,1,2,3:3:0:0:
210,140,147265,1,0,3:0:0:0:
166,112,147348,1,10,3:2:0:0:
115,102,147431,1,0,3:0:0:0:
63,113,147515,1,2,3:3:0:0:
20,141,147598,1,0,3:0:0:0:
7,191,147682,5,2,3:2:0:0:
56,205,147765,1,0,3:0:0:0:
107,194,147848,1,10,3:3:0:0:
147,160,147932,1,8,3:3:0:0:
166,112,148015,1,10,3:2:0:0:
185,64,148098,1,0,3:0:0:0:
225,30,148182,1,10,3:3:0:0:
276,19,148265,1,8,3:3:0:0:
325,33,148348,5,2,3:2:0:0:
375,46,148432,1,0,3:0:0:0:
331,77,148515,5,2,3:3:0:0:
380,63,148598,1,0,3:0:0:0:
357,111,148681,5,10,3:2:0:0:
393,74,148766,1,0,3:0:0:0:
398,127,148849,5,2,3:3:0:0:
410,78,148932,1,0,3:0:0:0:
428,108,149015,6,0,L|467:98,6,37.5000014305115,2|0|2|0|10|0|10,3:2|0:0|3:3|0:0|3:3|0:0|3:3,0:0:0:0:
432,189,149348,6,0,L|506:171,1,75.0000028610231,10|2,3:2|3:3,0:0:0:0:
460,17,149515,2,0,L|386:35,1,75.0000028610231,10|10,3:3|3:3,0:0:0:0:
276,150,149682,6,0,B|191:128|191:128|171:82|171:82|75:51,1,225.000008583069,6|2,2:1|2:3,0:0:0:0:
115,148,150015,6,0,L|-1:165,1,100,10|2,2:2|2:3,0:0:0:0:
49,230,150265,2,0,L|-49:244,1,50,0|2,2:0|2:2,0:0:0:0:
85,322,150432,1,0,2:0:0:0:
93,346,150515,2,0,L|191:360,1,50,10|8,2:3|2:3,0:0:0:0:
174,284,150682,2,0,L|273:299,1,100,10|10,2:2|2:3,0:0:0:0:
351,361,151015,5,2,2:2:0:0:
366,262,151181,1,2,2:3:0:0:
458,296,151348,6,0,P|461:247|442:201,1,100,10|2,2:2|2:3,0:0:0:0:
506,159,151598,2,0,P|488:141|466:128,1,50,0|2,2:0|2:2,0:0:0:0:
372,90,151765,1,0,2:0:0:0:
364,114,151848,2,0,P|342:126|318:133,1,50,10|8,2:3|2:3,0:0:0:0:
315,205,152015,2,0,P|265:208|219:189,1,100,10|10,2:2|2:3,0:0:0:0:
115,148,152348,6,0,P|139:183|149:225,1,87.0000007301331,2|2,2:2|2:3,0:0:0:0:
34,181,152598,1,0,2:0:0:0:
28,155,152682,6,0,P|38:113|63:78,1,87.0000007301331,10|2,2:2|2:3,0:0:0:0:
52,4,152932,2,0,L|101:11,1,43.5000003650665,0|2,2:0|2:2,0:0:0:0:
158,82,153098,1,0,2:0:0:0:
176,101,153182,2,0,L|225:93,1,43.5000003650665,10|8,2:3|2:3,0:0:0:0:
204,25,153348,2,0,L|309:11,1,87.0000007301331,10|10,2:2|2:3,0:0:0:0:
343,85,153682,5,2,2:2:0:0:
430,73,153848,1,2,2:3:0:0:
478,2,154015,6,0,P|502:37|512:79,1,87.0000007301331,10|2,2:2|2:3,0:0:0:0:
467,144,154265,2,0,P|461:166|459:187,1,43.5000003650665,0|2,2:0|2:2,0:0:0:0:
413,262,154432,1,0,2:0:0:0:
392,276,154515,2,0,P|390:254|384:233,1,43.5000003650665,10|8,2:3|2:3,0:0:0:0:
324,176,154682,2,0,L|237:164,1,87.0000007301331,10|10,2:2|2:3,0:0:0:0:
191,247,155015,6,0,L|104:258,1,75.0000028610231,2|2,2:2|2:3,0:0:0:0:
240,330,155348,6,0,L|314:339,1,75.0000028610231,10|2,2:2|2:3,0:0:0:0:
354,271,155598,2,0,L|425:280,2,37.5000014305115,0|2|0,2:0|2:2|2:0,0:0:0:0:
388,348,155848,2,0,L|459:357,1,37.5000014305115,10|8,2:3|2:3,0:0:0:0:
476,282,156015,2,0,P|500:246|510:208,1,75.0000028610231,10|10,2:2|2:3,0:0:0:0:
473,144,156348,5,2,2:2:0:0:
393,155,156514,1,2,2:3:0:0:
324,197,156682,6,0,L|249:206,1,75.0000028610231,10|2,2:2|2:3,0:0:0:0:
210,138,156932,2,0,L|139:147,2,37.5000014305115,0|2|0,2:0|2:2|2:0,0:0:0:0:
176,215,157182,2,0,L|105:224,1,37.5000014305115,10|8,2:3|2:3,0:0:0:0:
88,149,157349,2,0,P|63:113|53:75,1,75.0000028610231,10|10,2:2|2:3,0:0:0:0:
55,227,157682,6,0,P|44:262|23:290,1,61.9999975402833,2|2,2:2|2:3,0:0:0:0:
104,315,158015,6,0,P|114:350|135:378,1,61.9999975402833,10|2,2:2|2:3,0:0:0:0:
202,360,158265,2,0,L|234:371,2,30.9999987701417,0|2|0,2:0|2:2|2:0,0:0:0:0:
289,325,158515,2,0,L|349:311,1,61.9999975402833,10|10,2:3|2:2,0:0:0:0:
417,333,158848,1,10,2:3:0:0:
401,264,159015,1,2,2:2:0:0:
473,151,159348,6,0,P|462:186|441:214,1,61.9999975402833,10|2,2:2|2:3,0:0:0:0:
375,196,159598,2,0,L|343:207,2,30.9999987701417,0|2|2,2:0|2:2|2:3,0:0:0:0:
288,161,159848,2,0,L|227:147,1,61.9999975402833,10|10,2:3|2:2,0:0:0:0:
160,169,160181,1,10,2:3:0:0:
176,100,160348,1,6,2:2:0:0:
